osu file format v14

[General]
AudioFilename: audio.mp3
AudioLeadIn: 0
PreviewTime: 88261
Countdown: 0
SampleSet: Normal
StackLeniency: 1
Mode: 1
LetterboxInBreaks: 0
WidescreenStoryboard: 1

[Editor]
DistanceSpacing: 0.8
BeatDivisor: 4
GridSize: 8
TimelineZoom: 2.4

[Metadata]
Title:Good Morning Tokyo
TitleUnicode:グッドモーニングトーキョー
Artist:Happy Kuru Kuru
ArtistUnicode:ハッピーくるくる
Creator:kamaboko117
Version:Muzukashii
Source:
Tags:
BeatmapID:1858891
BeatmapSetID:889374

[Difficulty]
HPDrainRate:7
CircleSize:5
OverallDifficulty:4.5
ApproachRate:10
SliderMultiplier:1.4
SliderTickRate:3

[Events]
//Background and Video events
0,0,"19d3e89a86eef8c1107173f0d4a9a694b1dfab31.jpg",0,0
//Break Periods
2,143694,147165
//Storyboard Layer 0 (Background)
//Storyboard Layer 1 (Fail)
//Storyboard Layer 2 (Pass)
//Storyboard Layer 3 (Foreground)
//Storyboard Sound Samples

[TimingPoints]
5563,344.827586206897,4,1,0,100,1,0
22114,-133.333333333333,4,1,0,100,0,0
24873,-100,4,1,0,100,0,0
44183,-133.333333333333,4,1,0,100,0,0
49700,-100,4,1,0,100,0,0
66252,-133.333333333333,4,1,0,100,0,0
77287,-100,4,1,0,100,0,0
88321,-100,4,1,0,100,0,1
110390,-100,4,1,0,100,0,0
121425,-133.333333333333,4,1,0,100,0,0
126942,-100,4,1,0,100,0,0
175218,-133.333333333333,4,1,0,100,0,0
187631,-100,4,1,0,100,0,0
198666,-100,4,1,0,100,0,1
220735,-100,4,1,0,100,0,0

[HitObjects]
255,191,5563,5,0,0:0:0:0:
255,191,5735,1,0,0:0:0:0:
255,191,6080,1,0,0:0:0:0:
255,191,6252,1,2,0:0:0:0:
255,191,6425,1,2,0:0:0:0:
255,191,6769,1,2,0:0:0:0:
255,191,6942,1,0,0:0:0:0:
255,191,7114,1,0,0:0:0:0:
255,191,7459,1,0,0:0:0:0:
255,191,7631,1,2,0:0:0:0:
255,191,7804,1,2,0:0:0:0:
255,191,8149,1,2,0:0:0:0:
255,191,8321,1,0,0:0:0:0:
255,191,8494,1,0,0:0:0:0:
255,191,8838,1,0,0:0:0:0:
255,191,9011,1,2,0:0:0:0:
255,191,9183,1,2,0:0:0:0:
255,191,9528,1,0,0:0:0:0:
255,191,9700,1,4,0:0:0:0:
256,192,11080,1,6,0:0:0:0:
256,192,11425,1,0,0:0:0:0:
256,192,11597,1,2,0:0:0:0:
256,192,11769,1,2,0:0:0:0:
256,192,12114,1,0,0:0:0:0:
256,192,12631,1,2,0:0:0:0:
256,192,12804,1,2,0:0:0:0:
256,192,12976,1,2,0:0:0:0:
256,192,13149,1,2,0:0:0:0:
256,192,13321,1,0,0:0:0:0:
256,192,13407,1,0,0:0:0:0:
256,192,13494,1,0,0:0:0:0:
256,192,13666,1,0,0:0:0:0:
256,192,13838,1,6,0:0:0:0:
256,192,14183,1,2,0:0:0:0:
256,192,14356,1,0,0:0:0:0:
256,192,14528,1,2,0:0:0:0:
256,192,14873,1,2,0:0:0:0:
256,192,15045,1,0,0:0:0:0:
256,192,15218,1,2,0:0:0:0:
256,192,15735,1,2,0:0:0:0:
256,192,15907,1,0,0:0:0:0:
256,192,16597,1,6,0:0:0:0:
256,192,16942,1,0,0:0:0:0:
256,192,17287,1,0,0:0:0:0:
256,192,17631,1,0,0:0:0:0:
256,192,17976,1,6,0:0:0:0:
256,192,18321,1,0,0:0:0:0:
256,192,18666,1,0,0:0:0:0:
256,192,19011,1,0,0:0:0:0:
256,192,19356,1,2,0:0:0:0:
256,192,19528,1,2,0:0:0:0:
255,186,19700,1,2,0:0:0:0:
256,192,20045,1,0,0:0:0:0:
256,192,20390,1,0,0:0:0:0:
256,192,20563,1,0,0:0:0:0:
256,192,21080,1,2,0:0:0:0:
256,192,21425,1,2,0:0:0:0:
256,192,21597,1,0,0:0:0:0:
256,192,21683,1,0,0:0:0:0:
256,192,21769,1,0,0:0:0:0:
256,192,22114,1,2,0:0:0:0:
256,192,22287,1,2,0:0:0:0:
256,192,22631,1,0,0:0:0:0:
256,192,22804,1,2,0:0:0:0:
256,192,22976,1,2,0:0:0:0:
256,192,23321,1,2,0:0:0:0:
256,192,23494,1,0,0:0:0:0:
256,192,23666,1,0,0:0:0:0:
256,192,24011,1,0,0:0:0:0:
256,192,24183,1,2,0:0:0:0:
255,190,24356,1,0,0:0:0:0:
255,190,24528,1,8,0:0:0:0:
255,190,24873,1,4,0:0:0:0:
255,190,25218,1,2,0:0:0:0:
255,190,25735,1,0,0:0:0:0:
255,190,25907,1,2,0:0:0:0:
255,190,26252,1,0,0:2:0:0:
255,190,26597,1,2,0:0:0:0:
255,190,26769,1,0,0:0:0:0:
255,190,26942,1,0,0:0:0:0:
255,190,27287,1,6,0:0:0:0:
255,190,27631,1,4,0:0:0:0:
255,190,27976,1,2,0:0:0:0:
255,190,28494,1,0,0:0:0:0:
255,190,28666,1,2,0:0:0:0:
255,190,29011,1,0,0:0:0:0:
255,190,29356,1,2,0:0:0:0:
255,190,29873,1,0,0:0:0:0:
255,190,30045,1,2,0:0:0:0:
255,190,30218,1,2,0:0:0:0:
255,190,30390,1,4,0:0:0:0:
255,190,30735,1,2,0:0:0:0:
255,190,31252,1,0,0:0:0:0:
255,190,31425,1,2,0:0:0:0:
255,190,31597,1,0,0:0:0:0:
255,190,31769,1,4,0:0:0:0:
256,192,32287,12,0,32976,0:0:0:0:
255,191,33149,5,4,0:0:0:0:
255,191,33494,1,2,0:0:0:0:
255,191,34011,1,0,0:0:0:0:
255,191,34183,1,2,0:0:0:0:
255,191,34528,1,0,0:0:0:0:
255,191,34873,1,2,0:0:0:0:
255,191,35390,1,0,0:0:0:0:
255,191,35563,1,2,0:0:0:0:
255,191,35735,1,0,0:0:0:0:
255,191,35821,1,0,0:0:0:0:
255,191,35907,1,0,0:0:0:0:
255,191,36252,1,2,0:0:0:0:
255,191,36769,1,0,0:0:0:0:
255,191,36942,1,2,0:0:0:0:
255,191,37287,1,0,0:0:0:0:
255,191,37631,1,2,0:0:0:0:
255,191,37804,1,4,0:0:0:0:
255,191,37976,1,4,0:0:0:0:
255,191,38321,1,2,0:0:0:0:
255,191,38666,1,4,0:0:0:0:
255,191,39011,1,2,0:0:0:0:
255,191,39528,1,0,0:0:0:0:
255,191,39700,1,2,0:0:0:0:
255,191,40045,1,0,0:0:0:0:
255,191,40390,1,2,0:0:0:0:
255,191,40907,1,0,0:0:0:0:
255,191,41080,1,2,0:0:0:0:
255,191,41252,1,2,0:0:0:0:
255,191,41425,1,0,0:0:0:0:
255,191,41769,1,2,0:0:0:0:
255,191,42287,1,0,0:0:0:0:
255,191,42459,1,2,0:0:0:0:
255,191,42631,1,0,0:0:0:0:
255,191,42804,1,4,0:0:0:0:
256,192,42976,12,0,44183,0:0:0:0:
254,192,44873,5,0,0:0:0:0:
254,192,45563,1,0,0:0:0:0:
254,192,46252,1,0,0:0:0:0:
254,192,46942,1,4,0:0:0:0:
254,192,47631,1,0,0:0:0:0:
254,192,48321,1,0,0:0:0:0:
254,192,49011,1,0,0:0:0:0:
254,192,49700,1,4,0:0:0:0:
254,192,50045,1,0,0:0:0:0:
254,192,50390,1,0,0:0:0:0:
254,192,50735,1,0,0:0:0:0:
254,192,51080,1,2,0:0:0:0:
254,192,51425,1,2,0:0:0:0:
254,192,51769,1,2,0:0:0:0:
254,192,52114,1,2,0:0:0:0:
254,192,52459,1,0,0:0:0:0:
254,192,52631,1,0,0:0:0:0:
254,192,52804,1,0,0:0:0:0:
254,192,52976,1,0,0:0:0:0:
254,192,53149,1,2,0:0:0:0:
254,192,53321,1,2,0:0:0:0:
254,192,53494,1,2,0:0:0:0:
254,192,53666,1,2,0:0:0:0:
254,192,53838,1,0,0:0:0:0:
254,192,54183,1,0,0:0:0:0:
254,192,54528,1,0,0:0:0:0:
254,192,54873,1,6,0:0:0:0:
254,192,55218,1,4,0:0:0:0:
254,192,55735,1,2,0:0:0:0:
254,192,55907,1,0,0:0:0:0:
254,192,56166,1,0,0:0:0:0:
254,192,56425,1,2,0:0:0:0:
254,192,56597,1,0,0:0:0:0:
254,192,56856,1,0,0:0:0:0:
254,192,57114,1,0,0:0:0:0:
254,192,57287,1,2,0:0:0:0:
254,192,57631,1,0,0:0:0:0:
254,192,57804,1,2,0:0:0:0:
254,192,57976,1,0,0:0:0:0:
254,192,58321,1,0,0:0:0:0:
254,192,58494,1,2,0:0:0:0:
254,192,58666,1,2,0:0:0:0:
254,192,59011,1,0,0:0:0:0:
254,192,59183,1,2,0:0:0:0:
254,192,59356,1,2,0:0:0:0:
254,192,59700,1,0,0:0:0:0:
254,192,59873,1,2,0:0:0:0:
254,192,60045,1,0,0:0:0:0:
254,192,60390,1,0,0:0:0:0:
254,192,60563,1,2,0:0:0:0:
254,192,60649,1,2,0:0:0:0:
254,192,60735,1,2,0:0:0:0:
254,192,61080,1,0,0:0:0:0:
254,192,61252,1,2,0:0:0:0:
254,192,61425,1,0,0:0:0:0:
254,192,61769,1,0,0:0:0:0:
254,192,61942,1,2,0:0:0:0:
254,192,62114,1,2,0:0:0:0:
254,192,62459,1,2,0:0:0:0:
254,192,62976,1,0,0:0:0:0:
254,192,63149,1,2,0:0:0:0:
254,192,63321,1,2,0:0:0:0:
254,192,63494,1,0,0:0:0:0:
254,192,63838,1,2,0:0:0:0:
254,192,64183,1,0,0:0:0:0:
254,192,64528,1,2,0:0:0:0:
254,192,64873,1,0,0:0:0:0:
256,192,65218,12,2,65907,0:0:0:0:
256,192,66252,5,2,0:0:0:0:
256,192,67287,1,2,0:0:0:0:
256,192,67631,1,0,0:0:0:0:
256,192,67976,1,0,0:0:0:0:
256,192,68321,1,2,0:0:0:0:
256,192,69011,1,0,0:0:0:0:
256,192,69356,1,2,0:0:0:0:
256,192,69700,1,0,0:0:0:0:
256,192,70045,1,2,0:0:0:0:
256,192,70390,1,0,0:0:0:0:
256,192,71080,1,2,0:0:0:0:
256,192,71425,1,2,0:0:0:0:
256,192,71769,1,0,0:0:0:0:
256,192,72114,1,2,0:0:0:0:
256,192,72804,1,2,0:0:0:0:
256,192,73149,1,0,0:0:0:0:
256,192,73494,1,0,0:0:0:0:
256,192,73838,1,2,0:0:0:0:
256,192,74528,1,2,0:0:0:0:
256,192,74873,1,2,0:0:0:0:
256,192,75218,1,0,0:0:0:0:
256,192,75563,5,2,0:0:0:0:
256,192,75907,1,0,0:0:0:0:
256,192,76252,1,2,0:0:0:0:
256,192,76597,1,0,0:0:0:0:
254,190,77287,5,4,0:0:0:0:
254,190,77631,1,2,0:0:0:0:
254,190,77804,1,0,0:0:0:0:
254,190,77976,1,2,0:0:0:0:
254,190,78321,1,2,0:0:0:0:
254,190,78666,1,0,0:0:0:0:
254,190,79011,1,2,0:0:0:0:
254,190,79183,1,0,0:0:0:0:
254,190,79356,1,2,0:0:0:0:
254,190,79700,1,2,0:0:0:0:
254,190,80045,1,0,0:0:0:0:
254,190,80390,1,2,0:0:0:0:
254,190,80563,1,0,0:0:0:0:
254,190,80735,1,2,0:0:0:0:
254,190,81080,1,2,0:0:0:0:
254,190,81425,1,0,0:0:0:0:
254,190,81769,1,2,0:0:0:0:
254,190,81942,1,2,0:0:0:0:
254,190,82114,1,2,0:0:0:0:
254,190,82459,1,0,0:0:0:0:
254,190,82804,1,2,0:0:0:0:
254,190,82976,1,0,0:0:0:0:
254,190,83149,1,2,0:0:0:0:
254,190,83321,1,0,0:0:0:0:
254,190,83494,1,2,0:0:0:0:
254,190,83666,1,0,0:0:0:0:
254,190,83838,1,2,0:0:0:0:
254,190,84011,1,0,0:0:0:0:
256,192,84183,12,0,86942,0:0:0:0:
255,192,87631,5,0,0:0:0:0:
255,192,87804,1,0,0:0:0:0:
255,192,87976,1,0,0:0:0:0:
255,192,88321,1,6,0:0:0:0:
255,192,88666,1,2,0:0:0:0:
255,192,89011,1,2,0:0:0:0:
255,192,89356,1,2,0:0:0:0:
255,192,89528,1,0,0:0:0:0:
255,192,89873,1,0,0:0:0:0:
255,192,90045,1,2,0:0:0:0:
255,192,90390,1,2,0:0:0:0:
255,192,90563,1,2,0:0:0:0:
255,192,90649,1,2,0:0:0:0:
255,192,90735,1,2,0:0:0:0:
255,192,90907,1,2,0:0:0:0:
255,192,91080,1,0,0:0:0:0:
255,192,91425,1,2,0:0:0:0:
255,192,91769,1,4,0:0:0:0:
255,192,92114,1,0,0:0:0:0:
255,192,92287,1,2,0:0:0:0:
255,192,92804,1,0,0:0:0:0:
255,192,92976,1,0,0:0:0:0:
255,192,93149,1,2,0:0:0:0:
255,192,93321,1,2,0:0:0:0:
255,192,93494,1,4,0:0:0:0:
255,192,93838,1,2,0:0:0:0:
255,192,94183,1,2,0:0:0:0:
255,192,94528,1,2,0:0:0:0:
255,192,94873,1,2,0:0:0:0:
255,192,95045,1,0,0:0:0:0:
255,192,95390,1,0,0:0:0:0:
255,192,95563,1,2,0:0:0:0:
255,192,95907,1,2,0:0:0:0:
255,192,96080,1,0,0:0:0:0:
255,192,96252,1,2,0:0:0:0:
255,192,96597,1,0,0:0:0:0:
255,192,96942,1,2,0:0:0:0:
255,192,97287,1,2,0:0:0:0:
255,192,97631,1,0,0:0:0:0:
255,192,97804,1,0,0:0:0:0:
255,192,98321,1,0,0:0:0:0:
255,192,98666,1,2,0:0:0:0:
255,192,98838,1,0,0:0:0:0:
255,192,98925,1,0,0:0:0:0:
255,192,99011,1,0,0:0:0:0:
255,192,99183,1,0,0:0:0:0:
255,192,99356,1,4,0:0:0:0:
255,192,99873,1,4,0:0:0:0:
255,192,100390,1,4,0:0:0:0:
255,192,100735,1,6,0:0:0:0:
255,192,101252,1,6,0:0:0:0:
255,192,102114,1,4,0:0:0:0:
255,192,102631,1,4,0:0:0:0:
255,192,103149,1,0,0:0:0:0:
255,192,103321,1,2,0:0:0:0:
255,192,103494,1,2,0:0:0:0:
255,192,104011,1,2,0:0:0:0:
255,192,104528,1,0,0:0:0:0:
255,192,104873,1,4,0:0:0:0:
255,192,105045,1,2,0:0:0:0:
255,192,105218,1,2,0:0:0:0:
255,192,105390,1,0,0:0:0:0:
255,192,105735,1,2,0:0:0:0:
255,192,106080,1,2,0:0:0:0:
255,192,106425,1,2,0:0:0:0:
255,192,106769,1,2,0:0:0:0:
255,192,107287,1,6,0:0:0:0:
255,192,107631,1,0,0:0:0:0:
255,192,108149,1,0,0:0:0:0:
255,192,108494,1,2,0:0:0:0:
255,192,108838,1,0,0:0:0:0:
250,193,109011,1,2,0:0:0:0:
255,192,109356,1,2,0:0:0:0:
255,192,109700,1,2,0:0:0:0:
255,192,109873,1,0,0:0:0:0:
255,192,110045,1,2,0:0:0:0:
255,192,110390,1,6,0:0:0:0:
255,192,110735,1,0,0:0:0:0:
255,192,110907,1,2,0:0:0:0:
255,192,110994,1,2,0:0:0:0:
255,192,111080,1,2,0:0:0:0:
255,192,111425,1,2,0:0:0:0:
255,192,111942,1,0,0:0:0:0:
255,192,112114,1,0,0:0:0:0:
255,192,112459,1,2,0:0:0:0:
255,192,112804,5,0,0:0:0:0:
255,192,113149,1,4,0:0:0:0:
255,192,113494,1,0,0:0:0:0:
255,192,113666,1,2,0:0:0:0:
255,192,113752,1,2,0:0:0:0:
255,192,113838,1,2,0:0:0:0:
255,192,114183,1,0,0:0:0:0:
255,192,114356,1,2,0:0:0:0:
255,192,114528,1,2,0:0:0:0:
255,192,114873,1,2,0:0:0:0:
255,192,115045,1,0,0:0:0:0:
255,192,115218,1,2,0:0:0:0:
255,192,115907,1,6,0:0:0:0:
255,192,116425,1,0,0:0:0:0:
255,192,116597,1,2,0:0:0:0:
255,192,116942,1,2,0:0:0:0:
255,192,117459,1,0,0:0:0:0:
255,192,117631,1,0,0:0:0:0:
255,192,117976,1,2,0:0:0:0:
255,192,118321,5,0,0:0:0:0:
255,192,118666,1,4,0:0:0:0:
255,192,119011,1,0,0:0:0:0:
255,192,119183,1,2,0:0:0:0:
255,192,119356,1,2,0:0:0:0:
255,192,119700,1,0,0:0:0:0:
255,192,119873,1,2,0:0:0:0:
255,192,121425,5,0,0:0:0:0:
255,192,121597,1,0,0:0:0:0:
255,192,121942,1,2,0:0:0:0:
255,192,122114,1,2,0:0:0:0:
255,192,122287,1,2,0:0:0:0:
255,192,122631,1,0,0:0:0:0:
255,192,122804,1,0,0:0:0:0:
255,192,122976,1,0,0:0:0:0:
255,192,123321,1,2,0:0:0:0:
255,192,123494,1,2,0:0:0:0:
255,192,123666,1,2,0:0:0:0:
255,192,124011,1,2,0:0:0:0:
255,192,124183,1,0,0:0:0:0:
255,192,124356,1,0,0:0:0:0:
255,192,124700,1,0,0:0:0:0:
255,192,124873,1,2,0:0:0:0:
255,192,125045,1,2,0:0:0:0:
255,192,125390,1,0,0:0:0:0:
255,192,125563,1,0,0:0:0:0:
255,192,125907,1,2,0:0:0:0:
255,192,126252,1,0,0:0:0:0:
255,192,126597,1,4,0:0:0:0:
255,192,126942,1,4,0:0:0:0:
255,192,127114,1,0,0:0:0:0:
255,192,127287,1,2,0:0:0:0:
255,192,127804,1,0,0:0:0:0:
255,192,127976,1,2,0:0:0:0:
255,192,128321,1,0,0:0:0:0:
255,192,128666,1,2,0:0:0:0:
255,192,129183,1,0,0:0:0:0:
255,192,129356,1,2,0:0:0:0:
255,192,129528,1,0,0:0:0:0:
255,192,129614,1,0,0:0:0:0:
255,192,129700,1,0,0:0:0:0:
255,192,130045,1,2,0:0:0:0:
255,192,130563,1,0,0:0:0:0:
255,192,130735,1,2,0:0:0:0:
255,192,130907,1,0,0:0:0:0:
255,192,131080,1,0,0:0:0:0:
255,192,131252,1,2,0:0:0:0:
255,192,131338,1,2,0:0:0:0:
255,192,131425,1,2,0:0:0:0:
255,192,131769,1,2,0:0:0:0:
255,192,131942,1,2,0:0:0:0:
255,192,132114,1,0,0:0:0:0:
255,192,132459,1,4,0:0:0:0:
255,192,132804,1,2,0:0:0:0:
255,192,133494,1,2,0:0:0:0:
255,192,133838,1,0,0:0:0:0:
255,192,134183,1,2,0:0:0:0:
255,192,134873,1,2,0:0:0:0:
255,192,135563,1,2,0:0:0:0:
255,192,136252,1,2,0:0:0:0:
255,192,136597,1,0,0:0:0:0:
255,192,136942,1,2,0:0:0:0:
255,192,137631,1,2,0:0:0:0:
255,192,137976,1,4,0:0:0:0:
255,192,138321,1,2,0:0:0:0:
255,192,139011,1,2,0:0:0:0:
255,192,139700,5,2,0:0:0:0:
255,192,140390,1,2,0:0:0:0:
255,192,140735,1,0,0:0:0:0:
255,192,141080,1,2,0:0:0:0:
255,192,141425,1,0,0:0:0:0:
255,192,141769,1,2,0:0:0:0:
255,192,142114,1,0,0:0:0:0:
255,192,142459,1,2,0:0:0:0:
255,192,142804,1,2,0:0:0:0:
255,192,143494,1,4,0:0:0:0:
255,192,149011,5,4,0:0:0:0:
255,192,149356,1,0,0:0:0:0:
255,192,149700,1,2,0:0:0:0:
255,192,150045,1,0,0:0:0:0:
255,192,150390,1,0,0:0:0:0:
255,192,150735,1,0,0:0:0:0:
255,192,151080,1,2,0:0:0:0:
255,192,151425,1,0,0:0:0:0:
255,192,151769,1,0,0:0:0:0:
255,192,151942,1,0,0:0:0:0:
255,192,152114,1,2,0:0:0:0:
255,192,152287,1,0,0:0:0:0:
255,192,152459,1,0,0:0:0:0:
255,192,152631,1,0,0:0:0:0:
255,192,152804,1,2,0:0:0:0:
255,192,152976,1,0,0:0:0:0:
255,192,153149,1,4,0:0:0:0:
255,192,154183,1,6,0:0:0:0:
255,192,154528,1,4,0:0:0:0:
255,192,155045,1,2,0:0:0:0:
255,192,155218,1,0,0:0:0:0:
255,192,155563,1,2,0:0:0:0:
255,192,155907,1,0,0:0:0:0:
255,192,156080,1,0,0:0:0:0:
255,192,156425,1,2,0:0:0:0:
255,192,156597,1,0,0:0:0:0:
255,192,156942,1,2,0:0:0:0:
255,192,157287,1,0,0:0:0:0:
255,192,157804,1,2,0:0:0:0:
255,192,157976,1,0,0:0:0:0:
255,192,158321,1,2,0:0:0:0:
255,192,158666,1,0,0:0:0:0:
255,192,158838,1,0,0:0:0:0:
255,192,159183,1,2,0:0:0:0:
255,192,159356,1,0,0:0:0:0:
255,192,159528,1,2,0:0:0:0:
255,192,159614,1,2,0:0:0:0:
255,192,159700,1,2,0:0:0:0:
255,192,160045,1,0,0:0:0:0:
255,192,160218,1,0,0:0:0:0:
255,192,160563,1,2,0:0:0:0:
255,192,160735,1,0,0:0:0:0:
255,192,160907,1,0,0:0:0:0:
255,192,161080,1,2,0:0:0:0:
255,192,161425,1,0,0:0:0:0:
250,193,161597,1,0,0:0:0:0:
255,192,161942,1,2,0:0:0:0:
255,192,162114,1,0,0:0:0:0:
255,192,162287,1,0,0:0:0:0:
255,192,162459,1,2,0:0:0:0:
255,192,162804,1,0,0:0:0:0:
250,193,162976,1,0,0:0:0:0:
255,192,163321,1,2,0:0:0:0:
255,192,163494,1,0,0:0:0:0:
255,192,163666,1,0,0:0:0:0:
255,192,163838,1,2,0:0:0:0:
255,192,164183,1,4,0:0:0:0:
255,192,164442,1,2,0:0:0:0:
255,192,164528,1,2,0:0:0:0:
255,192,164700,1,2,0:0:0:0:
255,192,164873,1,2,0:0:0:0:
255,192,165218,1,2,0:0:0:0:
255,192,165563,1,0,0:0:0:0:
255,192,165735,1,0,0:0:0:0:
255,192,165821,1,0,0:0:0:0:
255,192,165907,1,0,0:0:0:0:
255,192,166080,1,2,0:0:0:0:
255,192,166252,1,0,0:0:0:0:
255,192,166597,1,2,0:0:0:0:
255,192,166942,1,0,0:0:0:0:
255,192,167114,1,2,0:0:0:0:
255,192,167200,1,2,0:0:0:0:
255,192,167287,1,2,0:0:0:0:
255,192,167459,1,2,0:0:0:0:
255,192,167631,1,0,0:0:0:0:
255,192,167976,1,2,0:0:0:0:
255,192,168321,1,0,0:0:0:0:
255,192,168494,1,2,0:0:0:0:
255,192,168580,1,2,0:0:0:0:
255,192,168666,1,2,0:0:0:0:
255,192,168838,1,2,0:0:0:0:
255,192,169011,1,0,0:0:0:0:
255,192,169356,1,2,0:0:0:0:
255,192,169700,1,0,0:0:0:0:
255,192,169873,1,0,0:0:0:0:
255,192,169959,1,0,0:0:0:0:
255,192,170045,1,0,0:0:0:0:
255,192,170218,1,0,0:0:0:0:
255,192,170390,1,2,0:0:0:0:
255,192,171080,1,4,0:0:0:0:
255,192,171252,1,0,0:0:0:0:
255,192,171425,1,0,0:0:0:0:
255,192,171597,1,0,0:0:0:0:
255,192,171769,1,2,0:0:0:0:
255,192,171942,1,2,0:0:0:0:
255,192,172114,1,2,0:0:0:0:
255,192,172287,1,2,0:0:0:0:
255,192,172459,1,0,0:0:0:0:
255,192,172631,1,0,0:0:0:0:
255,192,172804,1,0,0:0:0:0:
255,192,172976,1,0,0:0:0:0:
255,192,173149,1,2,0:0:0:0:
254,191,173494,1,0,0:0:0:0:
255,192,173838,1,0,0:0:0:0:
255,192,174011,1,0,0:0:0:0:
255,192,174183,1,2,0:0:0:0:
244,190,174356,1,2,0:0:0:0:
245,191,174528,1,0,0:0:0:0:
246,191,174700,1,0,0:0:0:0:
245,189,174873,1,2,0:0:0:0:
246,189,175045,1,2,0:0:0:0:
247,189,175218,1,4,0:0:0:0:
256,192,176597,1,0,0:0:0:0:
256,192,177631,1,2,0:0:0:0:
256,192,177976,1,0,0:0:0:0:
256,192,178666,1,0,0:0:0:0:
256,192,179011,1,0,0:0:0:0:
256,192,179356,1,0,0:0:0:0:
256,192,180045,1,0,0:0:0:0:
256,192,180390,1,2,0:0:0:0:
256,192,180735,1,0,0:0:0:0:
256,192,181425,1,2,0:0:0:0:
256,192,181769,1,2,0:0:0:0:
256,192,182114,1,0,0:0:0:0:
256,192,182459,1,2,0:0:0:0:
256,192,183149,1,2,0:0:0:0:
256,192,183494,1,0,0:0:0:0:
256,184,184183,1,0,0:0:0:0:
256,184,184528,1,2,0:0:0:0:
256,184,184873,1,0,0:0:0:0:
256,184,185563,5,2,0:0:0:0:
256,184,186252,1,2,0:0:0:0:
255,191,186942,5,2,0:0:0:0:
255,191,187287,5,0,0:0:0:0:
255,191,187631,1,6,0:0:0:0:
255,191,187976,1,2,0:0:0:0:
255,191,188321,1,2,0:0:0:0:
255,191,188666,1,0,0:0:0:0:
255,191,188838,1,2,0:0:0:0:
255,191,189011,1,0,0:0:0:0:
255,191,189356,1,0,0:0:0:0:
255,191,189700,1,2,0:0:0:0:
255,191,189873,1,2,0:0:0:0:
255,191,190045,1,0,0:0:0:0:
255,191,190218,1,2,0:0:0:0:
255,191,190390,1,0,0:0:0:0:
255,191,190735,1,2,0:0:0:0:
255,191,191080,1,0,0:0:0:0:
255,191,191425,1,0,0:0:0:0:
255,191,191597,1,2,0:0:0:0:
255,191,191942,1,2,0:0:0:0:
255,191,192114,1,2,0:0:0:0:
255,191,192287,1,0,0:0:0:0:
255,191,192459,1,0,0:0:0:0:
255,191,192631,1,0,0:0:0:0:
255,191,192804,1,2,0:0:0:0:
255,191,193149,1,0,0:0:0:0:
255,191,193321,1,0,0:0:0:0:
255,191,193494,1,0,0:0:0:0:
255,191,193666,1,0,0:0:0:0:
255,191,193838,1,2,0:0:0:0:
255,191,194011,1,2,0:0:0:0:
255,191,194183,1,2,0:0:0:0:
255,191,194356,1,2,0:0:0:0:
255,191,194528,1,0,0:0:0:0:
255,191,194700,1,0,0:0:0:0:
255,191,194873,1,0,0:0:0:0:
255,191,195045,1,0,0:0:0:0:
255,191,195218,1,2,0:0:0:0:
255,191,195390,1,2,0:0:0:0:
255,191,195563,1,2,0:0:0:0:
255,191,195735,1,2,0:0:0:0:
256,192,195907,12,0,197287,0:0:0:0:
255,191,197890,5,2,0:0:0:0:
255,191,197976,1,2,0:0:0:0:
255,191,198149,1,2,0:0:0:0:
255,191,198321,1,0,0:0:0:0:
255,192,198666,5,6,0:0:0:0:
255,192,199011,1,2,0:0:0:0:
255,192,199356,1,2,0:0:0:0:
255,192,199700,1,2,0:0:0:0:
255,192,199873,1,0,0:0:0:0:
255,192,200218,1,0,0:0:0:0:
255,192,200390,1,2,0:0:0:0:
255,192,200735,1,2,0:0:0:0:
255,192,200907,1,2,0:0:0:0:
255,192,200994,1,2,0:0:0:0:
255,192,201080,1,2,0:0:0:0:
255,192,201252,1,2,0:0:0:0:
255,192,201425,1,0,0:0:0:0:
255,192,201769,1,2,0:0:0:0:
255,192,202114,1,4,0:0:0:0:
255,192,202459,1,0,0:0:0:0:
255,192,202631,1,2,0:0:0:0:
255,192,203149,1,0,0:0:0:0:
255,192,203321,1,0,0:0:0:0:
255,192,203494,1,2,0:0:0:0:
255,192,203666,1,2,0:0:0:0:
255,192,203838,1,4,0:0:0:0:
255,192,204183,1,2,0:0:0:0:
255,192,204528,1,2,0:0:0:0:
255,192,204873,1,2,0:0:0:0:
255,192,205218,1,2,0:0:0:0:
255,192,205390,1,0,0:0:0:0:
255,192,205735,1,0,0:0:0:0:
255,192,205907,1,2,0:0:0:0:
255,192,206252,1,2,0:0:0:0:
255,192,206425,1,0,0:0:0:0:
255,192,206597,1,2,0:0:0:0:
255,192,206942,1,0,0:0:0:0:
255,192,207287,1,2,0:0:0:0:
255,192,207631,1,2,0:0:0:0:
255,192,207976,1,0,0:0:0:0:
255,192,208149,1,0,0:0:0:0:
255,192,208666,1,0,0:0:0:0:
255,192,209011,1,2,0:0:0:0:
255,192,209183,1,0,0:0:0:0:
255,192,209269,1,0,0:0:0:0:
255,192,209356,1,0,0:0:0:0:
255,192,209528,1,0,0:0:0:0:
255,192,209700,1,4,0:0:0:0:
255,192,210218,1,4,0:0:0:0:
255,192,210735,1,4,0:0:0:0:
255,192,211080,1,6,0:0:0:0:
255,192,211597,1,6,0:0:0:0:
255,192,212459,1,4,0:0:0:0:
255,192,212976,1,4,0:0:0:0:
255,192,213494,1,0,0:0:0:0:
255,192,213666,1,2,0:0:0:0:
255,192,213838,1,2,0:0:0:0:
255,192,214356,1,2,0:0:0:0:
255,192,214873,1,0,0:0:0:0:
255,192,215218,1,4,0:0:0:0:
255,192,215390,1,2,0:0:0:0:
255,192,215563,1,2,0:0:0:0:
255,192,215735,1,0,0:0:0:0:
255,192,216080,1,2,0:0:0:0:
255,192,216425,1,2,0:0:0:0:
255,192,216769,1,2,0:0:0:0:
255,192,217114,1,2,0:0:0:0:
255,192,217631,1,2,0:0:0:0:
255,192,217976,1,0,0:0:0:0:
255,192,218494,1,0,0:0:0:0:
255,192,218838,1,2,0:0:0:0:
255,192,219183,1,0,0:0:0:0:
250,193,219356,1,2,0:0:0:0:
255,192,219700,1,2,0:0:0:0:
255,192,220045,1,2,0:0:0:0:
255,192,220218,1,0,0:0:0:0:
255,192,220390,1,2,0:0:0:0:
255,192,220735,1,6,0:0:0:0:
255,192,221080,1,0,0:0:0:0:
255,192,221252,1,2,0:0:0:0:
255,192,221338,1,2,0:0:0:0:
255,192,221425,1,2,0:0:0:0:
255,192,221769,1,2,0:0:0:0:
255,192,222287,1,0,0:0:0:0:
255,192,222459,1,0,0:0:0:0:
255,192,222804,1,2,0:0:0:0:
255,192,223149,5,0,0:0:0:0:
255,192,223494,1,4,0:0:0:0:
255,192,223838,1,0,0:0:0:0:
255,192,224011,1,2,0:0:0:0:
255,192,224097,1,2,0:0:0:0:
255,192,224183,1,2,0:0:0:0:
255,192,224528,1,0,0:0:0:0:
255,192,224700,1,2,0:0:0:0:
255,192,224873,1,2,0:0:0:0:
255,192,225218,1,2,0:0:0:0:
255,192,225390,1,0,0:0:0:0:
255,192,225563,1,2,0:0:0:0:
255,192,226252,1,2,0:0:0:0:
255,192,226769,1,2,0:0:0:0:
255,192,226942,1,2,0:0:0:0:
255,192,227287,1,2,0:0:0:0:
255,192,227804,1,0,0:0:0:0:
255,192,227976,1,0,0:0:0:0:
255,192,228321,1,2,0:0:0:0:
255,192,228666,1,0,0:0:0:0:
255,192,229011,1,0,0:0:0:0:
255,192,229528,1,0,0:0:0:0:
255,192,229700,1,2,0:0:0:0:
255,192,230045,1,2,0:0:0:0:
255,192,230218,1,2,0:0:0:0:
255,192,230563,1,2,0:0:0:0:
255,192,230649,1,2,0:0:0:0:
255,192,230735,1,2,0:0:0:0:
255,192,231080,1,2,0:0:0:0:
255,192,231425,1,0,0:0:0:0:
255,192,231769,1,4,0:0:0:0:
