osu file format v14

[General]
AudioFilename: audio.mp3
AudioLeadIn: 2500
PreviewTime: 28844
Countdown: 0
SampleSet: Normal
StackLeniency: 0.7
Mode: 1
LetterboxInBreaks: 0
SkinPreference:taiko
WidescreenStoryboard: 1

[Editor]
Bookmarks: 9644,19244,38444,57719,67244,88844,98444,117644,126230,133270,139183,144306,147906,168306
DistanceSpacing: 1.2
BeatDivisor: 3
GridSize: 32
TimelineZoom: 1.939999

[Metadata]
Title:ROTTEL-DA-U.N.OHEN
TitleUnicode:ROTTEL-DA-U.N.OHEN
Artist:hapi=>
ArtistUnicode:hapi⇒
Creator:OnosakiHito
Version:Oni
Source:東方紅魔郷 ~ the Embodiment of Scarlet Devil.
Tags:東方Project U.N.オーエンは彼女なのか? touhou u.n. owen was her flandre scarlet WORKS OVERGROUND 2 koumakyou eastern lands of the un wa kanojo nanoka? th06 フランドール・スカーレット eosd team shanghai alice zun electronic instrumental video game rotterdam
BeatmapID:3204827
BeatmapSetID:566481

[Difficulty]
HPDrainRate:5.5
CircleSize:5
OverallDifficulty:5
ApproachRate:5
SliderMultiplier:1.4
SliderTickRate:1

[Events]
//Background and Video events
0,0,"Taiko_BG.png",0,0
//Break Periods
//Storyboard Layer 0 (Background)
//Storyboard Layer 1 (Fail)
//Storyboard Layer 2 (Pass)
//Storyboard Layer 3 (Foreground)
//Storyboard Layer 4 (Overlay)
//Storyboard Sound Samples

[TimingPoints]
44,300,4,1,0,75,1,0
44,-57.1428571428571,4,1,0,75,0,0
1244,-100,4,1,0,75,0,0
2444,-57.1428571428571,4,1,0,75,0,0
3644,-100,4,1,0,75,0,0
4844,-57.1428571428571,4,1,0,75,0,0
6044,-100,4,1,0,75,0,0
7244,-57.1428571428571,4,1,0,75,0,0
8444,-100,4,1,0,75,0,0
57644,-100,4,1,0,75,0,1
67244,-66.6666666666667,4,1,0,75,0,0
68444,-100,4,1,0,75,0,0
88844,-133.333333333333,4,1,0,75,0,1
98444,-133.333333333333,4,1,0,75,0,0
100244,-100,4,1,0,75,0,0
108044,-100,4,1,0,75,0,0
117644,292.682926829268,4,1,0,75,1,0
117644,-100,4,1,0,75,0,0
117790,-99.7812794354774,4,1,0,75,0,0
118083,-99.346794824032,4,1,0,75,0,0
118229,-99.1309192311009,4,1,0,75,0,0
118448,-98.8089568343191,4,1,0,75,0,0
118668,-98.4889820375795,4,1,0,75,0,0
118814,-98.2769109208252,4,1,0,75,0,0
119034,-97.9603671946404,4,1,0,75,0,0
119253,-97.6459514035629,4,1,0,75,0,0
119400,-97.4373964727663,4,1,0,75,0,0
119546,-97.2297305180789,4,1,0,75,0,0
119692,-97.0230420022451,4,1,0,75,0,0
119839,-96.8171366331841,4,1,0,75,0,0
119985,276.497695852535,4,1,0,75,1,0
119985,-102.267446007442,4,1,0,75,0,0
120123,-102.051426488478,4,1,0,75,0,0
120399,-101.621918602154,4,1,0,75,0,0
120537,-101.408614727246,4,1,0,75,0,0
120745,-101.090187797385,4,1,0,75,0,0
120952,-100.773850291111,4,1,0,75,0,0
121090,-100.563992529532,4,1,0,75,0,0
121229,-100.355006993403,4,1,0,75,0,0
121367,-100.146983004065,4,1,0,75,0,0
121505,-99.9397252924071,4,1,0,75,0,0
121643,-99.7333236633373,4,1,0,75,0,0
121920,-99.3231607192918,4,1,0,75,0,0
122196,256.410256410256,4,1,0,75,1,0
122196,-106.665565367496,4,1,0,75,0,0
122324,-106.447524270547,4,1,0,75,0,0
122580,-106.014203909894,4,1,0,75,0,0
122708,-105.798814962846,4,1,0,75,0,0
122901,-105.477367576996,4,1,0,75,0,0
123093,-105.157964451889,4,1,0,75,0,0
123221,-104.946037218574,4,1,0,75,0,0
123413,-104.629839079755,4,1,0,75,0,0
123606,-104.315445270255,4,1,0,75,0,0
123734,-104.106991912333,4,1,0,75,0,0
123862,-103.899275424658,4,1,0,75,0,0
123990,-103.692386167196,4,1,0,75,0,0
124119,-103.486413030018,4,1,0,75,0,0
124247,247.933884297521,4,1,0,75,1,0
124247,-106.812143039997,4,1,0,75,0,0
124370,-106.600716356814,4,1,0,75,0,0
124618,-106.180459614405,4,1,0,75,0,0
124742,-105.971523831321,4,1,0,75,0,0
124928,-105.659751934479,4,1,0,75,0,0
125114,-105.34971512697,4,1,0,75,0,0
125238,-105.14412641991,4,1,0,75,0,0
126230,232.558139534884,4,1,0,75,1,1
126230,-110.372095778081,4,1,0,75,0,1
126462,-109.9494679916,4,1,0,75,0,1
126578,-109.739317653683,4,1,0,75,0,1
126695,-109.530064442523,4,1,0,75,0,1
126927,-109.113753773861,4,1,0,75,0,1
127160,-108.700689701663,4,1,0,75,0,1
127392,-108.290741248655,4,1,0,75,0,1
127509,-108.086877970229,4,1,0,75,0,1
127625,-107.883780817206,4,1,0,75,0,1
127741,-107.681537612222,4,1,0,75,0,1
127857,-107.479959465891,4,1,0,75,0,1
128090,226.415094339623,4,1,0,75,1,1
128090,-109.984398194322,4,1,0,75,0,1
128203,-109.779658761323,4,1,0,75,0,1
128316,-109.575680169843,4,1,0,75,0,1
128429,-109.372550725544,4,1,0,75,0,1
128542,-109.170080806458,4,1,0,75,0,1
128769,-108.767473058451,4,1,0,75,0,1
128995,-108.367733102623,4,1,0,75,0,1
129108,-108.169053454248,4,1,0,75,0,1
129222,-107.971010802194,4,1,0,75,0,1
129335,-107.773692002553,4,1,0,75,0,1
129448,-107.577182619757,4,1,0,75,0,1
129674,-107.186128124999,4,1,0,75,0,1
129901,214.285714285714,4,1,0,75,1,1
129901,-112.843164122322,4,1,0,75,0,1
130115,-112.436020139941,4,1,0,75,0,1
130222,-112.233501800496,4,1,0,75,0,1
130329,-112.031711696313,4,1,0,75,0,1
130543,-111.63039177284,4,1,0,75,0,1
130758,-111.231936802463,4,1,0,75,0,1
130972,-110.836226274293,4,1,0,75,0,1
131079,-110.63951457071,4,1,0,75,0,1
131186,-110.443410571407,4,1,0,75,0,1
131293,-110.248000514701,4,1,0,75,0,1
131401,-110.053369398871,4,1,0,75,0,1
131615,206.896551724138,4,1,0,75,1,1
131615,-113.582627748584,4,1,0,75,0,1
131718,-113.383166407899,4,1,0,75,0,1
131821,-113.184313824976,4,1,0,75,0,1
131925,-112.986157520392,4,1,0,75,0,1
132028,-112.788783769958,4,1,0,75,0,1
132235,-112.395919198729,4,1,0,75,0,1
132442,-112.005870652531,4,1,0,75,0,1
133270,193.548387096774,4,1,0,75,1,1
133270,-118.091070042804,4,1,0,75,0,1
133463,-117.688155884872,4,1,0,75,0,1
133657,-117.288072748873,4,1,0,75,0,1
133850,-116.890700577438,4,1,0,75,0,1
134044,-116.495922163588,4,1,0,75,0,1
134237,-116.103890510286,4,1,0,75,0,1
134334,-115.908818047496,4,1,0,75,0,1
134431,-115.714488534588,4,1,0,75,0,1
134818,187.5,4,1,0,75,1,1
134818,-118.651232118888,4,1,0,75,0,1
135005,-118.257251021876,4,1,0,75,0,1
135099,-118.061195360379,4,1,0,75,0,1
135193,-117.865788694229,4,1,0,75,0,1
135380,-117.47699791203,4,1,0,75,0,1
135568,-117.090763618941,4,1,0,75,0,1
135755,-116.70697342584,4,1,0,75,0,1
135943,-116.325777610559,4,1,0,75,0,1
136318,181.818181818182,4,1,0,75,1,1
136318,-119.182307523688,4,1,0,75,0,1
136499,-118.796804365962,4,1,0,75,0,1
136681,-118.413699934015,4,1,0,75,0,1
136863,-118.033145030526,4,1,0,75,0,1
137045,-117.655028326339,4,1,0,75,0,1
137227,-117.279241019928,4,1,0,75,0,1
137318,-117.09233129501,4,1,0,75,0,1
137408,-116.905931482815,4,1,0,75,0,1
137772,176.470588235294,4,1,0,75,1,1
137772,-119.686504434895,4,1,0,75,0,1
137948,-119.309136235716,4,1,0,75,0,1
138036,-119.121300326713,4,1,0,75,0,1
138124,-118.934140219853,4,1,0,75,0,1
138301,-118.561409335288,4,1,0,75,0,1
138477,-118.191091600234,4,1,0,75,0,1
139183,166.666666666667,4,1,0,75,1,1
139183,-123.599208965063,4,1,0,75,0,1
139349,-123.219006175736,4,1,0,75,0,1
139516,-122.841221221223,4,1,0,75,0,1
139683,-122.465745735598,4,1,0,75,0,1
139849,-122.092473721375,4,1,0,75,0,1
140016,-121.721554606732,4,1,0,75,0,1
140183,-121.352882383775,4,1,0,75,0,1
140516,162.162162162162,4,1,0,75,1,1
140516,-123.972728881174,4,1,0,75,0,1
140678,-123.600619673377,4,1,0,75,0,1
140840,-123.230653445194,4,1,0,75,0,1
141002,-122.862979038397,4,1,0,75,0,1
141164,-122.497492112155,4,1,0,75,0,1
141326,-122.134090555892,4,1,0,75,0,1
141488,-121.772920917851,4,1,0,75,0,1
141813,157.894736842105,4,1,0,75,1,1
141813,-124.328678304027,4,1,0,75,0,1
141970,-123.964252167625,4,1,0,75,0,1
142128,-123.60195616359,4,1,0,75,0,1
142286,-123.241689731781,4,1,0,75,0,1
142444,-122.883598818228,4,1,0,75,0,1
142602,-122.527582812927,4,1,0,75,0,1
142760,-122.173543209905,4,1,0,75,0,1
143076,153.846153846154,4,1,0,75,1,1
143076,-124.668350222165,4,1,0,75,0,1
143229,-124.311220215988,4,1,0,75,0,1
143383,-123.956211228821,4,1,0,75,0,1
143537,-123.603224142562,4,1,0,75,0,1
143691,-123.252161882423,4,1,0,75,0,1
143845,-122.903167572308,4,1,0,75,0,1
143999,-122.556144069461,4,1,0,75,0,1
144306,150,4,1,0,75,1,1
144306,-125,4,1,0,75,0,1
146106,-125,4,1,0,75,0,0
147906,300,4,1,0,75,1,0
149106,300,4,1,0,75,1,0

[HitObjects]
256,192,44,5,4,0:0:0:0:
256,192,494,1,4,0:0:0:0:
256,192,794,1,4,0:0:0:0:
256,192,944,1,4,0:0:0:0:
256,192,1394,5,8,0:0:0:0:
256,192,1694,1,8,0:0:0:0:
256,192,1844,1,8,0:0:0:0:
256,192,2144,1,8,0:0:0:0:
256,192,2444,5,4,0:0:0:0:
256,192,2894,1,4,0:0:0:0:
256,192,3194,1,4,0:0:0:0:
256,192,3344,1,4,0:0:0:0:
256,192,3794,5,8,0:0:0:0:
256,192,3944,1,8,0:0:0:0:
256,192,4094,1,8,0:0:0:0:
256,192,4244,1,8,0:0:0:0:
256,192,4544,1,8,0:0:0:0:
256,192,4844,5,4,0:0:0:0:
256,192,5294,1,4,0:0:0:0:
256,192,5594,1,4,0:0:0:0:
256,192,5744,1,4,0:0:0:0:
256,192,6194,5,8,0:0:0:0:
256,192,6494,1,8,0:0:0:0:
256,192,6644,1,8,0:0:0:0:
256,192,6944,1,8,0:0:0:0:
256,192,7244,5,4,0:0:0:0:
256,192,7694,1,4,0:0:0:0:
256,192,7994,1,4,0:0:0:0:
256,192,8144,1,4,0:0:0:0:
256,192,8594,5,8,0:0:0:0:
256,192,8894,1,8,0:0:0:0:
256,192,9044,5,0,0:0:0:0:
256,192,9194,1,0,0:0:0:0:
256,192,9344,5,8,0:0:0:0:
256,192,9644,5,0,0:0:0:0:
256,192,9944,1,0,0:0:0:0:
256,192,10094,5,8,0:0:0:0:
256,192,10394,5,0,0:0:0:0:
256,192,10544,5,8,0:0:0:0:
256,192,10694,1,8,0:0:0:0:
256,192,10844,5,0,0:0:0:0:
256,192,10994,5,8,0:0:0:0:
256,192,11294,1,8,0:0:0:0:
256,192,11444,5,0,0:0:0:0:
256,192,11744,5,8,0:0:0:0:
256,192,12044,5,0,0:0:0:0:
256,192,12344,5,0,0:0:0:0:
256,192,12494,5,8,0:0:0:0:
256,192,12794,5,0,0:0:0:0:
256,192,12944,5,8,0:0:0:0:
256,192,13019,1,8,0:0:0:0:
256,192,13094,1,8,0:0:0:0:
256,192,13244,5,0,0:0:0:0:
256,192,13394,5,8,0:0:0:0:
256,192,13694,1,8,0:0:0:0:
256,192,13844,5,0,0:0:0:0:
256,192,13994,1,0,0:0:0:0:
256,192,14144,5,8,0:0:0:0:
256,192,14294,1,8,0:0:0:0:
256,192,14444,5,0,0:0:0:0:
256,192,14744,1,0,0:0:0:0:
256,192,14894,5,8,0:0:0:0:
256,192,15194,5,0,0:0:0:0:
256,192,15344,5,8,0:0:0:0:
256,192,15494,1,8,0:0:0:0:
256,192,15644,5,0,0:0:0:0:
256,192,15794,5,8,0:0:0:0:
256,192,16094,1,8,0:0:0:0:
256,192,16244,5,0,0:0:0:0:
256,192,16394,1,0,0:0:0:0:
256,192,16544,5,8,0:0:0:0:
256,192,16844,5,0,0:0:0:0:
256,192,17144,1,0,0:0:0:0:
256,192,17294,5,8,0:0:0:0:
256,192,17594,5,0,0:0:0:0:
256,192,17744,5,8,0:0:0:0:
256,192,17819,1,8,0:0:0:0:
256,192,17894,1,8,0:0:0:0:
256,192,18044,5,0,0:0:0:0:
256,192,18194,5,8,0:0:0:0:
256,192,18494,1,8,0:0:0:0:
256,192,18644,5,0,0:0:0:0:
256,192,18794,1,0,0:0:0:0:
256,192,18944,5,8,0:0:0:0:
256,192,19094,5,0,0:0:0:0:
256,192,19244,1,4,0:0:0:0:
256,192,19844,1,4,0:0:0:0:
256,192,20144,1,0,0:0:0:0:
256,192,20444,1,4,0:0:0:0:
256,192,20894,1,0,0:0:0:0:
256,192,21044,1,4,0:0:0:0:
256,192,21344,5,8,0:0:0:0:
256,192,21494,5,0,0:0:0:0:
256,192,21644,1,4,0:0:0:0:
256,192,22244,1,4,0:0:0:0:
256,192,22544,1,0,0:0:0:0:
256,192,22844,1,4,0:0:0:0:
256,192,23069,1,0,0:0:0:0:
256,192,23294,1,0,0:0:0:0:
256,192,23444,1,4,0:0:0:0:
256,192,23744,5,12,0:0:0:0:
256,192,24044,5,4,0:0:0:0:
256,192,24644,1,4,0:0:0:0:
256,192,24944,1,0,0:0:0:0:
256,192,25244,1,4,0:0:0:0:
256,192,25694,1,0,0:0:0:0:
256,192,25844,1,4,0:0:0:0:
256,192,26144,5,8,0:0:0:0:
256,192,26294,5,0,0:0:0:0:
256,192,26444,1,4,0:0:0:0:
256,192,27044,1,4,0:0:0:0:
256,192,27344,1,0,0:0:0:0:
256,192,27644,1,4,0:0:0:0:
256,192,27869,1,0,0:0:0:0:
256,192,28094,1,0,0:0:0:0:
256,192,28244,1,4,0:0:0:0:
256,192,28544,5,12,0:0:0:0:
256,192,28844,5,4,0:0:0:0:
256,192,33644,1,4,0:0:0:0:
256,192,34244,1,4,0:0:0:0:
256,192,34844,1,4,0:0:0:0:
256,192,35144,1,0,0:0:0:0:
256,192,35294,1,4,0:0:0:0:
256,192,35594,1,0,0:0:0:0:
256,192,35894,1,0,0:0:0:0:
256,192,36044,1,4,0:0:0:0:
256,192,36494,1,0,0:0:0:0:
256,192,36644,1,4,0:0:0:0:
256,192,37094,1,0,0:0:0:0:
256,192,37244,1,4,0:0:0:0:
256,192,37394,5,8,0:0:0:0:
256,192,37544,5,0,0:0:0:0:
256,192,37619,1,0,0:0:0:0:
256,192,37694,1,0,0:0:0:0:
256,192,37844,5,8,0:0:0:0:
256,192,37994,1,8,0:0:0:0:
256,192,38144,1,8,0:0:0:0:
256,192,38444,5,4,0:0:0:0:
256,192,38594,5,8,0:0:0:0:
256,192,38744,1,8,0:0:0:0:
256,192,38894,5,0,0:0:0:0:
256,192,39044,5,8,0:0:0:0:
256,192,39194,5,0,0:0:0:0:
256,192,39344,5,8,0:0:0:0:
256,192,39419,1,8,0:0:0:0:
256,192,39494,1,8,0:0:0:0:
256,192,39644,5,0,0:0:0:0:
256,192,39794,1,0,0:0:0:0:
256,192,39944,5,8,0:0:0:0:
256,192,40094,1,8,0:0:0:0:
256,192,40244,5,0,0:0:0:0:
256,192,40544,5,8,0:0:0:0:
256,192,40844,5,0,0:0:0:0:
256,192,40994,5,8,0:0:0:0:
256,192,41144,1,8,0:0:0:0:
256,192,41294,5,0,0:0:0:0:
256,192,41444,5,8,0:0:0:0:
256,192,41594,5,0,0:0:0:0:
256,192,41744,5,8,0:0:0:0:
256,192,41819,1,8,0:0:0:0:
256,192,41894,1,8,0:0:0:0:
256,192,42044,5,0,0:0:0:0:
256,192,42194,5,8,0:0:0:0:
256,192,42344,5,0,0:0:0:0:
256,192,42494,5,8,0:0:0:0:
256,192,42644,5,0,0:0:0:0:
256,192,42794,5,8,0:0:0:0:
256,192,42944,1,8,0:0:0:0:
256,192,43094,1,8,0:0:0:0:
256,192,43244,5,0,0:0:0:0:
256,192,43394,5,8,0:0:0:0:
256,192,43544,1,8,0:0:0:0:
256,192,43694,5,0,0:0:0:0:
256,192,43844,5,8,0:0:0:0:
256,192,43994,5,0,0:0:0:0:
256,192,44144,5,8,0:0:0:0:
256,192,44219,1,8,0:0:0:0:
256,192,44294,1,8,0:0:0:0:
256,192,44444,5,0,0:0:0:0:
256,192,44594,1,0,0:0:0:0:
256,192,44744,5,8,0:0:0:0:
256,192,44894,1,8,0:0:0:0:
256,192,45044,5,0,0:0:0:0:
256,192,45344,5,8,0:0:0:0:
256,192,45644,5,0,0:0:0:0:
256,192,45794,5,8,0:0:0:0:
256,192,45944,1,8,0:0:0:0:
256,192,46094,5,0,0:0:0:0:
256,192,46244,5,8,0:0:0:0:
256,192,46394,5,0,0:0:0:0:
256,192,46544,5,8,0:0:0:0:
256,192,46619,1,8,0:0:0:0:
256,192,46694,1,8,0:0:0:0:
256,192,46844,5,0,0:0:0:0:
256,192,46994,5,8,0:0:0:0:
256,192,47144,5,0,0:0:0:0:
256,192,47294,5,8,0:0:0:0:
256,192,47444,5,0,0:0:0:0:
256,192,47594,1,0,0:0:0:0:
256,192,47744,5,8,0:0:0:0:
256,192,47819,1,8,0:0:0:0:
256,192,47894,1,8,0:0:0:0:
256,192,48044,5,4,0:0:0:0:
256,192,48644,5,0,0:0:0:0:
256,192,49244,5,0,0:0:0:0:
256,192,49544,5,8,0:0:0:0:
256,192,49694,1,8,0:0:0:0:
256,192,49844,5,4,0:0:0:0:
256,192,50144,5,12,0:0:0:0:
256,192,50444,5,0,0:0:0:0:
256,192,50594,1,0,0:0:0:0:
256,192,50744,5,8,0:0:0:0:
256,192,50894,1,8,0:0:0:0:
256,192,51044,5,0,0:0:0:0:
256,192,51194,5,8,0:0:0:0:
256,192,51269,1,8,0:0:0:0:
256,192,51344,1,8,0:0:0:0:
256,192,51494,1,8,0:0:0:0:
256,192,51644,5,0,0:0:0:0:
256,192,51794,5,8,0:0:0:0:
256,192,51944,5,0,0:0:0:0:
256,192,52094,5,8,0:0:0:0:
256,192,52244,5,0,0:0:0:0:
256,192,52394,5,8,0:0:0:0:
256,192,52544,1,8,0:0:0:0:
256,192,52694,1,8,0:0:0:0:
256,192,52844,5,0,0:0:0:0:
256,192,53144,5,8,0:0:0:0:
256,192,53444,5,0,0:0:0:0:
256,192,53744,5,8,0:0:0:0:
256,192,54044,5,0,0:0:0:0:
256,192,54344,5,8,0:0:0:0:
256,192,54494,1,8,0:0:0:0:
256,192,54644,5,0,0:0:0:0:
256,192,54794,5,8,0:0:0:0:
256,192,54944,1,8,0:0:0:0:
256,192,55244,5,0,0:0:0:0:
256,192,55394,1,0,0:0:0:0:
256,192,55544,5,8,0:0:0:0:
256,192,55694,1,8,0:0:0:0:
256,192,55844,5,0,0:0:0:0:
256,192,55994,5,8,0:0:0:0:
256,192,56069,1,8,0:0:0:0:
256,192,56144,1,8,0:0:0:0:
256,192,56294,5,0,0:0:0:0:
256,192,56444,6,0,L|96:192,3,140
256,192,57644,5,0,0:0:0:0:
256,192,57794,5,8,0:0:0:0:
256,192,58094,5,0,0:0:0:0:
256,192,58244,5,8,0:0:0:0:
256,192,58394,1,8,0:0:0:0:
256,192,58469,1,8,0:0:0:0:
256,192,58544,5,0,0:0:0:0:
256,192,58694,5,8,0:0:0:0:
256,192,58844,5,0,0:0:0:0:
256,192,58994,5,8,0:0:0:0:
256,192,59294,5,8,0:0:0:0:
256,192,59444,5,0,0:0:0:0:
256,192,59594,1,0,0:0:0:0:
256,192,59744,5,8,0:0:0:0:
256,192,59819,1,8,0:0:0:0:
256,192,59894,1,8,0:0:0:0:
256,192,60044,5,0,0:0:0:0:
256,192,60194,5,8,0:0:0:0:
256,192,60494,5,0,0:0:0:0:
256,192,60644,5,8,0:0:0:0:
256,192,60794,1,8,0:0:0:0:
256,192,60869,1,8,0:0:0:0:
256,192,60944,5,0,0:0:0:0:
256,192,61094,5,8,0:0:0:0:
256,192,61244,5,0,0:0:0:0:
256,192,61394,1,0,0:0:0:0:
256,192,61544,5,8,0:0:0:0:
256,192,61694,1,8,0:0:0:0:
256,192,61844,5,0,0:0:0:0:
256,192,62144,5,8,0:0:0:0:
256,192,62444,5,0,0:0:0:0:
256,192,62594,5,8,0:0:0:0:
256,192,62894,5,0,0:0:0:0:
256,192,63044,5,8,0:0:0:0:
256,192,63194,1,8,0:0:0:0:
256,192,63269,1,8,0:0:0:0:
256,192,63344,5,0,0:0:0:0:
256,192,63494,5,8,0:0:0:0:
256,192,63644,5,0,0:0:0:0:
256,192,63794,5,8,0:0:0:0:
256,192,64094,5,0,0:0:0:0:
256,192,64244,5,8,0:0:0:0:
256,192,64319,1,8,0:0:0:0:
256,192,64394,1,8,0:0:0:0:
256,192,64544,5,0,0:0:0:0:
256,192,64619,1,0,0:0:0:0:
256,192,64694,1,0,0:0:0:0:
256,192,64844,1,0,0:0:0:0:
256,192,64994,5,8,0:0:0:0:
256,192,65294,5,0,0:0:0:0:
256,192,65444,5,8,0:0:0:0:
256,192,65594,1,8,0:0:0:0:
256,192,65669,1,8,0:0:0:0:
256,192,65744,5,0,0:0:0:0:
256,192,65894,5,8,0:0:0:0:
256,192,66044,6,0,L|96:192,3,140
256,192,67244,5,4,0:0:0:0:
256,192,68444,5,12,0:0:0:0:
256,192,68744,1,12,0:0:0:0:
256,192,69044,1,12,0:0:0:0:
256,192,69344,5,0,0:0:0:0:
256,192,69419,1,0,0:0:0:0:
256,192,69494,1,0,0:0:0:0:
256,192,69644,5,8,0:0:0:0:
256,192,69944,5,0,0:0:0:0:
256,192,70094,1,0,0:0:0:0:
256,192,70244,5,8,0:0:0:0:
256,192,70694,1,8,0:0:0:0:
256,192,70994,5,0,0:0:0:0:
256,192,71294,5,8,0:0:0:0:
256,192,71444,5,0,0:0:0:0:
256,192,71594,1,0,0:0:0:0:
256,192,71744,5,8,0:0:0:0:
256,192,72044,5,0,0:0:0:0:
256,192,72344,5,8,0:0:0:0:
256,192,72494,1,8,0:0:0:0:
256,192,72644,5,0,0:0:0:0:
256,192,73094,1,0,0:0:0:0:
256,192,73394,5,8,0:0:0:0:
256,192,73694,5,0,0:0:0:0:
256,192,73844,5,8,0:0:0:0:
256,192,73994,1,8,0:0:0:0:
256,192,74144,5,0,0:0:0:0:
256,192,74444,5,8,0:0:0:0:
256,192,74744,5,0,0:0:0:0:
256,192,74894,1,0,0:0:0:0:
256,192,75044,5,8,0:0:0:0:
256,192,75494,1,8,0:0:0:0:
256,192,75794,5,0,0:0:0:0:
256,192,76094,5,8,0:0:0:0:
256,192,76244,5,0,0:0:0:0:
256,192,76394,1,0,0:0:0:0:
256,192,76544,5,8,0:0:0:0:
256,192,76844,5,0,0:0:0:0:
256,192,77144,5,8,0:0:0:0:
256,192,77294,1,8,0:0:0:0:
256,192,77444,5,0,0:0:0:0:
256,192,77894,1,0,0:0:0:0:
256,192,78194,5,8,0:0:0:0:
256,192,78494,5,0,0:0:0:0:
256,192,78644,5,8,0:0:0:0:
256,192,78794,1,8,0:0:0:0:
256,192,78944,5,0,0:0:0:0:
256,192,79244,5,12,0:0:0:0:
256,192,79544,5,0,0:0:0:0:
256,192,79694,1,0,0:0:0:0:
256,192,79844,5,8,0:0:0:0:
256,192,80144,5,0,0:0:0:0:
256,192,80294,5,8,0:0:0:0:
256,192,80594,5,0,0:0:0:0:
256,192,80894,5,8,0:0:0:0:
256,192,81044,5,0,0:0:0:0:
256,192,81194,1,0,0:0:0:0:
256,192,81344,5,12,0:0:0:0:
256,192,81644,5,4,0:0:0:0:
256,192,81944,5,8,0:0:0:0:
256,192,82094,1,8,0:0:0:0:
256,192,82244,5,0,0:0:0:0:
256,192,82544,5,8,0:0:0:0:
256,192,82694,5,0,0:0:0:0:
256,192,82994,5,8,0:0:0:0:
256,192,83294,5,0,0:0:0:0:
256,192,83444,5,8,0:0:0:0:
256,192,83594,1,8,0:0:0:0:
256,192,83744,5,4,0:0:0:0:
256,192,84044,5,12,0:0:0:0:
256,192,84344,5,0,0:0:0:0:
256,192,84494,1,0,0:0:0:0:
256,192,84644,5,8,0:0:0:0:
256,192,84944,5,0,0:0:0:0:
256,192,85094,5,8,0:0:0:0:
256,192,85394,5,0,0:0:0:0:
256,192,85694,5,8,0:0:0:0:
256,192,85844,5,0,0:0:0:0:
256,192,85994,1,0,0:0:0:0:
256,192,86144,5,12,0:0:0:0:
256,192,86444,5,4,0:0:0:0:
256,192,86744,5,8,0:0:0:0:
256,192,86894,1,8,0:0:0:0:
256,192,87044,5,0,0:0:0:0:
256,192,87344,5,8,0:0:0:0:
256,192,87494,5,0,0:0:0:0:
256,192,87644,5,12,0:0:0:0:
256,192,87944,1,12,0:0:0:0:
256,192,88244,1,12,0:0:0:0:
256,192,88544,1,12,0:0:0:0:
256,192,88844,5,8,0:0:0:0:
256,192,89044,5,0,0:0:0:0:
256,192,89144,5,8,0:0:0:0:
256,192,89344,5,0,0:0:0:0:
256,192,89444,5,8,0:0:0:0:
256,192,89544,5,0,0:0:0:0:
256,192,89744,5,8,0:0:0:0:
256,192,90044,1,8,0:0:0:0:
256,192,90244,5,0,0:0:0:0:
256,192,90344,5,8,0:0:0:0:
256,192,90444,1,8,0:0:0:0:
256,192,90544,5,0,0:0:0:0:
256,192,90644,5,8,0:0:0:0:
256,192,91244,5,8,0:0:0:0:
256,192,91444,5,0,0:0:0:0:
256,192,91544,5,8,0:0:0:0:
256,192,91744,5,0,0:0:0:0:
256,192,91844,5,8,0:0:0:0:
256,192,91944,5,0,0:0:0:0:
256,192,92044,1,0,0:0:0:0:
256,192,92144,5,8,0:0:0:0:
256,192,92444,1,8,0:0:0:0:
256,192,92644,5,0,0:0:0:0:
256,192,92744,5,8,0:0:0:0:
256,192,92844,1,8,0:0:0:0:
256,192,92944,1,8,0:0:0:0:
256,192,93044,5,0,0:0:0:0:
256,192,93644,5,8,0:0:0:0:
256,192,93844,5,0,0:0:0:0:
256,192,93944,5,8,0:0:0:0:
256,192,94144,5,0,0:0:0:0:
256,192,94244,5,8,0:0:0:0:
256,192,94344,5,0,0:0:0:0:
256,192,94544,5,8,0:0:0:0:
256,192,94844,5,8,0:0:0:0:
256,192,95044,5,0,0:0:0:0:
256,192,95144,5,8,0:0:0:0:
256,192,95244,1,8,0:0:0:0:
256,192,95344,5,0,0:0:0:0:
256,192,95444,5,8,0:0:0:0:
256,192,96044,5,8,0:0:0:0:
256,192,96244,5,0,0:0:0:0:
256,192,96344,5,8,0:0:0:0:
256,192,96544,5,0,0:0:0:0:
256,192,96644,5,8,0:0:0:0:
256,192,96744,5,0,0:0:0:0:
256,192,96844,1,0,0:0:0:0:
256,192,96944,5,8,0:0:0:0:
256,192,97244,5,0,0:0:0:0:
256,192,97344,5,8,0:0:0:0:
256,192,97544,1,8,0:0:0:0:
256,192,97644,1,8,0:0:0:0:
256,192,97844,1,12,0:0:0:0:
256,192,98069,1,12,0:0:0:0:
256,192,98294,1,12,0:0:0:0:
256,192,98444,5,4,0:0:0:0:
256,192,100244,5,0,0:0:0:0:
256,192,100544,5,8,0:0:0:0:
256,192,100619,1,8,0:0:0:0:
256,192,100694,1,8,0:0:0:0:
256,192,100844,5,0,0:0:0:0:
256,192,100994,1,0,0:0:0:0:
256,192,101144,5,8,0:0:0:0:
256,192,101294,1,8,0:0:0:0:
256,192,101444,5,0,0:0:0:0:
256,192,101594,5,8,0:0:0:0:
256,192,101669,1,8,0:0:0:0:
256,192,101744,1,8,0:0:0:0:
256,192,101894,1,8,0:0:0:0:
256,192,102044,5,0,0:0:0:0:
256,192,102194,5,8,0:0:0:0:
256,192,102344,5,0,0:0:0:0:
256,192,102494,5,8,0:0:0:0:
256,192,102644,5,0,0:0:0:0:
256,192,102794,5,8,0:0:0:0:
256,192,102944,1,8,0:0:0:0:
256,192,103094,1,8,0:0:0:0:
256,192,103244,5,0,0:0:0:0:
256,192,103544,5,8,0:0:0:0:
256,192,103844,5,0,0:0:0:0:
256,192,104144,5,8,0:0:0:0:
256,192,104444,5,0,0:0:0:0:
256,192,104744,5,8,0:0:0:0:
256,192,104894,1,8,0:0:0:0:
256,192,105044,5,0,0:0:0:0:
256,192,105194,5,8,0:0:0:0:
256,192,105344,1,8,0:0:0:0:
256,192,105644,5,0,0:0:0:0:
256,192,105794,1,0,0:0:0:0:
256,192,105944,5,8,0:0:0:0:
256,192,106094,1,8,0:0:0:0:
256,192,106244,5,0,0:0:0:0:
256,192,106394,5,8,0:0:0:0:
256,192,106469,1,8,0:0:0:0:
256,192,106544,1,8,0:0:0:0:
256,192,106694,5,0,0:0:0:0:
256,192,106844,6,8,L|96:192,3,140
256,192,108044,5,8,0:0:0:0:
256,192,108194,5,0,0:0:0:0:
256,192,108494,5,8,0:0:0:0:
256,192,108644,5,0,0:0:0:0:
256,192,108794,1,0,0:0:0:0:
256,192,108869,1,0,0:0:0:0:
256,192,108944,5,8,0:0:0:0:
256,192,109094,5,0,0:0:0:0:
256,192,109244,5,8,0:0:0:0:
256,192,109394,5,0,0:0:0:0:
256,192,109694,5,0,0:0:0:0:
256,192,109844,5,8,0:0:0:0:
256,192,109994,1,8,0:0:0:0:
256,192,110144,5,0,0:0:0:0:
256,192,110219,1,0,0:0:0:0:
256,192,110294,1,0,0:0:0:0:
256,192,110444,5,8,0:0:0:0:
256,192,110594,5,0,0:0:0:0:
256,192,110894,5,8,0:0:0:0:
256,192,111044,5,0,0:0:0:0:
256,192,111194,1,0,0:0:0:0:
256,192,111269,1,0,0:0:0:0:
256,192,111344,5,8,0:0:0:0:
256,192,111494,5,0,0:0:0:0:
256,192,111644,5,8,0:0:0:0:
256,192,111794,1,8,0:0:0:0:
256,192,111944,5,0,0:0:0:0:
256,192,112094,1,0,0:0:0:0:
256,192,112244,5,8,0:0:0:0:
256,192,112844,5,8,0:0:0:0:
256,192,112994,5,0,0:0:0:0:
256,192,113294,5,8,0:0:0:0:
256,192,113444,5,0,0:0:0:0:
256,192,113594,1,0,0:0:0:0:
256,192,113669,1,0,0:0:0:0:
256,192,113744,5,8,0:0:0:0:
256,192,113894,5,0,0:0:0:0:
256,192,114044,5,8,0:0:0:0:
256,192,114194,5,0,0:0:0:0:
256,192,114494,5,8,0:0:0:0:
256,192,114644,5,0,0:0:0:0:
256,192,114719,1,0,0:0:0:0:
256,192,114794,1,0,0:0:0:0:
256,192,114944,5,8,0:0:0:0:
256,192,115019,1,8,0:0:0:0:
256,192,115094,1,8,0:0:0:0:
256,192,115244,5,0,0:0:0:0:
256,192,115394,5,8,0:0:0:0:
256,192,115694,5,8,0:0:0:0:
256,192,115844,5,0,0:0:0:0:
256,192,115994,1,0,0:0:0:0:
256,192,116069,1,0,0:0:0:0:
256,192,116144,5,8,0:0:0:0:
256,192,116294,5,0,0:0:0:0:
256,192,116444,6,0,L|96:192,3,140
256,192,117644,5,0,0:0:0:0:
256,192,117790,5,8,0:0:0:0:
256,192,118083,5,0,0:0:0:0:
256,192,118229,5,8,0:0:0:0:
256,192,118448,1,8,0:0:0:0:
256,192,118668,1,8,0:0:0:0:
256,192,118814,5,0,0:0:0:0:
256,192,119034,5,8,0:0:0:0:
256,192,119253,1,8,0:0:0:0:
256,192,119400,5,0,0:0:0:0:
256,192,119546,1,0,0:0:0:0:
256,192,119692,5,8,0:0:0:0:
256,192,119765,1,8,0:0:0:0:
256,192,119839,1,8,0:0:0:0:
256,192,119985,5,0,0:0:0:0:
256,192,120123,5,8,0:0:0:0:
256,192,120399,5,0,0:0:0:0:
256,192,120537,5,8,0:0:0:0:
256,192,120745,1,8,0:0:0:0:
256,192,120952,1,8,0:0:0:0:
256,192,121090,5,0,0:0:0:0:
256,192,121229,1,0,0:0:0:0:
256,192,121298,1,0,0:0:0:0:
256,192,121367,5,8,0:0:0:0:
256,192,121505,1,8,0:0:0:0:
256,192,121643,5,0,0:0:0:0:
256,192,122196,5,0,0:0:0:0:
256,192,122324,5,8,0:0:0:0:
256,192,122580,5,0,0:0:0:0:
256,192,122708,5,8,0:0:0:0:
256,192,122901,1,8,0:0:0:0:
256,192,123093,1,8,0:0:0:0:
256,192,123221,5,0,0:0:0:0:
256,192,123413,5,8,0:0:0:0:
256,192,123606,1,8,0:0:0:0:
256,192,123734,5,0,0:0:0:0:
256,192,123862,1,0,0:0:0:0:
256,192,123990,5,8,0:0:0:0:
256,192,124054,1,8,0:0:0:0:
256,192,124119,1,8,0:0:0:0:
256,192,124247,5,0,0:0:0:0:
256,192,124370,5,8,0:0:0:0:
256,192,124618,5,0,0:0:0:0:
256,192,124742,5,8,0:0:0:0:
256,192,124928,1,8,0:0:0:0:
256,192,125114,1,8,0:0:0:0:
256,192,125238,12,0,125734,0:0:0:0:
256,192,126230,5,0,0:0:0:0:
256,192,126462,5,8,0:0:0:0:
256,192,126578,5,8,0:0:0:0:
256,192,126695,5,0,0:0:0:0:
256,192,126927,5,8,0:0:0:0:
256,192,127160,5,0,0:0:0:0:
256,192,127392,5,8,0:0:0:0:
256,192,127509,1,8,0:0:0:0:
256,192,127625,5,0,0:0:0:0:
256,192,127741,1,0,0:0:0:0:
256,192,127857,5,8,0:0:0:0:
256,192,128090,5,0,0:0:0:0:
256,192,128203,1,0,0:0:0:0:
256,192,128259,1,0,0:0:0:0:
256,192,128316,5,8,0:0:0:0:
256,192,128429,1,8,0:0:0:0:
256,192,128542,5,0,0:0:0:0:
256,192,128656,1,0,0:0:0:0:
256,192,128769,5,8,0:0:0:0:
256,192,128882,1,8,0:0:0:0:
256,192,128995,5,0,0:0:0:0:
256,192,129108,5,8,0:0:0:0:
256,192,129222,5,0,0:0:0:0:
256,192,129335,5,8,0:0:0:0:
256,192,129448,5,0,0:0:0:0:
256,192,129901,5,0,0:0:0:0:
256,192,130115,5,8,0:0:0:0:
256,192,130222,1,8,0:0:0:0:
256,192,130329,5,0,0:0:0:0:
256,192,130543,5,8,0:0:0:0:
256,192,130758,5,0,0:0:0:0:
256,192,130972,5,8,0:0:0:0:
256,192,131079,1,8,0:0:0:0:
256,192,131186,5,0,0:0:0:0:
256,192,131293,1,0,0:0:0:0:
256,192,131347,1,0,0:0:0:0:
256,192,131401,5,8,0:0:0:0:
256,192,131615,5,0,0:0:0:0:
256,192,131718,1,0,0:0:0:0:
256,192,131821,5,8,0:0:0:0:
256,192,131925,1,8,0:0:0:0:
256,192,132028,5,0,0:0:0:0:
256,192,132235,5,8,0:0:0:0:
256,192,132442,12,0,132856,0:0:0:0:
256,192,133270,5,0,0:0:0:0:
256,192,133463,5,8,0:0:0:0:
256,192,133657,5,0,0:0:0:0:
256,192,133850,5,8,0:0:0:0:
256,192,134044,5,0,0:0:0:0:
256,192,134237,5,8,0:0:0:0:
256,192,134334,1,8,0:0:0:0:
256,192,134431,5,0,0:0:0:0:
256,192,134624,5,8,0:0:0:0:
256,192,134818,5,0,0:0:0:0:
256,192,134911,1,0,0:0:0:0:
256,192,135005,5,8,0:0:0:0:
256,192,135099,1,8,0:0:0:0:
256,192,135193,5,0,0:0:0:0:
256,192,135380,5,8,0:0:0:0:
256,192,135568,5,0,0:0:0:0:
256,192,135661,5,8,0:0:0:0:
256,192,135755,5,0,0:0:0:0:
256,192,135849,5,8,0:0:0:0:
256,192,135943,5,0,0:0:0:0:
256,192,136318,1,0,0:0:0:0:
256,192,136499,5,8,0:0:0:0:
256,192,136681,5,0,0:0:0:0:
256,192,136863,5,8,0:0:0:0:
256,192,137045,5,0,0:0:0:0:
256,192,137227,5,8,0:0:0:0:
256,192,137318,1,8,0:0:0:0:
256,192,137408,5,0,0:0:0:0:
256,192,137590,5,8,0:0:0:0:
256,192,137772,5,0,0:0:0:0:
256,192,137860,1,0,0:0:0:0:
256,192,137948,5,8,0:0:0:0:
256,192,138036,1,8,0:0:0:0:
256,192,138124,5,0,0:0:0:0:
256,192,138301,1,0,0:0:0:0:
256,192,138477,12,0,138830,0:0:0:0:
256,192,139183,5,0,0:0:0:0:
256,192,139349,5,8,0:0:0:0:
256,192,139516,5,8,0:0:0:0:
256,192,139683,5,0,0:0:0:0:
256,192,139849,5,8,0:0:0:0:
256,192,140016,5,0,0:0:0:0:
256,192,140183,5,8,0:0:0:0:
256,192,140349,1,8,0:0:0:0:
256,192,140516,5,0,0:0:0:0:
256,192,140678,5,8,0:0:0:0:
256,192,140840,5,0,0:0:0:0:
256,192,141002,5,8,0:0:0:0:
256,192,141164,5,0,0:0:0:0:
256,192,141326,5,0,0:0:0:0:
256,192,141488,5,8,0:0:0:0:
256,192,141813,5,0,0:0:0:0:
256,192,141970,5,8,0:0:0:0:
256,192,142128,5,8,0:0:0:0:
256,192,142286,5,0,0:0:0:0:
256,192,142444,5,8,0:0:0:0:
256,192,142602,5,0,0:0:0:0:
256,192,142760,5,8,0:0:0:0:
256,192,142918,5,8,0:0:0:0:
256,192,143076,5,0,0:0:0:0:
256,192,143229,5,8,0:0:0:0:
256,192,143383,5,0,0:0:0:0:
256,192,143537,5,8,0:0:0:0:
256,192,143691,5,0,0:0:0:0:
256,192,143845,1,0,0:0:0:0:
256,192,143999,5,8,0:0:0:0:
256,192,144152,1,8,0:0:0:0:
256,192,144306,12,0,147306,0:0:0:0:
256,192,149106,5,0,0:0:0:0:
256,192,149406,5,8,0:0:0:0:
256,192,149556,5,0,0:0:0:0:
256,192,149856,1,0,0:0:0:0:
256,192,150006,5,8,0:0:0:0:
256,192,150156,5,0,0:0:0:0:
256,192,150456,1,0,0:0:0:0:
256,192,150606,5,8,0:0:0:0:
256,192,150756,1,8,0:0:0:0:
256,192,150906,5,4,0:0:0:0:
256,192,151206,5,12,0:0:0:0:
256,192,151506,5,0,0:0:0:0:
256,192,151806,5,8,0:0:0:0:
256,192,151956,5,0,0:0:0:0:
256,192,152256,1,0,0:0:0:0:
256,192,152406,5,8,0:0:0:0:
256,192,152556,5,0,0:0:0:0:
256,192,152856,5,0,0:0:0:0:
256,192,153006,5,8,0:0:0:0:
256,192,153156,1,8,0:0:0:0:
256,192,153306,5,4,0:0:0:0:
256,192,153456,1,4,0:0:0:0:
256,192,153606,5,12,0:0:0:0:
256,192,153756,1,12,0:0:0:0:
256,192,153906,5,0,0:0:0:0:
256,192,154206,5,8,0:0:0:0:
256,192,154356,5,0,0:0:0:0:
256,192,154656,1,0,0:0:0:0:
256,192,154806,5,8,0:0:0:0:
256,192,154956,5,0,0:0:0:0:
256,192,155256,1,0,0:0:0:0:
256,192,155406,5,8,0:0:0:0:
256,192,155556,1,8,0:0:0:0:
256,192,155706,5,4,0:0:0:0:
256,192,156006,5,12,0:0:0:0:
256,192,156306,5,0,0:0:0:0:
256,192,156606,5,8,0:0:0:0:
256,192,156756,5,0,0:0:0:0:
256,192,157056,1,0,0:0:0:0:
256,192,157206,5,8,0:0:0:0:
256,192,157356,5,0,0:0:0:0:
256,192,157656,1,0,0:0:0:0:
256,192,157806,5,8,0:0:0:0:
256,192,157956,1,8,0:0:0:0:
256,192,158106,5,4,0:0:0:0:
256,192,158256,5,12,0:0:0:0:
256,192,158406,1,12,0:0:0:0:
256,192,158556,1,12,0:0:0:0:
256,192,158706,5,0,0:0:0:0:
256,192,159006,5,8,0:0:0:0:
256,192,159156,5,0,0:0:0:0:
256,192,159606,5,8,0:0:0:0:
256,192,159906,5,0,0:0:0:0:
256,192,160206,5,8,0:0:0:0:
256,192,160356,1,8,0:0:0:0:
256,192,160506,5,4,0:0:0:0:
256,192,160806,5,12,0:0:0:0:
256,192,161106,5,0,0:0:0:0:
256,192,161406,5,8,0:0:0:0:
256,192,161556,5,0,0:0:0:0:
256,192,162006,5,8,0:0:0:0:
256,192,162306,5,0,0:0:0:0:
256,192,162606,5,8,0:0:0:0:
256,192,162756,1,8,0:0:0:0:
256,192,162906,5,4,0:0:0:0:
256,192,163056,1,4,0:0:0:0:
256,192,163206,5,12,0:0:0:0:
256,192,163356,1,12,0:0:0:0:
256,192,163506,5,0,0:0:0:0:
256,192,163806,5,8,0:0:0:0:
256,192,163956,5,0,0:0:0:0:
256,192,164406,5,8,0:0:0:0:
256,192,164706,5,0,0:0:0:0:
256,192,165006,5,8,0:0:0:0:
256,192,165156,1,8,0:0:0:0:
256,192,165306,5,4,0:0:0:0:
256,192,165606,5,12,0:0:0:0:
256,192,165906,5,0,0:0:0:0:
256,192,166206,5,8,0:0:0:0:
256,192,166356,5,0,0:0:0:0:
256,192,166806,5,8,0:0:0:0:
256,192,167106,5,0,0:0:0:0:
256,192,167406,5,8,0:0:0:0:
256,192,167556,1,8,0:0:0:0:
256,192,167706,5,4,0:0:0:0:
256,192,167856,1,4,0:0:0:0:
256,192,168006,5,12,0:0:0:0:
256,192,168156,1,12,0:0:0:0:
256,192,168306,5,4,0:0:0:0:
