osu file format v14

[General]
AudioFilename: audio.mp3
AudioLeadIn: 2500
PreviewTime: 28844
Countdown: 0
SampleSet: Normal
StackLeniency: 0.7
Mode: 1
LetterboxInBreaks: 0
SkinPreference:taiko
WidescreenStoryboard: 1

[Editor]
Bookmarks: 9644,19244,38444,57719,67244,88844,98444,117644,126230,133270,139183,144306,147906,168306
DistanceSpacing: 1.2
BeatDivisor: 4
GridSize: 32
TimelineZoom: 1.539999

[Metadata]
Title:ROTTEL-DA-U.N.OHEN
TitleUnicode:ROTTEL-DA-U.N.OHEN
Artist:hapi=>
ArtistUnicode:hapi⇒
Creator:OnosakiHito
Version:Muzukashii
Source:東方紅魔郷 ~ the Embodiment of Scarlet Devil.
Tags:東方Project U.N.オーエンは彼女なのか? touhou u.n. owen was her flandre scarlet WORKS OVERGROUND 2 koumakyou eastern lands of the un wa kanojo nanoka? th06 フランドール・スカーレット eosd team shanghai alice zun electronic instrumental video game rotterdam
BeatmapID:1200898
BeatmapSetID:566481

[Difficulty]
HPDrainRate:6
CircleSize:5
OverallDifficulty:4
ApproachRate:5
SliderMultiplier:1.4
SliderTickRate:1

[Events]
//Background and Video events
0,0,"Taiko_BG.png",0,0
//Break Periods
//Storyboard Layer 0 (Background)
//Storyboard Layer 1 (Fail)
//Storyboard Layer 2 (Pass)
//Storyboard Layer 3 (Foreground)
//Storyboard Layer 4 (Overlay)
//Storyboard Sound Samples

[TimingPoints]
44,300,4,1,0,75,1,0
44,-66.6666666666667,4,1,0,75,0,0
1244,-100,4,1,0,75,0,0
2444,-66.6666666666667,4,1,0,75,0,0
3644,-100,4,1,0,75,0,0
4844,-66.6666666666667,4,1,0,75,0,0
6044,-100,4,1,0,75,0,0
7244,-66.6666666666667,4,1,0,75,0,0
8444,-100,4,1,0,75,0,0
57644,-100,4,1,0,75,0,1
67244,-66.6666666666667,4,1,0,75,0,0
68444,-100,4,1,0,75,0,0
88844,-133.333333333333,4,1,0,75,0,1
98444,-133.333333333333,4,1,0,75,0,0
100244,-100,4,1,0,75,0,0
108044,-100,4,1,0,75,0,0
117644,292.682926829268,4,1,0,75,1,0
117644,-100,4,1,0,75,0,0
117790,-99.8439439156598,4,1,0,75,0,0
118083,-99.5333874794961,4,1,0,75,0,0
118229,-99.3787832260539,4,1,0,75,0,0
118522,-99.0710111286467,4,1,0,75,0,0
118814,-98.7652370069392,4,1,0,75,0,0
119107,-98.4612476221609,4,1,0,75,0,0
119253,-98.3100502364357,4,1,0,75,0,0
119400,-98.1592201446278,4,1,0,75,0,0
119692,-97.8589441607079,4,1,0,75,0,0
119985,276.497695852535,4,1,0,75,1,0
119985,-103.271458976341,4,1,0,75,0,0
120123,-103.114222974813,4,1,0,75,0,0
120399,-102.801282846313,4,1,0,75,0,0
120537,-102.645474239238,4,1,0,75,0,0
120814,-102.335269631388,4,1,0,75,0,0
121090,-102.027032650014,4,1,0,75,0,0
121229,-101.873560405118,4,1,0,75,0,0
121367,-101.720549182214,4,1,0,75,0,0
121643,-101.415998682246,4,1,0,75,0,0
122196,256.410256410256,4,1,0,75,1,0
122196,-108.709973127266,4,1,0,75,0,0
122324,-108.548392322929,4,1,0,75,0,0
122580,-108.226770048824,4,1,0,75,0,0
122708,-108.066621409535,4,1,0,75,0,0
122965,-107.74774181569,4,1,0,75,0,0
123221,-107.430839675311,4,1,0,75,0,0
123478,-107.115695662885,4,1,0,75,0,0
123606,-106.958916211813,4,1,0,75,0,0
123734,-106.802495097982,4,1,0,75,0,0
123990,-106.491021407494,4,1,0,75,0,0
124247,247.933884297521,4,1,0,75,1,0
124247,-109.811593254591,4,1,0,75,0,0
124370,-109.652165885149,4,1,0,75,0,0
124618,-109.334797154584,4,1,0,75,0,0
124742,-109.176750233574,4,1,0,75,0,0
124990,-108.862023211048,4,1,0,75,0,0
125238,-108.54920533235,4,1,0,75,0,0
126230,232.558139534884,4,1,0,75,1,1
126230,-114.410752695038,4,1,0,75,0,1
126578,-113.925128008459,4,1,0,75,0,1
126695,-113.764270774221,4,1,0,75,0,1
126927,-113.443710692771,4,1,0,75,0,1
127160,-113.125053739881,4,1,0,75,0,1
127392,-112.808080836347,4,1,0,75,0,1
127509,-112.650259563881,4,1,0,75,0,1
127625,-112.492979816732,4,1,0,75,0,1
127857,-112.179534213616,4,1,0,75,0,1
128090,226.415094339623,4,1,0,75,1,1
128090,-114.9031063296,4,1,0,75,0,1
128429,-114.426186462998,4,1,0,75,0,1
128542,-114.268192752158,4,1,0,75,0,1
128769,-113.953309716904,4,1,0,75,0,1
128995,-113.640257228367,4,1,0,75,0,1
129108,-113.48432529875,4,1,0,75,0,1
129222,-113.328820707989,4,1,0,75,0,1
129448,-113.019185347903,4,1,0,75,0,1
129901,214.285714285714,4,1,0,75,1,1
129901,-118.767404726909,4,1,0,75,0,1
130222,-118.285120071965,4,1,0,75,0,1
130329,-118.125329920355,4,1,0,75,0,1
130543,-117.806838060049,4,1,0,75,0,1
130758,-117.49016009419,4,1,0,75,0,1
130972,-117.175079572341,4,1,0,75,0,1
131079,-117.018172190778,4,1,0,75,0,1
131186,-116.861784458163,4,1,0,75,0,1
131401,-116.550060759003,4,1,0,75,0,1
131615,206.896551724138,4,1,0,75,1,1
131615,-120.391526528854,4,1,0,75,0,1
131925,-119.913008487753,4,1,0,75,0,1
132028,-119.754346669838,4,1,0,75,0,1
132235,-119.43838014374,4,1,0,75,0,1
132442,-119.123976244954,4,1,0,75,0,1
133270,193.548387096774,4,1,0,75,1,1
133270,-126.012794810744,4,1,0,75,0,1
133463,-125.685497827486,4,1,0,75,0,1
133657,-125.359792714752,4,1,0,75,0,1
133850,-125.035874708326,4,1,0,75,0,1
134044,-124.713523481897,4,1,0,75,0,1
134237,-124.392932394849,4,1,0,75,0,1
134431,-124.073883516156,4,1,0,75,0,1
134818,187.5,4,1,0,75,1,1
134818,-127.422731701663,4,1,0,75,0,1
135005,-127.098510600075,4,1,0,75,0,1
135193,-126.775832279377,4,1,0,75,0,1
135380,-126.454890685378,4,1,0,75,0,1
135568,-126.135468034227,4,1,0,75,0,1
135755,-125.817756439785,4,1,0,75,0,1
135943,-125.501540433361,4,1,0,75,0,1
136318,181.818181818182,4,1,0,75,1,1
136318,-128.776263943421,4,1,0,75,0,1
136499,-128.455136634809,4,1,0,75,0,1
136681,-128.135504927276,4,1,0,75,0,1
136863,-127.817561424133,4,1,0,75,0,1
137045,-127.501090858765,4,1,0,75,0,1
137227,-127.18628404613,4,1,0,75,0,1
137408,-126.872927958437,4,1,0,75,0,1
137772,176.470588235294,4,1,0,75,1,1
137772,-130.076709870307,4,1,0,75,0,1
137948,-129.758685101814,4,1,0,75,0,1
138124,-129.44211059473,4,1,0,75,0,1
138477,-128.813673238014,4,1,0,75,0,1
139183,166.666666666667,4,1,0,75,1,1
139183,-135.079336315447,4,1,0,75,0,1
139349,-134.755417233279,4,1,0,75,0,1
139516,-134.432945033729,4,1,0,75,0,1
139683,-134.112114934082,4,1,0,75,0,1
139849,-133.792710605196,4,1,0,75,0,1
140016,-133.474925511722,4,1,0,75,0,1
140183,-133.158545481096,4,1,0,75,0,1
140516,162.162162162162,4,1,0,75,1,1
140516,-136.211762758206,4,1,0,75,0,1
140840,-135.572194538624,4,1,0,75,0,1
141164,-134.938604302663,4,1,0,75,0,1
141326,-134.624075005257,4,1,0,75,0,1
141488,-134.310908626728,4,1,0,75,0,1
141813,157.894736842105,4,1,0,75,1,1
141813,-137.302242541268,4,1,0,75,0,1
141970,-136.985160649888,4,1,0,75,0,1
142128,-136.669439138113,4,1,0,75,0,1
142286,-136.355169620987,4,1,0,75,0,1
142444,-136.042441948229,4,1,0,75,0,1
142602,-135.731046074707,4,1,0,75,0,1
142760,-135.421171425206,4,1,0,75,0,1
143076,153.846153846154,4,1,0,75,1,1
143076,-138.353063928818,4,1,0,75,0,1
143383,-137.72695990408,4,1,0,75,0,1
143691,-137.106497102491,4,1,0,75,0,1
143845,-136.798308204799,4,1,0,75,0,1
143999,-136.491599624501,4,1,0,75,0,1
144306,150,4,1,0,75,1,1
146106,-142.857142857143,4,1,0,75,0,0
147906,300,4,1,0,75,1,0
147906,-71.4285714285714,4,1,0,75,0,0
149106,300,4,1,0,75,1,0

[HitObjects]
256,192,44,5,4,0:0:0:0:
256,192,494,1,4,0:0:0:0:
256,192,944,1,4,0:0:0:0:
256,192,1394,5,8,0:0:0:0:
256,192,1694,1,8,0:0:0:0:
256,192,1844,1,8,0:0:0:0:
256,192,2444,5,4,0:0:0:0:
256,192,2894,1,4,0:0:0:0:
256,192,3344,1,4,0:0:0:0:
256,192,3794,5,8,0:0:0:0:
256,192,4094,1,8,0:0:0:0:
256,192,4244,1,8,0:0:0:0:
256,192,4544,1,8,0:0:0:0:
256,192,4844,5,4,0:0:0:0:
256,192,5294,1,4,0:0:0:0:
256,192,5744,1,4,0:0:0:0:
256,192,6194,5,8,0:0:0:0:
256,192,6494,1,8,0:0:0:0:
256,192,6644,1,8,0:0:0:0:
256,192,7244,5,4,0:0:0:0:
256,192,7694,1,4,0:0:0:0:
256,192,8144,1,4,0:0:0:0:
256,192,8594,5,8,0:0:0:0:
256,192,8894,1,8,0:0:0:0:
256,192,9044,1,8,0:0:0:0:
256,192,9194,1,8,0:0:0:0:
256,192,9344,1,8,0:0:0:0:
256,192,9644,5,0,0:0:0:0:
256,192,9944,5,8,0:0:0:0:
256,192,10394,5,0,0:0:0:0:
256,192,10544,5,8,0:0:0:0:
256,192,10844,1,0,0:0:0:0:
256,192,11444,5,12,0:0:0:0:
256,192,11744,1,12,0:0:0:0:
256,192,12044,5,0,0:0:0:0:
256,192,12344,5,8,0:0:0:0:
256,192,12794,5,0,0:0:0:0:
256,192,12944,5,8,0:0:0:0:
256,192,13244,5,0,0:0:0:0:
256,192,13544,5,8,0:0:0:0:
256,192,13844,1,12,0:0:0:0:
256,192,14144,1,12,0:0:0:0:
256,192,14444,5,0,0:0:0:0:
256,192,14744,5,8,0:0:0:0:
256,192,15194,5,0,0:0:0:0:
256,192,15344,5,8,0:0:0:0:
256,192,15644,5,0,0:0:0:0:
256,192,16244,5,12,0:0:0:0:
256,192,16544,1,12,0:0:0:0:
256,192,16844,5,0,0:0:0:0:
256,192,17144,5,8,0:0:0:0:
256,192,17594,5,0,0:0:0:0:
256,192,17744,5,8,0:0:0:0:
256,192,18044,5,0,0:0:0:0:
256,192,18644,5,12,0:0:0:0:
256,192,18944,1,12,0:0:0:0:
256,192,19244,5,4,0:0:0:0:
256,192,19844,1,0,0:0:0:0:
256,192,20144,1,0,0:0:0:0:
256,192,20444,1,0,0:0:0:0:
256,192,20894,1,0,0:0:0:0:
256,192,21044,1,0,0:0:0:0:
256,192,21344,1,0,0:0:0:0:
256,192,21494,1,0,0:0:0:0:
256,192,21644,1,4,0:0:0:0:
256,192,22244,1,0,0:0:0:0:
256,192,22544,1,0,0:0:0:0:
256,192,22844,1,0,0:0:0:0:
256,192,23069,1,0,0:0:0:0:
256,192,23294,1,0,0:0:0:0:
256,192,23444,1,0,0:0:0:0:
256,192,23594,1,0,0:0:0:0:
256,192,23744,1,0,0:0:0:0:
256,192,24044,1,4,0:0:0:0:
256,192,24644,1,0,0:0:0:0:
256,192,24944,1,0,0:0:0:0:
256,192,25244,1,0,0:0:0:0:
256,192,25694,1,0,0:0:0:0:
256,192,25844,1,0,0:0:0:0:
256,192,26144,1,0,0:0:0:0:
256,192,26294,1,0,0:0:0:0:
256,192,26444,1,4,0:0:0:0:
256,192,27044,1,0,0:0:0:0:
256,192,27344,1,0,0:0:0:0:
256,192,27644,1,0,0:0:0:0:
256,192,27869,1,0,0:0:0:0:
256,192,28094,1,0,0:0:0:0:
256,192,28244,1,0,0:0:0:0:
256,192,28394,1,0,0:0:0:0:
256,192,28544,1,0,0:0:0:0:
256,192,28844,5,12,0:0:0:0:
256,192,33644,5,4,0:0:0:0:
256,192,34244,1,4,0:0:0:0:
256,192,34844,1,4,0:0:0:0:
256,192,35144,1,0,0:0:0:0:
256,192,35294,1,4,0:0:0:0:
256,192,35594,5,0,0:0:0:0:
256,192,35894,1,0,0:0:0:0:
256,192,36044,1,4,0:0:0:0:
256,192,36644,1,4,0:0:0:0:
256,192,37244,1,0,0:0:0:0:
256,192,37394,1,0,0:0:0:0:
256,192,37544,5,8,0:0:0:0:
256,192,37619,1,8,0:0:0:0:
256,192,37694,1,8,0:0:0:0:
256,192,37844,5,0,0:0:0:0:
256,192,38444,5,4,0:0:0:0:
256,192,38744,5,8,0:0:0:0:
256,192,38894,5,0,0:0:0:0:
256,192,39194,1,0,0:0:0:0:
256,192,39344,5,8,0:0:0:0:
256,192,39494,1,8,0:0:0:0:
256,192,39644,5,0,0:0:0:0:
256,192,39794,1,0,0:0:0:0:
256,192,39944,5,8,0:0:0:0:
256,192,40094,5,0,0:0:0:0:
256,192,40394,1,0,0:0:0:0:
256,192,40544,5,8,0:0:0:0:
256,192,40694,1,8,0:0:0:0:
256,192,40844,5,0,0:0:0:0:
256,192,41144,5,8,0:0:0:0:
256,192,41294,5,0,0:0:0:0:
256,192,41594,1,0,0:0:0:0:
256,192,41744,5,8,0:0:0:0:
256,192,41894,1,8,0:0:0:0:
256,192,42044,5,0,0:0:0:0:
256,192,42194,1,0,0:0:0:0:
256,192,42344,5,8,0:0:0:0:
256,192,42494,5,0,0:0:0:0:
256,192,42644,1,0,0:0:0:0:
256,192,42944,5,8,0:0:0:0:
256,192,43094,1,8,0:0:0:0:
256,192,43244,5,0,0:0:0:0:
256,192,43544,5,8,0:0:0:0:
256,192,43694,5,0,0:0:0:0:
256,192,43994,1,0,0:0:0:0:
256,192,44144,5,8,0:0:0:0:
256,192,44294,1,8,0:0:0:0:
256,192,44444,5,0,0:0:0:0:
256,192,44594,1,0,0:0:0:0:
256,192,44744,5,8,0:0:0:0:
256,192,44894,5,0,0:0:0:0:
256,192,45194,1,0,0:0:0:0:
256,192,45344,5,8,0:0:0:0:
256,192,45494,1,8,0:0:0:0:
256,192,45644,5,0,0:0:0:0:
256,192,45944,5,8,0:0:0:0:
256,192,46094,5,0,0:0:0:0:
256,192,46394,1,0,0:0:0:0:
256,192,46544,5,8,0:0:0:0:
256,192,46694,1,8,0:0:0:0:
256,192,46844,5,0,0:0:0:0:
256,192,46994,1,0,0:0:0:0:
256,192,47144,5,8,0:0:0:0:
256,192,47294,5,0,0:0:0:0:
256,192,47444,1,0,0:0:0:0:
256,192,47594,5,8,0:0:0:0:
256,192,47744,1,8,0:0:0:0:
256,192,47894,1,8,0:0:0:0:
256,192,48044,5,4,0:0:0:0:
256,192,48644,5,8,0:0:0:0:
256,192,49244,1,8,0:0:0:0:
256,192,49844,5,4,0:0:0:0:
256,192,50144,5,8,0:0:0:0:
256,192,50444,5,0,0:0:0:0:
256,192,50594,5,8,0:0:0:0:
256,192,50744,1,8,0:0:0:0:
256,192,50894,5,0,0:0:0:0:
256,192,51044,5,8,0:0:0:0:
256,192,51194,5,0,0:0:0:0:
256,192,51344,5,8,0:0:0:0:
256,192,51494,1,8,0:0:0:0:
256,192,51644,5,0,0:0:0:0:
256,192,51794,5,8,0:0:0:0:
256,192,51944,5,0,0:0:0:0:
256,192,52094,5,8,0:0:0:0:
256,192,52244,5,0,0:0:0:0:
256,192,52844,5,0,0:0:0:0:
256,192,53144,5,8,0:0:0:0:
256,192,53444,5,0,0:0:0:0:
256,192,53744,5,8,0:0:0:0:
256,192,54044,5,0,0:0:0:0:
256,192,54344,5,8,0:0:0:0:
256,192,54494,1,8,0:0:0:0:
256,192,54644,5,0,0:0:0:0:
256,192,54944,1,8,0:0:0:0:
256,192,55244,5,0,0:0:0:0:
256,192,55394,5,8,0:0:0:0:
256,192,55544,1,8,0:0:0:0:
256,192,55694,5,0,0:0:0:0:
256,192,55844,5,8,0:0:0:0:
256,192,55994,5,0,0:0:0:0:
256,192,56144,5,8,0:0:0:0:
256,192,56294,1,8,0:0:0:0:
256,192,56444,6,0,L|96:192,3,140
256,192,57644,5,0,0:0:0:0:
256,192,57794,1,0,0:0:0:0:
256,192,58094,5,8,0:0:0:0:
256,192,58244,5,0,0:0:0:0:
256,192,58469,5,8,0:0:0:0:
256,192,58694,1,8,0:0:0:0:
256,192,58844,5,0,0:0:0:0:
256,192,58994,1,0,0:0:0:0:
256,192,59144,5,8,0:0:0:0:
256,192,59294,1,8,0:0:0:0:
256,192,59444,5,0,0:0:0:0:
256,192,59744,5,8,0:0:0:0:
256,192,60044,5,0,0:0:0:0:
256,192,60194,1,0,0:0:0:0:
256,192,60494,5,8,0:0:0:0:
256,192,60644,5,0,0:0:0:0:
256,192,60869,5,8,0:0:0:0:
256,192,61094,1,8,0:0:0:0:
256,192,61244,5,0,0:0:0:0:
256,192,61394,1,0,0:0:0:0:
256,192,61544,5,8,0:0:0:0:
256,192,61694,1,8,0:0:0:0:
256,192,61844,5,0,0:0:0:0:
256,192,62444,5,0,0:0:0:0:
256,192,62594,1,0,0:0:0:0:
256,192,62894,5,8,0:0:0:0:
256,192,63044,5,0,0:0:0:0:
256,192,63269,5,8,0:0:0:0:
256,192,63494,1,8,0:0:0:0:
256,192,63644,5,0,0:0:0:0:
256,192,63794,1,0,0:0:0:0:
256,192,63944,5,8,0:0:0:0:
256,192,64094,1,8,0:0:0:0:
256,192,64244,5,0,0:0:0:0:
256,192,64544,1,8,0:0:0:0:
256,192,64844,5,0,0:0:0:0:
256,192,64994,1,0,0:0:0:0:
256,192,65294,5,8,0:0:0:0:
256,192,65444,5,0,0:0:0:0:
256,192,65669,5,8,0:0:0:0:
256,192,65894,1,8,0:0:0:0:
256,192,66044,12,0,66944,0:0:0:0:
256,192,67244,5,4,0:0:0:0:
256,192,68444,5,12,0:0:0:0:
256,192,68744,1,12,0:0:0:0:
256,192,69044,1,12,0:0:0:0:
256,192,69644,5,0,0:0:0:0:
256,192,69794,1,0,0:0:0:0:
256,192,69944,5,8,0:0:0:0:
256,192,70244,5,0,0:0:0:0:
256,192,70544,5,8,0:0:0:0:
256,192,70694,1,8,0:0:0:0:
256,192,70844,5,0,0:0:0:0:
256,192,70994,1,0,0:0:0:0:
256,192,71144,5,8,0:0:0:0:
256,192,71444,5,0,0:0:0:0:
256,192,72044,1,0,0:0:0:0:
256,192,72344,5,8,0:0:0:0:
256,192,72494,1,8,0:0:0:0:
256,192,72644,5,0,0:0:0:0:
256,192,72944,5,8,0:0:0:0:
256,192,73244,5,0,0:0:0:0:
256,192,73394,1,0,0:0:0:0:
256,192,73544,5,8,0:0:0:0:
256,192,73694,1,8,0:0:0:0:
256,192,73844,5,0,0:0:0:0:
256,192,74444,1,0,0:0:0:0:
256,192,74594,1,0,0:0:0:0:
256,192,74744,5,8,0:0:0:0:
256,192,75044,5,0,0:0:0:0:
256,192,75344,5,8,0:0:0:0:
256,192,75494,1,8,0:0:0:0:
256,192,75644,5,0,0:0:0:0:
256,192,75794,1,0,0:0:0:0:
256,192,75944,5,8,0:0:0:0:
256,192,76244,5,0,0:0:0:0:
256,192,76844,1,0,0:0:0:0:
256,192,77144,5,8,0:0:0:0:
256,192,77294,1,8,0:0:0:0:
256,192,77444,5,0,0:0:0:0:
256,192,77744,5,8,0:0:0:0:
256,192,78044,5,0,0:0:0:0:
256,192,78194,1,0,0:0:0:0:
256,192,78344,5,8,0:0:0:0:
256,192,78494,1,8,0:0:0:0:
256,192,78644,5,0,0:0:0:0:
256,192,79244,1,0,0:0:0:0:
256,192,79394,1,0,0:0:0:0:
256,192,79544,5,8,0:0:0:0:
256,192,79844,5,0,0:0:0:0:
256,192,80144,5,8,0:0:0:0:
256,192,80294,1,8,0:0:0:0:
256,192,80444,5,0,0:0:0:0:
256,192,80594,1,0,0:0:0:0:
256,192,80744,5,8,0:0:0:0:
256,192,81044,5,0,0:0:0:0:
256,192,81194,1,0,0:0:0:0:
256,192,81344,5,8,0:0:0:0:
256,192,81644,5,0,0:0:0:0:
256,192,81944,5,8,0:0:0:0:
256,192,82094,1,8,0:0:0:0:
256,192,82244,5,0,0:0:0:0:
256,192,82544,5,8,0:0:0:0:
256,192,82844,5,0,0:0:0:0:
256,192,82994,1,0,0:0:0:0:
256,192,83144,5,8,0:0:0:0:
256,192,83294,1,8,0:0:0:0:
256,192,83444,5,0,0:0:0:0:
256,192,84044,5,0,0:0:0:0:
256,192,84194,1,0,0:0:0:0:
256,192,84344,5,8,0:0:0:0:
256,192,84644,5,0,0:0:0:0:
256,192,84944,5,8,0:0:0:0:
256,192,85094,1,8,0:0:0:0:
256,192,85244,5,0,0:0:0:0:
256,192,85394,1,0,0:0:0:0:
256,192,85544,5,8,0:0:0:0:
256,192,85844,5,0,0:0:0:0:
256,192,85994,1,0,0:0:0:0:
256,192,86144,5,8,0:0:0:0:
256,192,86444,5,0,0:0:0:0:
256,192,86744,5,8,0:0:0:0:
256,192,86894,1,8,0:0:0:0:
256,192,87044,5,0,0:0:0:0:
256,192,87344,5,8,0:0:0:0:
256,192,87644,5,4,0:0:0:0:
256,192,87944,1,4,0:0:0:0:
256,192,88244,1,4,0:0:0:0:
256,192,88844,1,0,0:0:0:0:
256,192,89144,5,8,0:0:0:0:
256,192,89444,5,0,0:0:0:0:
256,192,89644,1,0,0:0:0:0:
256,192,89744,5,8,0:0:0:0:
256,192,90044,5,0,0:0:0:0:
256,192,90244,1,0,0:0:0:0:
256,192,90344,5,8,0:0:0:0:
256,192,90644,5,4,0:0:0:0:
256,192,91244,5,8,0:0:0:0:
256,192,91544,5,0,0:0:0:0:
256,192,91844,5,8,0:0:0:0:
256,192,92044,1,8,0:0:0:0:
256,192,92144,5,0,0:0:0:0:
256,192,92444,5,8,0:0:0:0:
256,192,92644,1,8,0:0:0:0:
256,192,92744,5,0,0:0:0:0:
256,192,93044,5,12,0:0:0:0:
256,192,93644,5,0,0:0:0:0:
256,192,93944,5,8,0:0:0:0:
256,192,94244,5,0,0:0:0:0:
256,192,94444,1,0,0:0:0:0:
256,192,94544,5,8,0:0:0:0:
256,192,94844,5,0,0:0:0:0:
256,192,95044,1,0,0:0:0:0:
256,192,95144,5,8,0:0:0:0:
256,192,95444,5,4,0:0:0:0:
256,192,96044,5,8,0:0:0:0:
256,192,96344,5,0,0:0:0:0:
256,192,96644,5,8,0:0:0:0:
256,192,96844,1,8,0:0:0:0:
256,192,96944,5,0,0:0:0:0:
256,192,97244,5,8,0:0:0:0:
256,192,97444,1,8,0:0:0:0:
256,192,97544,5,0,0:0:0:0:
256,192,97844,5,12,0:0:0:0:
256,192,98444,5,4,0:0:0:0:
256,192,100244,1,0,0:0:0:0:
256,192,100544,5,8,0:0:0:0:
256,192,100844,5,0,0:0:0:0:
256,192,100994,5,8,0:0:0:0:
256,192,101144,5,8,0:0:0:0:
256,192,101294,5,0,0:0:0:0:
256,192,101444,5,8,0:0:0:0:
256,192,101594,5,0,0:0:0:0:
256,192,101744,5,8,0:0:0:0:
256,192,101894,1,8,0:0:0:0:
256,192,102044,5,0,0:0:0:0:
256,192,102194,5,8,0:0:0:0:
256,192,102344,5,0,0:0:0:0:
256,192,102494,5,8,0:0:0:0:
256,192,102644,5,0,0:0:0:0:
256,192,103244,1,0,0:0:0:0:
256,192,103544,5,8,0:0:0:0:
256,192,103844,5,0,0:0:0:0:
256,192,104144,5,8,0:0:0:0:
256,192,104444,5,0,0:0:0:0:
256,192,104744,5,8,0:0:0:0:
256,192,104894,1,8,0:0:0:0:
256,192,105044,5,0,0:0:0:0:
256,192,105344,5,8,0:0:0:0:
256,192,105644,5,0,0:0:0:0:
256,192,105794,5,8,0:0:0:0:
256,192,105944,1,8,0:0:0:0:
256,192,106094,5,0,0:0:0:0:
256,192,106244,5,8,0:0:0:0:
256,192,106394,5,0,0:0:0:0:
256,192,106544,5,8,0:0:0:0:
256,192,106694,1,8,0:0:0:0:
256,192,106844,6,0,L|96:192,3,140
256,192,108044,5,8,0:0:0:0:
256,192,108194,1,8,0:0:0:0:
256,192,108494,5,0,0:0:0:0:
256,192,108644,5,8,0:0:0:0:
256,192,108869,5,0,0:0:0:0:
256,192,109094,1,0,0:0:0:0:
256,192,109244,5,8,0:0:0:0:
256,192,109394,1,8,0:0:0:0:
256,192,109544,5,0,0:0:0:0:
256,192,109694,1,0,0:0:0:0:
256,192,109844,5,8,0:0:0:0:
256,192,110144,5,0,0:0:0:0:
256,192,110444,5,8,0:0:0:0:
256,192,110594,1,8,0:0:0:0:
256,192,110894,5,0,0:0:0:0:
256,192,111044,5,8,0:0:0:0:
256,192,111269,5,8,0:0:0:0:
256,192,111494,5,0,0:0:0:0:
256,192,111644,5,8,0:0:0:0:
256,192,111794,1,8,0:0:0:0:
256,192,111944,5,0,0:0:0:0:
256,192,112094,1,0,0:0:0:0:
256,192,112244,5,8,0:0:0:0:
256,192,112844,5,8,0:0:0:0:
256,192,112994,1,8,0:0:0:0:
256,192,113294,5,0,0:0:0:0:
256,192,113444,5,8,0:0:0:0:
256,192,113669,5,0,0:0:0:0:
256,192,113894,1,0,0:0:0:0:
256,192,114044,5,8,0:0:0:0:
256,192,114194,1,8,0:0:0:0:
256,192,114344,5,0,0:0:0:0:
256,192,114494,1,0,0:0:0:0:
256,192,114644,5,8,0:0:0:0:
256,192,114944,5,0,0:0:0:0:
256,192,115244,5,8,0:0:0:0:
256,192,115394,5,8,0:0:0:0:
256,192,115694,5,0,0:0:0:0:
256,192,115844,5,8,0:0:0:0:
256,192,116069,5,0,0:0:0:0:
256,192,116294,1,0,0:0:0:0:
256,192,116444,12,0,117344,0:0:0:0:
256,192,117644,5,0,0:0:0:0:
256,192,117790,5,8,0:0:0:0:
256,192,118083,1,8,0:0:0:0:
256,192,118229,5,0,0:0:0:0:
256,192,118522,5,8,0:0:0:0:
256,192,118814,5,0,0:0:0:0:
256,192,119107,5,8,0:0:0:0:
256,192,119253,1,8,0:0:0:0:
256,192,119400,5,0,0:0:0:0:
256,192,119692,5,8,0:0:0:0:
256,192,119985,5,0,0:0:0:0:
256,192,120123,5,8,0:0:0:0:
256,192,120399,1,8,0:0:0:0:
256,192,120537,5,0,0:0:0:0:
256,192,120814,5,8,0:0:0:0:
256,192,121090,5,0,0:0:0:0:
256,192,121229,1,0,0:0:0:0:
256,192,121367,5,8,0:0:0:0:
256,192,121643,5,0,0:0:0:0:
256,192,122196,1,0,0:0:0:0:
256,192,122324,5,8,0:0:0:0:
256,192,122580,1,8,0:0:0:0:
256,192,122708,5,0,0:0:0:0:
256,192,122965,5,8,0:0:0:0:
256,192,123221,5,0,0:0:0:0:
256,192,123478,5,8,0:0:0:0:
256,192,123606,1,8,0:0:0:0:
256,192,123734,5,0,0:0:0:0:
256,192,123990,5,8,0:0:0:0:
256,192,124247,5,0,0:0:0:0:
256,192,124370,5,8,0:0:0:0:
256,192,124618,1,8,0:0:0:0:
256,192,124742,5,0,0:0:0:0:
256,192,124990,5,8,0:0:0:0:
256,192,125238,12,0,125734,0:0:0:0:
256,192,126230,5,0,0:0:0:0:
256,192,126578,5,8,0:0:0:0:
256,192,126695,5,0,0:0:0:0:
256,192,126927,5,8,0:0:0:0:
256,192,127160,5,0,0:0:0:0:
256,192,127392,5,8,0:0:0:0:
256,192,127509,1,8,0:0:0:0:
256,192,127625,5,0,0:0:0:0:
256,192,127857,5,8,0:0:0:0:
256,192,128090,5,0,0:0:0:0:
256,192,128429,5,8,0:0:0:0:
256,192,128542,5,0,0:0:0:0:
256,192,128769,5,8,0:0:0:0:
256,192,128995,5,0,0:0:0:0:
256,192,129108,1,0,0:0:0:0:
256,192,129222,5,8,0:0:0:0:
256,192,129448,5,0,0:0:0:0:
256,192,129901,1,0,0:0:0:0:
256,192,130222,5,8,0:0:0:0:
256,192,130329,5,0,0:0:0:0:
256,192,130543,5,8,0:0:0:0:
256,192,130758,5,0,0:0:0:0:
256,192,130972,5,8,0:0:0:0:
256,192,131079,1,8,0:0:0:0:
256,192,131186,5,0,0:0:0:0:
256,192,131401,5,8,0:0:0:0:
256,192,131615,5,0,0:0:0:0:
256,192,131925,5,8,0:0:0:0:
256,192,132028,5,0,0:0:0:0:
256,192,132235,5,8,0:0:0:0:
256,192,132442,12,8,132856,0:0:0:0:
256,192,133270,5,0,0:0:0:0:
256,192,133463,5,8,0:0:0:0:
256,192,133657,5,0,0:0:0:0:
256,192,133850,5,8,0:0:0:0:
256,192,134044,5,0,0:0:0:0:
256,192,134237,5,0,0:0:0:0:
256,192,134431,5,8,0:0:0:0:
256,192,134818,5,0,0:0:0:0:
256,192,135005,5,8,0:0:0:0:
256,192,135193,1,8,0:0:0:0:
256,192,135380,5,0,0:0:0:0:
256,192,135568,1,0,0:0:0:0:
256,192,135755,5,8,0:0:0:0:
256,192,135943,5,0,0:0:0:0:
256,192,136318,5,0,0:0:0:0:
256,192,136499,5,8,0:0:0:0:
256,192,136681,5,0,0:0:0:0:
256,192,136863,5,8,0:0:0:0:
256,192,137045,5,0,0:0:0:0:
256,192,137227,1,0,0:0:0:0:
256,192,137408,5,8,0:0:0:0:
256,192,137772,5,0,0:0:0:0:
256,192,137948,5,8,0:0:0:0:
256,192,138124,1,8,0:0:0:0:
256,192,138301,5,0,0:0:0:0:
256,192,138477,1,0,0:0:0:0:
256,192,139183,1,0,0:0:0:0:
256,192,139349,5,8,0:0:0:0:
256,192,139516,5,0,0:0:0:0:
256,192,139683,5,8,0:0:0:0:
256,192,139849,5,0,0:0:0:0:
256,192,140016,5,0,0:0:0:0:
256,192,140183,5,8,0:0:0:0:
256,192,140516,5,8,0:0:0:0:
256,192,140840,1,8,0:0:0:0:
256,192,141164,5,0,0:0:0:0:
256,192,141326,1,0,0:0:0:0:
256,192,141488,1,0,0:0:0:0:
256,192,141813,1,0,0:0:0:0:
256,192,141970,5,8,0:0:0:0:
256,192,142128,5,0,0:0:0:0:
256,192,142286,5,8,0:0:0:0:
256,192,142444,5,0,0:0:0:0:
256,192,142602,5,0,0:0:0:0:
256,192,142760,5,8,0:0:0:0:
256,192,143076,5,8,0:0:0:0:
256,192,143229,1,8,0:0:0:0:
256,192,143383,1,8,0:0:0:0:
256,192,143537,1,8,0:0:0:0:
256,192,143691,5,0,0:0:0:0:
256,192,143845,1,0,0:0:0:0:
256,192,143999,1,0,0:0:0:0:
256,192,144152,5,8,0:0:0:0:
256,192,144306,12,0,147306,0:0:0:0:
256,192,149106,5,0,0:0:0:0:
256,192,149406,5,8,0:0:0:0:
256,192,149856,5,0,0:0:0:0:
256,192,150006,5,8,0:0:0:0:
256,192,150306,5,0,0:0:0:0:
256,192,150906,5,8,0:0:0:0:
256,192,151206,1,8,0:0:0:0:
256,192,151506,5,0,0:0:0:0:
256,192,151806,5,8,0:0:0:0:
256,192,152256,5,0,0:0:0:0:
256,192,152406,5,8,0:0:0:0:
256,192,152706,5,0,0:0:0:0:
256,192,153306,5,8,0:0:0:0:
256,192,153456,1,8,0:0:0:0:
256,192,153606,1,8,0:0:0:0:
256,192,153906,5,0,0:0:0:0:
256,192,154206,5,8,0:0:0:0:
256,192,154656,5,0,0:0:0:0:
256,192,154806,5,8,0:0:0:0:
256,192,155106,5,0,0:0:0:0:
256,192,155706,5,8,0:0:0:0:
256,192,156006,1,8,0:0:0:0:
256,192,156306,5,0,0:0:0:0:
256,192,156606,5,8,0:0:0:0:
256,192,157056,5,0,0:0:0:0:
256,192,157206,5,8,0:0:0:0:
256,192,157506,5,0,0:0:0:0:
256,192,157806,5,8,0:0:0:0:
256,192,158106,1,8,0:0:0:0:
256,192,158256,1,8,0:0:0:0:
256,192,158406,1,8,0:0:0:0:
256,192,158706,5,0,0:0:0:0:
256,192,159006,1,0,0:0:0:0:
256,192,159606,1,0,0:0:0:0:
256,192,159906,1,0,0:0:0:0:
256,192,160206,1,0,0:0:0:0:
256,192,160506,5,8,0:0:0:0:
256,192,160806,1,8,0:0:0:0:
256,192,161106,5,0,0:0:0:0:
256,192,161406,1,0,0:0:0:0:
256,192,162006,1,0,0:0:0:0:
256,192,162306,1,0,0:0:0:0:
256,192,162606,1,0,0:0:0:0:
256,192,162906,5,8,0:0:0:0:
256,192,163056,1,8,0:0:0:0:
256,192,163206,1,8,0:0:0:0:
256,192,163506,5,0,0:0:0:0:
256,192,163806,1,0,0:0:0:0:
256,192,164406,1,0,0:0:0:0:
256,192,164706,1,0,0:0:0:0:
256,192,165006,1,0,0:0:0:0:
256,192,165306,5,8,0:0:0:0:
256,192,165606,1,8,0:0:0:0:
256,192,165906,5,0,0:0:0:0:
256,192,166206,1,0,0:0:0:0:
256,192,166806,1,0,0:0:0:0:
256,192,167106,1,0,0:0:0:0:
256,192,167406,1,0,0:0:0:0:
256,192,167706,5,8,0:0:0:0:
256,192,167856,1,8,0:0:0:0:
256,192,168006,1,8,0:0:0:0:
256,192,168156,1,8,0:0:0:0:
256,192,168306,5,4,0:0:0:0:
