osu file format v14

[General]
AudioFilename: audio.mp3
AudioLeadIn: 2500
PreviewTime: 28844
Countdown: 0
SampleSet: Normal
StackLeniency: 0.7
Mode: 1
LetterboxInBreaks: 0
SkinPreference:taiko
WidescreenStoryboard: 1

[Editor]
Bookmarks: 9644,19244,38444,57719,67244,88844,98444,117644,126230,133270,139183,144306,147906,168306
DistanceSpacing: 1.2
BeatDivisor: 2
GridSize: 32
TimelineZoom: 1.539999

[Metadata]
Title:ROTTEL-DA-U.N.OHEN
TitleUnicode:ROTTEL-DA-U.N.OHEN
Artist:hapi=>
ArtistUnicode:hapi⇒
Creator:OnosakiHito
Version:Futsuu
Source:東方紅魔郷 ~ the Embodiment of Scarlet Devil.
Tags:東方Project U.N.オーエンは彼女なのか? touhou u.n. owen was her flandre scarlet WORKS OVERGROUND 2 koumakyou eastern lands of the un wa kanojo nanoka? th06 フランドール・スカーレット eosd team shanghai alice zun electronic instrumental video game rotterdam
BeatmapID:3204826
BeatmapSetID:566481

[Difficulty]
HPDrainRate:7
CircleSize:5
OverallDifficulty:4
ApproachRate:5
SliderMultiplier:1.4
SliderTickRate:1

[Events]
//Background and Video events
0,0,"Taiko_BG.png",0,0
//Break Periods
//Storyboard Layer 0 (Background)
//Storyboard Layer 1 (Fail)
//Storyboard Layer 2 (Pass)
//Storyboard Layer 3 (Foreground)
//Storyboard Layer 4 (Overlay)
//Storyboard Sound Samples

[TimingPoints]
44,300,4,1,0,75,1,0
57644,-100,4,1,0,75,0,1
67244,-66.6666666666667,4,1,0,75,0,0
68444,-100,4,1,0,75,0,0
88844,-133.333333333333,4,1,0,75,0,1
98444,-133.333333333333,4,1,0,75,0,0
100244,-100,4,1,0,75,0,0
108044,-100,4,1,0,75,0,0
117644,292.682926829268,4,1,0,75,1,0
117644,-100,4,1,0,75,0,0
117790,-99.8829371976044,4,1,0,75,0,0
118083,-99.6496318942598,4,1,0,75,0,0
118229,-99.5333874794961,4,1,0,75,0,0
118814,-99.0710111286467,4,1,0,75,0,0
119107,-98.8414790243555,4,1,0,75,0,0
119400,-98.6130080418908,4,1,0,75,0,0
119985,276.497695852535,4,1,0,75,1,0
119985,-103.905125714069,4,1,0,75,0,0
120123,-103.785727908018,4,1,0,75,0,0
120399,-103.547753611413,4,1,0,75,0,0
120537,-103.429175239789,4,1,0,75,0,0
121090,-102.957465044873,4,1,0,75,0,0
121367,-102.723269618239,4,1,0,75,0,0
121643,-102.490137213512,4,1,0,75,0,0
122196,256.410256410256,4,1,0,75,1,0
122196,-110.019933825361,4,1,0,75,0,0
122324,-109.895792019677,4,1,0,75,0,0
122580,-109.648346973853,4,1,0,75,0,0
122708,-109.525041847693,4,1,0,75,0,0
123221,-109.034478029937,4,1,0,75,0,0
123478,-108.790892212471,4,1,0,75,0,0
123734,-108.548392322929,4,1,0,75,0,0
124247,247.933884297521,4,1,0,75,1,0
124247,-111.76120675687,4,1,0,75,0,0
124370,-111.637336609013,4,1,0,75,0,0
124618,-111.390418237649,4,1,0,75,0,0
124742,-111.267368198227,4,1,0,75,0,0
125238,-110.777770728283,4,1,0,75,0,0
126230,232.558139534884,4,1,0,75,1,1
126230,-117.071863882994,4,1,0,75,0,1
126578,-116.690209745677,4,1,0,75,0,1
126695,-116.563544073896,4,1,0,75,0,1
127160,-116.059512348968,4,1,0,75,0,1
127392,-115.809180853609,4,1,0,75,0,1
127625,-115.559926925814,4,1,0,75,0,1
128090,226.415094339623,4,1,0,75,1,1
128090,-118.186532466231,4,1,0,75,0,1
128429,-117.807829246042,4,1,0,75,0,1
128542,-117.682026450745,4,1,0,75,0,1
128995,-117.181915549337,4,1,0,75,0,1
129222,-116.933450702159,4,1,0,75,0,1
129448,-116.68603728273,4,1,0,75,0,1
129901,214.285714285714,4,1,0,75,1,1
129901,-122.771376151809,4,1,0,75,0,1
130222,-122.384482434385,4,1,0,75,0,1
130329,-122.256095650724,4,1,0,75,0,1
130758,-121.745230929506,4,1,0,75,0,1
130972,-121.491396272197,4,1,0,75,0,1
131186,-121.238617885818,4,1,0,75,0,1
131615,206.896551724138,4,1,0,75,1,1
131615,-125.048210936324,4,1,0,75,0,1
131925,-124.660654354951,4,1,0,75,0,1
132028,-124.53203865818,4,1,0,75,0,1
132442,-124.020218887988,4,1,0,75,0,1
133270,193.548387096774,4,1,0,75,1,1
133270,-131.492483804792,4,1,0,75,0,1
133463,-131.224904692092,4,1,0,75,0,1
133657,-130.958525793961,4,1,0,75,0,1
134044,-130.428999280768,4,1,0,75,0,1
134237,-130.165838626482,4,1,0,75,0,1
134431,-129.903737768437,4,1,0,75,0,1
134818,187.5,4,1,0,75,1,1
134818,-133.556325095043,4,1,0,75,0,1
135193,-133.022653383745,4,1,0,75,0,1
135568,-132.493342106049,4,1,0,75,0,1
135755,-132.230262970043,4,1,0,75,0,1
135943,-131.968226504985,4,1,0,75,0,1
136318,181.818181818182,4,1,0,75,1,1
136318,-135.55486952012,4,1,0,75,0,1
136499,-135.28783255056,4,1,0,75,0,1
136681,-135.021845614017,4,1,0,75,0,1
137045,-134.492997163604,4,1,0,75,0,1
137227,-134.230123432123,4,1,0,75,0,1
137408,-133.968275297498,4,1,0,75,0,1
137772,176.470588235294,4,1,0,75,1,1
137772,-137.491385558115,4,1,0,75,0,1
138124,-136.959119233628,4,1,0,75,0,1
138477,-136.430958110479,4,1,0,75,0,1
139183,166.666666666667,4,1,0,75,1,1
139183,-143.35057316437,4,1,0,75,0,1
139349,-143.076808340329,4,1,0,75,0,1
139516,-142.804087171978,4,1,0,75,0,1
139849,-142.26175202105,4,1,0,75,0,1
140016,-141.992126260503,4,1,0,75,0,1
140183,-141.723520598854,4,1,0,75,0,1
140516,162.162162162162,4,1,0,75,1,1
140516,-145.111156126073,4,1,0,75,0,1
140840,-144.5662677901,4,1,0,75,0,1
141164,-144.025456226907,4,1,0,75,0,1
141326,-143.756564964077,4,1,0,75,0,1
141488,-143.488675854311,4,1,0,75,0,1
141813,157.894736842105,4,1,0,75,1,1
141813,-146.819437958578,4,1,0,75,0,1
141970,-146.547362458889,4,1,0,75,0,1
142128,-146.276293476514,4,1,0,75,0,1
142444,-145.737152804964,4,1,0,75,0,1
142602,-145.469070088778,4,1,0,75,0,1
142760,-145.201858094682,4,1,0,75,0,1
143076,153.846153846154,4,1,0,75,1,1
143076,-148.477715093955,4,1,0,75,0,1
143383,-147.936445895924,4,1,0,75,0,1
143691,-147.399108711605,4,1,0,75,0,1
143845,-147.131901259555,4,1,0,75,0,1
143999,-146.865547472113,4,1,0,75,0,1
144306,150,4,1,0,75,1,1
144306,-153.846153846154,4,1,0,75,0,1
146106,-153.846153846154,4,1,0,75,0,0
147906,300,4,1,0,75,1,0
147906,-71.4285714285714,4,1,0,75,0,0
149106,300,4,1,0,75,1,0

[HitObjects]
256,192,44,5,4,0:0:0:0:
256,192,944,1,4,0:0:0:0:
256,192,1844,5,8,0:0:0:0:
256,192,2444,5,4,0:0:0:0:
256,192,3344,1,4,0:0:0:0:
256,192,4244,5,8,0:0:0:0:
256,192,4544,1,8,0:0:0:0:
256,192,4844,5,4,0:0:0:0:
256,192,5744,1,4,0:0:0:0:
256,192,6644,5,8,0:0:0:0:
256,192,7244,5,4,0:0:0:0:
256,192,8144,1,4,0:0:0:0:
256,192,9044,5,8,0:0:0:0:
256,192,9344,1,8,0:0:0:0:
256,192,9644,5,0,0:0:0:0:
256,192,10844,1,0,0:0:0:0:
256,192,11444,5,8,0:0:0:0:
256,192,11744,1,8,0:0:0:0:
256,192,12044,5,0,0:0:0:0:
256,192,13244,1,0,0:0:0:0:
256,192,13844,5,8,0:0:0:0:
256,192,14444,5,0,0:0:0:0:
256,192,15644,1,0,0:0:0:0:
256,192,16244,5,8,0:0:0:0:
256,192,16544,1,8,0:0:0:0:
256,192,16844,5,0,0:0:0:0:
256,192,18044,1,0,0:0:0:0:
256,192,18644,5,8,0:0:0:0:
256,192,19244,5,4,0:0:0:0:
256,192,19844,1,0,0:0:0:0:
256,192,20144,1,0,0:0:0:0:
256,192,20444,1,0,0:0:0:0:
256,192,20894,1,0,0:0:0:0:
256,192,21044,1,0,0:0:0:0:
256,192,21644,1,4,0:0:0:0:
256,192,22244,1,0,0:0:0:0:
256,192,22544,1,0,0:0:0:0:
256,192,22844,1,0,0:0:0:0:
256,192,23444,1,0,0:0:0:0:
256,192,23594,1,0,0:0:0:0:
256,192,23744,1,0,0:0:0:0:
256,192,24044,1,4,0:0:0:0:
256,192,24644,1,0,0:0:0:0:
256,192,24944,1,0,0:0:0:0:
256,192,25244,1,0,0:0:0:0:
256,192,25694,1,0,0:0:0:0:
256,192,25844,1,0,0:0:0:0:
256,192,26444,1,4,0:0:0:0:
256,192,27044,1,0,0:0:0:0:
256,192,27344,1,0,0:0:0:0:
256,192,27644,1,0,0:0:0:0:
256,192,28244,1,0,0:0:0:0:
256,192,28394,1,0,0:0:0:0:
256,192,28544,1,0,0:0:0:0:
256,192,28844,5,12,0:0:0:0:
256,192,33644,5,4,0:0:0:0:
256,192,34244,1,4,0:0:0:0:
256,192,34844,1,4,0:0:0:0:
256,192,35294,1,4,0:0:0:0:
256,192,36044,1,4,0:0:0:0:
256,192,36644,1,4,0:0:0:0:
256,192,37244,1,0,0:0:0:0:
256,192,37394,1,0,0:0:0:0:
256,192,37544,5,8,0:0:0:0:
256,192,37694,1,8,0:0:0:0:
256,192,37844,5,0,0:0:0:0:
256,192,38444,5,4,0:0:0:0:
256,192,38744,5,8,0:0:0:0:
256,192,38894,5,0,0:0:0:0:
256,192,39344,5,8,0:0:0:0:
256,192,39644,5,0,0:0:0:0:
256,192,39944,5,8,0:0:0:0:
256,192,40244,5,0,0:0:0:0:
256,192,40844,1,0,0:0:0:0:
256,192,41144,5,8,0:0:0:0:
256,192,41294,5,0,0:0:0:0:
256,192,41744,5,8,0:0:0:0:
256,192,42044,5,0,0:0:0:0:
256,192,42194,1,0,0:0:0:0:
256,192,42344,5,8,0:0:0:0:
256,192,42644,5,0,0:0:0:0:
256,192,43244,1,0,0:0:0:0:
256,192,43544,5,8,0:0:0:0:
256,192,43694,5,0,0:0:0:0:
256,192,44144,5,8,0:0:0:0:
256,192,44444,5,0,0:0:0:0:
256,192,44744,5,8,0:0:0:0:
256,192,45044,5,0,0:0:0:0:
256,192,45644,1,0,0:0:0:0:
256,192,45944,5,8,0:0:0:0:
256,192,46094,5,0,0:0:0:0:
256,192,46544,5,8,0:0:0:0:
256,192,46844,5,0,0:0:0:0:
256,192,46994,1,0,0:0:0:0:
256,192,47144,5,8,0:0:0:0:
256,192,47294,1,8,0:0:0:0:
256,192,47444,5,0,0:0:0:0:
256,192,48044,1,4,0:0:0:0:
256,192,48644,5,8,0:0:0:0:
256,192,49244,1,8,0:0:0:0:
256,192,49844,5,4,0:0:0:0:
256,192,50144,5,8,0:0:0:0:
256,192,50444,5,0,0:0:0:0:
256,192,50594,1,0,0:0:0:0:
256,192,50744,5,8,0:0:0:0:
256,192,51044,5,0,0:0:0:0:
256,192,51344,5,8,0:0:0:0:
256,192,51494,1,8,0:0:0:0:
256,192,51644,5,0,0:0:0:0:
256,192,51944,5,8,0:0:0:0:
256,192,52244,5,0,0:0:0:0:
256,192,52844,1,0,0:0:0:0:
256,192,53144,5,8,0:0:0:0:
256,192,53444,5,0,0:0:0:0:
256,192,53744,5,8,0:0:0:0:
256,192,54044,5,0,0:0:0:0:
256,192,54344,5,8,0:0:0:0:
256,192,54494,1,8,0:0:0:0:
256,192,54644,5,0,0:0:0:0:
256,192,55244,1,0,0:0:0:0:
256,192,55394,1,0,0:0:0:0:
256,192,55544,5,8,0:0:0:0:
256,192,55844,5,0,0:0:0:0:
256,192,56144,5,8,0:0:0:0:
256,192,56444,6,0,L|96:192,2,140
256,192,57644,5,0,0:0:0:0:
256,192,57794,1,0,0:0:0:0:
256,192,58094,5,8,0:0:0:0:
256,192,58244,5,0,0:0:0:0:
256,192,58544,5,8,0:0:0:0:
256,192,58844,5,0,0:0:0:0:
256,192,58994,1,0,0:0:0:0:
256,192,59144,5,8,0:0:0:0:
256,192,59444,5,0,0:0:0:0:
256,192,60044,5,0,0:0:0:0:
256,192,60194,1,0,0:0:0:0:
256,192,60494,5,8,0:0:0:0:
256,192,60644,5,0,0:0:0:0:
256,192,60944,5,8,0:0:0:0:
256,192,61244,5,0,0:0:0:0:
256,192,61544,1,0,0:0:0:0:
256,192,61844,5,8,0:0:0:0:
256,192,62444,5,0,0:0:0:0:
256,192,62594,1,0,0:0:0:0:
256,192,62894,5,8,0:0:0:0:
256,192,63044,5,0,0:0:0:0:
256,192,63344,5,8,0:0:0:0:
256,192,63644,5,0,0:0:0:0:
256,192,63794,1,0,0:0:0:0:
256,192,63944,5,8,0:0:0:0:
256,192,64244,5,0,0:0:0:0:
256,192,64844,5,0,0:0:0:0:
256,192,64994,1,0,0:0:0:0:
256,192,65294,5,8,0:0:0:0:
256,192,65444,5,0,0:0:0:0:
256,192,65744,5,8,0:0:0:0:
256,192,66044,12,0,66944,0:0:0:0:
256,192,67244,5,4,0:0:0:0:
256,192,68444,5,8,0:0:0:0:
256,192,68744,1,8,0:0:0:0:
256,192,69044,1,8,0:0:0:0:
256,192,69644,5,0,0:0:0:0:
256,192,70244,5,8,0:0:0:0:
256,192,70844,5,0,0:0:0:0:
256,192,71444,5,8,0:0:0:0:
256,192,71744,1,8,0:0:0:0:
256,192,72044,5,0,0:0:0:0:
256,192,72644,5,8,0:0:0:0:
256,192,73244,5,0,0:0:0:0:
256,192,73544,1,0,0:0:0:0:
256,192,73844,5,8,0:0:0:0:
256,192,74444,5,0,0:0:0:0:
256,192,75044,5,8,0:0:0:0:
256,192,75644,5,0,0:0:0:0:
256,192,76244,5,8,0:0:0:0:
256,192,76544,1,8,0:0:0:0:
256,192,76844,5,0,0:0:0:0:
256,192,77444,5,8,0:0:0:0:
256,192,78044,5,0,0:0:0:0:
256,192,78344,1,0,0:0:0:0:
256,192,78644,5,8,0:0:0:0:
256,192,79244,5,0,0:0:0:0:
256,192,79844,5,8,0:0:0:0:
256,192,80144,5,0,0:0:0:0:
256,192,80444,1,0,0:0:0:0:
256,192,81044,5,8,0:0:0:0:
256,192,81344,1,8,0:0:0:0:
256,192,81644,5,0,0:0:0:0:
256,192,82244,5,8,0:0:0:0:
256,192,82544,5,0,0:0:0:0:
256,192,82844,1,0,0:0:0:0:
256,192,83144,1,0,0:0:0:0:
256,192,83444,5,8,0:0:0:0:
256,192,83744,1,8,0:0:0:0:
256,192,84044,5,0,0:0:0:0:
256,192,84644,5,8,0:0:0:0:
256,192,84944,5,0,0:0:0:0:
256,192,85244,1,0,0:0:0:0:
256,192,85844,5,8,0:0:0:0:
256,192,86144,1,8,0:0:0:0:
256,192,86444,5,0,0:0:0:0:
256,192,87044,5,8,0:0:0:0:
256,192,87644,5,4,0:0:0:0:
256,192,88844,5,0,0:0:0:0:
256,192,89144,1,0,0:0:0:0:
256,192,89444,1,0,0:0:0:0:
256,192,90044,1,0,0:0:0:0:
256,192,90344,1,0,0:0:0:0:
256,192,90644,5,8,0:0:0:0:
256,192,91244,1,8,0:0:0:0:
256,192,91544,1,8,0:0:0:0:
256,192,91844,1,8,0:0:0:0:
256,192,92444,1,8,0:0:0:0:
256,192,92744,1,8,0:0:0:0:
256,192,93044,5,0,0:0:0:0:
256,192,93644,1,0,0:0:0:0:
256,192,93944,1,0,0:0:0:0:
256,192,94244,1,0,0:0:0:0:
256,192,94844,1,0,0:0:0:0:
256,192,95144,1,0,0:0:0:0:
256,192,95444,5,8,0:0:0:0:
256,192,96044,5,8,0:0:0:0:
256,192,96344,1,8,0:0:0:0:
256,192,96644,1,8,0:0:0:0:
256,192,97244,1,8,0:0:0:0:
256,192,97844,1,12,0:0:0:0:
256,192,98444,5,4,0:0:0:0:
256,192,100244,1,0,0:0:0:0:
256,192,100544,5,8,0:0:0:0:
256,192,100844,5,0,0:0:0:0:
256,192,101144,5,8,0:0:0:0:
256,192,101594,5,0,0:0:0:0:
256,192,101744,5,8,0:0:0:0:
256,192,102044,5,0,0:0:0:0:
256,192,102344,5,8,0:0:0:0:
256,192,102494,1,8,0:0:0:0:
256,192,102644,5,0,0:0:0:0:
256,192,103244,1,0,0:0:0:0:
256,192,103544,5,8,0:0:0:0:
256,192,103994,5,0,0:0:0:0:
256,192,104144,5,8,0:0:0:0:
256,192,104444,5,0,0:0:0:0:
256,192,104744,5,8,0:0:0:0:
256,192,104894,1,8,0:0:0:0:
256,192,105044,5,0,0:0:0:0:
256,192,105344,5,8,0:0:0:0:
256,192,105644,5,0,0:0:0:0:
256,192,105944,5,8,0:0:0:0:
256,192,106394,5,0,0:0:0:0:
256,192,106544,5,8,0:0:0:0:
256,192,106844,6,0,L|96:192,2,140
256,192,108044,5,8,0:0:0:0:
256,192,108194,1,8,0:0:0:0:
256,192,108494,5,0,0:0:0:0:
256,192,108644,5,8,0:0:0:0:
256,192,108944,5,0,0:0:0:0:
256,192,109244,5,8,0:0:0:0:
256,192,109394,1,8,0:0:0:0:
160,64,109544,5,0,0:0:0:0:
256,192,109844,5,8,0:0:0:0:
256,192,110444,5,8,0:0:0:0:
256,192,110594,1,8,0:0:0:0:
256,192,110894,5,0,0:0:0:0:
256,192,111044,5,8,0:0:0:0:
256,192,111344,5,0,0:0:0:0:
256,192,111644,5,8,0:0:0:0:
256,192,111944,1,8,0:0:0:0:
256,192,112244,5,0,0:0:0:0:
256,192,112844,5,8,0:0:0:0:
256,192,112994,1,8,0:0:0:0:
256,192,113294,5,0,0:0:0:0:
256,192,113444,5,8,0:0:0:0:
256,192,113744,5,0,0:0:0:0:
256,192,114044,5,8,0:0:0:0:
256,192,114194,1,8,0:0:0:0:
256,192,114344,5,0,0:0:0:0:
256,192,114644,5,8,0:0:0:0:
256,192,115244,5,8,0:0:0:0:
256,192,115394,1,8,0:0:0:0:
256,192,115694,5,0,0:0:0:0:
256,192,115844,5,8,0:0:0:0:
256,192,116144,5,0,0:0:0:0:
256,192,116444,5,12,0:0:0:0:
256,192,117644,5,8,0:0:0:0:
256,192,117790,5,8,0:0:0:0:
256,192,118083,1,0,0:0:0:0:
256,192,118229,5,8,0:0:0:0:
256,192,118814,5,8,0:0:0:0:
256,192,119107,5,0,0:0:0:0:
256,192,119400,5,8,0:0:0:0:
256,192,119985,5,0,0:0:0:0:
256,192,120123,5,8,0:0:0:0:
256,192,120399,1,8,0:0:0:0:
256,192,120537,5,0,0:0:0:0:
256,192,121090,1,0,0:0:0:0:
256,192,121367,5,8,0:0:0:0:
256,192,121643,5,0,0:0:0:0:
256,192,122196,1,8,0:0:0:0:
256,192,122324,5,8,0:0:0:0:
256,192,122580,1,0,0:0:0:0:
256,192,122708,5,8,0:0:0:0:
256,192,123221,5,8,0:0:0:0:
256,192,123478,5,0,0:0:0:0:
256,192,123734,5,8,0:0:0:0:
256,192,124247,5,0,0:0:0:0:
256,192,124370,5,8,0:0:0:0:
256,192,124618,1,8,0:0:0:0:
256,192,124742,5,0,0:0:0:0:
256,192,125238,5,12,0:0:0:0:
256,192,126230,5,0,0:0:0:0:
256,192,126695,5,0,0:0:0:0:
256,192,126927,5,8,0:0:0:0:
256,192,127160,5,0,0:0:0:0:
256,192,127625,5,8,0:0:0:0:
256,192,128090,5,0,0:0:0:0:
256,192,128316,5,8,0:0:0:0:
256,192,128542,1,8,0:0:0:0:
256,192,128769,1,8,0:0:0:0:
256,192,128995,1,0,0:0:0:0:
256,192,129222,5,8,0:0:0:0:
256,192,129448,5,0,0:0:0:0:
256,192,129901,1,0,0:0:0:0:
256,192,130329,5,0,0:0:0:0:
256,192,130543,5,8,0:0:0:0:
256,192,130758,5,0,0:0:0:0:
256,192,131186,5,8,0:0:0:0:
256,192,131615,5,0,0:0:0:0:
256,192,131821,5,8,0:0:0:0:
256,192,132028,5,8,0:0:0:0:
256,192,132235,5,0,0:0:0:0:
256,192,132442,5,12,0:0:0:0:
256,192,133270,5,0,0:0:0:0:
256,192,133657,5,0,0:0:0:0:
256,192,133850,5,8,0:0:0:0:
256,192,134044,5,0,0:0:0:0:
256,192,134431,5,8,0:0:0:0:
256,192,134818,5,0,0:0:0:0:
256,192,135193,5,8,0:0:0:0:
256,192,135568,1,8,0:0:0:0:
256,192,135755,1,8,0:0:0:0:
256,192,135943,5,0,0:0:0:0:
256,192,136318,5,0,0:0:0:0:
256,192,136681,5,0,0:0:0:0:
256,192,136863,5,8,0:0:0:0:
256,192,137045,5,0,0:0:0:0:
256,192,137408,5,8,0:0:0:0:
256,192,137772,5,0,0:0:0:0:
256,192,137948,5,8,0:0:0:0:
256,192,138124,1,8,0:0:0:0:
256,192,138301,1,0,0:0:0:0:
256,192,138477,5,12,0:0:0:0:
256,192,139183,1,0,0:0:0:0:
256,192,139516,5,0,0:0:0:0:
256,192,139683,5,8,0:0:0:0:
256,192,139849,5,0,0:0:0:0:
256,192,140183,5,8,0:0:0:0:
256,192,140516,5,0,0:0:0:0:
256,192,140840,1,0,0:0:0:0:
256,192,141164,5,8,0:0:0:0:
256,192,141326,1,0,0:0:0:0:
256,192,141488,1,8,0:0:0:0:
256,192,141813,5,0,0:0:0:0:
256,192,142128,5,0,0:0:0:0:
256,192,142286,5,8,0:0:0:0:
256,192,142444,5,0,0:0:0:0:
256,192,142760,5,8,0:0:0:0:
256,192,143076,5,0,0:0:0:0:
256,192,143383,1,0,0:0:0:0:
256,192,143691,5,8,0:0:0:0:
256,192,143845,1,8,0:0:0:0:
256,192,143999,1,8,0:0:0:0:
256,192,144306,12,0,146106,0:0:0:0:
256,192,149106,5,0,0:0:0:0:
256,192,149406,5,8,0:0:0:0:
256,192,150006,5,8,0:0:0:0:
256,192,150306,5,0,0:0:0:0:
256,192,150606,1,0,0:0:0:0:
256,192,150906,5,8,0:0:0:0:
256,192,151206,1,8,0:0:0:0:
256,192,151506,5,0,0:0:0:0:
256,192,151806,5,8,0:0:0:0:
256,192,152406,5,8,0:0:0:0:
256,192,152706,5,0,0:0:0:0:
256,192,153306,5,8,0:0:0:0:
256,192,153606,1,8,0:0:0:0:
256,192,153906,5,0,0:0:0:0:
256,192,154206,5,8,0:0:0:0:
256,192,154806,5,8,0:0:0:0:
256,192,155106,5,0,0:0:0:0:
256,192,155406,1,0,0:0:0:0:
256,192,155706,5,8,0:0:0:0:
256,192,156006,1,8,0:0:0:0:
256,192,156306,5,0,0:0:0:0:
256,192,156606,5,8,0:0:0:0:
256,192,157206,5,8,0:0:0:0:
256,192,157506,5,0,0:0:0:0:
256,192,158106,5,8,0:0:0:0:
256,192,158406,1,8,0:0:0:0:
256,192,158706,5,0,0:0:0:0:
256,192,159006,1,0,0:0:0:0:
256,192,159606,1,0,0:0:0:0:
256,192,160206,1,0,0:0:0:0:
256,192,160506,5,8,0:0:0:0:
256,192,160806,1,8,0:0:0:0:
256,192,161106,5,0,0:0:0:0:
256,192,161406,1,0,0:0:0:0:
256,192,162006,1,0,0:0:0:0:
256,192,162606,1,0,0:0:0:0:
256,192,162906,5,8,0:0:0:0:
256,192,163506,5,0,0:0:0:0:
256,192,163806,1,0,0:0:0:0:
256,192,164406,1,0,0:0:0:0:
256,192,165006,1,0,0:0:0:0:
256,192,165306,5,8,0:0:0:0:
256,192,165606,1,8,0:0:0:0:
256,192,165906,5,0,0:0:0:0:
256,192,166206,1,0,0:0:0:0:
256,192,166806,1,0,0:0:0:0:
256,192,167406,1,0,0:0:0:0:
256,192,167706,5,8,0:0:0:0:
256,192,168006,1,8,0:0:0:0:
256,192,168306,5,4,0:0:0:0:
