osu file format v14

[General]
AudioFilename: medley.mp3
AudioLeadIn: 2000
PreviewTime: 774
Countdown: 0
SampleSet: None
StackLeniency: 0.7
Mode: 3
LetterboxInBreaks: 0
SpecialStyle: 0
WidescreenStoryboard: 1

[Editor]
Bookmarks: 96674,199621,320884,408893,412093,487521,573235,580253,672073,704073,761673,787273,898706,1047336,1058436,1094446,1110446,1154446,1227446,1233106,1299872,1433288,1577289
DistanceSpacing: 1.5
BeatDivisor: 4
GridSize: 4
TimelineZoom: 0.1

[Metadata]
Title:THE MEDLEY OF POKEMON RGBY+GSC -3PBs-
TitleUnicode:THE MEDLEY OF POKéMON RGBY+GSC -3PBs-
Artist:hapi
ArtistUnicode:hapi⇒
Creator:pikechu
Version:The 6th Part
Source:Pokémon
Tags:remix red green blue gold silver crystal vocaloid master ntd03 golden sun pikachu raichu pichu nintendo gamefreak gb gba hapinano
BeatmapID:1919773
BeatmapSetID:908046

[Difficulty]
HPDrainRate:8
CircleSize:4
OverallDifficulty:8
ApproachRate:9
SliderMultiplier:1.6
SliderTickRate:1

[Events]
//Background and Video events
0,0,"background.jpg",0,0
//Break Periods
//Storyboard Layer 0 (Background)
//Storyboard Layer 1 (Fail)
//Storyboard Layer 2 (Pass)
//Storyboard Layer 3 (Foreground)
//Storyboard Sound Samples

[TimingPoints]
1406,315.789473684211,4,2,1,40,1,0
7721,-100,4,2,1,40,0,0
7800,-100,4,2,3,40,0,0
12774,-133.333333333333,4,2,2,40,0,0
12853,-80,4,2,2,40,0,0
12932,-100,4,2,2,40,0,0
13090,-133.333333333333,4,2,2,40,0,0
13169,-80,4,2,2,40,0,0
13248,-100,4,2,2,40,0,0
13406,-133.333333333333,4,2,2,40,0,0
13485,-80,4,2,2,40,0,0
13564,-100,4,2,2,40,0,0
13721,-133.333333333333,4,2,2,40,0,0
13800,-80,4,2,2,40,0,0
13879,-100,4,2,2,40,0,0
14037,-133.333333333333,4,2,2,40,0,0
14116,-80,4,2,2,40,0,0
14195,-100,4,2,2,40,0,0
14353,-133.333333333333,4,2,2,40,0,0
14432,-80,4,2,2,40,0,0
14511,-100,4,2,2,40,0,0
14669,-133.333333333333,4,2,2,40,0,0
14748,-80,4,2,2,40,0,0
14827,-133.333333333333,4,2,2,40,0,0
14906,-80,4,2,2,40,0,0
14984,-133.333333333333,4,2,2,40,0,0
15063,-80,4,2,2,40,0,0
15142,-100,4,2,2,40,0,0
15300,-133.333333333333,4,2,2,40,0,0
15379,-80,4,2,2,40,0,0
15458,-100,4,2,2,40,0,0
15616,-133.333333333333,4,2,2,40,0,0
15695,-80,4,2,2,40,0,0
15774,-100,4,2,2,40,0,0
15932,-133.333333333333,4,2,2,40,0,0
16011,-80,4,2,2,40,0,0
16090,-100,4,2,2,40,0,0
16248,-133.333333333333,4,2,2,40,0,0
16327,-80,4,2,2,40,0,0
16406,-100,4,2,2,40,0,0
16563,-133.333333333333,4,2,2,40,0,0
16642,-80,4,2,2,40,0,0
16721,-100,4,2,2,40,0,0
16879,-133.333333333333,4,2,2,40,0,0
16958,-80,4,2,2,40,0,0
17037,-133.333333333333,4,2,2,40,0,0
17116,-80,4,2,2,40,0,0
17194,-133.333333333333,4,2,2,40,0,0
17273,-80,4,2,2,40,0,0
17352,-100,4,2,2,40,0,0
17511,-133.333333333333,4,2,2,40,0,0
17590,-80,4,2,2,40,0,0
17669,-100,4,2,2,40,0,0
17827,-133.333333333333,4,2,2,40,0,0
17906,-80,4,2,2,40,0,0
17985,-100,4,2,2,40,0,0
18142,-133.333333333333,4,2,2,40,0,0
18221,-80,4,2,2,40,0,0
18300,-100,4,2,2,40,0,0
18458,-133.333333333333,4,2,2,40,0,0
18537,-80,4,2,2,40,0,0
18616,-100,4,2,2,40,0,0
18774,-133.333333333333,4,2,2,40,0,0
18853,-80,4,2,2,40,0,0
18932,-100,4,2,2,40,0,0
19090,-133.333333333333,4,2,2,40,0,0
19169,-80,4,2,2,40,0,0
19248,-100,4,2,2,40,0,0
19406,-133.333333333333,4,2,2,40,0,0
19485,-80,4,2,2,40,0,0
19564,-100,4,2,2,40,0,0
19721,-133.333333333333,4,2,2,40,0,0
19800,-80,4,2,2,40,0,0
19879,-133.333333333333,4,2,2,40,0,0
19958,-80,4,2,2,40,0,0
20036,-133.333333333333,4,2,2,40,0,0
20115,-80,4,2,2,40,0,0
20194,-100,4,2,2,40,0,0
20353,-133.333333333333,4,2,2,40,0,0
20432,-80,4,2,2,40,0,0
20511,-100,4,2,2,40,0,0
20669,-133.333333333333,4,2,2,40,0,0
20748,-80,4,2,2,40,0,0
20827,-100,4,2,2,40,0,0
20984,-133.333333333333,4,2,2,40,0,0
21063,-80,4,2,2,40,0,0
21142,-100,4,2,2,40,0,0
21300,-133.333333333333,4,2,2,40,0,0
21379,-80,4,2,2,40,0,0
21458,-100,4,2,2,40,0,0
21616,-133.333333333333,4,2,2,40,0,0
21695,-80,4,2,2,40,0,0
21774,-100,4,2,2,40,0,0
21932,-133.333333333333,4,2,2,40,0,0
22011,-80,4,2,2,40,0,0
22090,-133.333333333333,4,2,2,40,0,0
22169,-80,4,2,2,40,0,0
22247,-133.333333333333,4,2,2,40,0,0
22326,-80,4,2,2,40,0,0
22405,-100,4,2,2,40,0,0
22563,-133.333333333333,4,2,2,40,0,0
22642,-80,4,2,2,40,0,0
22721,-100,4,2,2,40,0,0
22879,-133.333333333333,4,2,2,40,0,0
22958,-80,4,2,2,40,0,0
23037,-100,4,2,2,40,0,0
23195,-133.333333333333,4,2,2,40,0,0
23274,-80,4,2,2,40,0,0
23353,-100,4,2,2,40,0,0
23511,-133.333333333333,4,2,2,40,0,0
23590,-80,4,2,2,40,0,0
23669,-100,4,2,2,40,0,0
25090,-133.333333333333,4,2,2,40,0,0
25169,-80,4,2,2,40,0,0
25248,-100,4,2,2,40,0,0
25405,-100,4,2,3,40,0,0
25484,-100,4,2,1,40,0,0
30458,-100,4,2,1,40,0,0
35511,-100,4,2,1,40,0,0
37406,-100,4,2,2,40,0,0
37721,-100,4,2,1,40,0,0
39616,-100,4,2,2,40,0,0
40011,-100,4,2,1,40,0,0
42458,-100,4,2,2,40,0,0
42853,-100,4,2,1,40,0,0
44669,-100,4,2,2,40,0,0
45063,-100,4,2,1,40,0,0
47511,-100,4,2,2,40,0,0
47906,-100,4,2,1,40,0,0
49721,-100,4,2,2,40,0,0
50116,-100,4,2,1,40,0,0
52563,-100,4,2,2,40,0,0
52958,-100,4,2,1,40,0,0
55090,-100,4,2,2,40,0,0
55800,-100,4,2,1,40,0,0
57616,-100,4,2,2,40,0,0
57932,-100,4,2,1,40,0,0
59511,-100,4,2,2,40,0,0
60537,-100,4,2,1,40,0,0
61406,-100,4,2,2,40,0,0
61563,-100,4,2,1,40,0,0
63932,-100,4,2,2,40,0,0
64090,-100,4,2,1,40,0,0
65195,-100,4,2,2,40,0,0
65353,-100,4,2,1,40,0,0
65511,-100,4,2,2,40,0,0
65827,-100,4,2,2,40,0,0
69616,-100,4,2,1,40,0,0
70879,-100,4,2,2,40,0,0
75932,-100,4,2,1,40,0,0
77827,-100,4,2,2,40,0,0
78221,-100,4,2,1,40,0,0
80195,-100,4,2,2,40,0,0
80511,-100,4,2,1,40,0,0
82879,-100,4,2,2,40,0,0
83195,-100,4,2,1,40,0,0
84774,-100,4,2,2,40,0,0
86037,-100,4,2,1,40,0,0
90300,-100,4,2,2,40,0,0
90616,-100,4,2,1,40,0,0
92984,-100,4,2,2,40,0,0
93300,-100,4,2,1,40,0,0
94879,-100,4,2,2,40,0,0
95984,-83.3333333333333,4,2,2,40,0,0
96063,-133.333333333333,4,2,2,40,0,0
96142,-83.3333333333333,4,2,2,40,0,0
96221,-133.333333333333,4,2,2,40,0,0
96300,-83.3333333333333,4,2,2,40,0,0
96379,-133.333333333333,4,2,2,40,0,0
96458,-83.3333333333333,4,2,2,40,0,0
96537,-133.333333333333,4,2,2,40,0,0
96616,-83.3333333333333,4,2,2,40,0,0
96695,-133.333333333333,4,2,2,40,0,0
96774,-100,4,2,2,40,0,0
106090,-133.333333333333,4,2,2,40,0,0
106169,-76.9230769230769,4,2,2,40,0,0
106248,-133.333333333333,4,2,2,40,0,0
106406,-76.9230769230769,4,2,2,40,0,0
106563,-133.333333333333,4,2,2,40,0,0
106721,-76.9230769230769,4,2,2,40,0,0
106879,-100,4,2,2,40,0,0
107195,-100,4,2,1,40,0,0
107511,-100,4,2,3,40,0,0
107590,-100,4,2,1,40,0,0
117300,-100,4,2,2,40,0,0
117616,-100,4,2,1,40,0,0
119511,-100,4,2,2,40,0,0
119906,-100,4,2,1,40,0,0
121879,-100,4,2,2,40,0,0
122195,-100,4,2,1,40,0,0
124563,-100,4,2,2,40,0,0
124958,-100,4,2,1,40,0,0
126142,-100,4,2,2,40,0,0
127721,-100,4,2,1,40,0,0
129616,-100,4,2,2,40,0,0
130011,-100,4,2,1,40,0,0
131827,-100,4,2,2,40,0,0
132221,-100,4,2,1,40,0,0
134669,-100,4,2,2,40,0,0
135063,-100,4,2,1,40,0,0
136563,-100,4,2,2,40,0,0
137827,-100,4,2,3,40,0,0
137984,-100,4,2,1,40,0,0
139721,-100,4,2,2,40,0,0
140037,-100,4,2,1,40,0,0
141932,-100,4,2,2,40,0,0
142327,-100,4,2,1,40,0,0
144774,-100,4,2,2,40,0,0
145090,-100,4,2,1,40,0,0
146827,-100,4,2,2,40,0,0
147616,-100,4,2,1,40,0,0
149827,-100,4,2,2,40,0,0
150221,-100,4,2,1,40,0,0
152353,-100,4,2,2,40,0,0
152827,-100,4,2,1,40,0,0
158037,-100,4,2,3,40,0,0
158116,-100,4,2,1,40,0,0
159932,-100,4,2,2,40,0,0
160406,-100,4,2,1,40,0,0
162142,-100,4,2,2,40,0,0
162537,-100,4,2,1,40,0,0
164984,-100,4,2,2,40,0,0
165300,-100,4,2,1,40,0,0
166879,-100,4,2,2,40,0,0
168063,-100,4,2,1,40,0,0
170037,-100,4,2,2,40,0,0
170353,-100,4,2,1,40,0,0
172248,-100,4,2,2,40,0,0
172642,-100,4,2,1,40,0,0
175090,-100,4,2,2,40,0,0
175406,-100,4,2,1,40,0,0
176984,-100,4,2,2,40,0,0
177300,-100,4,2,1,40,0,0
177379,-100,4,2,2,40,0,0
177616,-100,4,2,2,40,0,0
177932,-100,4,2,1,40,0,0
178011,-100,4,2,2,40,0,0
178090,-100,4,2,1,40,0,0
178248,-100,4,2,3,40,0,0
178327,-100,4,2,1,40,0,0
180142,-100,4,2,2,40,0,0
180300,-100,4,2,1,40,0,0
182511,-100,4,2,2,40,0,0
182827,-100,4,2,2,40,0,0
183142,-100,4,2,1,40,0,0
185195,-100,4,2,2,40,0,0
185590,-100,4,2,1,40,0,0
187090,-100,4,2,2,40,0,0
188353,-100,4,2,1,40,0,0
188432,-100,4,2,2,40,0,0
189616,-100,4,2,1,40,0,0
189695,-100,4,2,2,40,0,0
190879,-100,4,2,1,40,0,0
190958,-100,4,2,2,40,0,0
192142,-100,4,2,1,40,0,0
192221,-100,4,2,2,40,0,0
193406,-100,4,2,1,40,0,0
193484,-100,4,2,2,40,0,0
194669,-100,4,2,1,40,0,0
194748,-100,4,2,2,40,0,0
195932,-100,4,2,1,40,0,0
196011,-100,4,2,2,40,0,0
197195,-100,4,2,1,40,0,0
197274,-100,4,2,2,40,0,0
198616,-100,4,2,1,40,0,0
198774,-100,4,2,2,40,0,0
198932,-100,4,2,1,40,0,0
199090,-100,4,2,2,40,0,0
199721,-100,4,2,1,40,0,0
200669,-100,4,2,1,40,0,0
200984,-100,4,2,3,40,0,0
201063,-100,4,2,1,40,0,0
202879,-100,4,2,2,40,0,0
203195,-100,4,2,1,40,0,0
205090,-100,4,2,2,40,0,0
205563,-100,4,2,1,40,0,0
207932,-100,4,2,2,40,0,0
208248,-100,4,2,1,40,0,0
208721,-100,4,2,2,40,0,0
208879,-100,4,2,1,40,0,0
209037,-100,4,2,2,40,0,0
209511,-100,4,2,1,40,0,0
209669,-100,4,2,2,40,0,0
209827,-100,4,2,1,40,0,0
209984,-100,4,2,2,40,0,0
211090,-100,4,2,1,40,0,0
212984,-100,4,2,2,40,0,0
213300,-100,4,2,1,40,0,0
215195,-100,4,2,2,40,0,0
215669,-100,4,2,1,40,0,0
218037,-100,4,2,2,40,0,0
218353,-100,4,2,1,40,0,0
218669,-100,4,2,2,40,0,0
218984,-100,4,2,1,40,0,0
219142,-100,4,2,2,40,0,0
219616,-100,4,2,1,40,0,0
219774,-100,4,2,2,40,0,0
220721,-100,4,2,2,40,0,0
221195,-100,4,2,1,40,0,0
223090,-100,4,2,2,40,0,0
223406,-100,4,2,1,40,0,0
225300,-100,4,2,2,40,0,0
225932,-100,4,2,1,40,0,0
228142,-100,4,2,2,40,0,0
228458,-100,4,2,1,40,0,0
230037,-100,4,2,2,40,0,0
231300,-100,4,2,1,40,0,0
233195,-100,4,2,2,40,0,0
233511,-100,4,2,1,40,0,0
235563,-100,4,2,2,40,0,0
235958,-100,4,2,1,40,0,0
238248,-100,4,2,2,40,0,0
238563,-100,4,2,1,40,0,0
240300,-100,4,2,2,40,0,0
240458,-100,4,2,1,40,0,0
240616,-100,4,2,2,40,0,0
241090,-100,4,2,1,40,0,0
241248,-100,4,2,2,40,0,0
241406,-263.157894736842,4,2,1,40,0,0
241445,-100,4,2,1,40,0,0
241484,-263.157894736842,4,2,1,40,0,0
241523,-100,4,2,1,40,0,0
241563,-263.157894736842,4,2,1,40,0,0
241602,-100,4,2,1,40,0,0
241642,-263.157894736842,4,2,1,40,0,0
241681,-100,4,2,1,40,0,0
241721,-10000,4,2,1,40,0,0
241879,-100,4,2,1,40,0,0
242037,-10000,4,2,1,40,0,0
242195,-100,4,2,1,40,0,0
242669,-263.157894736842,4,2,1,40,0,0
242708,-100,4,2,1,40,0,0
242747,-263.157894736842,4,2,1,40,0,0
242786,-100,4,2,1,40,0,0
242826,-263.157894736842,4,2,1,40,0,0
242865,-100,4,2,1,40,0,0
242905,-263.157894736842,4,2,1,40,0,0
242944,-100,4,2,1,40,0,0
242984,-10000,4,2,1,40,0,0
243142,-100,4,2,1,40,0,0
243300,-10000,4,2,1,40,0,0
243458,-100,4,2,1,40,0,0
244090,-100,4,2,2,40,0,0
244248,-100,4,2,1,40,0,0
244563,-100,4,2,2,40,0,0
244721,-100,4,2,1,40,0,0
244958,-100,4,2,2,40,0,0
245195,-100,4,2,1,40,0,0
248353,-100,4,2,2,40,0,0
248590,-100,4,2,1,40,0,0
250484,-100,4,2,2,40,0,0
251037,-100,4,2,1,40,0,0
251984,-100,4,2,2,40,0,0
252458,-100,4,2,1,40,0,0
252616,-100,4,2,2,40,0,0
252774,-100,4,2,1,40,0,0
252932,-100,4,2,2,40,0,0
253090,-100,4,2,1,40,0,0
253248,-100,4,2,2,40,0,0
253721,-100,4,2,1,40,0,0
253879,-100,4,2,2,40,0,0
254037,-100,4,2,1,40,0,0
255458,-100,4,2,2,40,0,0
256248,-100,4,2,1,40,0,0
256327,-100,4,2,2,40,0,0
256563,-100,4,2,1,40,0,0
258458,-100,4,2,2,40,0,0
258695,-100,4,2,1,40,0,0
260669,-100,4,2,2,40,0,0
261063,-100,4,2,1,40,0,0
263511,-100,4,2,2,40,0,0
263827,-100,4,2,1,40,0,0
265642,-100,4,2,1,40,0,0
265721,-100,4,2,1,40,0,0
265958,-100,4,2,1,40,0,0
266037,-100,4,2,1,40,0,0
266353,-100,4,2,2,40,0,0
266669,-100,4,2,1,40,0,0
268563,-100,4,2,2,40,0,0
268879,-100,4,2,1,40,0,0
270932,-100,4,2,2,40,0,0
271248,-100,4,2,1,40,0,0
273616,-100,4,2,2,40,0,0
273932,-100,4,2,1,40,0,0
275511,-100,4,2,2,40,0,0
276142,-100,4,2,1,40,0,0
278669,-100,4,2,2,40,0,0
278984,-100,4,2,1,40,0,0
280879,-100,4,2,2,40,0,0
281511,-100,4,2,1,40,0,0
283721,-100,4,2,2,40,0,0
284116,-100,4,2,1,40,0,0
285774,-100,4,2,2,40,0,0
286327,-100,4,2,2,40,0,0
286406,-100,4,2,2,40,0,0
286879,-100,4,2,1,40,0,0
286958,-100,4,2,2,40,0,0
287195,-100,4,2,1,40,0,0
287274,-100,4,2,2,40,0,0
287511,-100,4,2,1,40,0,0
287590,-100,4,2,2,40,0,0
287827,-100,4,2,1,40,0,0
287906,-100,4,2,2,40,0,0
288142,-100,4,2,1,40,0,0
290037,-100,4,2,2,40,0,0
290353,-100,4,2,2,40,0,0
290511,-100,4,2,2,40,0,0
290669,-100,4,2,1,40,0,0
292248,-100,4,2,2,40,0,0
292642,-100,4,2,2,40,0,0
292879,-100,4,2,1,40,0,0
293037,-100,4,2,1,40,0,0
293353,-100,4,2,1,40,0,0
294537,-100,4,2,1,40,0,0
294616,-100,4,2,1,40,0,0
295090,-100,4,2,2,40,0,0
295563,-100,4,2,1,40,0,0
297142,-100,4,2,2,40,0,0
297616,-100,4,2,1,40,0,0
297774,-100,4,2,2,40,0,0
298248,-100,4,2,1,40,0,0
298484,-100,4,2,1,40,0,0
298563,-100,4,2,1,40,0,0
299037,-100,4,2,1,40,0,0
299116,-100,4,2,1,40,0,0
299195,-100,4,2,1,40,0,0
299590,-100,4,2,2,40,0,0
300774,-100,4,2,1,40,0,0
302669,-100,4,2,2,40,0,0
303300,-100,4,2,1,40,0,0
307721,-100,4,2,2,40,0,0
308116,-100,4,2,1,40,0,0
310090,-100,4,2,2,40,0,0
310563,-100,4,2,1,40,0,0
310721,-100,4,2,2,40,0,0
310879,-100,4,2,1,40,0,0
312774,-100,4,2,2,40,0,0
313011,-100,4,2,1,40,0,0
315142,-100,4,2,2,40,0,0
315537,-100,4,2,1,40,0,0
317827,-100,4,2,2,40,0,0
318063,-100,4,2,1,40,0,0
320195,-100,4,2,2,40,0,0
320906,-100,4,2,2,40,0,0
320984,-100,4,2,1,40,0,0
331090,-100,4,2,1,40,0,0
332984,-100,4,2,2,40,0,0
333300,-100,4,2,1,40,0,0
335353,-100,4,2,2,40,0,0
335827,-100,4,2,1,40,0,0
338037,-100,4,2,2,40,0,0
338353,-100,4,2,1,40,0,0
340879,-100,4,2,2,40,0,0
341116,-100,4,2,1,40,0,0
343090,-100,4,2,2,40,0,0
343406,-100,4,2,1,40,0,0
345458,-100,4,2,2,40,0,0
345774,-100,4,2,1,40,0,0
348142,-100,4,2,2,40,0,0
348458,-100,4,2,1,40,0,0
350037,-100,4,2,2,40,0,0
351300,-100,4,2,1,40,0,0
353195,-100,4,2,2,40,0,0
353511,-100,4,2,1,40,0,0
355563,-100,4,2,2,40,0,0
355879,-100,4,2,1,40,0,0
358248,-100,4,2,2,40,0,0
358563,-100,4,2,1,40,0,0
360142,-100,4,2,2,40,0,0
361406,-100,4,2,1,40,0,0
363300,-100,4,2,2,40,0,0
363774,-100,4,2,1,40,0,0
365669,-100,4,2,2,40,0,0
365984,-100,4,2,1,40,0,0
368353,-100,4,2,2,40,0,0
368748,-100,4,2,1,40,0,0
370721,-100,4,2,2,40,0,0
371037,-100,4,2,1,40,0,0
372616,-100,4,2,1,40,0,0
372853,-100,4,2,1,40,0,0
374037,-100,4,2,1,40,0,0
374984,-100,4,2,2,40,0,0
375300,-100,4,2,1,40,0,0
375932,-100,4,2,2,40,0,0
376090,-100,4,2,1,40,0,0
376406,-100,4,2,2,40,0,0
376563,-100,4,2,1,40,0,0
376721,-100,4,2,2,40,0,0
376800,-100,4,2,1,40,0,0
377037,-100,4,2,2,40,0,0
377353,-100,4,2,1,40,0,0
378458,-100,4,2,2,40,0,0
378616,-100,4,2,1,40,0,0
379721,-100,4,2,2,40,0,0
379879,-100,4,2,1,40,0,0
380511,-100,4,2,2,40,0,0
382879,-100,4,2,1,40,0,0
384774,-100,4,2,2,40,0,0
385011,-100,4,2,1,40,0,0
387142,-100,4,2,2,40,0,0
387379,-100,4,2,1,40,0,0
389827,-100,4,2,2,40,0,0
390142,-100,4,2,1,40,0,0
392827,-100,4,2,2,40,0,0
392984,-100,4,2,1,40,0,0
394879,-100,4,2,2,40,0,0
395195,-100,4,2,1,40,0,0
397248,-100,4,2,2,40,0,0
397484,-100,4,2,1,40,0,0
399300,327.868852459016,4,2,1,40,1,0
399300,-96.1538461538461,4,2,1,40,0,0
399955,-96.1538461538461,4,2,2,40,0,0
400283,-96.1538461538461,4,2,1,40,0,0
401922,342.857142857143,4,2,1,40,1,0
401922,-91.743119266055,4,2,1,40,0,0
402607,-91.743119266055,4,2,2,40,0,0
402950,-91.743119266055,4,2,1,40,0,0
403293,346.820809248555,4,2,1,40,1,0
403293,-90.9090909090909,4,2,1,40,0,0
406075,363.636363636364,4,2,1,40,1,0
406075,-86.9565217391304,4,2,1,40,0,0
407533,368.098159509202,4,2,1,40,1,0
407533,-85.4700854700855,4,2,1,40,0,0
408993,400,4,2,1,40,1,0
408993,-78.7401574803149,4,2,1,40,0,0
412193,428.571428571429,4,2,1,40,1,0
412193,-73.5294117647059,4,2,1,40,0,0
417764,-73.5294117647059,4,2,1,40,0,0
419050,-73.5294117647059,4,2,1,40,0,0
443050,-73.5294117647059,4,2,2,35,0,0
443907,-73.5294117647059,4,2,2,45,0,0
444764,-73.5294117647059,4,2,2,55,0,0
445621,-73.5294117647059,4,2,2,65,0,0
446264,-73.5294117647059,4,2,1,67,0,0
456228,-73.5294117647059,4,2,1,67,0,0
456443,-73.5294117647059,4,2,1,67,0,0
461264,-73.5294117647059,4,2,1,67,0,0
461478,-73.5294117647059,4,2,1,67,0,0
464693,-73.5294117647059,4,2,1,67,0,0
464907,-73.5294117647059,4,2,1,67,0,0
476478,-73.5294117647059,4,2,2,67,0,0
476907,-73.5294117647059,4,2,1,67,0,0
479907,-73.5294117647059,4,2,2,67,0,0
480335,-73.5294117647059,4,2,1,67,0,0
481621,-73.5294117647059,4,2,2,67,0,0
482050,-73.5294117647059,4,2,1,67,0,0
483550,-73.5294117647059,4,2,1,67,0,0
483764,-73.5294117647059,4,2,1,67,0,0
484193,-73.5294117647059,4,2,2,67,0,0
484300,-73.5294117647059,4,2,2,67,0,0
485050,-73.5294117647059,4,2,2,67,0,0
485907,-73.5294117647059,4,2,2,67,0,0
486335,-73.5294117647059,4,2,2,67,0,0
486764,-73.5294117647059,4,2,2,67,0,0
487193,-73.5294117647059,4,2,2,67,0,0
487621,-73.5294117647059,4,2,2,67,0,0
487728,-73.5294117647059,4,2,1,67,0,0
492764,-73.5294117647059,4,2,2,55,0,0
493621,-73.5294117647059,4,2,1,45,0,0
493907,-73.5294117647059,4,2,2,45,0,0
494050,-73.5294117647059,4,2,1,45,0,0
494335,-73.5294117647059,4,2,2,45,0,0
494478,-73.5294117647059,4,2,1,55,0,0
494621,-73.5294117647059,4,2,2,55,0,0
504764,-73.5294117647059,4,2,1,55,0,0
509907,-73.5294117647059,4,2,1,55,0,0
516621,-73.5294117647059,4,2,1,45,0,0
516764,-73.5294117647059,4,2,1,55,0,0
528764,-73.5294117647059,4,2,1,35,0,0
528907,-73.5294117647059,4,2,2,35,0,0
529621,-73.5294117647059,4,2,2,45,0,0
530478,-73.5294117647059,4,2,2,55,0,0
530907,-73.5294117647059,4,2,2,60,0,0
531335,-73.5294117647059,4,2,2,65,0,0
532193,-73.5294117647059,4,2,1,65,0,0
557907,-73.5294117647059,4,2,1,55,0,0
558014,-73.5294117647059,4,2,2,55,0,0
558335,-73.5294117647059,4,2,2,60,0,0
558764,-73.5294117647059,4,2,2,65,0,0
573335,-73.5294117647059,4,2,3,20,0,0
573550,-133.333333333333,4,2,3,20,0,0
580353,444.444444444444,4,2,1,20,1,0
580353,-71.4285714285714,4,2,1,20,0,0
594907,333.333333333333,4,2,1,20,1,0
594907,-94.3396226415094,4,2,1,20,0,0
609407,-133.333333333333,4,2,1,20,0,0
609490,-92.5925925925926,4,2,1,20,0,0
609576,317.460317460317,4,2,1,80,1,0
611322,-138.888888888889,4,2,1,80,0,0
611401,-98.0392156862745,4,2,1,80,0,0
611484,285.714285714286,4,2,1,80,1,0
611484,-111.111111111111,4,2,1,80,0,0
611626,-142.857142857143,4,2,1,80,0,0
611698,-106.382978723404,4,2,1,80,0,0
613555,-142.857142857143,4,2,1,80,0,0
613626,-106.382978723404,4,2,1,80,0,0
613698,250,4,2,1,80,1,0
613698,-126.582278481013,4,2,1,80,0,0
613823,-181.818181818182,4,2,1,80,0,0
613885,-117.647058823529,4,2,1,80,0,0
614073,-181.818181818182,4,2,1,80,0,0
614135,-117.647058823529,4,2,1,80,0,0
615323,-181.818181818182,4,2,1,80,0,0
615385,-117.647058823529,4,2,1,80,0,0
615416,226.415094339623,4,2,1,80,1,0
615416,-138.888888888889,4,2,1,80,0,0
615642,-200,4,2,1,80,0,0
615699,-125,4,2,1,80,0,0
615755,-200,4,2,1,80,0,0
615812,-125,4,2,1,80,0,0
615982,-200,4,2,1,80,0,0
616038,-125,4,2,1,80,0,0
616095,218.181818181818,4,2,1,80,1,0
616095,-144.927536231884,4,2,1,80,0,0
616422,-217.391304347826,4,2,1,80,0,0
616476,-126.582278481013,4,2,1,80,0,0
616544,214.285714285714,4,2,1,80,1,0
616544,-147.058823529412,4,2,1,80,0,0
616865,-222.222222222222,4,2,1,80,0,0
616919,-121.951219512195,4,2,1,80,0,0
616959,206.896551724138,4,2,1,80,1,0
616959,-151.515151515152,4,2,1,80,0,0
617269,-232.558139534884,4,2,1,80,0,0
617321,-121.951219512195,4,2,1,80,0,0
617683,-232.558139534884,4,2,1,80,0,0
617734,-121.951219512195,4,2,1,80,0,0
617773,400,4,2,1,80,1,0
617773,-78.7401574803149,4,2,1,80,0,0
630173,-78.7401574803149,4,2,2,80,0,0
630573,-78.7401574803149,4,2,1,80,0,0
636173,-78.7401574803149,4,2,2,80,0,0
636573,-78.7401574803149,4,2,1,80,0,0
641973,-78.7401574803149,4,2,2,80,0,0
643373,-78.7401574803149,4,2,1,70,0,0
643573,-78.7401574803149,4,2,1,30,0,0
643773,-78.7401574803149,4,2,1,40,0,0
643973,-78.7401574803149,4,2,1,30,0,0
644173,-78.7401574803149,4,2,1,40,0,0
645173,-78.7401574803149,4,2,1,30,0,0
645373,-78.7401574803149,4,2,1,40,0,0
645573,-78.7401574803149,4,2,1,30,0,0
645773,-78.7401574803149,4,2,1,70,0,0
645873,-78.7401574803149,4,2,1,40,0,0
646073,-78.7401574803149,4,2,2,70,0,0
646173,-78.7401574803149,4,2,1,30,0,0
646573,-78.7401574803149,4,2,1,31,0,0
652773,-78.7401574803149,4,2,2,31,0,0
652973,-78.7401574803149,4,2,1,31,0,0
657973,-78.7401574803149,4,2,1,30,0,0
658173,-78.7401574803149,4,2,1,40,0,0
658373,-78.7401574803149,4,2,1,30,0,0
658573,-78.7401574803149,4,2,1,40,0,0
658673,-78.7401574803149,4,2,1,50,0,0
658773,-78.7401574803149,4,2,1,60,0,0
658873,-78.7401574803149,4,2,1,30,0,0
659373,-66.6666666666667,4,2,1,30,0,0
659473,-133.333333333333,4,2,1,30,0,0
659573,-66.6666666666667,4,2,1,30,0,0
659673,-133.333333333333,4,2,1,30,0,0
659773,-66.6666666666667,4,2,1,30,0,0
659873,-133.333333333333,4,2,1,30,0,0
659973,-66.6666666666667,4,2,1,30,0,0
660073,-133.333333333333,4,2,1,30,0,0
660173,-78.7401574803149,4,2,1,30,0,0
660573,-133.333333333333,4,2,1,30,0,0
660973,-117.647058823529,4,2,1,30,0,0
661373,-105.263157894737,4,2,1,30,0,0
661773,-95.2380952380952,4,2,1,30,0,0
661973,-86.9565217391304,4,2,1,30,0,0
662173,-80,4,2,1,30,0,0
662373,-78.7401574803149,4,2,1,30,0,0
662573,-117.647058823529,4,2,1,30,0,0
662973,-105.263157894737,4,2,1,30,0,0
663173,-95.2380952380952,4,2,1,30,0,0
663373,-86.9565217391304,4,2,1,30,0,0
663773,-133.333333333333,4,2,1,30,0,0
664173,-105.263157894737,4,2,1,30,0,0
664573,-86.9565217391304,4,2,1,30,0,0
664973,-66.6666666666667,4,2,1,30,0,0
665073,-133.333333333333,4,2,1,30,0,0
665173,-66.6666666666667,4,2,1,30,0,0
665273,-133.333333333333,4,2,1,30,0,0
665373,-66.6666666666667,4,2,1,30,0,0
665473,-133.333333333333,4,2,1,30,0,0
665573,-66.6666666666667,4,2,1,30,0,0
665673,-133.333333333333,4,2,1,30,0,0
665773,-10000,4,2,1,30,0,0
665973,-33.3333333333333,4,2,1,30,0,0
666073,-78.7401574803149,4,2,1,30,0,0
666173,-10000,4,2,1,30,0,0
666398,-33.3333333333333,4,2,1,30,0,0
666473,-78.7401574803149,4,2,1,30,0,0
666573,-10000,4,2,1,30,0,0
666823,-33.3333333333333,4,2,1,30,0,0
666873,-78.7401574803149,4,2,1,30,0,0
666973,-10000,4,2,1,30,0,0
667248,-33.3333333333333,4,2,1,30,0,0
667273,-78.7401574803149,4,2,1,30,0,0
667373,-10000,4,2,1,30,0,0
667623,-33.3333333333333,4,2,1,30,0,0
667673,-78.7401574803149,4,2,1,30,0,0
667773,-10000,4,2,1,30,0,0
667973,-33.3333333333333,4,2,1,30,0,0
668073,-78.7401574803149,4,2,1,30,0,0
668173,-10000,4,2,1,30,0,0
668398,-33.3333333333333,4,2,1,30,0,0
668473,-78.7401574803149,4,2,1,30,0,0
668573,-10000,4,2,1,30,0,0
668823,-33.3333333333333,4,2,1,30,0,0
668873,-78.7401574803149,4,2,1,30,0,0
668973,-100,4,2,1,30,0,0
669173,-66.6666666666667,4,2,1,30,0,0
669273,-78.7401574803149,4,2,1,30,0,0
669373,-100,4,2,1,30,0,0
669573,-66.6666666666667,4,2,1,30,0,0
669673,-78.7401574803149,4,2,1,30,0,0
669773,-100,4,2,1,30,0,0
669973,-66.6666666666667,4,2,1,30,0,0
670073,-78.7401574803149,4,2,1,30,0,0
670173,-100,4,2,1,30,0,0
670373,-66.6666666666667,4,2,1,30,0,0
670473,-78.7401574803149,4,2,1,30,0,0
670573,-100,4,2,1,30,0,0
670773,-66.6666666666667,4,2,1,30,0,0
670873,-78.7401574803149,4,2,1,30,0,0
670973,-100,4,2,1,30,0,0
671173,-66.6666666666667,4,2,1,30,0,0
671273,-78.7401574803149,4,2,1,30,0,0
671373,-100,4,2,1,30,0,0
671573,-66.6666666666667,4,2,1,30,0,0
671673,-78.7401574803149,4,2,1,30,0,0
671773,-100,4,2,1,30,0,0
671973,-66.6666666666667,4,2,1,30,0,0
672073,-78.7401574803149,4,2,1,30,0,0
678573,-78.7401574803149,4,2,1,30,0,0
678673,-78.7401574803149,4,2,1,30,0,0
684973,-78.7401574803149,4,2,1,30,0,0
685073,-78.7401574803149,4,2,1,30,0,0
691373,-78.7401574803149,4,2,1,30,0,0
691473,-78.7401574803149,4,2,1,30,0,0
704173,-78.7401574803149,4,2,1,30,0,0
704973,-50,4,2,1,30,0,0
705373,-100,4,2,1,30,0,0
705573,-78.7401574803149,4,2,1,30,0,0
706573,-50,4,2,1,30,0,0
706973,-100,4,2,1,30,0,0
707173,-78.7401574803149,4,2,1,30,0,0
707773,-78.7401574803149,4,2,2,30,0,0
707873,-78.7401574803149,4,2,1,30,0,0
708173,-50,4,2,1,30,0,0
708573,-100,4,2,1,30,0,0
708773,-78.7401574803149,4,2,1,30,0,0
708973,-100,4,2,1,30,0,0
710473,-78.7401574803149,4,2,1,30,0,0
710573,-78.7401574803149,4,2,1,30,0,0
711373,-50,4,2,1,30,0,0
711773,-100,4,2,1,30,0,0
711973,-78.7401574803149,4,2,1,30,0,0
712973,-50,4,2,1,30,0,0
713373,-100,4,2,1,30,0,0
713573,-78.7401574803149,4,2,1,30,0,0
714573,-50,4,2,1,30,0,0
714973,-100,4,2,1,30,0,0
715173,-78.7401574803149,4,2,1,30,0,0
715373,-100,4,2,1,30,0,0
716873,-78.7401574803149,4,2,1,30,0,0
716973,-78.7401574803149,4,2,1,30,0,0
723173,-78.7401574803149,4,2,2,30,0,0
723373,-78.7401574803149,4,2,1,30,0,0
728973,-78.7401574803149,4,2,2,30,0,0
729373,-78.7401574803149,4,2,1,30,0,0
729573,-78.7401574803149,4,2,2,30,0,0
729773,-78.7401574803149,4,2,1,30,0,0
735173,-78.7401574803149,4,2,2,30,0,0
736173,-78.7401574803149,4,2,1,30,0,1
741773,-78.7401574803149,4,2,2,30,0,1
742173,-78.7401574803149,4,2,1,30,0,1
748173,-78.7401574803149,4,2,2,30,0,1
748573,-78.7401574803149,4,2,1,30,0,1
748773,-78.7401574803149,4,2,2,30,0,0
748973,-78.7401574803149,4,2,1,30,0,1
754573,-78.7401574803149,4,2,2,30,0,1
754973,-78.7401574803149,4,2,1,30,0,1
755173,-78.7401574803149,4,2,2,30,0,1
755373,-78.7401574803149,4,2,1,30,0,1
760973,-78.7401574803149,4,2,2,30,0,1
761373,-78.7401574803149,4,2,1,30,0,1
761573,-78.7401574803149,4,2,2,30,0,1
763373,-78.7401574803149,4,2,1,30,0,0
768973,-78.7401574803149,4,2,2,30,0,0
769473,-78.7401574803149,4,2,1,30,0,0
775373,-78.7401574803149,4,2,2,30,0,0
828973,387.096774193548,4,2,1,30,1,0
828973,-81.3008130081301,4,2,1,30,0,0
830521,375,4,2,1,30,1,0
830521,-84.0336134453781,4,2,1,30,0,0
832021,359.281437125748,4,2,1,30,1,0
832021,-87.719298245614,4,2,1,30,0,0
834807,333.333333333333,4,2,1,30,1,0
834807,-94.3396226415094,4,2,1,30,0,0
845474,-94.3396226415094,4,2,1,30,0,0
849474,-94.3396226415094,4,2,1,30,0,0
850140,-94.3396226415094,4,2,1,30,0,0
850474,-94.3396226415094,4,2,1,30,0,0
850807,-94.3396226415094,4,2,1,30,0,1
869474,-94.3396226415094,4,2,1,30,0,1
870807,-94.3396226415094,4,2,1,30,0,1
872140,-94.3396226415094,4,2,1,50,0,0
877474,-94.3396226415094,4,2,1,70,0,0
879807,-94.3396226415094,4,2,1,5,0,0
880140,-94.3396226415094,4,2,1,31,0,0
882140,-94.3396226415094,4,2,1,31,0,0
882474,-94.3396226415094,4,2,2,31,0,0
882807,-94.3396226415094,4,2,1,31,0,0
885140,-94.3396226415094,4,2,1,5,0,0
885474,-94.3396226415094,4,2,1,70,0,0
887140,-94.3396226415094,4,2,1,20,0,0
887474,-94.3396226415094,4,2,1,70,0,0
887807,-94.3396226415094,4,2,2,70,0,0
888140,-94.3396226415094,4,2,1,37,0,1
890696,-94.3396226415094,4,2,2,37,0,1
890807,-94.3396226415094,4,2,1,37,0,1
893140,-94.3396226415094,4,2,2,37,0,1
893473,-94.3396226415094,4,2,1,37,0,1
898807,333.333333333333,4,2,1,37,1,0
898807,-94.3396226415094,4,2,1,37,0,0
899473,324.324324324324,4,2,1,37,1,0
899473,-97.0873786407767,4,2,1,37,0,0
900121,307.692307692308,4,2,1,37,1,0
900121,-103.092783505155,4,2,1,37,0,0
900736,300,4,2,1,37,1,0
900736,-105.263157894737,4,2,1,37,0,0
901336,300,4,2,1,37,1,0
901336,-105.263157894737,4,2,1,37,0,0
901786,-105.263157894737,4,2,1,50,0,0
906136,-105.263157894737,4,2,1,70,0,0
910936,-105.263157894737,4,2,1,80,0,1
913111,-105.263157894737,4,2,2,40,0,1
913186,-105.263157894737,4,2,2,50,0,1
913261,-105.263157894737,4,2,2,60,0,1
913336,-105.263157894737,4,2,1,80,0,1
917911,-105.263157894737,4,2,2,40,0,1
917986,-105.263157894737,4,2,2,50,0,1
918061,-105.263157894737,4,2,2,60,0,1
918136,-105.263157894737,4,2,1,80,0,1
920311,-105.263157894737,4,2,2,40,0,1
920386,-105.263157894737,4,2,2,50,0,1
920461,-105.263157894737,4,2,2,60,0,1
920536,-105.263157894737,4,2,1,80,0,1
925261,-105.263157894737,4,2,1,40,0,0
934936,-105.263157894737,4,2,1,40,0,0
937036,-105.263157894737,4,2,2,40,0,0
937261,-105.263157894737,4,2,2,40,0,0
937336,-105.263157894737,4,2,1,40,0,0
939436,-105.263157894737,4,2,2,40,0,0
939736,-105.263157894737,4,2,1,40,0,1
941986,-105.263157894737,4,2,2,40,0,1
942136,-105.263157894737,4,2,1,40,0,1
944311,-105.263157894737,4,2,2,40,0,1
944386,-105.263157894737,4,2,2,40,0,1
944461,-105.263157894737,4,2,2,40,0,1
944536,-105.263157894737,4,2,1,40,0,1
946711,-105.263157894737,4,2,2,40,0,1
946936,-105.263157894737,4,2,1,40,0,1
949111,-105.263157894737,4,2,2,40,0,1
949186,-105.263157894737,4,2,2,40,0,1
949261,-105.263157894737,4,2,2,40,0,1
949336,-105.263157894737,4,2,1,40,0,1
951586,-105.263157894737,4,2,2,40,0,1
951736,-105.263157894737,4,2,1,40,0,1
954211,-105.263157894737,4,2,2,40,0,1
954736,-105.263157894737,4,2,1,40,0,1
954811,-105.263157894737,4,2,2,40,0,1
955336,-105.263157894737,4,2,1,40,0,1
955411,-105.263157894737,4,2,2,40,0,1
955636,-105.263157894737,4,2,1,50,0,1
955786,-105.263157894737,4,2,1,5,0,1
955936,-105.263157894737,4,2,1,31,0,1
956011,-105.263157894737,4,2,2,31,0,1
956536,-105.263157894737,4,2,1,31,0,1
958936,-105.263157894737,4,2,1,31,0,0
963736,-105.263157894737,4,2,1,31,0,1
968236,-105.263157894737,4,2,2,31,0,1
968536,-105.263157894737,4,2,1,31,0,1
972136,-105.263157894737,4,2,2,31,0,1
973036,-105.263157894737,4,2,2,31,0,1
975736,-105.263157894737,4,2,1,31,0,1
977686,-105.263157894737,4,2,2,31,0,1
977836,-105.263157894737,4,2,1,31,0,1
984361,-105.263157894737,4,2,2,31,0,1
984436,-105.263157894737,4,2,1,31,0,1
984511,-105.263157894737,4,2,2,31,0,1
984736,-105.263157894737,4,2,1,31,0,1
984811,-105.263157894737,4,2,2,32,0,1
985036,-105.263157894737,4,2,1,32,0,1
985111,-105.263157894737,4,2,2,32,0,1
985186,-105.263157894737,4,2,1,32,0,1
985261,-105.263157894737,4,2,2,32,0,1
986536,-105.263157894737,4,2,1,32,0,0
987736,-105.263157894737,4,2,1,32,0,1
989686,-105.263157894737,4,2,2,32,0,1
989836,-105.263157894737,4,2,1,32,0,1
992236,-105.263157894737,4,2,2,32,0,1
992536,-105.263157894737,4,2,1,32,0,1
997036,-105.263157894737,4,2,2,32,0,1
997336,-105.263157894737,4,2,1,32,0,1
1001836,-105.263157894737,4,2,2,32,0,1
1002136,-105.263157894737,4,2,1,32,0,1
1004086,-105.263157894737,4,2,2,32,0,1
1004236,-105.263157894737,4,2,2,32,0,1
1004536,-105.263157894737,4,2,1,32,0,1
1006636,-105.263157894737,4,2,2,32,0,1
1006936,-105.263157894737,4,2,1,32,0,1
1008886,-105.263157894737,4,2,2,32,0,1
1009336,-105.263157894737,4,2,1,32,0,1
1011436,-105.263157894737,4,2,2,32,0,1
1011736,-105.263157894737,4,2,1,32,0,1
1015336,-105.263157894737,4,2,1,32,0,1
1016236,-105.263157894737,4,2,2,32,0,1
1018936,-105.263157894737,4,2,1,32,0,1
1023436,-105.263157894737,4,2,2,32,0,1
1023736,-105.263157894737,4,2,1,32,0,1
1025686,-105.263157894737,4,2,2,32,0,1
1025836,-105.263157894737,4,2,1,32,0,1
1025986,-105.263157894737,4,2,2,32,0,1
1026136,-105.263157894737,4,2,1,32,0,1
1028236,-105.263157894737,4,2,2,32,0,1
1028386,-105.263157894737,4,2,1,32,0,1
1029886,-66.6666666666667,4,2,1,32,0,1
1030036,-133.333333333333,4,2,1,32,0,1
1030111,-105.263157894737,4,2,1,32,0,1
1030186,-66.6666666666667,4,2,1,32,0,1
1030336,-133.333333333333,4,2,1,32,0,1
1030411,-105.263157894737,4,2,1,32,0,1
1030486,-66.6666666666667,4,2,1,32,0,1
1030636,-133.333333333333,4,2,1,32,0,1
1030711,-105.263157894737,4,2,1,32,0,1
1030786,-105.263157894737,4,2,3,32,0,1
1030936,-105.263157894737,4,2,1,32,0,1
1032286,-133.333333333333,4,2,1,32,0,1
1032436,-66.6666666666667,4,2,1,32,0,1
1032511,-105.263157894737,4,2,1,32,0,1
1032586,-133.333333333333,4,2,1,32,0,1
1032736,-66.6666666666667,4,2,1,32,0,1
1032811,-105.263157894737,4,2,1,32,0,1
1032886,-133.333333333333,4,2,1,32,0,1
1033036,-66.6666666666667,4,2,1,32,0,1
1033111,-105.263157894737,4,2,1,32,0,1
1034086,-105.263157894737,4,2,2,32,0,1
1034236,-105.263157894737,4,2,1,32,0,1
1035286,-105.263157894737,4,2,2,32,0,1
1035436,-105.263157894737,4,2,1,32,0,1
1036486,-105.263157894737,4,2,2,32,0,1
1036636,-105.263157894737,4,2,1,32,0,1
1038136,-55.5555555555556,4,2,1,32,0,0
1038286,-153.846153846154,4,2,1,32,0,0
1038436,-105.263157894737,4,2,1,32,0,0
1038586,-55.5555555555556,4,2,1,32,0,0
1038736,-153.846153846154,4,2,1,32,0,0
1038886,-105.263157894737,4,2,1,32,0,0
1039036,-55.5555555555556,4,2,1,32,0,0
1039186,-153.846153846154,4,2,1,32,0,0
1039336,-105.263157894737,4,2,1,32,0,0
1039486,-55.5555555555556,4,2,1,32,0,0
1039561,-153.846153846154,4,2,1,32,0,0
1039636,-105.263157894737,4,2,1,32,0,0
1039786,-100,4,2,1,32,0,0
1039861,-105.263157894737,4,2,1,32,0,0
1039936,-100,4,2,1,32,0,0
1040011,-105.263157894737,4,2,1,32,0,0
1040086,-100,4,2,1,32,0,0
1040161,-105.263157894737,4,2,1,32,0,0
1040236,-55.5555555555556,4,2,1,32,0,0
1040311,-153.846153846154,4,2,1,32,0,0
1040386,-105.263157894737,4,2,1,32,0,0
1040536,-55.5555555555556,4,2,1,32,0,0
1040686,-153.846153846154,4,2,1,32,0,0
1040836,-105.263157894737,4,2,1,32,0,0
1040986,-55.5555555555556,4,2,1,32,0,0
1041061,-153.846153846154,4,2,1,32,0,0
1041136,-105.263157894737,4,2,1,32,0,0
1041286,-100,4,2,1,32,0,0
1041361,-105.263157894737,4,2,1,32,0,0
1041436,-55.5555555555556,4,2,1,32,0,0
1041511,-153.846153846154,4,2,1,32,0,0
1041586,-105.263157894737,4,2,1,32,0,0
1041736,-55.5555555555556,4,2,1,32,0,0
1041886,-153.846153846154,4,2,1,32,0,0
1041961,-105.263157894737,4,2,1,32,0,0
1042936,-105.263157894737,4,2,1,32,0,1
1044961,-105.263157894737,4,2,2,32,0,1
1045186,-105.263157894737,4,2,1,32,0,1
1046536,-105.263157894737,4,2,2,32,0,1
1047436,-105.263157894737,4,2,2,32,0,1
1047736,-105.263157894737,4,2,1,32,0,0
1048636,-105.263157894737,4,2,1,32,0,0
1058536,500,4,3,1,32,1,0
1058536,-63.2911392405063,4,3,1,32,0,0
1061536,-63.2911392405063,4,3,1,32,0,0
1062536,-63.2911392405063,4,3,1,32,0,0
1078536,-63.2911392405063,4,2,3,32,0,0
1086546,500,4,2,1,32,1,0
1086546,-63.2911392405063,4,2,1,32,0,0
1094546,-63.2911392405063,4,2,1,32,0,0
1098046,-63.2911392405063,4,2,2,32,0,0
1110546,250,4,1,2,32,1,1
1110546,-126.582278481013,4,1,2,32,0,1
1110608,-126.582278481013,4,1,1,32,0,1
1112546,-126.582278481013,4,1,2,32,0,1
1112608,-126.582278481013,4,1,1,32,0,1
1114546,-126.582278481013,4,1,2,32,0,1
1114608,-126.582278481013,4,1,1,32,0,1
1116546,-126.582278481013,4,1,2,32,0,1
1116608,-126.582278481013,4,1,1,32,0,1
1122546,-126.582278481013,4,1,2,32,0,1
1122608,-126.582278481013,4,1,1,32,0,1
1124546,-126.582278481013,4,1,2,32,0,1
1124608,-126.582278481013,4,1,1,32,0,1
1126546,-126.582278481013,4,1,2,32,0,1
1126608,-126.582278481013,4,1,1,32,0,1
1128546,-126.582278481013,4,1,2,32,0,1
1128608,-126.582278481013,4,1,1,32,0,1
1130546,-126.582278481013,4,1,2,32,0,1
1132046,-126.582278481013,4,1,1,32,0,1
1132296,-126.582278481013,4,1,1,32,0,1
1132421,-126.582278481013,4,1,1,32,0,0
1132546,-126.582278481013,4,1,2,32,0,1
1132608,-126.582278481013,4,1,1,32,0,1
1134546,-126.582278481013,4,1,2,32,0,1
1134608,-126.582278481013,4,1,1,32,0,1
1136546,-126.582278481013,4,1,2,32,0,1
1136608,-126.582278481013,4,1,1,32,0,1
1138546,-126.582278481013,4,1,2,32,0,1
1138608,-126.582278481013,4,1,1,32,0,1
1139546,-126.582278481013,4,1,1,32,0,1
1140546,-126.582278481013,4,1,1,32,0,0
1150546,-126.582278481013,4,1,1,32,0,0
1154546,-126.582278481013,4,1,2,32,0,1
1154608,-126.582278481013,4,1,1,32,0,1
1156546,-126.582278481013,4,1,2,32,0,1
1156608,-126.582278481013,4,1,1,32,0,1
1158546,-126.582278481013,4,1,2,32,0,1
1158608,-126.582278481013,4,1,1,32,0,1
1160546,-126.582278481013,4,1,2,32,0,1
1160608,-126.582278481013,4,1,1,32,0,1
1168546,-126.582278481013,4,1,2,32,0,1
1168608,-126.582278481013,4,1,1,32,0,1
1170546,-126.582278481013,4,1,2,32,0,1
1170608,-126.582278481013,4,1,1,32,0,1
1172546,-126.582278481013,4,1,2,32,0,1
1172608,-126.582278481013,4,1,1,32,0,1
1174546,-126.582278481013,4,1,2,32,0,1
1174608,-126.582278481013,4,1,1,32,0,1
1176421,-126.582278481013,4,1,1,32,0,0
1176546,-126.582278481013,4,1,2,32,0,1
1176608,-126.582278481013,4,1,1,32,0,1
1177671,-126.582278481013,4,1,1,32,0,1
1178171,-126.582278481013,4,1,1,32,0,1
1178546,-126.582278481013,4,1,2,32,0,1
1178608,-126.582278481013,4,1,1,32,0,1
1179671,-126.582278481013,4,1,1,32,0,1
1180171,-126.582278481013,4,1,1,32,0,1
1180546,-126.582278481013,4,1,2,32,0,1
1180608,-126.582278481013,4,1,1,32,0,1
1181671,-126.582278481013,4,1,1,32,0,1
1182171,-126.582278481013,4,1,1,32,0,1
1182546,-126.582278481013,4,1,1,32,0,1
1182671,-126.582278481013,4,1,1,32,0,1
1183171,-126.582278481013,4,1,1,32,0,1
1183546,-126.582278481013,4,1,2,32,0,1
1183608,-126.582278481013,4,1,1,32,0,1
1185546,-126.582278481013,4,1,2,32,0,1
1185608,-126.582278481013,4,1,1,32,0,1
1187546,-126.582278481013,4,1,2,32,0,1
1187608,-126.582278481013,4,1,1,32,0,1
1189546,-126.582278481013,4,1,2,32,0,1
1189608,-126.582278481013,4,1,1,32,0,1
1191546,-126.582278481013,4,1,2,32,0,1
1191608,-126.582278481013,4,1,1,32,0,1
1193546,-126.582278481013,4,1,2,32,0,1
1193608,-126.582278481013,4,1,1,32,0,1
1205546,-126.582278481013,4,1,2,32,0,1
1205608,-126.582278481013,4,1,1,32,0,1
1207546,-126.582278481013,4,1,2,32,0,1
1207608,-126.582278481013,4,1,1,32,0,1
1209546,-126.582278481013,4,1,2,32,0,1
1209608,-126.582278481013,4,1,1,32,0,1
1211546,-126.582278481013,4,1,2,32,0,1
1211608,-126.582278481013,4,1,1,32,0,1
1213546,-126.582278481013,4,1,2,32,0,1
1213608,-126.582278481013,4,1,1,32,0,1
1215546,-126.582278481013,4,1,2,32,0,1
1215608,-126.582278481013,4,1,1,32,0,1
1219546,-126.582278481013,4,1,2,32,0,1
1219608,-126.582278481013,4,1,1,32,0,1
1221546,-126.582278481013,4,1,2,32,0,1
1221608,-126.582278481013,4,1,1,32,0,1
1227483,-126.582278481013,4,1,1,32,0,0
1227546,-126.582278481013,4,1,1,32,0,1
1227608,-126.582278481013,4,2,1,32,0,0
1228046,-126.582278481013,4,2,1,70,0,0
1228358,-126.582278481013,4,2,1,60,0,0
1228608,-126.582278481013,4,2,1,50,0,0
1228921,-126.582278481013,4,2,1,40,0,0
1229233,-126.582278481013,4,2,1,30,0,0
1229546,-126.582278481013,4,2,1,20,0,0
1229858,-126.582278481013,4,2,1,10,0,0
1230046,-126.582278481013,4,2,1,5,0,0
1233206,666.666666666667,4,2,1,50,1,0
1233206,-47.6190476190476,4,2,1,50,0,0
1297206,-47.6190476190476,4,2,1,50,0,0
1299872,333.333333333333,4,2,1,51,1,0
1299872,-95.2380952380952,4,2,1,51,0,0
1350633,-95.2380952380952,4,2,1,51,0,1
1383872,-95.2380952380952,4,2,1,46,0,0
1389205,-95.2380952380952,4,2,1,48,0,0
1395867,342.857142857143,4,2,1,51,1,0
1395867,-91.743119266055,4,2,1,51,0,0
1401352,352.941176470588,4,2,1,51,1,0
1405587,363.636363636364,4,2,1,51,1,0
1414314,375,4,2,1,51,1,0
1415814,387.096774193548,4,2,1,51,1,0
1417362,400,4,2,1,51,1,0
1418962,428.571428571429,4,2,1,51,1,0
1420676,461.538461538462,4,2,1,51,1,0
1422522,480,4,2,1,51,1,0
1424442,521.739130434783,4,2,1,51,1,0
1426525,545.454545454546,4,2,1,51,1,0
1426525,-58.1395348837209,4,2,1,51,0,0
1430888,600,4,2,1,51,1,0
1430888,-52.6315789473684,4,2,1,51,0,0
1433288,333.333333333333,4,2,1,51,1,0
1433288,-95.2380952380952,4,2,1,51,0,0

[HitObjects]
448,192,1299872,5,0,0:0:0:0:
64,192,1299872,1,0,0:0:0:0:
192,192,1299872,1,0,0:0:0:0:
320,192,1300038,1,0,0:0:0:0:
192,192,1300038,1,0,0:0:0:0:
448,192,1300205,1,0,0:0:0:0:
64,192,1300205,1,0,0:0:0:0:
448,192,1300372,1,0,0:0:0:0:
192,192,1300372,1,0,0:0:0:0:
320,192,1300538,1,0,0:0:0:0:
64,192,1300538,1,0,0:0:0:0:
320,192,1300705,1,0,0:0:0:0:
192,192,1300705,1,0,0:0:0:0:
64,192,1300872,1,0,0:0:0:0:
448,192,1300872,1,0,0:0:0:0:
320,192,1301038,1,0,0:0:0:0:
192,192,1301038,1,0,0:0:0:0:
64,192,1301205,1,0,0:0:0:0:
448,192,1301205,1,0,0:0:0:0:
192,192,1301372,1,0,0:0:0:0:
448,192,1301372,1,0,0:0:0:0:
320,192,1301538,1,0,0:0:0:0:
64,192,1301538,1,0,0:0:0:0:
192,192,1301705,1,0,0:0:0:0:
320,192,1301705,1,0,0:0:0:0:
448,192,1301872,1,0,0:0:0:0:
64,192,1301872,1,0,0:0:0:0:
320,192,1302038,1,0,0:0:0:0:
192,192,1302038,1,0,0:0:0:0:
448,192,1302205,1,0,0:0:0:0:
64,192,1302205,1,0,0:0:0:0:
448,192,1302372,1,0,0:0:0:0:
320,192,1302372,1,0,0:0:0:0:
64,192,1302538,1,0,0:0:0:0:
448,192,1302538,1,0,0:0:0:0:
192,192,1302705,1,0,0:0:0:0:
320,192,1302705,1,0,0:0:0:0:
64,192,1302872,1,0,0:0:0:0:
448,192,1302872,1,0,0:0:0:0:
192,192,1303038,1,0,0:0:0:0:
448,192,1303038,1,0,0:0:0:0:
64,192,1303205,1,0,0:0:0:0:
320,192,1303205,1,0,0:0:0:0:
320,192,1303372,1,0,0:0:0:0:
192,192,1303372,1,0,0:0:0:0:
448,192,1303538,1,0,0:0:0:0:
64,192,1303538,1,0,0:0:0:0:
320,192,1303705,1,0,0:0:0:0:
192,192,1303705,1,0,0:0:0:0:
448,192,1303872,1,0,0:0:0:0:
64,192,1303872,1,0,0:0:0:0:
448,192,1304038,1,0,0:0:0:0:
192,192,1304038,1,0,0:0:0:0:
320,192,1304205,1,0,0:0:0:0:
64,192,1304205,1,0,0:0:0:0:
192,192,1304372,1,0,0:0:0:0:
320,192,1304372,1,0,0:0:0:0:
448,192,1304538,1,0,0:0:0:0:
64,192,1304538,1,0,0:0:0:0:
320,192,1304705,1,0,0:0:0:0:
192,192,1304705,1,0,0:0:0:0:
64,192,1304872,1,0,0:0:0:0:
448,192,1304872,1,0,0:0:0:0:
448,192,1305038,1,0,0:0:0:0:
320,192,1305038,1,0,0:0:0:0:
448,192,1305205,1,0,0:0:0:0:
64,192,1305205,1,0,0:0:0:0:
320,192,1305205,1,0,0:0:0:0:
448,192,1305372,1,0,0:0:0:0:
64,192,1305372,1,0,0:0:0:0:
320,192,1305372,1,0,0:0:0:0:
448,192,1305538,1,0,0:0:0:0:
192,192,1305538,1,0,0:0:0:0:
320,192,1305538,1,0,0:0:0:0:
192,192,1305705,1,0,0:0:0:0:
64,192,1305705,1,0,0:0:0:0:
320,192,1305705,1,0,0:0:0:0:
448,192,1305872,1,0,0:0:0:0:
64,192,1305872,1,0,0:0:0:0:
320,192,1306038,1,0,0:0:0:0:
192,192,1306038,1,0,0:0:0:0:
448,192,1306205,1,0,0:0:0:0:
64,192,1306205,1,0,0:0:0:0:
448,192,1306372,1,0,0:0:0:0:
320,192,1306372,1,0,0:0:0:0:
448,192,1306538,1,0,0:0:0:0:
64,192,1306538,1,0,0:0:0:0:
192,192,1306538,1,0,0:0:0:0:
448,192,1306705,1,0,0:0:0:0:
192,192,1306705,1,0,0:0:0:0:
320,192,1306705,1,0,0:0:0:0:
448,192,1306872,1,0,0:0:0:0:
64,192,1306872,1,0,0:0:0:0:
320,192,1306872,1,0,0:0:0:0:
192,192,1307038,1,0,0:0:0:0:
64,192,1307038,1,0,0:0:0:0:
320,192,1307038,1,0,0:0:0:0:
448,192,1307205,1,0,0:0:0:0:
192,192,1307205,1,0,0:0:0:0:
320,192,1307372,1,0,0:0:0:0:
64,192,1307372,1,0,0:0:0:0:
448,192,1307372,1,0,0:0:0:0:
320,192,1307538,1,0,0:0:0:0:
64,192,1307538,1,0,0:0:0:0:
448,192,1307705,1,0,0:0:0:0:
192,192,1307705,1,0,0:0:0:0:
320,192,1307705,1,0,0:0:0:0:
448,192,1307872,1,0,0:0:0:0:
64,192,1307872,1,0,0:0:0:0:
192,192,1307872,1,0,0:0:0:0:
448,192,1308038,1,0,0:0:0:0:
64,192,1308038,1,0,0:0:0:0:
320,192,1308038,1,0,0:0:0:0:
448,192,1308205,1,0,0:0:0:0:
320,192,1308205,1,0,0:0:0:0:
192,192,1308205,1,0,0:0:0:0:
320,192,1308372,1,0,0:0:0:0:
64,192,1308372,1,0,0:0:0:0:
192,192,1308372,1,0,0:0:0:0:
448,192,1308538,1,0,0:0:0:0:
64,192,1308538,1,0,0:0:0:0:
320,192,1308705,1,0,0:0:0:0:
192,192,1308705,1,0,0:0:0:0:
448,192,1308872,1,0,0:0:0:0:
64,192,1308872,1,0,0:0:0:0:
192,192,1309038,1,0,0:0:0:0:
64,192,1309038,1,0,0:0:0:0:
448,192,1309205,1,0,0:0:0:0:
64,192,1309205,1,0,0:0:0:0:
320,192,1309205,1,0,0:0:0:0:
448,192,1309372,1,0,0:0:0:0:
192,192,1309372,1,0,0:0:0:0:
320,192,1309372,1,0,0:0:0:0:
448,192,1309538,1,0,0:0:0:0:
64,192,1309538,1,0,0:0:0:0:
192,192,1309538,1,0,0:0:0:0:
320,192,1309705,1,0,0:0:0:0:
64,192,1309705,1,0,0:0:0:0:
192,192,1309705,1,0,0:0:0:0:
448,192,1309872,1,0,0:0:0:0:
320,192,1309872,1,0,0:0:0:0:
448,192,1310038,1,0,0:0:0:0:
64,192,1310038,1,0,0:0:0:0:
192,192,1310038,1,0,0:0:0:0:
320,192,1310205,1,0,0:0:0:0:
192,192,1310205,1,0,0:0:0:0:
448,192,1310372,1,0,0:0:0:0:
64,192,1310372,1,0,0:0:0:0:
320,192,1310372,1,0,0:0:0:0:
448,192,1310538,1,0,0:0:0:0:
64,192,1310538,1,0,0:0:0:0:
192,192,1310538,1,0,0:0:0:0:
448,192,1310705,1,0,0:0:0:0:
64,192,1310705,1,0,0:0:0:0:
320,192,1310705,1,0,0:0:0:0:
448,192,1310872,1,0,0:0:0:0:
320,192,1310872,1,0,0:0:0:0:
192,192,1310872,1,0,0:0:0:0:
320,192,1311038,1,0,0:0:0:0:
64,192,1311038,1,0,0:0:0:0:
192,192,1311038,1,0,0:0:0:0:
448,192,1311205,1,0,0:0:0:0:
64,192,1311205,1,0,0:0:0:0:
448,192,1311372,1,0,0:0:0:0:
192,192,1311372,1,0,0:0:0:0:
320,192,1311538,1,0,0:0:0:0:
64,192,1311538,1,0,0:0:0:0:
192,192,1311705,1,0,0:0:0:0:
320,192,1311705,1,0,0:0:0:0:
448,192,1311872,1,0,0:0:0:0:
64,192,1311872,1,0,0:0:0:0:
320,192,1311872,1,0,0:0:0:0:
448,192,1312038,1,0,0:0:0:0:
64,192,1312038,1,0,0:0:0:0:
192,192,1312038,1,0,0:0:0:0:
320,192,1312205,1,0,0:0:0:0:
192,192,1312205,1,0,0:0:0:0:
64,192,1312205,1,0,0:0:0:0:
448,192,1312372,1,0,0:0:0:0:
192,192,1312372,1,0,0:0:0:0:
320,192,1312372,1,0,0:0:0:0:
320,192,1312538,1,0,0:0:0:0:
64,192,1312538,1,0,0:0:0:0:
448,192,1312705,1,0,0:0:0:0:
64,192,1312705,1,0,0:0:0:0:
192,192,1312705,1,0,0:0:0:0:
320,192,1312872,1,0,0:0:0:0:
192,192,1312872,1,0,0:0:0:0:
448,192,1313038,1,0,0:0:0:0:
64,192,1313038,1,0,0:0:0:0:
320,192,1313038,1,0,0:0:0:0:
448,192,1313205,1,0,0:0:0:0:
64,192,1313205,1,0,0:0:0:0:
192,192,1313205,1,0,0:0:0:0:
448,192,1313372,1,0,0:0:0:0:
192,192,1313372,1,0,0:0:0:0:
320,192,1313372,1,0,0:0:0:0:
448,192,1313538,1,0,0:0:0:0:
64,192,1313538,1,0,0:0:0:0:
320,192,1313538,1,0,0:0:0:0:
192,192,1313705,1,0,0:0:0:0:
64,192,1313705,1,0,0:0:0:0:
320,192,1313705,1,0,0:0:0:0:
448,192,1313872,1,0,0:0:0:0:
192,192,1313872,1,0,0:0:0:0:
448,192,1314038,1,0,0:0:0:0:
64,192,1314038,1,0,0:0:0:0:
192,192,1314205,1,0,0:0:0:0:
320,192,1314205,1,0,0:0:0:0:
64,192,1314372,1,0,0:0:0:0:
320,192,1314372,1,0,0:0:0:0:
448,192,1314538,1,0,0:0:0:0:
64,192,1314538,1,0,0:0:0:0:
192,192,1314538,1,0,0:0:0:0:
448,192,1314705,1,0,0:0:0:0:
192,192,1314705,1,0,0:0:0:0:
320,192,1314705,1,0,0:0:0:0:
448,192,1314872,1,0,0:0:0:0:
64,192,1314872,1,0,0:0:0:0:
320,192,1314872,1,0,0:0:0:0:
192,192,1315038,1,0,0:0:0:0:
64,192,1315038,1,0,0:0:0:0:
320,192,1315038,1,0,0:0:0:0:
448,192,1315205,1,0,0:0:0:0:
192,192,1315205,1,0,0:0:0:0:
448,192,1315372,1,0,0:0:0:0:
64,192,1315372,1,0,0:0:0:0:
192,192,1315372,1,0,0:0:0:0:
320,192,1315538,1,0,0:0:0:0:
64,192,1315538,1,0,0:0:0:0:
448,192,1315705,1,0,0:0:0:0:
192,192,1315705,1,0,0:0:0:0:
320,192,1315705,1,0,0:0:0:0:
448,192,1315872,1,0,0:0:0:0:
64,192,1315872,1,0,0:0:0:0:
192,192,1315872,1,0,0:0:0:0:
448,192,1316038,1,0,0:0:0:0:
64,192,1316038,1,0,0:0:0:0:
320,192,1316038,1,0,0:0:0:0:
448,192,1316205,1,0,0:0:0:0:
192,192,1316205,1,0,0:0:0:0:
320,192,1316205,1,0,0:0:0:0:
448,192,1316372,1,0,0:0:0:0:
64,192,1316372,1,0,0:0:0:0:
192,192,1316372,1,0,0:0:0:0:
320,192,1316538,1,0,0:0:0:0:
192,192,1316538,1,0,0:0:0:0:
448,192,1316705,1,0,0:0:0:0:
64,192,1316705,1,0,0:0:0:0:
320,192,1316705,1,0,0:0:0:0:
448,192,1316872,1,0,0:0:0:0:
192,192,1316872,1,0,0:0:0:0:
448,192,1317038,1,0,0:0:0:0:
320,192,1317038,1,0,0:0:0:0:
192,192,1317038,1,0,0:0:0:0:
64,192,1317205,1,0,0:0:0:0:
192,192,1317205,1,0,0:0:0:0:
448,192,1317205,1,0,0:0:0:0:
320,192,1317372,1,0,0:0:0:0:
64,192,1317372,1,0,0:0:0:0:
448,192,1317372,1,0,0:0:0:0:
448,192,1317538,1,0,0:0:0:0:
320,192,1317538,1,0,0:0:0:0:
192,192,1317538,1,0,0:0:0:0:
448,192,1317705,1,0,0:0:0:0:
192,192,1317705,1,0,0:0:0:0:
64,192,1317705,1,0,0:0:0:0:
192,192,1317872,1,0,0:0:0:0:
320,192,1317872,1,0,0:0:0:0:
448,192,1318038,1,0,0:0:0:0:
320,192,1318038,1,0,0:0:0:0:
64,192,1318038,1,0,0:0:0:0:
448,192,1318205,1,0,0:0:0:0:
192,192,1318205,1,0,0:0:0:0:
320,192,1318372,1,0,0:0:0:0:
448,192,1318372,1,0,0:0:0:0:
192,192,1318372,1,0,0:0:0:0:
448,192,1318538,1,0,0:0:0:0:
192,192,1318538,1,0,0:0:0:0:
64,192,1318538,1,0,0:0:0:0:
448,192,1318705,1,0,0:0:0:0:
64,192,1318705,1,0,0:0:0:0:
320,192,1318705,1,0,0:0:0:0:
192,192,1318872,1,0,0:0:0:0:
320,192,1318872,1,0,0:0:0:0:
448,192,1318872,1,0,0:0:0:0:
64,192,1319038,1,0,0:0:0:0:
192,192,1319038,1,0,0:0:0:0:
448,192,1319038,1,0,0:0:0:0:
320,192,1319205,1,0,0:0:0:0:
192,192,1319205,1,0,0:0:0:0:
64,192,1319372,1,0,0:0:0:0:
320,192,1319372,1,0,0:0:0:0:
448,192,1319372,1,0,0:0:0:0:
192,192,1319538,1,0,0:0:0:0:
448,192,1319538,1,0,0:0:0:0:
192,192,1319705,1,0,0:0:0:0:
448,192,1319705,1,0,0:0:0:0:
320,192,1319705,1,0,0:0:0:0:
64,192,1319872,1,0,0:0:0:0:
192,192,1319872,1,0,0:0:0:0:
448,192,1319872,1,0,0:0:0:0:
320,192,1320038,1,0,0:0:0:0:
64,192,1320038,1,0,0:0:0:0:
448,192,1320038,1,0,0:0:0:0:
448,192,1320205,1,0,0:0:0:0:
320,192,1320205,1,0,0:0:0:0:
192,192,1320205,1,0,0:0:0:0:
448,192,1320372,1,0,0:0:0:0:
192,192,1320372,1,0,0:0:0:0:
64,192,1320372,1,0,0:0:0:0:
192,192,1320538,1,0,0:0:0:0:
320,192,1320538,1,0,0:0:0:0:
448,192,1320705,1,0,0:0:0:0:
320,192,1320705,1,0,0:0:0:0:
64,192,1320705,1,0,0:0:0:0:
448,192,1320872,1,0,0:0:0:0:
192,192,1320872,1,0,0:0:0:0:
320,192,1321038,1,0,0:0:0:0:
448,192,1321038,1,0,0:0:0:0:
192,192,1321038,1,0,0:0:0:0:
448,192,1321205,1,0,0:0:0:0:
64,192,1321205,1,0,0:0:0:0:
192,192,1321205,1,0,0:0:0:0:
448,192,1321372,1,0,0:0:0:0:
192,192,1321372,1,0,0:0:0:0:
320,192,1321372,1,0,0:0:0:0:
448,192,1321538,1,0,0:0:0:0:
320,192,1321538,1,0,0:0:0:0:
64,192,1321538,1,0,0:0:0:0:
320,192,1321705,1,0,0:0:0:0:
64,192,1321705,1,0,0:0:0:0:
192,192,1321705,1,0,0:0:0:0:
448,192,1321872,1,0,0:0:0:0:
64,192,1321872,1,0,0:0:0:0:
192,192,1321872,1,0,0:0:0:0:
448,192,1322038,1,0,0:0:0:0:
192,192,1322038,1,0,0:0:0:0:
320,192,1322038,1,0,0:0:0:0:
448,192,1322205,1,0,0:0:0:0:
64,192,1322205,1,0,0:0:0:0:
320,192,1322205,1,0,0:0:0:0:
192,192,1322372,1,0,0:0:0:0:
64,192,1322372,1,0,0:0:0:0:
320,192,1322372,1,0,0:0:0:0:
448,192,1322538,1,0,0:0:0:0:
64,192,1322538,1,0,0:0:0:0:
192,192,1322538,1,0,0:0:0:0:
448,192,1322705,1,0,0:0:0:0:
192,192,1322705,1,0,0:0:0:0:
320,192,1322705,1,0,0:0:0:0:
448,192,1322872,1,0,0:0:0:0:
64,192,1322872,1,0,0:0:0:0:
320,192,1322872,1,0,0:0:0:0:
192,192,1323038,1,0,0:0:0:0:
64,192,1323038,1,0,0:0:0:0:
320,192,1323038,1,0,0:0:0:0:
448,192,1323205,1,0,0:0:0:0:
64,192,1323205,1,0,0:0:0:0:
192,192,1323205,1,0,0:0:0:0:
448,192,1323372,1,0,0:0:0:0:
192,192,1323372,1,0,0:0:0:0:
320,192,1323372,1,0,0:0:0:0:
448,192,1323538,1,0,0:0:0:0:
64,192,1323538,1,0,0:0:0:0:
320,192,1323538,1,0,0:0:0:0:
320,192,1323705,1,0,0:0:0:0:
64,192,1323705,1,0,0:0:0:0:
192,192,1323705,1,0,0:0:0:0:
448,192,1323872,1,0,0:0:0:0:
64,192,1323872,1,0,0:0:0:0:
192,192,1323872,1,0,0:0:0:0:
448,192,1324038,1,0,0:0:0:0:
64,192,1324038,1,0,0:0:0:0:
320,192,1324038,1,0,0:0:0:0:
448,192,1324205,1,0,0:0:0:0:
64,192,1324205,1,0,0:0:0:0:
192,192,1324205,1,0,0:0:0:0:
448,192,1324372,1,0,0:0:0:0:
64,192,1324372,1,0,0:0:0:0:
320,192,1324372,1,0,0:0:0:0:
448,192,1324538,1,0,0:0:0:0:
64,192,1324538,1,0,0:0:0:0:
192,192,1324538,1,0,0:0:0:0:
448,192,1324705,1,0,0:0:0:0:
64,192,1324705,1,0,0:0:0:0:
320,192,1324705,1,0,0:0:0:0:
448,192,1324872,1,0,0:0:0:0:
64,192,1324872,1,0,0:0:0:0:
192,192,1324872,1,0,0:0:0:0:
448,192,1325038,1,0,0:0:0:0:
64,192,1325038,1,0,0:0:0:0:
320,192,1325038,1,0,0:0:0:0:
192,192,1325205,1,0,0:0:0:0:
64,192,1325205,1,0,0:0:0:0:
448,192,1325288,1,0,0:0:0:0:
320,192,1325288,1,0,0:0:0:0:
64,192,1325372,1,0,0:0:0:0:
192,192,1325372,1,0,0:0:0:0:
448,192,1325455,1,0,0:0:0:0:
320,192,1325455,1,0,0:0:0:0:
192,192,1325538,1,0,0:0:0:0:
64,192,1325538,1,0,0:0:0:0:
448,192,1325622,1,0,0:0:0:0:
320,192,1325622,1,0,0:0:0:0:
192,192,1325705,1,0,0:0:0:0:
64,192,1325705,1,0,0:0:0:0:
448,192,1325788,1,0,0:0:0:0:
320,192,1325788,1,0,0:0:0:0:
192,192,1325872,1,0,0:0:0:0:
64,192,1325872,1,0,0:0:0:0:
448,192,1325955,1,0,0:0:0:0:
320,192,1325955,1,0,0:0:0:0:
192,192,1326038,1,0,0:0:0:0:
64,192,1326038,1,0,0:0:0:0:
448,192,1326122,1,0,0:0:0:0:
320,192,1326122,1,0,0:0:0:0:
192,192,1326205,1,0,0:0:0:0:
64,192,1326205,1,0,0:0:0:0:
448,192,1326288,1,0,0:0:0:0:
320,192,1326288,1,0,0:0:0:0:
192,192,1326372,1,0,0:0:0:0:
64,192,1326372,1,0,0:0:0:0:
448,192,1326455,1,0,0:0:0:0:
320,192,1326455,1,0,0:0:0:0:
448,192,1326538,1,0,0:0:0:0:
64,192,1326538,1,0,0:0:0:0:
192,192,1326538,1,0,0:0:0:0:
448,192,1327872,1,0,0:0:0:0:
192,192,1327872,1,0,0:0:0:0:
192,192,1328205,1,0,0:0:0:0:
64,192,1328205,1,0,0:0:0:0:
448,192,1328372,1,0,0:0:0:0:
320,192,1328372,1,0,0:0:0:0:
448,192,1328538,1,0,0:0:0:0:
64,192,1328538,1,0,0:0:0:0:
192,192,1328538,1,0,0:0:0:0:
320,192,1328622,1,0,0:0:0:0:
192,192,1328622,1,0,0:0:0:0:
448,192,1328705,1,0,0:0:0:0:
64,192,1328705,1,0,0:0:0:0:
448,192,1328872,1,0,0:0:0:0:
192,192,1328872,1,0,0:0:0:0:
320,192,1328872,1,0,0:0:0:0:
320,192,1329038,1,0,0:0:0:0:
64,192,1329205,1,0,0:0:0:0:
192,192,1329205,1,0,0:0:0:0:
448,192,1329205,1,0,0:0:0:0:
320,192,1329372,1,0,0:0:0:0:
192,192,1329538,1,0,0:0:0:0:
64,192,1329705,1,0,0:0:0:0:
448,192,1329872,1,0,0:0:0:0:
320,192,1330038,1,0,0:0:0:0:
64,192,1330038,1,0,0:0:0:0:
192,192,1330205,1,0,0:0:0:0:
448,192,1330205,1,0,0:0:0:0:
320,192,1330372,1,0,0:0:0:0:
448,192,1330372,1,0,0:0:0:0:
64,192,1330538,1,0,0:0:0:0:
192,192,1330538,1,0,0:0:0:0:
320,192,1330705,1,0,0:0:0:0:
448,192,1330872,1,0,0:0:0:0:
192,192,1331038,1,0,0:0:0:0:
64,192,1331372,1,0,0:0:0:0:
448,192,1331372,1,0,0:0:0:0:
320,192,1331538,1,0,0:0:0:0:
192,192,1331705,1,0,0:0:0:0:
64,192,1331705,1,0,0:0:0:0:
448,192,1331872,1,0,0:0:0:0:
320,192,1331872,1,0,0:0:0:0:
192,192,1332038,1,0,0:0:0:0:
64,192,1332205,1,0,0:0:0:0:
192,192,1332372,1,0,0:0:0:0:
64,192,1332538,1,0,0:0:0:0:
320,192,1332705,1,0,0:0:0:0:
448,192,1332705,1,0,0:0:0:0:
192,192,1332872,1,0,0:0:0:0:
64,192,1332872,1,0,0:0:0:0:
64,192,1333038,1,0,0:0:0:0:
448,192,1333038,1,0,0:0:0:0:
320,192,1333205,1,0,0:0:0:0:
192,192,1333205,1,0,0:0:0:0:
320,192,1333372,1,0,0:0:0:0:
448,192,1333538,1,0,0:0:0:0:
192,192,1333705,1,0,0:0:0:0:
320,192,1333705,1,0,0:0:0:0:
64,192,1334038,1,0,0:0:0:0:
448,192,1334038,1,0,0:0:0:0:
320,192,1334205,1,0,0:0:0:0:
192,192,1334372,1,0,0:0:0:0:
64,192,1334372,1,0,0:0:0:0:
448,192,1334538,1,0,0:0:0:0:
320,192,1334538,1,0,0:0:0:0:
192,192,1334705,1,0,0:0:0:0:
64,192,1334872,1,0,0:0:0:0:
320,192,1335038,1,0,0:0:0:0:
448,192,1335372,1,0,0:0:0:0:
64,192,1335372,1,0,0:0:0:0:
192,192,1335538,1,0,0:0:0:0:
320,192,1335705,1,0,0:0:0:0:
448,192,1335705,1,0,0:0:0:0:
320,192,1335872,1,0,0:0:0:0:
64,192,1335872,1,0,0:0:0:0:
192,192,1336038,1,0,0:0:0:0:
448,192,1336038,1,0,0:0:0:0:
64,192,1336205,1,0,0:0:0:0:
320,192,1336205,1,0,0:0:0:0:
448,192,1336372,1,0,0:0:0:0:
192,192,1336372,1,0,0:0:0:0:
64,192,1336538,1,0,0:0:0:0:
192,192,1336705,1,0,0:0:0:0:
320,192,1336872,1,0,0:0:0:0:
448,192,1336872,1,0,0:0:0:0:
64,192,1337038,1,0,0:0:0:0:
192,192,1337205,1,0,0:0:0:0:
448,192,1337205,1,0,0:0:0:0:
320,192,1337372,1,0,0:0:0:0:
192,192,1337538,1,0,0:0:0:0:
64,192,1337705,1,0,0:0:0:0:
320,192,1337872,1,0,0:0:0:0:
448,192,1338038,1,0,0:0:0:0:
64,192,1338205,1,0,0:0:0:0:
192,192,1338372,1,0,0:0:0:0:
320,192,1338538,1,0,0:0:0:0:
64,192,1338538,1,0,0:0:0:0:
448,192,1338705,1,0,0:0:0:0:
192,192,1338705,1,0,0:0:0:0:
320,192,1338872,1,0,0:0:0:0:
64,192,1338872,1,0,0:0:0:0:
448,192,1338955,1,0,0:0:0:0:
192,192,1338955,1,0,0:0:0:0:
320,192,1339122,1,0,0:0:0:0:
64,192,1339122,1,0,0:0:0:0:
448,192,1339205,1,0,0:0:0:0:
192,192,1339205,1,0,0:0:0:0:
320,192,1339538,1,0,0:0:0:0:
448,192,1339538,1,0,0:0:0:0:
64,192,1339872,1,0,0:0:0:0:
448,192,1339872,1,0,0:0:0:0:
192,192,1339872,128,0,1340038:0:0:0:0:
192,192,1340372,128,0,1340538:0:0:0:0:
448,192,1340538,1,0,0:0:0:0:
320,192,1340705,1,0,0:0:0:0:
192,192,1340872,1,0,0:0:0:0:
448,192,1340872,128,0,1341038:0:0:0:0:
320,192,1341038,1,0,0:0:0:0:
64,192,1341205,1,0,0:0:0:0:
448,192,1341372,128,0,1341538:0:0:0:0:
320,192,1341872,128,0,1342038:0:0:0:0:
64,192,1342038,1,0,0:0:0:0:
320,192,1342205,128,0,1342372:0:0:0:0:
192,192,1342372,1,0,0:0:0:0:
448,192,1342538,1,0,0:0:0:0:
64,192,1342538,128,0,1342705:0:0:0:0:
64,192,1343038,128,0,1343205:0:0:0:0:
320,192,1343372,1,0,0:0:0:0:
192,192,1343538,1,0,0:0:0:0:
448,192,1343538,128,0,1343705:0:0:0:0:
64,192,1343705,1,0,0:0:0:0:
320,192,1343872,1,0,0:0:0:0:
448,192,1343872,128,0,1344038:0:0:0:0:
192,192,1344372,1,0,0:0:0:0:
320,192,1344372,128,0,1344538:0:0:0:0:
64,192,1344705,1,0,0:0:0:0:
320,192,1344705,128,0,1344872:0:0:0:0:
448,192,1345038,1,0,0:0:0:0:
64,192,1345038,128,0,1345205:0:0:0:0:
448,192,1345205,1,0,0:0:0:0:
320,192,1345205,1,0,0:0:0:0:
192,192,1345205,128,0,1345372:0:0:0:0:
192,192,1345705,128,0,1345872:0:0:0:0:
448,192,1346038,1,0,0:0:0:0:
64,192,1346205,128,0,1346372:0:0:0:0:
192,192,1346372,1,0,0:0:0:0:
448,192,1346538,1,0,0:0:0:0:
320,192,1346538,1,0,0:0:0:0:
64,192,1346705,1,0,0:0:0:0:
192,192,1346705,128,0,1346872:0:0:0:0:
448,192,1346872,1,0,0:0:0:0:
320,192,1347038,1,0,0:0:0:0:
64,192,1347205,128,0,1347372:0:0:0:0:
320,192,1347538,1,0,0:0:0:0:
64,192,1347538,128,0,1347705:0:0:0:0:
192,192,1347872,1,0,0:0:0:0:
448,192,1347872,1,0,0:0:0:0:
64,192,1347872,1,0,0:0:0:0:
320,192,1347872,128,0,1348038:0:0:0:0:
64,192,1348038,1,0,0:0:0:0:
192,192,1348205,1,0,0:0:0:0:
64,192,1348205,1,0,0:0:0:0:
192,192,1348372,1,0,0:0:0:0:
448,192,1348372,1,0,0:0:0:0:
320,192,1348372,128,0,1348538:0:0:0:0:
64,192,1348538,1,0,0:0:0:0:
192,192,1348705,1,0,0:0:0:0:
64,192,1348705,1,0,0:0:0:0:
192,192,1348872,1,0,0:0:0:0:
448,192,1348872,1,0,0:0:0:0:
320,192,1348872,128,0,1349038:0:0:0:0:
448,192,1349038,1,0,0:0:0:0:
448,192,1349205,1,0,0:0:0:0:
192,192,1349205,128,0,1349372:0:0:0:0:
320,192,1349288,1,0,0:0:0:0:
448,192,1349372,1,0,0:0:0:0:
64,192,1349372,128,0,1349538:0:0:0:0:
320,192,1349455,1,0,0:0:0:0:
448,192,1349538,1,0,0:0:0:0:
192,192,1349538,128,0,1349705:0:0:0:0:
320,192,1349622,1,0,0:0:0:0:
448,192,1349705,1,0,0:0:0:0:
64,192,1349705,128,0,1349872:0:0:0:0:
320,192,1349788,1,0,0:0:0:0:
448,192,1349872,1,0,0:0:0:0:
64,192,1350038,128,0,1350205:0:0:0:0:
320,192,1350038,1,0,0:0:0:0:
192,192,1350205,128,0,1350372:0:0:0:0:
448,192,1350205,1,0,0:0:0:0:
64,192,1350372,128,0,1350538:0:0:0:0:
320,192,1350372,1,0,0:0:0:0:
192,192,1350538,1,0,0:0:0:0:
448,192,1350538,1,0,0:0:0:0:
320,192,1350622,1,0,0:0:0:0:
192,192,1350705,1,0,0:0:0:0:
64,192,1350788,1,0,0:0:0:0:
192,192,1350872,1,0,0:0:0:0:
448,192,1350872,1,0,0:0:0:0:
320,192,1350955,1,0,0:0:0:0:
192,192,1351038,1,0,0:0:0:0:
64,192,1351122,1,0,0:0:0:0:
192,192,1351205,1,0,0:0:0:0:
448,192,1351205,1,0,0:0:0:0:
320,192,1351288,1,0,0:0:0:0:
192,192,1351372,1,0,0:0:0:0:
320,192,1351455,1,0,0:0:0:0:
64,192,1351538,1,0,0:0:0:0:
448,192,1351538,1,0,0:0:0:0:
192,192,1351538,1,0,0:0:0:0:
192,192,1351705,1,0,0:0:0:0:
320,192,1351705,1,0,0:0:0:0:
320,192,1351872,1,0,0:0:0:0:
64,192,1351872,1,0,0:0:0:0:
448,192,1351872,1,0,0:0:0:0:
192,192,1351955,1,0,0:0:0:0:
320,192,1352038,1,0,0:0:0:0:
448,192,1352122,1,0,0:0:0:0:
64,192,1352205,1,0,0:0:0:0:
320,192,1352205,1,0,0:0:0:0:
192,192,1352288,1,0,0:0:0:0:
320,192,1352372,1,0,0:0:0:0:
448,192,1352455,1,0,0:0:0:0:
320,192,1352538,1,0,0:0:0:0:
64,192,1352538,1,0,0:0:0:0:
192,192,1352622,1,0,0:0:0:0:
64,192,1352705,1,0,0:0:0:0:
448,192,1352788,1,0,0:0:0:0:
320,192,1352872,1,0,0:0:0:0:
64,192,1352872,1,0,0:0:0:0:
192,192,1352955,1,0,0:0:0:0:
64,192,1353038,1,0,0:0:0:0:
192,192,1353122,1,0,0:0:0:0:
320,192,1353205,1,0,0:0:0:0:
448,192,1353205,1,0,0:0:0:0:
64,192,1353205,1,0,0:0:0:0:
192,192,1353288,1,0,0:0:0:0:
64,192,1353372,1,0,0:0:0:0:
192,192,1353455,1,0,0:0:0:0:
320,192,1353538,1,0,0:0:0:0:
448,192,1353538,1,0,0:0:0:0:
64,192,1353622,1,0,0:0:0:0:
192,192,1353705,1,0,0:0:0:0:
320,192,1353788,1,0,0:0:0:0:
448,192,1353872,1,0,0:0:0:0:
64,192,1353872,1,0,0:0:0:0:
192,192,1353955,1,0,0:0:0:0:
320,192,1354038,1,0,0:0:0:0:
448,192,1354122,1,0,0:0:0:0:
320,192,1354205,1,0,0:0:0:0:
64,192,1354205,1,0,0:0:0:0:
192,192,1354288,1,0,0:0:0:0:
64,192,1354372,1,0,0:0:0:0:
192,192,1354455,1,0,0:0:0:0:
320,192,1354538,1,0,0:0:0:0:
448,192,1354538,1,0,0:0:0:0:
64,192,1354538,1,0,0:0:0:0:
192,192,1354705,1,0,0:0:0:0:
320,192,1354705,1,0,0:0:0:0:
448,192,1354872,1,0,0:0:0:0:
64,192,1354872,1,0,0:0:0:0:
192,192,1354872,1,0,0:0:0:0:
192,192,1355038,1,0,0:0:0:0:
320,192,1355038,1,0,0:0:0:0:
320,192,1355205,1,0,0:0:0:0:
64,192,1355205,1,0,0:0:0:0:
448,192,1355205,1,0,0:0:0:0:
448,192,1355372,1,0,0:0:0:0:
192,192,1355372,1,0,0:0:0:0:
64,192,1355538,1,0,0:0:0:0:
320,192,1355538,1,0,0:0:0:0:
448,192,1355538,1,0,0:0:0:0:
192,192,1355705,1,0,0:0:0:0:
64,192,1355705,1,0,0:0:0:0:
320,192,1355872,1,0,0:0:0:0:
448,192,1355872,1,0,0:0:0:0:
64,192,1355872,1,0,0:0:0:0:
192,192,1355955,1,0,0:0:0:0:
64,192,1356038,1,0,0:0:0:0:
448,192,1356122,1,0,0:0:0:0:
320,192,1356205,1,0,0:0:0:0:
64,192,1356205,1,0,0:0:0:0:
192,192,1356288,1,0,0:0:0:0:
64,192,1356372,1,0,0:0:0:0:
448,192,1356455,1,0,0:0:0:0:
320,192,1356538,1,0,0:0:0:0:
64,192,1356538,1,0,0:0:0:0:
192,192,1356622,1,0,0:0:0:0:
320,192,1356705,1,0,0:0:0:0:
64,192,1356705,1,0,0:0:0:0:
192,192,1356788,1,0,0:0:0:0:
320,192,1356872,1,0,0:0:0:0:
448,192,1356872,1,0,0:0:0:0:
192,192,1356955,1,0,0:0:0:0:
448,192,1357038,1,0,0:0:0:0:
64,192,1357038,1,0,0:0:0:0:
320,192,1357122,1,0,0:0:0:0:
192,192,1357205,1,0,0:0:0:0:
64,192,1357205,1,0,0:0:0:0:
448,192,1357205,1,0,0:0:0:0:
320,192,1357288,1,0,0:0:0:0:
448,192,1357372,1,0,0:0:0:0:
64,192,1357455,1,0,0:0:0:0:
320,192,1357538,1,0,0:0:0:0:
192,192,1357538,1,0,0:0:0:0:
448,192,1357622,1,0,0:0:0:0:
64,192,1357705,1,0,0:0:0:0:
192,192,1357788,1,0,0:0:0:0:
320,192,1357872,1,0,0:0:0:0:
448,192,1357872,1,0,0:0:0:0:
192,192,1357955,1,0,0:0:0:0:
320,192,1358038,1,0,0:0:0:0:
64,192,1358038,1,0,0:0:0:0:
192,192,1358122,1,0,0:0:0:0:
320,192,1358205,1,0,0:0:0:0:
64,192,1358205,1,0,0:0:0:0:
448,192,1358288,1,0,0:0:0:0:
320,192,1358372,1,0,0:0:0:0:
64,192,1358372,1,0,0:0:0:0:
192,192,1358455,1,0,0:0:0:0:
320,192,1358538,1,0,0:0:0:0:
448,192,1358538,1,0,0:0:0:0:
64,192,1358538,1,0,0:0:0:0:
192,192,1358622,1,0,0:0:0:0:
64,192,1358705,1,0,0:0:0:0:
192,192,1358788,1,0,0:0:0:0:
320,192,1358872,1,0,0:0:0:0:
64,192,1358872,1,0,0:0:0:0:
448,192,1358955,1,0,0:0:0:0:
320,192,1359038,1,0,0:0:0:0:
192,192,1359122,1,0,0:0:0:0:
64,192,1359205,1,0,0:0:0:0:
448,192,1359205,1,0,0:0:0:0:
320,192,1359288,1,0,0:0:0:0:
192,192,1359372,1,0,0:0:0:0:
64,192,1359455,1,0,0:0:0:0:
192,192,1359538,1,0,0:0:0:0:
448,192,1359538,1,0,0:0:0:0:
320,192,1359622,1,0,0:0:0:0:
448,192,1359705,1,0,0:0:0:0:
320,192,1359788,1,0,0:0:0:0:
448,192,1359872,1,0,0:0:0:0:
192,192,1359872,1,0,0:0:0:0:
64,192,1359872,1,0,0:0:0:0:
320,192,1359955,1,0,0:0:0:0:
192,192,1360038,1,0,0:0:0:0:
64,192,1360122,1,0,0:0:0:0:
320,192,1360205,1,0,0:0:0:0:
448,192,1360205,1,0,0:0:0:0:
192,192,1360288,1,0,0:0:0:0:
64,192,1360372,1,0,0:0:0:0:
448,192,1360455,1,0,0:0:0:0:
192,192,1360538,1,0,0:0:0:0:
320,192,1360538,1,0,0:0:0:0:
64,192,1360622,1,0,0:0:0:0:
448,192,1360705,1,0,0:0:0:0:
320,192,1360788,1,0,0:0:0:0:
64,192,1360872,1,0,0:0:0:0:
192,192,1360872,1,0,0:0:0:0:
448,192,1360955,1,0,0:0:0:0:
320,192,1361038,1,0,0:0:0:0:
192,192,1361122,1,0,0:0:0:0:
320,192,1361205,1,0,0:0:0:0:
64,192,1361205,1,0,0:0:0:0:
448,192,1361205,1,0,0:0:0:0:
192,192,1361288,1,0,0:0:0:0:
448,192,1361372,1,0,0:0:0:0:
192,192,1361455,1,0,0:0:0:0:
320,192,1361538,1,0,0:0:0:0:
448,192,1361538,1,0,0:0:0:0:
64,192,1361622,1,0,0:0:0:0:
192,192,1361705,1,0,0:0:0:0:
448,192,1361788,1,0,0:0:0:0:
320,192,1361872,1,0,0:0:0:0:
192,192,1361872,1,0,0:0:0:0:
64,192,1361955,1,0,0:0:0:0:
192,192,1362038,1,0,0:0:0:0:
448,192,1362122,1,0,0:0:0:0:
320,192,1362205,1,0,0:0:0:0:
64,192,1362205,1,0,0:0:0:0:
192,192,1362288,1,0,0:0:0:0:
320,192,1362372,1,0,0:0:0:0:
448,192,1362455,1,0,0:0:0:0:
64,192,1362538,1,0,0:0:0:0:
320,192,1362538,1,0,0:0:0:0:
192,192,1362622,1,0,0:0:0:0:
320,192,1362705,1,0,0:0:0:0:
448,192,1362788,1,0,0:0:0:0:
64,192,1362872,1,0,0:0:0:0:
320,192,1362872,1,0,0:0:0:0:
192,192,1362955,1,0,0:0:0:0:
320,192,1363038,1,0,0:0:0:0:
448,192,1363122,1,0,0:0:0:0:
64,192,1363205,1,0,0:0:0:0:
320,192,1363205,1,0,0:0:0:0:
192,192,1363288,1,0,0:0:0:0:
320,192,1363372,1,0,0:0:0:0:
448,192,1363455,1,0,0:0:0:0:
320,192,1363538,1,0,0:0:0:0:
64,192,1363538,1,0,0:0:0:0:
192,192,1363622,1,0,0:0:0:0:
64,192,1363705,1,0,0:0:0:0:
192,192,1363788,1,0,0:0:0:0:
320,192,1363872,1,0,0:0:0:0:
448,192,1363872,1,0,0:0:0:0:
64,192,1363872,1,0,0:0:0:0:
192,192,1363955,1,0,0:0:0:0:
64,192,1364038,1,0,0:0:0:0:
448,192,1364122,1,0,0:0:0:0:
192,192,1364205,1,0,0:0:0:0:
320,192,1364205,1,0,0:0:0:0:
64,192,1364288,1,0,0:0:0:0:
192,192,1364372,1,0,0:0:0:0:
320,192,1364455,1,0,0:0:0:0:
448,192,1364538,1,0,0:0:0:0:
64,192,1364538,1,0,0:0:0:0:
192,192,1364622,1,0,0:0:0:0:
320,192,1364705,1,0,0:0:0:0:
192,192,1364788,1,0,0:0:0:0:
320,192,1364872,1,0,0:0:0:0:
448,192,1364872,1,0,0:0:0:0:
64,192,1364872,1,0,0:0:0:0:
192,192,1365038,1,0,0:0:0:0:
64,192,1365038,1,0,0:0:0:0:
448,192,1365205,1,0,0:0:0:0:
320,192,1365205,1,0,0:0:0:0:
64,192,1365205,1,0,0:0:0:0:
192,192,1365372,1,0,0:0:0:0:
320,192,1365372,1,0,0:0:0:0:
64,192,1365538,1,0,0:0:0:0:
448,192,1365538,1,0,0:0:0:0:
320,192,1365538,1,0,0:0:0:0:
320,192,1365705,1,0,0:0:0:0:
192,192,1365705,1,0,0:0:0:0:
192,192,1365872,1,0,0:0:0:0:
64,192,1365872,1,0,0:0:0:0:
64,192,1366038,1,0,0:0:0:0:
320,192,1366038,1,0,0:0:0:0:
448,192,1366038,1,0,0:0:0:0:
192,192,1366205,1,0,0:0:0:0:
448,192,1366205,1,0,0:0:0:0:
64,192,1366205,1,0,0:0:0:0:
320,192,1366372,1,0,0:0:0:0:
192,192,1366372,1,0,0:0:0:0:
192,192,1366538,1,0,0:0:0:0:
448,192,1366538,1,0,0:0:0:0:
64,192,1366538,1,0,0:0:0:0:
320,192,1366622,1,0,0:0:0:0:
448,192,1366705,1,0,0:0:0:0:
320,192,1366788,1,0,0:0:0:0:
448,192,1366872,1,0,0:0:0:0:
192,192,1366872,1,0,0:0:0:0:
320,192,1366955,1,0,0:0:0:0:
448,192,1367038,1,0,0:0:0:0:
320,192,1367122,1,0,0:0:0:0:
448,192,1367205,1,0,0:0:0:0:
64,192,1367205,1,0,0:0:0:0:
192,192,1367205,1,0,0:0:0:0:
320,192,1367288,1,0,0:0:0:0:
448,192,1367372,1,0,0:0:0:0:
192,192,1367372,1,0,0:0:0:0:
64,192,1367372,1,0,0:0:0:0:
320,192,1367455,1,0,0:0:0:0:
192,192,1367538,1,0,0:0:0:0:
448,192,1367538,1,0,0:0:0:0:
64,192,1367538,1,0,0:0:0:0:
320,192,1367622,1,0,0:0:0:0:
448,192,1367705,1,0,0:0:0:0:
192,192,1367705,1,0,0:0:0:0:
64,192,1367705,1,0,0:0:0:0:
320,192,1367788,1,0,0:0:0:0:
192,192,1367872,1,0,0:0:0:0:
64,192,1367872,1,0,0:0:0:0:
448,192,1367872,1,0,0:0:0:0:
320,192,1367955,1,0,0:0:0:0:
192,192,1368038,1,0,0:0:0:0:
320,192,1368122,1,0,0:0:0:0:
192,192,1368205,1,0,0:0:0:0:
64,192,1368205,1,0,0:0:0:0:
320,192,1368288,1,0,0:0:0:0:
192,192,1368372,1,0,0:0:0:0:
448,192,1368372,1,0,0:0:0:0:
320,192,1368455,1,0,0:0:0:0:
192,192,1368538,1,0,0:0:0:0:
64,192,1368538,1,0,0:0:0:0:
320,192,1368622,1,0,0:0:0:0:
192,192,1368705,1,0,0:0:0:0:
64,192,1368705,1,0,0:0:0:0:
320,192,1368788,1,0,0:0:0:0:
192,192,1368872,1,0,0:0:0:0:
64,192,1368872,1,0,0:0:0:0:
448,192,1368872,1,0,0:0:0:0:
320,192,1368955,1,0,0:0:0:0:
192,192,1369038,1,0,0:0:0:0:
64,192,1369038,1,0,0:0:0:0:
320,192,1369122,1,0,0:0:0:0:
192,192,1369205,1,0,0:0:0:0:
448,192,1369205,1,0,0:0:0:0:
64,192,1369288,1,0,0:0:0:0:
192,192,1369372,1,0,0:0:0:0:
448,192,1369372,1,0,0:0:0:0:
64,192,1369455,1,0,0:0:0:0:
192,192,1369538,1,0,0:0:0:0:
448,192,1369538,1,0,0:0:0:0:
64,192,1369622,1,0,0:0:0:0:
192,192,1369705,1,0,0:0:0:0:
448,192,1369705,1,0,0:0:0:0:
64,192,1369788,1,0,0:0:0:0:
192,192,1369872,1,0,0:0:0:0:
448,192,1369872,1,0,0:0:0:0:
64,192,1369955,1,0,0:0:0:0:
192,192,1370038,1,0,0:0:0:0:
448,192,1370038,1,0,0:0:0:0:
64,192,1370122,1,0,0:0:0:0:
192,192,1370205,1,0,0:0:0:0:
448,192,1370205,1,0,0:0:0:0:
64,192,1370288,1,0,0:0:0:0:
192,192,1370372,1,0,0:0:0:0:
448,192,1370372,1,0,0:0:0:0:
64,192,1370455,1,0,0:0:0:0:
192,192,1370538,1,0,0:0:0:0:
448,192,1370538,1,0,0:0:0:0:
320,192,1370538,1,0,0:0:0:0:
320,192,1370705,1,0,0:0:0:0:
448,192,1370705,1,0,0:0:0:0:
320,192,1370872,1,0,0:0:0:0:
448,192,1370872,1,0,0:0:0:0:
448,192,1371038,1,0,0:0:0:0:
320,192,1371038,1,0,0:0:0:0:
320,192,1371205,1,0,0:0:0:0:
64,192,1371205,1,0,0:0:0:0:
448,192,1371205,1,0,0:0:0:0:
192,192,1371288,1,0,0:0:0:0:
320,192,1371372,1,0,0:0:0:0:
448,192,1371455,1,0,0:0:0:0:
64,192,1371538,1,0,0:0:0:0:
320,192,1371538,1,0,0:0:0:0:
192,192,1371622,1,0,0:0:0:0:
320,192,1371705,1,0,0:0:0:0:
448,192,1371788,1,0,0:0:0:0:
320,192,1371872,1,0,0:0:0:0:
64,192,1371872,1,0,0:0:0:0:
448,192,1371955,1,0,0:0:0:0:
192,192,1371955,1,0,0:0:0:0:
320,192,1372038,1,0,0:0:0:0:
64,192,1372038,1,0,0:0:0:0:
448,192,1372122,1,0,0:0:0:0:
192,192,1372122,1,0,0:0:0:0:
320,192,1372205,1,0,0:0:0:0:
64,192,1372205,1,0,0:0:0:0:
448,192,1372288,1,0,0:0:0:0:
192,192,1372288,1,0,0:0:0:0:
320,192,1372372,1,0,0:0:0:0:
64,192,1372372,1,0,0:0:0:0:
448,192,1372455,1,0,0:0:0:0:
192,192,1372455,1,0,0:0:0:0:
320,192,1372538,1,0,0:0:0:0:
64,192,1372538,1,0,0:0:0:0:
192,192,1372705,1,0,0:0:0:0:
448,192,1372705,1,0,0:0:0:0:
320,192,1372872,1,0,0:0:0:0:
64,192,1372872,1,0,0:0:0:0:
192,192,1372872,1,0,0:0:0:0:
448,192,1373038,1,0,0:0:0:0:
64,192,1373038,1,0,0:0:0:0:
192,192,1373205,1,0,0:0:0:0:
320,192,1373205,1,0,0:0:0:0:
64,192,1373205,1,0,0:0:0:0:
448,192,1373288,1,0,0:0:0:0:
320,192,1373372,1,0,0:0:0:0:
448,192,1373455,1,0,0:0:0:0:
192,192,1373538,1,0,0:0:0:0:
320,192,1373538,1,0,0:0:0:0:
64,192,1373538,1,0,0:0:0:0:
448,192,1373622,1,0,0:0:0:0:
320,192,1373705,1,0,0:0:0:0:
448,192,1373788,1,0,0:0:0:0:
192,192,1373872,1,0,0:0:0:0:
320,192,1373872,1,0,0:0:0:0:
64,192,1373872,1,0,0:0:0:0:
448,192,1373955,1,0,0:0:0:0:
320,192,1374038,1,0,0:0:0:0:
448,192,1374122,1,0,0:0:0:0:
192,192,1374205,1,0,0:0:0:0:
320,192,1374205,1,0,0:0:0:0:
64,192,1374205,1,0,0:0:0:0:
192,192,1374372,1,0,0:0:0:0:
320,192,1374455,1,0,0:0:0:0:
192,192,1374538,1,0,0:0:0:0:
448,192,1374538,1,0,0:0:0:0:
64,192,1374622,1,0,0:0:0:0:
320,192,1374705,1,0,0:0:0:0:
192,192,1374788,1,0,0:0:0:0:
448,192,1374872,1,0,0:0:0:0:
64,192,1374872,1,0,0:0:0:0:
320,192,1374955,1,0,0:0:0:0:
192,192,1375038,1,0,0:0:0:0:
64,192,1375122,1,0,0:0:0:0:
192,192,1375205,1,0,0:0:0:0:
448,192,1375205,1,0,0:0:0:0:
320,192,1375288,1,0,0:0:0:0:
192,192,1375372,1,0,0:0:0:0:
64,192,1375455,1,0,0:0:0:0:
320,192,1375538,1,0,0:0:0:0:
448,192,1375538,1,0,0:0:0:0:
192,192,1375622,1,0,0:0:0:0:
320,192,1375705,1,0,0:0:0:0:
448,192,1375788,1,0,0:0:0:0:
320,192,1375872,1,0,0:0:0:0:
64,192,1375872,1,0,0:0:0:0:
192,192,1375955,1,0,0:0:0:0:
64,192,1376038,1,0,0:0:0:0:
192,192,1376122,1,0,0:0:0:0:
320,192,1376205,1,0,0:0:0:0:
448,192,1376205,1,0,0:0:0:0:
64,192,1376205,1,0,0:0:0:0:
192,192,1376288,1,0,0:0:0:0:
320,192,1376372,1,0,0:0:0:0:
192,192,1376455,1,0,0:0:0:0:
64,192,1376538,1,0,0:0:0:0:
320,192,1376538,1,0,0:0:0:0:
448,192,1376538,1,0,0:0:0:0:
192,192,1376622,1,0,0:0:0:0:
320,192,1376705,1,0,0:0:0:0:
192,192,1376788,1,0,0:0:0:0:
64,192,1376872,1,0,0:0:0:0:
320,192,1376872,1,0,0:0:0:0:
448,192,1376872,1,0,0:0:0:0:
448,192,1377038,1,0,0:0:0:0:
192,192,1377038,1,0,0:0:0:0:
320,192,1377122,1,0,0:0:0:0:
448,192,1377205,1,0,0:0:0:0:
192,192,1377205,1,0,0:0:0:0:
64,192,1377205,1,0,0:0:0:0:
192,192,1377372,1,0,0:0:0:0:
320,192,1377372,1,0,0:0:0:0:
320,192,1377538,1,0,0:0:0:0:
64,192,1377538,1,0,0:0:0:0:
448,192,1377538,1,0,0:0:0:0:
448,192,1377705,1,0,0:0:0:0:
64,192,1377705,1,0,0:0:0:0:
192,192,1377872,1,0,0:0:0:0:
320,192,1377872,1,0,0:0:0:0:
320,192,1378038,1,0,0:0:0:0:
448,192,1378038,1,0,0:0:0:0:
64,192,1378038,1,0,0:0:0:0:
320,192,1378205,1,0,0:0:0:0:
192,192,1378205,1,0,0:0:0:0:
448,192,1378205,1,0,0:0:0:0:
192,192,1378372,1,0,0:0:0:0:
64,192,1378372,1,0,0:0:0:0:
320,192,1378538,1,0,0:0:0:0:
192,192,1378538,1,0,0:0:0:0:
448,192,1378538,1,0,0:0:0:0:
64,192,1378622,1,0,0:0:0:0:
192,192,1378705,1,0,0:0:0:0:
64,192,1378788,1,0,0:0:0:0:
192,192,1378872,1,0,0:0:0:0:
448,192,1378872,1,0,0:0:0:0:
64,192,1378955,1,0,0:0:0:0:
192,192,1379038,1,0,0:0:0:0:
64,192,1379122,1,0,0:0:0:0:
192,192,1379205,1,0,0:0:0:0:
448,192,1379205,1,0,0:0:0:0:
64,192,1379288,1,0,0:0:0:0:
320,192,1379372,1,0,0:0:0:0:
192,192,1379372,1,0,0:0:0:0:
64,192,1379455,1,0,0:0:0:0:
320,192,1379538,1,0,0:0:0:0:
192,192,1379538,1,0,0:0:0:0:
448,192,1379538,1,0,0:0:0:0:
64,192,1379622,1,0,0:0:0:0:
320,192,1379705,1,0,0:0:0:0:
192,192,1379705,1,0,0:0:0:0:
448,192,1379705,1,0,0:0:0:0:
64,192,1379788,1,0,0:0:0:0:
192,192,1379872,1,0,0:0:0:0:
448,192,1379872,1,0,0:0:0:0:
320,192,1379955,1,0,0:0:0:0:
192,192,1380038,1,0,0:0:0:0:
320,192,1380122,1,0,0:0:0:0:
192,192,1380205,1,0,0:0:0:0:
64,192,1380205,1,0,0:0:0:0:
320,192,1380288,1,0,0:0:0:0:
192,192,1380372,1,0,0:0:0:0:
448,192,1380372,1,0,0:0:0:0:
320,192,1380455,1,0,0:0:0:0:
192,192,1380538,1,0,0:0:0:0:
64,192,1380538,1,0,0:0:0:0:
320,192,1380622,1,0,0:0:0:0:
192,192,1380705,1,0,0:0:0:0:
64,192,1380705,1,0,0:0:0:0:
320,192,1380788,1,0,0:0:0:0:
448,192,1380872,1,0,0:0:0:0:
192,192,1380872,1,0,0:0:0:0:
64,192,1380872,1,0,0:0:0:0:
320,192,1380955,1,0,0:0:0:0:
192,192,1381038,1,0,0:0:0:0:
64,192,1381038,1,0,0:0:0:0:
320,192,1381122,1,0,0:0:0:0:
448,192,1381205,1,0,0:0:0:0:
192,192,1381205,1,0,0:0:0:0:
64,192,1381205,1,0,0:0:0:0:
320,192,1381288,1,0,0:0:0:0:
448,192,1381372,1,0,0:0:0:0:
192,192,1381372,1,0,0:0:0:0:
320,192,1381455,1,0,0:0:0:0:
448,192,1381538,1,0,0:0:0:0:
192,192,1381538,1,0,0:0:0:0:
320,192,1381622,1,0,0:0:0:0:
448,192,1381705,1,0,0:0:0:0:
192,192,1381705,1,0,0:0:0:0:
320,192,1381788,1,0,0:0:0:0:
448,192,1381872,1,0,0:0:0:0:
192,192,1381872,1,0,0:0:0:0:
320,192,1381955,1,0,0:0:0:0:
448,192,1382038,1,0,0:0:0:0:
192,192,1382038,1,0,0:0:0:0:
320,192,1382122,1,0,0:0:0:0:
448,192,1382205,1,0,0:0:0:0:
192,192,1382205,1,0,0:0:0:0:
320,192,1382288,1,0,0:0:0:0:
448,192,1382372,1,0,0:0:0:0:
192,192,1382372,1,0,0:0:0:0:
320,192,1382455,1,0,0:0:0:0:
448,192,1382538,1,0,0:0:0:0:
64,192,1382538,1,0,0:0:0:0:
192,192,1382538,1,0,0:0:0:0:
448,192,1382705,1,0,0:0:0:0:
192,192,1382705,1,0,0:0:0:0:
448,192,1382872,1,0,0:0:0:0:
192,192,1382872,1,0,0:0:0:0:
448,192,1383038,1,0,0:0:0:0:
192,192,1383038,1,0,0:0:0:0:
320,192,1383122,1,0,0:0:0:0:
64,192,1383205,1,0,0:0:0:0:
192,192,1383205,1,0,0:0:0:0:
320,192,1383288,1,0,0:0:0:0:
448,192,1383288,1,0,0:0:0:0:
64,192,1383372,1,0,0:0:0:0:
192,192,1383372,1,0,0:0:0:0:
320,192,1383455,1,0,0:0:0:0:
448,192,1383455,1,0,0:0:0:0:
64,192,1383538,1,0,0:0:0:0:
192,192,1383538,1,0,0:0:0:0:
320,192,1383622,1,0,0:0:0:0:
448,192,1383622,1,0,0:0:0:0:
64,192,1383705,1,0,0:0:0:0:
192,192,1383705,1,0,0:0:0:0:
448,192,1383788,1,0,0:0:0:0:
320,192,1383788,1,0,0:0:0:0:
64,192,1383872,1,0,0:0:0:0:
192,192,1383872,1,0,0:0:0:0:
192,192,1384038,1,0,0:0:0:0:
320,192,1384122,1,0,0:0:0:0:
64,192,1384205,1,0,0:0:0:0:
448,192,1384205,1,0,0:0:0:0:
448,192,1384372,1,0,0:0:0:0:
192,192,1384538,1,0,0:0:0:0:
448,192,1384538,1,0,0:0:0:0:
320,192,1384622,1,0,0:0:0:0:
192,192,1384705,1,0,0:0:0:0:
320,192,1384872,1,0,0:0:0:0:
64,192,1384872,1,0,0:0:0:0:
192,192,1384955,1,0,0:0:0:0:
320,192,1385038,1,0,0:0:0:0:
448,192,1385122,1,0,0:0:0:0:
64,192,1385205,1,0,0:0:0:0:
320,192,1385205,1,0,0:0:0:0:
192,192,1385372,1,0,0:0:0:0:
320,192,1385455,1,0,0:0:0:0:
192,192,1385538,1,0,0:0:0:0:
448,192,1385538,1,0,0:0:0:0:
320,192,1385705,1,0,0:0:0:0:
448,192,1385872,1,0,0:0:0:0:
64,192,1385872,1,0,0:0:0:0:
192,192,1385955,1,0,0:0:0:0:
320,192,1386038,1,0,0:0:0:0:
320,192,1386205,1,0,0:0:0:0:
192,192,1386538,1,0,0:0:0:0:
448,192,1386538,1,0,0:0:0:0:
320,192,1386705,1,0,0:0:0:0:
192,192,1386788,1,0,0:0:0:0:
64,192,1386872,1,0,0:0:0:0:
448,192,1386872,1,0,0:0:0:0:
320,192,1387038,1,0,0:0:0:0:
64,192,1387205,1,0,0:0:0:0:
448,192,1387205,1,0,0:0:0:0:
320,192,1387288,1,0,0:0:0:0:
192,192,1387372,1,0,0:0:0:0:
192,192,1387538,1,0,0:0:0:0:
448,192,1387538,1,0,0:0:0:0:
320,192,1387622,1,0,0:0:0:0:
192,192,1387705,1,0,0:0:0:0:
64,192,1387788,1,0,0:0:0:0:
448,192,1387872,1,0,0:0:0:0:
192,192,1387872,1,0,0:0:0:0:
320,192,1388038,1,0,0:0:0:0:
192,192,1388122,1,0,0:0:0:0:
448,192,1388205,1,0,0:0:0:0:
64,192,1388205,1,0,0:0:0:0:
192,192,1388372,1,0,0:0:0:0:
320,192,1388538,1,0,0:0:0:0:
192,192,1388872,1,0,0:0:0:0:
192,192,1389205,1,0,0:0:0:0:
320,192,1389205,1,0,0:0:0:0:
448,192,1389205,1,0,0:0:0:0:
64,192,1389538,1,0,0:0:0:0:
320,192,1389538,1,0,0:0:0:0:
448,192,1389538,1,0,0:0:0:0:
192,192,1389872,1,0,0:0:0:0:
320,192,1389872,1,0,0:0:0:0:
448,192,1389872,1,0,0:0:0:0:
64,192,1390205,1,0,0:0:0:0:
192,192,1390205,1,0,0:0:0:0:
448,192,1390205,1,0,0:0:0:0:
64,192,1390538,1,0,0:0:0:0:
320,192,1390538,1,0,0:0:0:0:
448,192,1390538,1,0,0:0:0:0:
192,192,1390872,1,0,0:0:0:0:
320,192,1390872,1,0,0:0:0:0:
448,192,1390872,1,0,0:0:0:0:
320,192,1391205,1,0,0:0:0:0:
64,192,1391205,1,0,0:0:0:0:
448,192,1391205,1,0,0:0:0:0:
192,192,1391372,1,0,0:0:0:0:
192,192,1391538,1,0,0:0:0:0:
64,192,1391538,1,0,0:0:0:0:
448,192,1391538,1,0,0:0:0:0:
448,192,1391705,1,0,0:0:0:0:
320,192,1391705,1,0,0:0:0:0:
320,192,1391872,1,0,0:0:0:0:
192,192,1391872,1,0,0:0:0:0:
64,192,1391872,1,0,0:0:0:0:
192,192,1392038,1,0,0:0:0:0:
64,192,1392038,1,0,0:0:0:0:
320,192,1392205,1,0,0:0:0:0:
64,192,1392205,1,0,0:0:0:0:
448,192,1392205,1,0,0:0:0:0:
320,192,1392372,1,0,0:0:0:0:
448,192,1392372,1,0,0:0:0:0:
64,192,1392538,1,0,0:0:0:0:
192,192,1392538,1,0,0:0:0:0:
448,192,1392538,1,0,0:0:0:0:
192,192,1392705,1,0,0:0:0:0:
448,192,1392705,1,0,0:0:0:0:
320,192,1392872,1,0,0:0:0:0:
192,192,1392872,1,0,0:0:0:0:
64,192,1392872,1,0,0:0:0:0:
192,192,1393038,1,0,0:0:0:0:
320,192,1393038,1,0,0:0:0:0:
320,192,1393205,1,0,0:0:0:0:
448,192,1393205,1,0,0:0:0:0:
64,192,1393372,1,0,0:0:0:0:
192,192,1393372,1,0,0:0:0:0:
448,192,1393538,1,0,0:0:0:0:
320,192,1393538,1,0,0:0:0:0:
64,192,1393705,1,0,0:0:0:0:
192,192,1393705,1,0,0:0:0:0:
64,192,1393872,1,0,0:0:0:0:
192,192,1393872,1,0,0:0:0:0:
320,192,1393955,1,0,0:0:0:0:
448,192,1393955,1,0,0:0:0:0:
64,192,1394038,1,0,0:0:0:0:
192,192,1394038,1,0,0:0:0:0:
448,192,1394122,1,0,0:0:0:0:
320,192,1394122,1,0,0:0:0:0:
64,192,1394205,1,0,0:0:0:0:
192,192,1394205,1,0,0:0:0:0:
320,192,1394288,1,0,0:0:0:0:
448,192,1394288,1,0,0:0:0:0:
64,192,1394372,1,0,0:0:0:0:
192,192,1394372,1,0,0:0:0:0:
320,192,1394455,1,0,0:0:0:0:
448,192,1394455,1,0,0:0:0:0:
64,192,1394538,1,0,0:0:0:0:
192,192,1394538,1,0,0:0:0:0:
448,192,1394538,128,0,1395538:0:0:0:0:
320,192,1394649,1,0,0:0:0:0:
192,192,1394760,1,0,0:0:0:0:
320,192,1394872,1,0,0:0:0:0:
64,192,1394872,1,0,0:0:0:0:
192,192,1395038,1,0,0:0:0:0:
64,192,1395205,1,0,0:0:0:0:
320,192,1395205,1,0,0:0:0:0:
192,192,1395316,1,0,0:0:0:0:
320,192,1395427,1,0,0:0:0:0:
192,192,1395538,1,0,0:0:0:0:
64,192,1395538,1,0,0:0:0:0:
64,192,1395649,1,0,0:0:0:0:
192,192,1395649,1,0,0:0:0:0:
64,192,1395760,1,0,0:0:0:0:
192,192,1395760,1,0,0:0:0:0:
64,192,1395867,1,0,0:0:0:0:
192,192,1395867,1,0,0:0:0:0:
320,192,1395867,128,0,1396381:0:0:0:0:
448,192,1395952,1,0,0:0:0:0:
192,192,1396038,1,0,0:0:0:0:
64,192,1396124,1,0,0:0:0:0:
192,192,1396209,1,0,0:0:0:0:
448,192,1396295,1,0,0:0:0:0:
64,192,1396381,128,0,1396552:0:0:0:0:
192,192,1396381,1,0,0:0:0:0:
320,192,1396467,1,0,0:0:0:0:
448,192,1396552,128,0,1397067:0:0:0:0:
192,192,1396552,1,0,0:0:0:0:
320,192,1396638,1,0,0:0:0:0:
192,192,1396724,1,0,0:0:0:0:
64,192,1396809,1,0,0:0:0:0:
192,192,1396895,1,0,0:0:0:0:
320,192,1396895,1,0,0:0:0:0:
64,192,1396981,1,0,0:0:0:0:
320,192,1397067,128,0,1397238:0:0:0:0:
192,192,1397067,1,0,0:0:0:0:
192,192,1397238,128,0,1397409:0:0:0:0:
64,192,1397238,1,0,0:0:0:0:
448,192,1397238,1,0,0:0:0:0:
448,192,1397409,1,0,0:0:0:0:
320,192,1397495,1,0,0:0:0:0:
448,192,1397581,1,0,0:0:0:0:
320,192,1397667,1,0,0:0:0:0:
192,192,1397752,1,0,0:0:0:0:
320,192,1397838,1,0,0:0:0:0:
448,192,1397924,1,0,0:0:0:0:
64,192,1397924,1,0,0:0:0:0:
192,192,1397924,1,0,0:0:0:0:
64,192,1398095,1,0,0:0:0:0:
64,192,1398267,1,0,0:0:0:0:
64,192,1398381,1,0,0:0:0:0:
64,192,1398495,1,0,0:0:0:0:
448,192,1398609,1,0,0:0:0:0:
320,192,1398609,1,0,0:0:0:0:
64,192,1398609,1,0,0:0:0:0:
448,192,1398952,1,0,0:0:0:0:
64,192,1398952,1,0,0:0:0:0:
320,192,1398952,1,0,0:0:0:0:
448,192,1399295,1,0,0:0:0:0:
64,192,1399295,1,0,0:0:0:0:
320,192,1399295,1,0,0:0:0:0:
320,192,1399409,1,0,0:0:0:0:
448,192,1399409,1,0,0:0:0:0:
320,192,1399524,1,0,0:0:0:0:
448,192,1399524,1,0,0:0:0:0:
448,192,1399638,1,0,0:0:0:0:
320,192,1399638,1,0,0:0:0:0:
64,192,1399638,1,0,0:0:0:0:
320,192,1399752,1,0,0:0:0:0:
448,192,1399752,1,0,0:0:0:0:
320,192,1399867,1,0,0:0:0:0:
448,192,1399867,1,0,0:0:0:0:
448,192,1399981,1,0,0:0:0:0:
64,192,1399981,1,0,0:0:0:0:
320,192,1399981,1,0,0:0:0:0:
64,192,1401352,1,0,0:0:0:0:
192,192,1401352,1,0,0:0:0:0:
320,192,1401352,1,0,0:0:0:0:
448,192,1401352,1,0,0:0:0:0:
64,192,1402675,1,0,0:0:0:0:
192,192,1402763,1,0,0:0:0:0:
448,192,1404175,1,0,0:0:0:0:
192,192,1404175,1,0,0:0:0:0:
320,192,1404704,1,0,0:0:0:0:
192,192,1405057,1,0,0:0:0:0:
448,192,1405234,1,0,0:0:0:0:
320,192,1405587,1,0,0:0:0:0:
64,192,1405587,1,0,0:0:0:0:
448,192,1406314,1,0,0:0:0:0:
192,192,1406314,1,0,0:0:0:0:
320,192,1406677,1,0,0:0:0:0:
320,192,1406859,1,0,0:0:0:0:
192,192,1406950,1,0,0:0:0:0:
64,192,1407041,1,0,0:0:0:0:
448,192,1407041,1,0,0:0:0:0:
320,192,1407768,1,0,0:0:0:0:
192,192,1408132,1,0,0:0:0:0:
192,192,1408496,1,0,0:0:0:0:
64,192,1408496,1,0,0:0:0:0:
64,192,1409223,1,0,0:0:0:0:
192,192,1409950,1,0,0:0:0:0:
320,192,1409950,1,0,0:0:0:0:
64,192,1410677,1,0,0:0:0:0:
320,192,1411041,1,0,0:0:0:0:
192,192,1411405,1,0,0:0:0:0:
448,192,1411405,1,0,0:0:0:0:
320,192,1412132,1,0,0:0:0:0:
192,192,1412132,1,0,0:0:0:0:
448,192,1412859,1,0,0:0:0:0:
192,192,1412859,1,0,0:0:0:0:
320,192,1413587,1,0,0:0:0:0:
192,192,1413950,1,0,0:0:0:0:
448,192,1414314,1,0,0:0:0:0:
320,192,1414314,1,0,0:0:0:0:
320,192,1415064,1,0,0:0:0:0:
64,192,1415064,1,0,0:0:0:0:
192,192,1415814,1,0,0:0:0:0:
448,192,1415814,1,0,0:0:0:0:
64,192,1416588,1,0,0:0:0:0:
320,192,1416975,1,0,0:0:0:0:
192,192,1417362,1,0,0:0:0:0:
448,192,1417362,1,0,0:0:0:0:
64,192,1418162,1,0,0:0:0:0:
320,192,1418162,1,0,0:0:0:0:
320,192,1418962,1,0,0:0:0:0:
192,192,1418962,1,0,0:0:0:0:
192,192,1419819,1,0,0:0:0:0:
320,192,1420247,1,0,0:0:0:0:
192,192,1420676,1,0,0:0:0:0:
448,192,1420676,1,0,0:0:0:0:
64,192,1421599,1,0,0:0:0:0:
320,192,1421599,1,0,0:0:0:0:
192,192,1422522,1,0,0:0:0:0:
320,192,1422522,1,0,0:0:0:0:
320,192,1423962,1,0,0:0:0:0:
448,192,1424442,1,0,0:0:0:0:
192,192,1425485,1,0,0:0:0:0:
64,192,1426137,1,0,0:0:0:0:
320,192,1426137,1,0,0:0:0:0:
192,192,1426268,1,0,0:0:0:0:
448,192,1426268,1,0,0:0:0:0:
320,192,1426398,1,0,0:0:0:0:
64,192,1426398,1,0,0:0:0:0:
448,192,1426525,1,0,0:0:0:0:
192,192,1426525,1,0,0:0:0:0:
448,192,1430388,128,0,1430706:0:0:0:0:
320,192,1430706,128,0,1431038:0:0:0:0:
64,192,1431038,128,0,1431488:0:0:0:0:
448,192,1431713,128,0,1431863:0:0:0:0:
320,192,1431863,128,0,1432050:0:0:0:0:
448,192,1432050,128,0,1432238:0:0:0:0:
320,192,1432238,128,0,1432388:0:0:0:0:
192,192,1432388,128,0,1432538:0:0:0:0:
320,192,1432538,128,0,1432725:0:0:0:0:
448,192,1432725,128,0,1433288:0:0:0:0:
64,192,1433288,128,0,1434621:0:0:0:0:
448,192,1434621,128,0,1435288:0:0:0:0:
320,192,1434621,128,0,1436288:0:0:0:0:
64,192,1435288,128,0,1435954:0:0:0:0:
448,192,1435954,128,0,1436621:0:0:0:0:
192,192,1436288,128,0,1436621:0:0:0:0:
320,192,1436621,128,0,1437288:0:0:0:0:
64,192,1436621,128,0,1437121:0:0:0:0:
192,192,1437121,128,0,1437288:0:0:0:0:
448,192,1437288,128,0,1439954:0:0:0:0:
64,192,1437288,128,0,1437454:0:0:0:0:
320,192,1437454,128,0,1437621:0:0:0:0:
192,192,1437621,128,0,1437788:0:0:0:0:
64,192,1437788,128,0,1437954:0:0:0:0:
320,192,1437954,128,0,1438121:0:0:0:0:
64,192,1438121,128,0,1438288:0:0:0:0:
192,192,1438288,128,0,1438454:0:0:0:0:
320,192,1438454,128,0,1438621:0:0:0:0:
192,192,1438621,128,0,1438788:0:0:0:0:
64,192,1438788,128,0,1438954:0:0:0:0:
192,192,1438954,128,0,1439121:0:0:0:0:
320,192,1439121,128,0,1439288:0:0:0:0:
192,192,1439288,128,0,1439454:0:0:0:0:
64,192,1439454,128,0,1439621:0:0:0:0:
320,192,1439621,128,0,1439954:0:0:0:0:
64,192,1439954,128,0,1441288:0:0:0:0:
192,192,1440621,128,0,1441288:0:0:0:0:
320,192,1441288,128,0,1442121:0:0:0:0:
64,192,1441621,128,0,1441954:0:0:0:0:
192,192,1441954,128,0,1442121:0:0:0:0:
64,192,1442288,128,0,1442621:0:0:0:0:
320,192,1442454,128,0,1442621:0:0:0:0:
448,192,1442621,128,0,1445288:0:0:0:0:
192,192,1442621,128,0,1443121:0:0:0:0:
320,192,1443121,128,0,1443288:0:0:0:0:
64,192,1443288,128,0,1445121:0:0:0:0:
320,192,1445288,1,0,0:0:0:0:
192,192,1445288,1,0,0:0:0:0:
64,192,1445288,1,0,0:0:0:0:
64,192,1445621,1,0,0:0:0:0:
64,192,1445954,1,0,0:0:0:0:
192,192,1445954,1,0,0:0:0:0:
64,192,1446288,1,0,0:0:0:0:
448,192,1446621,1,0,0:0:0:0:
320,192,1446621,1,0,0:0:0:0:
192,192,1446954,1,0,0:0:0:0:
448,192,1446954,1,0,0:0:0:0:
320,192,1447288,1,0,0:0:0:0:
448,192,1447288,1,0,0:0:0:0:
64,192,1447288,1,0,0:0:0:0:
448,192,1447621,1,0,0:0:0:0:
320,192,1447788,1,0,0:0:0:0:
320,192,1447954,1,0,0:0:0:0:
192,192,1447954,1,0,0:0:0:0:
64,192,1447954,1,0,0:0:0:0:
448,192,1448121,1,0,0:0:0:0:
192,192,1448288,1,0,0:0:0:0:
320,192,1448288,1,0,0:0:0:0:
64,192,1448454,1,0,0:0:0:0:
192,192,1448621,1,0,0:0:0:0:
448,192,1448621,1,0,0:0:0:0:
320,192,1448788,1,0,0:0:0:0:
192,192,1448954,1,0,0:0:0:0:
64,192,1448954,1,0,0:0:0:0:
448,192,1449121,1,0,0:0:0:0:
320,192,1449288,1,0,0:0:0:0:
192,192,1449288,1,0,0:0:0:0:
64,192,1449454,1,0,0:0:0:0:
320,192,1449621,1,0,0:0:0:0:
192,192,1449621,1,0,0:0:0:0:
448,192,1449788,1,0,0:0:0:0:
320,192,1449954,1,0,0:0:0:0:
192,192,1449954,1,0,0:0:0:0:
64,192,1450121,1,0,0:0:0:0:
192,192,1450288,1,0,0:0:0:0:
448,192,1450288,1,0,0:0:0:0:
320,192,1450454,1,0,0:0:0:0:
448,192,1450621,1,0,0:0:0:0:
192,192,1450621,1,0,0:0:0:0:
64,192,1450621,1,0,0:0:0:0:
64,192,1450954,1,0,0:0:0:0:
192,192,1451121,1,0,0:0:0:0:
64,192,1451288,1,0,0:0:0:0:
320,192,1451288,1,0,0:0:0:0:
64,192,1451621,1,0,0:0:0:0:
448,192,1451621,1,0,0:0:0:0:
192,192,1451954,1,0,0:0:0:0:
448,192,1451954,1,0,0:0:0:0:
320,192,1451954,1,0,0:0:0:0:
64,192,1452288,1,0,0:0:0:0:
192,192,1452288,1,0,0:0:0:0:
448,192,1452454,1,0,0:0:0:0:
192,192,1452621,1,0,0:0:0:0:
320,192,1452621,1,0,0:0:0:0:
192,192,1452954,1,0,0:0:0:0:
320,192,1452954,1,0,0:0:0:0:
64,192,1452954,1,0,0:0:0:0:
448,192,1453121,1,0,0:0:0:0:
320,192,1453288,1,0,0:0:0:0:
192,192,1453288,1,0,0:0:0:0:
64,192,1453288,1,0,0:0:0:0:
320,192,1453454,1,0,0:0:0:0:
320,192,1453621,1,0,0:0:0:0:
320,192,1453788,1,0,0:0:0:0:
192,192,1453788,1,0,0:0:0:0:
64,192,1453788,1,0,0:0:0:0:
448,192,1453954,1,0,0:0:0:0:
64,192,1453954,1,0,0:0:0:0:
448,192,1454121,1,0,0:0:0:0:
192,192,1454288,1,0,0:0:0:0:
448,192,1454288,1,0,0:0:0:0:
64,192,1454288,1,0,0:0:0:0:
448,192,1454454,1,0,0:0:0:0:
320,192,1454621,1,0,0:0:0:0:
64,192,1454621,1,0,0:0:0:0:
192,192,1454621,1,0,0:0:0:0:
64,192,1454788,1,0,0:0:0:0:
320,192,1454788,1,0,0:0:0:0:
64,192,1454954,1,0,0:0:0:0:
448,192,1454954,1,0,0:0:0:0:
64,192,1455121,1,0,0:0:0:0:
320,192,1455121,1,0,0:0:0:0:
192,192,1455288,1,0,0:0:0:0:
448,192,1455288,1,0,0:0:0:0:
192,192,1455454,1,0,0:0:0:0:
192,192,1455621,1,0,0:0:0:0:
448,192,1455621,1,0,0:0:0:0:
192,192,1455788,1,0,0:0:0:0:
448,192,1455954,1,0,0:0:0:0:
64,192,1455954,1,0,0:0:0:0:
320,192,1455954,1,0,0:0:0:0:
192,192,1456454,1,0,0:0:0:0:
64,192,1456454,1,0,0:0:0:0:
448,192,1456454,1,0,0:0:0:0:
320,192,1456538,1,0,0:0:0:0:
448,192,1456621,1,0,0:0:0:0:
448,192,1456954,1,0,0:0:0:0:
320,192,1456954,1,0,0:0:0:0:
64,192,1457121,1,0,0:0:0:0:
192,192,1457204,1,0,0:0:0:0:
320,192,1457288,1,0,0:0:0:0:
448,192,1457288,1,0,0:0:0:0:
64,192,1457288,1,0,0:0:0:0:
64,192,1457788,1,0,0:0:0:0:
320,192,1457788,1,0,0:0:0:0:
448,192,1457788,1,0,0:0:0:0:
192,192,1457871,1,0,0:0:0:0:
448,192,1457954,1,0,0:0:0:0:
320,192,1457954,1,0,0:0:0:0:
64,192,1457954,1,0,0:0:0:0:
320,192,1458288,1,0,0:0:0:0:
192,192,1458288,1,0,0:0:0:0:
448,192,1458288,1,0,0:0:0:0:
192,192,1458621,1,0,0:0:0:0:
448,192,1458621,1,0,0:0:0:0:
64,192,1458621,1,0,0:0:0:0:
448,192,1458871,1,0,0:0:0:0:
320,192,1458954,1,0,0:0:0:0:
192,192,1459121,1,0,0:0:0:0:
448,192,1459204,1,0,0:0:0:0:
320,192,1459288,1,0,0:0:0:0:
448,192,1459371,1,0,0:0:0:0:
320,192,1459454,1,0,0:0:0:0:
64,192,1459538,1,0,0:0:0:0:
448,192,1459621,1,0,0:0:0:0:
320,192,1459704,1,0,0:0:0:0:
192,192,1459788,1,0,0:0:0:0:
64,192,1459871,1,0,0:0:0:0:
320,192,1459954,1,0,0:0:0:0:
448,192,1459954,1,0,0:0:0:0:
192,192,1459954,1,0,0:0:0:0:
64,192,1460038,1,0,0:0:0:0:
192,192,1460121,1,0,0:0:0:0:
320,192,1460204,1,0,0:0:0:0:
64,192,1460204,1,0,0:0:0:0:
448,192,1460288,1,0,0:0:0:0:
192,192,1460288,1,0,0:0:0:0:
320,192,1460371,1,0,0:0:0:0:
192,192,1460454,1,0,0:0:0:0:
64,192,1460538,1,0,0:0:0:0:
448,192,1460621,1,0,0:0:0:0:
192,192,1460621,1,0,0:0:0:0:
320,192,1460704,1,0,0:0:0:0:
192,192,1460788,1,0,0:0:0:0:
64,192,1460871,1,0,0:0:0:0:
448,192,1460954,1,0,0:0:0:0:
320,192,1460954,1,0,0:0:0:0:
192,192,1460954,1,0,0:0:0:0:
64,192,1461038,1,0,0:0:0:0:
192,192,1461121,1,0,0:0:0:0:
448,192,1461121,1,0,0:0:0:0:
320,192,1461204,1,0,0:0:0:0:
448,192,1461288,1,0,0:0:0:0:
192,192,1461288,1,0,0:0:0:0:
64,192,1461288,1,0,0:0:0:0:
320,192,1461371,1,0,0:0:0:0:
192,192,1461454,1,0,0:0:0:0:
320,192,1461538,1,0,0:0:0:0:
448,192,1461621,1,0,0:0:0:0:
64,192,1461621,1,0,0:0:0:0:
192,192,1461621,1,0,0:0:0:0:
320,192,1461704,1,0,0:0:0:0:
192,192,1461788,1,0,0:0:0:0:
320,192,1461871,1,0,0:0:0:0:
448,192,1461954,1,0,0:0:0:0:
64,192,1461954,1,0,0:0:0:0:
192,192,1461954,1,0,0:0:0:0:
320,192,1462038,1,0,0:0:0:0:
192,192,1462121,1,0,0:0:0:0:
320,192,1462204,1,0,0:0:0:0:
448,192,1462288,1,0,0:0:0:0:
64,192,1462288,1,0,0:0:0:0:
192,192,1462288,1,0,0:0:0:0:
320,192,1462371,1,0,0:0:0:0:
448,192,1462454,1,0,0:0:0:0:
320,192,1462538,1,0,0:0:0:0:
448,192,1462621,1,0,0:0:0:0:
64,192,1462621,1,0,0:0:0:0:
192,192,1462621,1,0,0:0:0:0:
320,192,1462704,1,0,0:0:0:0:
64,192,1462788,1,0,0:0:0:0:
192,192,1462788,1,0,0:0:0:0:
320,192,1462871,1,0,0:0:0:0:
448,192,1462871,1,0,0:0:0:0:
64,192,1462954,1,0,0:0:0:0:
192,192,1462954,1,0,0:0:0:0:
320,192,1463038,1,0,0:0:0:0:
448,192,1463121,1,0,0:0:0:0:
320,192,1463204,1,0,0:0:0:0:
448,192,1463288,1,0,0:0:0:0:
192,192,1463288,1,0,0:0:0:0:
64,192,1463371,1,0,0:0:0:0:
192,192,1463454,1,0,0:0:0:0:
320,192,1463538,1,0,0:0:0:0:
448,192,1463621,1,0,0:0:0:0:
64,192,1463621,1,0,0:0:0:0:
192,192,1463621,1,0,0:0:0:0:
320,192,1463704,1,0,0:0:0:0:
448,192,1463788,1,0,0:0:0:0:
320,192,1463871,1,0,0:0:0:0:
448,192,1463954,1,0,0:0:0:0:
64,192,1463954,1,0,0:0:0:0:
192,192,1463954,1,0,0:0:0:0:
320,192,1464038,1,0,0:0:0:0:
192,192,1464121,1,0,0:0:0:0:
64,192,1464204,1,0,0:0:0:0:
448,192,1464288,1,0,0:0:0:0:
320,192,1464288,1,0,0:0:0:0:
192,192,1464288,1,0,0:0:0:0:
64,192,1464371,1,0,0:0:0:0:
192,192,1464454,1,0,0:0:0:0:
320,192,1464538,1,0,0:0:0:0:
448,192,1464621,1,0,0:0:0:0:
64,192,1464621,1,0,0:0:0:0:
192,192,1464621,1,0,0:0:0:0:
320,192,1464704,1,0,0:0:0:0:
448,192,1464788,1,0,0:0:0:0:
320,192,1464871,1,0,0:0:0:0:
448,192,1464954,1,0,0:0:0:0:
64,192,1464954,1,0,0:0:0:0:
192,192,1464954,1,0,0:0:0:0:
320,192,1465038,1,0,0:0:0:0:
448,192,1465121,1,0,0:0:0:0:
192,192,1465121,1,0,0:0:0:0:
64,192,1465204,1,0,0:0:0:0:
448,192,1465288,1,0,0:0:0:0:
320,192,1465288,1,0,0:0:0:0:
192,192,1465288,1,0,0:0:0:0:
64,192,1465371,1,0,0:0:0:0:
448,192,1465454,1,0,0:0:0:0:
192,192,1465454,1,0,0:0:0:0:
64,192,1465538,1,0,0:0:0:0:
320,192,1465538,1,0,0:0:0:0:
448,192,1465621,1,0,0:0:0:0:
192,192,1465621,1,0,0:0:0:0:
64,192,1465704,1,0,0:0:0:0:
192,192,1465788,1,0,0:0:0:0:
320,192,1465871,1,0,0:0:0:0:
448,192,1465954,1,0,0:0:0:0:
192,192,1465954,1,0,0:0:0:0:
64,192,1466038,1,0,0:0:0:0:
192,192,1466121,1,0,0:0:0:0:
320,192,1466204,1,0,0:0:0:0:
448,192,1466288,1,0,0:0:0:0:
192,192,1466288,1,0,0:0:0:0:
64,192,1466288,1,0,0:0:0:0:
320,192,1466371,1,0,0:0:0:0:
448,192,1466454,1,0,0:0:0:0:
192,192,1466454,1,0,0:0:0:0:
320,192,1466538,1,0,0:0:0:0:
448,192,1466621,1,0,0:0:0:0:
64,192,1466621,1,0,0:0:0:0:
192,192,1466621,1,0,0:0:0:0:
320,192,1466704,1,0,0:0:0:0:
192,192,1466788,1,0,0:0:0:0:
64,192,1466871,1,0,0:0:0:0:
448,192,1466954,1,0,0:0:0:0:
192,192,1466954,1,0,0:0:0:0:
320,192,1467038,1,0,0:0:0:0:
448,192,1467121,1,0,0:0:0:0:
320,192,1467204,1,0,0:0:0:0:
448,192,1467288,1,0,0:0:0:0:
64,192,1467288,1,0,0:0:0:0:
192,192,1467288,1,0,0:0:0:0:
320,192,1467371,1,0,0:0:0:0:
192,192,1467454,1,0,0:0:0:0:
64,192,1467538,1,0,0:0:0:0:
448,192,1467621,1,0,0:0:0:0:
320,192,1467621,1,0,0:0:0:0:
192,192,1467621,1,0,0:0:0:0:
64,192,1467704,1,0,0:0:0:0:
192,192,1467788,1,0,0:0:0:0:
320,192,1467871,1,0,0:0:0:0:
448,192,1467954,1,0,0:0:0:0:
64,192,1467954,1,0,0:0:0:0:
192,192,1467954,1,0,0:0:0:0:
320,192,1468038,1,0,0:0:0:0:
448,192,1468121,1,0,0:0:0:0:
320,192,1468204,1,0,0:0:0:0:
64,192,1468288,1,0,0:0:0:0:
192,192,1468288,1,0,0:0:0:0:
320,192,1468371,1,0,0:0:0:0:
448,192,1468454,1,0,0:0:0:0:
320,192,1468538,1,0,0:0:0:0:
448,192,1468621,1,0,0:0:0:0:
64,192,1468621,1,0,0:0:0:0:
192,192,1468621,1,0,0:0:0:0:
320,192,1468704,1,0,0:0:0:0:
192,192,1468788,1,0,0:0:0:0:
64,192,1468871,1,0,0:0:0:0:
448,192,1468954,1,0,0:0:0:0:
192,192,1468954,1,0,0:0:0:0:
320,192,1469038,1,0,0:0:0:0:
448,192,1469121,1,0,0:0:0:0:
320,192,1469204,1,0,0:0:0:0:
448,192,1469288,1,0,0:0:0:0:
64,192,1469288,1,0,0:0:0:0:
192,192,1469288,1,0,0:0:0:0:
320,192,1469371,1,0,0:0:0:0:
192,192,1469454,1,0,0:0:0:0:
64,192,1469538,1,0,0:0:0:0:
448,192,1469621,1,0,0:0:0:0:
192,192,1469621,1,0,0:0:0:0:
320,192,1469704,1,0,0:0:0:0:
192,192,1469788,1,0,0:0:0:0:
64,192,1469871,1,0,0:0:0:0:
448,192,1469954,1,0,0:0:0:0:
320,192,1469954,1,0,0:0:0:0:
192,192,1469954,1,0,0:0:0:0:
64,192,1470038,1,0,0:0:0:0:
448,192,1470121,1,0,0:0:0:0:
192,192,1470121,1,0,0:0:0:0:
320,192,1470204,1,0,0:0:0:0:
64,192,1470288,1,0,0:0:0:0:
192,192,1470288,1,0,0:0:0:0:
320,192,1470371,1,0,0:0:0:0:
448,192,1470454,1,0,0:0:0:0:
192,192,1470454,1,0,0:0:0:0:
64,192,1470538,1,0,0:0:0:0:
448,192,1470621,1,0,0:0:0:0:
320,192,1470621,1,0,0:0:0:0:
192,192,1470621,1,0,0:0:0:0:
64,192,1470704,1,0,0:0:0:0:
320,192,1470788,1,0,0:0:0:0:
192,192,1470788,1,0,0:0:0:0:
448,192,1470871,1,0,0:0:0:0:
64,192,1470871,1,0,0:0:0:0:
320,192,1470954,1,0,0:0:0:0:
192,192,1470954,1,0,0:0:0:0:
448,192,1471038,1,0,0:0:0:0:
320,192,1471121,1,0,0:0:0:0:
192,192,1471204,1,0,0:0:0:0:
448,192,1471288,1,0,0:0:0:0:
64,192,1471288,1,0,0:0:0:0:
192,192,1471371,1,0,0:0:0:0:
320,192,1471454,1,0,0:0:0:0:
192,192,1471538,1,0,0:0:0:0:
448,192,1471621,1,0,0:0:0:0:
320,192,1471621,1,0,0:0:0:0:
64,192,1471621,1,0,0:0:0:0:
192,192,1471704,1,0,0:0:0:0:
320,192,1471788,1,0,0:0:0:0:
448,192,1471788,1,0,0:0:0:0:
192,192,1471871,1,0,0:0:0:0:
448,192,1471954,1,0,0:0:0:0:
320,192,1471954,1,0,0:0:0:0:
64,192,1471954,1,0,0:0:0:0:
192,192,1472038,1,0,0:0:0:0:
320,192,1472121,1,0,0:0:0:0:
448,192,1472204,1,0,0:0:0:0:
64,192,1472288,1,0,0:0:0:0:
320,192,1472288,1,0,0:0:0:0:
192,192,1472288,1,0,0:0:0:0:
448,192,1472371,1,0,0:0:0:0:
320,192,1472454,1,0,0:0:0:0:
192,192,1472538,1,0,0:0:0:0:
448,192,1472621,1,0,0:0:0:0:
320,192,1472621,1,0,0:0:0:0:
64,192,1472621,1,0,0:0:0:0:
192,192,1472704,1,0,0:0:0:0:
320,192,1472788,1,0,0:0:0:0:
192,192,1472871,1,0,0:0:0:0:
448,192,1472954,1,0,0:0:0:0:
320,192,1472954,1,0,0:0:0:0:
64,192,1472954,1,0,0:0:0:0:
192,192,1473038,1,0,0:0:0:0:
320,192,1473121,1,0,0:0:0:0:
448,192,1473204,1,0,0:0:0:0:
64,192,1473288,1,0,0:0:0:0:
320,192,1473288,1,0,0:0:0:0:
192,192,1473288,1,0,0:0:0:0:
448,192,1473371,1,0,0:0:0:0:
64,192,1473454,1,0,0:0:0:0:
192,192,1473454,1,0,0:0:0:0:
320,192,1473538,1,0,0:0:0:0:
448,192,1473538,1,0,0:0:0:0:
64,192,1473621,1,0,0:0:0:0:
192,192,1473621,1,0,0:0:0:0:
320,192,1473704,1,0,0:0:0:0:
192,192,1473788,1,0,0:0:0:0:
64,192,1473871,1,0,0:0:0:0:
448,192,1473954,1,0,0:0:0:0:
192,192,1473954,1,0,0:0:0:0:
320,192,1474038,1,0,0:0:0:0:
192,192,1474121,1,0,0:0:0:0:
320,192,1474204,1,0,0:0:0:0:
448,192,1474288,1,0,0:0:0:0:
64,192,1474288,1,0,0:0:0:0:
192,192,1474288,1,0,0:0:0:0:
320,192,1474371,1,0,0:0:0:0:
448,192,1474454,1,0,0:0:0:0:
192,192,1474454,1,0,0:0:0:0:
320,192,1474538,1,0,0:0:0:0:
448,192,1474621,1,0,0:0:0:0:
64,192,1474621,1,0,0:0:0:0:
192,192,1474621,1,0,0:0:0:0:
320,192,1474704,1,0,0:0:0:0:
448,192,1474788,1,0,0:0:0:0:
320,192,1474871,1,0,0:0:0:0:
448,192,1474954,1,0,0:0:0:0:
64,192,1474954,1,0,0:0:0:0:
192,192,1474954,1,0,0:0:0:0:
320,192,1475038,1,0,0:0:0:0:
192,192,1475121,1,0,0:0:0:0:
64,192,1475204,1,0,0:0:0:0:
448,192,1475288,1,0,0:0:0:0:
320,192,1475288,1,0,0:0:0:0:
192,192,1475288,1,0,0:0:0:0:
64,192,1475371,1,0,0:0:0:0:
192,192,1475454,1,0,0:0:0:0:
320,192,1475538,1,0,0:0:0:0:
448,192,1475621,1,0,0:0:0:0:
64,192,1475621,1,0,0:0:0:0:
192,192,1475621,1,0,0:0:0:0:
320,192,1475704,1,0,0:0:0:0:
448,192,1475788,1,0,0:0:0:0:
192,192,1475788,1,0,0:0:0:0:
64,192,1475871,1,0,0:0:0:0:
448,192,1475954,1,0,0:0:0:0:
320,192,1475954,1,0,0:0:0:0:
192,192,1475954,1,0,0:0:0:0:
64,192,1476038,1,0,0:0:0:0:
448,192,1476121,1,0,0:0:0:0:
320,192,1476121,1,0,0:0:0:0:
64,192,1476204,1,0,0:0:0:0:
192,192,1476204,1,0,0:0:0:0:
448,192,1476288,1,0,0:0:0:0:
320,192,1476288,1,0,0:0:0:0:
192,192,1476371,1,0,0:0:0:0:
64,192,1476454,1,0,0:0:0:0:
192,192,1476538,1,0,0:0:0:0:
448,192,1476621,1,0,0:0:0:0:
320,192,1476621,1,0,0:0:0:0:
192,192,1476704,1,0,0:0:0:0:
320,192,1476788,1,0,0:0:0:0:
192,192,1476871,1,0,0:0:0:0:
448,192,1476954,1,0,0:0:0:0:
320,192,1476954,1,0,0:0:0:0:
64,192,1476954,1,0,0:0:0:0:
192,192,1477038,1,0,0:0:0:0:
320,192,1477121,1,0,0:0:0:0:
448,192,1477121,1,0,0:0:0:0:
192,192,1477204,1,0,0:0:0:0:
448,192,1477288,1,0,0:0:0:0:
320,192,1477288,1,0,0:0:0:0:
64,192,1477288,1,0,0:0:0:0:
192,192,1477371,1,0,0:0:0:0:
320,192,1477454,1,0,0:0:0:0:
192,192,1477538,1,0,0:0:0:0:
448,192,1477621,1,0,0:0:0:0:
64,192,1477621,1,0,0:0:0:0:
320,192,1477704,1,0,0:0:0:0:
192,192,1477788,1,0,0:0:0:0:
320,192,1477871,1,0,0:0:0:0:
448,192,1477954,1,0,0:0:0:0:
64,192,1477954,1,0,0:0:0:0:
192,192,1477954,1,0,0:0:0:0:
320,192,1478038,1,0,0:0:0:0:
192,192,1478121,1,0,0:0:0:0:
320,192,1478204,1,0,0:0:0:0:
448,192,1478288,1,0,0:0:0:0:
64,192,1478288,1,0,0:0:0:0:
192,192,1478288,1,0,0:0:0:0:
320,192,1478371,1,0,0:0:0:0:
192,192,1478454,1,0,0:0:0:0:
64,192,1478538,1,0,0:0:0:0:
448,192,1478621,1,0,0:0:0:0:
320,192,1478621,1,0,0:0:0:0:
192,192,1478621,1,0,0:0:0:0:
64,192,1478704,1,0,0:0:0:0:
192,192,1478788,1,0,0:0:0:0:
320,192,1478788,1,0,0:0:0:0:
64,192,1478871,1,0,0:0:0:0:
448,192,1478871,1,0,0:0:0:0:
192,192,1478954,1,0,0:0:0:0:
320,192,1478954,1,0,0:0:0:0:
448,192,1479038,1,0,0:0:0:0:
64,192,1479121,1,0,0:0:0:0:
320,192,1479121,1,0,0:0:0:0:
448,192,1479204,1,0,0:0:0:0:
192,192,1479204,1,0,0:0:0:0:
320,192,1479288,1,0,0:0:0:0:
64,192,1479288,1,0,0:0:0:0:
192,192,1479371,1,0,0:0:0:0:
320,192,1479454,1,0,0:0:0:0:
448,192,1479454,1,0,0:0:0:0:
64,192,1479538,1,0,0:0:0:0:
192,192,1479538,1,0,0:0:0:0:
448,192,1479621,1,0,0:0:0:0:
320,192,1479621,1,0,0:0:0:0:
192,192,1479704,1,0,0:0:0:0:
64,192,1479788,1,0,0:0:0:0:
320,192,1479788,1,0,0:0:0:0:
192,192,1479871,1,0,0:0:0:0:
448,192,1479954,1,0,0:0:0:0:
320,192,1479954,1,0,0:0:0:0:
64,192,1479954,1,0,0:0:0:0:
192,192,1480038,1,0,0:0:0:0:
448,192,1480121,1,0,0:0:0:0:
64,192,1480121,1,0,0:0:0:0:
320,192,1480204,1,0,0:0:0:0:
192,192,1480288,1,0,0:0:0:0:
448,192,1480371,1,0,0:0:0:0:
64,192,1480371,1,0,0:0:0:0:
320,192,1480454,1,0,0:0:0:0:
192,192,1480538,1,0,0:0:0:0:
448,192,1480621,1,0,0:0:0:0:
320,192,1480621,1,0,0:0:0:0:
64,192,1480621,1,0,0:0:0:0:
448,192,1480788,5,0,0:0:0:0:
320,192,1480788,1,0,0:0:0:0:
448,192,1480954,1,0,0:0:0:0:
320,192,1480954,1,0,0:0:0:0:
64,192,1480954,1,0,0:0:0:0:
448,192,1481121,1,0,0:0:0:0:
320,192,1481121,1,0,0:0:0:0:
64,192,1481121,1,0,0:0:0:0:
192,192,1481288,128,0,1481788:0:0:0:0:
448,192,1481288,1,0,0:0:0:0:
64,192,1481288,1,0,0:0:0:0:
320,192,1481413,1,0,0:0:0:0:
448,192,1481496,1,0,0:0:0:0:
64,192,1481788,128,0,1482288:0:0:0:0:
448,192,1481788,1,0,0:0:0:0:
320,192,1481871,1,0,0:0:0:0:
448,192,1481954,1,0,0:0:0:0:
320,192,1482121,1,0,0:0:0:0:
448,192,1482288,128,0,1482538:0:0:0:0:
320,192,1482288,1,0,0:0:0:0:
192,192,1482371,1,0,0:0:0:0:
320,192,1482454,1,0,0:0:0:0:
64,192,1482538,128,0,1482579:0:0:0:0:
192,192,1482579,128,0,1482621:0:0:0:0:
320,192,1482621,128,0,1482954:0:0:0:0:
448,192,1482621,1,0,0:0:0:0:
448,192,1483121,128,0,1483454:0:0:0:0:
320,192,1483121,1,0,0:0:0:0:
192,192,1483204,1,0,0:0:0:0:
64,192,1483288,1,0,0:0:0:0:
192,192,1483371,1,0,0:0:0:0:
320,192,1483454,128,0,1483538:0:0:0:0:
64,192,1483454,1,0,0:0:0:0:
192,192,1483538,128,0,1483621:0:0:0:0:
64,192,1483621,128,0,1483788:0:0:0:0:
448,192,1483621,1,0,0:0:0:0:
320,192,1483704,1,0,0:0:0:0:
192,192,1483788,128,0,1483954:0:0:0:0:
448,192,1483788,1,0,0:0:0:0:
320,192,1483871,1,0,0:0:0:0:
64,192,1483954,128,0,1484288:0:0:0:0:
448,192,1483954,1,0,0:0:0:0:
64,192,1484454,128,0,1484621:0:0:0:0:
192,192,1484454,1,0,0:0:0:0:
320,192,1484538,1,0,0:0:0:0:
448,192,1484621,1,0,0:0:0:0:
64,192,1484788,128,0,1484954:0:0:0:0:
192,192,1484788,1,0,0:0:0:0:
448,192,1484954,128,0,1485121:0:0:0:0:
320,192,1484954,1,0,0:0:0:0:
192,192,1485038,1,0,0:0:0:0:
320,192,1485121,128,0,1485288:0:0:0:0:
64,192,1485121,1,0,0:0:0:0:
192,192,1485204,1,0,0:0:0:0:
64,192,1485288,128,0,1485621:0:0:0:0:
448,192,1485288,1,0,0:0:0:0:
320,192,1485788,128,0,1486288:0:0:0:0:
192,192,1485788,1,0,0:0:0:0:
64,192,1485871,1,0,0:0:0:0:
192,192,1485954,1,0,0:0:0:0:
64,192,1486038,1,0,0:0:0:0:
448,192,1486121,1,0,0:0:0:0:
192,192,1486204,1,0,0:0:0:0:
448,192,1486288,128,0,1486621:0:0:0:0:
64,192,1486288,1,0,0:0:0:0:
192,192,1486371,1,0,0:0:0:0:
320,192,1486454,1,0,0:0:0:0:
192,192,1486538,1,0,0:0:0:0:
64,192,1486621,128,0,1487288:0:0:0:0:
320,192,1486621,1,0,0:0:0:0:
448,192,1486954,1,0,0:0:0:0:
448,192,1487065,1,0,0:0:0:0:
448,192,1487176,1,0,0:0:0:0:
448,192,1487288,1,0,0:0:0:0:
192,192,1487288,1,0,0:0:0:0:
448,192,1487454,128,0,1487621:0:0:0:0:
320,192,1487621,128,0,1487788:0:0:0:0:
192,192,1487788,128,0,1487954:0:0:0:0:
64,192,1487954,128,0,1488621:0:0:0:0:
448,192,1487954,1,0,0:0:0:0:
320,192,1487954,1,0,0:0:0:0:
448,192,1488288,1,0,0:0:0:0:
448,192,1488399,1,0,0:0:0:0:
448,192,1488510,1,0,0:0:0:0:
192,192,1488621,1,0,0:0:0:0:
448,192,1488621,1,0,0:0:0:0:
448,192,1488788,128,0,1488871:0:0:0:0:
320,192,1488871,128,0,1488954:0:0:0:0:
192,192,1488954,128,0,1489038:0:0:0:0:
64,192,1489038,128,0,1489204:0:0:0:0:
192,192,1489204,128,0,1489246:0:0:0:0:
320,192,1489246,128,0,1489288:0:0:0:0:
448,192,1489288,128,0,1490454:0:0:0:0:
64,192,1489288,1,0,0:0:0:0:
320,192,1489621,1,0,0:0:0:0:
192,192,1489788,1,0,0:0:0:0:
320,192,1490121,1,0,0:0:0:0:
192,192,1490288,1,0,0:0:0:0:
320,192,1490454,128,0,1490538:0:0:0:0:
192,192,1490538,128,0,1490621:0:0:0:0:
64,192,1490621,128,0,1491621:0:0:0:0:
448,192,1490621,1,0,0:0:0:0:
448,192,1491121,1,0,0:0:0:0:
320,192,1491204,1,0,0:0:0:0:
192,192,1491288,1,0,0:0:0:0:
448,192,1491371,1,0,0:0:0:0:
320,192,1491454,1,0,0:0:0:0:
192,192,1491538,1,0,0:0:0:0:
448,192,1491621,1,0,0:0:0:0:
320,192,1491788,1,0,0:0:0:0:
64,192,1491954,1,0,0:0:0:0:
448,192,1491954,1,0,0:0:0:0:
192,192,1491954,1,0,0:0:0:0:
320,192,1491954,1,0,0:0:0:0:
320,192,1492121,1,0,0:0:0:0:
192,192,1492204,1,0,0:0:0:0:
64,192,1492288,1,0,0:0:0:0:
448,192,1492454,1,0,0:0:0:0:
64,192,1492454,1,0,0:0:0:0:
320,192,1492454,1,0,0:0:0:0:
192,192,1492621,1,0,0:0:0:0:
448,192,1492788,1,0,0:0:0:0:
320,192,1492788,1,0,0:0:0:0:
448,192,1492954,1,0,0:0:0:0:
192,192,1492954,1,0,0:0:0:0:
64,192,1492954,1,0,0:0:0:0:
192,192,1493121,1,0,0:0:0:0:
320,192,1493121,1,0,0:0:0:0:
448,192,1493288,1,0,0:0:0:0:
64,192,1493288,1,0,0:0:0:0:
320,192,1493288,1,0,0:0:0:0:
192,192,1493454,1,0,0:0:0:0:
448,192,1493454,1,0,0:0:0:0:
320,192,1493621,1,0,0:0:0:0:
448,192,1493788,1,0,0:0:0:0:
64,192,1493788,1,0,0:0:0:0:
192,192,1493788,1,0,0:0:0:0:
64,192,1493954,1,0,0:0:0:0:
320,192,1493954,1,0,0:0:0:0:
448,192,1494121,1,0,0:0:0:0:
192,192,1494121,1,0,0:0:0:0:
320,192,1494121,1,0,0:0:0:0:
64,192,1494288,1,0,0:0:0:0:
448,192,1494288,1,0,0:0:0:0:
192,192,1494288,1,0,0:0:0:0:
320,192,1494288,1,0,0:0:0:0:
448,192,1494454,1,0,0:0:0:0:
192,192,1494454,1,0,0:0:0:0:
64,192,1494454,1,0,0:0:0:0:
64,192,1494621,1,0,0:0:0:0:
448,192,1494621,1,0,0:0:0:0:
192,192,1494621,1,0,0:0:0:0:
320,192,1494621,1,0,0:0:0:0:
320,192,1494788,1,0,0:0:0:0:
192,192,1494954,1,0,0:0:0:0:
320,192,1494954,1,0,0:0:0:0:
448,192,1495121,1,0,0:0:0:0:
320,192,1495121,1,0,0:0:0:0:
64,192,1495121,1,0,0:0:0:0:
192,192,1495288,1,0,0:0:0:0:
64,192,1495288,1,0,0:0:0:0:
320,192,1495288,1,0,0:0:0:0:
448,192,1495454,1,0,0:0:0:0:
192,192,1495454,1,0,0:0:0:0:
64,192,1495454,1,0,0:0:0:0:
320,192,1495538,1,0,0:0:0:0:
448,192,1495621,1,0,0:0:0:0:
192,192,1495621,1,0,0:0:0:0:
64,192,1495621,1,0,0:0:0:0:
64,192,1495788,1,0,0:0:0:0:
192,192,1495788,1,0,0:0:0:0:
320,192,1495788,1,0,0:0:0:0:
64,192,1495954,1,0,0:0:0:0:
448,192,1495954,1,0,0:0:0:0:
192,192,1495954,1,0,0:0:0:0:
320,192,1495954,1,0,0:0:0:0:
192,192,1496121,1,0,0:0:0:0:
320,192,1496121,1,0,0:0:0:0:
64,192,1496288,1,0,0:0:0:0:
448,192,1496288,1,0,0:0:0:0:
192,192,1496288,1,0,0:0:0:0:
320,192,1496288,1,0,0:0:0:0:
448,192,1496454,1,0,0:0:0:0:
192,192,1496454,1,0,0:0:0:0:
320,192,1496454,1,0,0:0:0:0:
64,192,1496621,1,0,0:0:0:0:
448,192,1496621,1,0,0:0:0:0:
192,192,1496788,1,0,0:0:0:0:
320,192,1496788,1,0,0:0:0:0:
64,192,1496954,1,0,0:0:0:0:
448,192,1496954,1,0,0:0:0:0:
192,192,1496954,1,0,0:0:0:0:
320,192,1496954,1,0,0:0:0:0:
64,192,1497121,1,0,0:0:0:0:
448,192,1497121,1,0,0:0:0:0:
64,192,1497288,1,0,0:0:0:0:
448,192,1497288,1,0,0:0:0:0:
192,192,1497288,1,0,0:0:0:0:
320,192,1497288,1,0,0:0:0:0:
320,192,1497454,1,0,0:0:0:0:
64,192,1497621,1,0,0:0:0:0:
192,192,1497621,1,0,0:0:0:0:
192,192,1497732,1,0,0:0:0:0:
64,192,1497732,1,0,0:0:0:0:
192,192,1497843,1,0,0:0:0:0:
64,192,1497843,1,0,0:0:0:0:
64,192,1497954,1,0,0:0:0:0:
192,192,1497954,1,0,0:0:0:0:
448,192,1498121,1,0,0:0:0:0:
64,192,1498288,1,0,0:0:0:0:
448,192,1498288,1,0,0:0:0:0:
320,192,1498288,1,0,0:0:0:0:
320,192,1498454,1,0,0:0:0:0:
192,192,1498454,1,0,0:0:0:0:
64,192,1498621,1,0,0:0:0:0:
448,192,1498621,1,0,0:0:0:0:
320,192,1498621,1,0,0:0:0:0:
192,192,1498788,1,0,0:0:0:0:
320,192,1498954,1,0,0:0:0:0:
448,192,1498954,1,0,0:0:0:0:
448,192,1499065,1,0,0:0:0:0:
320,192,1499065,1,0,0:0:0:0:
448,192,1499176,1,0,0:0:0:0:
320,192,1499176,1,0,0:0:0:0:
320,192,1499288,1,0,0:0:0:0:
448,192,1499288,1,0,0:0:0:0:
192,192,1499454,1,0,0:0:0:0:
64,192,1499454,1,0,0:0:0:0:
64,192,1499621,1,0,0:0:0:0:
448,192,1499621,1,0,0:0:0:0:
320,192,1499621,1,0,0:0:0:0:
448,192,1499788,1,0,0:0:0:0:
192,192,1499788,1,0,0:0:0:0:
64,192,1499954,1,0,0:0:0:0:
448,192,1499954,1,0,0:0:0:0:
192,192,1499954,1,0,0:0:0:0:
320,192,1499954,1,0,0:0:0:0:
64,192,1500121,1,0,0:0:0:0:
192,192,1500121,1,0,0:0:0:0:
320,192,1500121,1,0,0:0:0:0:
320,192,1500288,1,0,0:0:0:0:
192,192,1500288,1,0,0:0:0:0:
448,192,1500288,1,0,0:0:0:0:
448,192,1500454,1,0,0:0:0:0:
192,192,1500454,1,0,0:0:0:0:
320,192,1500454,1,0,0:0:0:0:
64,192,1500621,1,0,0:0:0:0:
192,192,1500621,1,0,0:0:0:0:
448,192,1500621,1,0,0:0:0:0:
64,192,1500788,1,0,0:0:0:0:
192,192,1500788,1,0,0:0:0:0:
448,192,1500788,1,0,0:0:0:0:
64,192,1500954,1,0,0:0:0:0:
448,192,1500954,1,0,0:0:0:0:
320,192,1500954,1,0,0:0:0:0:
64,192,1501121,1,0,0:0:0:0:
448,192,1501121,1,0,0:0:0:0:
320,192,1501121,1,0,0:0:0:0:
192,192,1501204,1,0,0:0:0:0:
64,192,1501288,1,0,0:0:0:0:
448,192,1501288,1,0,0:0:0:0:
320,192,1501288,1,0,0:0:0:0:
192,192,1501371,1,0,0:0:0:0:
448,192,1501454,1,0,0:0:0:0:
320,192,1501454,1,0,0:0:0:0:
192,192,1501538,1,0,0:0:0:0:
64,192,1501621,1,0,0:0:0:0:
448,192,1501621,1,0,0:0:0:0:
320,192,1501621,1,0,0:0:0:0:
192,192,1501704,1,0,0:0:0:0:
448,192,1501788,1,0,0:0:0:0:
320,192,1501788,1,0,0:0:0:0:
192,192,1501871,1,0,0:0:0:0:
64,192,1501954,1,0,0:0:0:0:
448,192,1501954,1,0,0:0:0:0:
320,192,1501954,1,0,0:0:0:0:
192,192,1502038,1,0,0:0:0:0:
448,192,1502121,1,0,0:0:0:0:
320,192,1502121,1,0,0:0:0:0:
192,192,1502204,1,0,0:0:0:0:
64,192,1502288,1,0,0:0:0:0:
448,192,1502288,1,0,0:0:0:0:
320,192,1502288,1,0,0:0:0:0:
192,192,1502371,1,0,0:0:0:0:
448,192,1502454,1,0,0:0:0:0:
320,192,1502454,1,0,0:0:0:0:
192,192,1502538,1,0,0:0:0:0:
64,192,1502621,1,0,0:0:0:0:
448,192,1502621,1,0,0:0:0:0:
320,192,1502621,1,0,0:0:0:0:
192,192,1502788,1,0,0:0:0:0:
448,192,1502954,1,0,0:0:0:0:
320,192,1502954,1,0,0:0:0:0:
64,192,1503121,1,0,0:0:0:0:
192,192,1503121,1,0,0:0:0:0:
320,192,1503204,1,0,0:0:0:0:
64,192,1503288,1,0,0:0:0:0:
448,192,1503288,1,0,0:0:0:0:
192,192,1503288,1,0,0:0:0:0:
320,192,1503454,1,0,0:0:0:0:
64,192,1503621,1,0,0:0:0:0:
448,192,1503621,1,0,0:0:0:0:
192,192,1503621,1,0,0:0:0:0:
192,192,1503788,1,0,0:0:0:0:
64,192,1503954,1,0,0:0:0:0:
448,192,1503954,1,0,0:0:0:0:
320,192,1503954,1,0,0:0:0:0:
320,192,1504121,1,0,0:0:0:0:
64,192,1504288,1,0,0:0:0:0:
448,192,1504288,1,0,0:0:0:0:
320,192,1504454,1,0,0:0:0:0:
192,192,1504454,1,0,0:0:0:0:
64,192,1504621,1,0,0:0:0:0:
448,192,1504621,1,0,0:0:0:0:
192,192,1504788,1,0,0:0:0:0:
64,192,1504954,1,0,0:0:0:0:
448,192,1504954,1,0,0:0:0:0:
320,192,1504954,1,0,0:0:0:0:
192,192,1505121,1,0,0:0:0:0:
64,192,1505288,1,0,0:0:0:0:
448,192,1505288,1,0,0:0:0:0:
320,192,1505288,1,0,0:0:0:0:
64,192,1505454,1,0,0:0:0:0:
192,192,1505621,1,0,0:0:0:0:
448,192,1505621,1,0,0:0:0:0:
320,192,1505621,1,0,0:0:0:0:
448,192,1505788,1,0,0:0:0:0:
64,192,1505954,1,0,0:0:0:0:
320,192,1505954,1,0,0:0:0:0:
192,192,1505954,1,0,0:0:0:0:
192,192,1506121,1,0,0:0:0:0:
64,192,1506288,1,0,0:0:0:0:
192,192,1506288,1,0,0:0:0:0:
320,192,1506288,1,0,0:0:0:0:
320,192,1506454,1,0,0:0:0:0:
64,192,1506621,1,0,0:0:0:0:
448,192,1506621,1,0,0:0:0:0:
192,192,1506621,1,0,0:0:0:0:
448,192,1506788,1,0,0:0:0:0:
64,192,1506954,1,0,0:0:0:0:
192,192,1506954,1,0,0:0:0:0:
320,192,1506954,1,0,0:0:0:0:
320,192,1507121,1,0,0:0:0:0:
64,192,1507288,1,0,0:0:0:0:
448,192,1507288,1,0,0:0:0:0:
192,192,1507288,1,0,0:0:0:0:
320,192,1507454,1,0,0:0:0:0:
64,192,1507621,1,0,0:0:0:0:
192,192,1507621,1,0,0:0:0:0:
448,192,1507621,1,0,0:0:0:0:
64,192,1507788,1,0,0:0:0:0:
192,192,1507788,1,0,0:0:0:0:
64,192,1507954,1,0,0:0:0:0:
320,192,1507954,1,0,0:0:0:0:
192,192,1507954,1,0,0:0:0:0:
448,192,1508121,1,0,0:0:0:0:
64,192,1508288,1,0,0:0:0:0:
192,192,1508288,1,0,0:0:0:0:
448,192,1508454,1,0,0:0:0:0:
320,192,1508454,1,0,0:0:0:0:
192,192,1508538,1,0,0:0:0:0:
448,192,1508621,1,0,0:0:0:0:
64,192,1508621,1,0,0:0:0:0:
320,192,1508621,1,0,0:0:0:0:
192,192,1508788,1,0,0:0:0:0:
64,192,1508954,1,0,0:0:0:0:
448,192,1508954,1,0,0:0:0:0:
320,192,1508954,1,0,0:0:0:0:
192,192,1509121,1,0,0:0:0:0:
64,192,1509288,1,0,0:0:0:0:
448,192,1509288,1,0,0:0:0:0:
320,192,1509288,1,0,0:0:0:0:
448,192,1509454,1,0,0:0:0:0:
64,192,1509621,1,0,0:0:0:0:
320,192,1509621,1,0,0:0:0:0:
448,192,1509788,1,0,0:0:0:0:
192,192,1509788,1,0,0:0:0:0:
192,192,1509954,1,0,0:0:0:0:
320,192,1509954,1,0,0:0:0:0:
64,192,1510121,1,0,0:0:0:0:
64,192,1510288,1,0,0:0:0:0:
448,192,1510288,1,0,0:0:0:0:
320,192,1510288,1,0,0:0:0:0:
192,192,1510454,1,0,0:0:0:0:
64,192,1510621,1,0,0:0:0:0:
448,192,1510621,1,0,0:0:0:0:
192,192,1510621,1,0,0:0:0:0:
192,192,1510788,1,0,0:0:0:0:
448,192,1510788,1,0,0:0:0:0:
320,192,1510871,1,0,0:0:0:0:
64,192,1510954,1,0,0:0:0:0:
192,192,1510954,1,0,0:0:0:0:
448,192,1510954,1,0,0:0:0:0:
64,192,1511121,1,0,0:0:0:0:
320,192,1511121,1,0,0:0:0:0:
192,192,1511204,1,0,0:0:0:0:
64,192,1511288,1,0,0:0:0:0:
448,192,1511288,1,0,0:0:0:0:
320,192,1511288,1,0,0:0:0:0:
192,192,1511454,1,0,0:0:0:0:
448,192,1511454,1,0,0:0:0:0:
320,192,1511538,1,0,0:0:0:0:
64,192,1511621,1,0,0:0:0:0:
192,192,1511621,1,0,0:0:0:0:
448,192,1511621,1,0,0:0:0:0:
320,192,1511704,1,0,0:0:0:0:
192,192,1511788,1,0,0:0:0:0:
64,192,1511788,1,0,0:0:0:0:
448,192,1511954,1,0,0:0:0:0:
64,192,1511954,1,0,0:0:0:0:
320,192,1511954,1,0,0:0:0:0:
192,192,1512038,1,0,0:0:0:0:
320,192,1512121,1,0,0:0:0:0:
448,192,1512121,1,0,0:0:0:0:
192,192,1512204,1,0,0:0:0:0:
320,192,1512288,1,0,0:0:0:0:
64,192,1512288,1,0,0:0:0:0:
448,192,1512371,1,0,0:0:0:0:
320,192,1512454,1,0,0:0:0:0:
64,192,1512454,1,0,0:0:0:0:
192,192,1512538,1,0,0:0:0:0:
448,192,1512621,1,0,0:0:0:0:
320,192,1512621,1,0,0:0:0:0:
64,192,1512621,1,0,0:0:0:0:
192,192,1512704,1,0,0:0:0:0:
448,192,1512788,1,0,0:0:0:0:
320,192,1512788,1,0,0:0:0:0:
64,192,1512788,1,0,0:0:0:0:
192,192,1512871,1,0,0:0:0:0:
448,192,1512954,1,0,0:0:0:0:
320,192,1512954,1,0,0:0:0:0:
64,192,1512954,1,0,0:0:0:0:
192,192,1513038,1,0,0:0:0:0:
448,192,1513121,1,0,0:0:0:0:
320,192,1513121,1,0,0:0:0:0:
64,192,1513121,1,0,0:0:0:0:
192,192,1513204,1,0,0:0:0:0:
448,192,1513288,1,0,0:0:0:0:
64,192,1513288,1,0,0:0:0:0:
320,192,1513288,1,0,0:0:0:0:
192,192,1513454,1,0,0:0:0:0:
448,192,1513621,1,0,0:0:0:0:
320,192,1513621,1,0,0:0:0:0:
64,192,1513788,1,0,0:0:0:0:
192,192,1513788,1,0,0:0:0:0:
320,192,1513871,1,0,0:0:0:0:
64,192,1513954,1,0,0:0:0:0:
448,192,1513954,1,0,0:0:0:0:
192,192,1513954,1,0,0:0:0:0:
320,192,1514121,1,0,0:0:0:0:
64,192,1514288,1,0,0:0:0:0:
448,192,1514288,1,0,0:0:0:0:
192,192,1514288,1,0,0:0:0:0:
192,192,1514454,1,0,0:0:0:0:
64,192,1514621,1,0,0:0:0:0:
448,192,1514621,1,0,0:0:0:0:
320,192,1514621,1,0,0:0:0:0:
192,192,1514788,1,0,0:0:0:0:
448,192,1514954,1,0,0:0:0:0:
320,192,1514954,1,0,0:0:0:0:
64,192,1515121,1,0,0:0:0:0:
192,192,1515121,1,0,0:0:0:0:
448,192,1515288,1,0,0:0:0:0:
320,192,1515288,1,0,0:0:0:0:
192,192,1515454,1,0,0:0:0:0:
64,192,1515621,1,0,0:0:0:0:
448,192,1515621,1,0,0:0:0:0:
192,192,1515621,1,0,0:0:0:0:
320,192,1515788,1,0,0:0:0:0:
64,192,1515954,1,0,0:0:0:0:
192,192,1515954,1,0,0:0:0:0:
448,192,1515954,1,0,0:0:0:0:
64,192,1516121,1,0,0:0:0:0:
448,192,1516288,1,0,0:0:0:0:
192,192,1516288,1,0,0:0:0:0:
320,192,1516288,1,0,0:0:0:0:
192,192,1516454,1,0,0:0:0:0:
64,192,1516621,1,0,0:0:0:0:
448,192,1516621,1,0,0:0:0:0:
320,192,1516621,1,0,0:0:0:0:
448,192,1516788,1,0,0:0:0:0:
64,192,1516954,1,0,0:0:0:0:
192,192,1516954,1,0,0:0:0:0:
320,192,1516954,1,0,0:0:0:0:
320,192,1517121,1,0,0:0:0:0:
64,192,1517288,1,0,0:0:0:0:
448,192,1517288,1,0,0:0:0:0:
192,192,1517288,1,0,0:0:0:0:
64,192,1517454,1,0,0:0:0:0:
448,192,1517621,1,0,0:0:0:0:
192,192,1517621,1,0,0:0:0:0:
320,192,1517621,1,0,0:0:0:0:
192,192,1517788,1,0,0:0:0:0:
64,192,1517954,1,0,0:0:0:0:
448,192,1517954,1,0,0:0:0:0:
320,192,1517954,1,0,0:0:0:0:
320,192,1518121,1,0,0:0:0:0:
448,192,1518288,1,0,0:0:0:0:
320,192,1518288,1,0,0:0:0:0:
64,192,1518288,1,0,0:0:0:0:
448,192,1518454,1,0,0:0:0:0:
320,192,1518454,1,0,0:0:0:0:
448,192,1518621,1,0,0:0:0:0:
192,192,1518621,1,0,0:0:0:0:
320,192,1518621,1,0,0:0:0:0:
64,192,1518788,1,0,0:0:0:0:
64,192,1518954,1,0,0:0:0:0:
192,192,1518954,1,0,0:0:0:0:
320,192,1519121,1,0,0:0:0:0:
320,192,1519288,1,0,0:0:0:0:
448,192,1519288,1,0,0:0:0:0:
64,192,1519288,1,0,0:0:0:0:
192,192,1519454,1,0,0:0:0:0:
448,192,1519621,1,0,0:0:0:0:
320,192,1519621,1,0,0:0:0:0:
192,192,1519788,1,0,0:0:0:0:
64,192,1519954,1,0,0:0:0:0:
448,192,1519954,1,0,0:0:0:0:
320,192,1519954,1,0,0:0:0:0:
192,192,1520038,1,0,0:0:0:0:
320,192,1520121,1,0,0:0:0:0:
448,192,1520121,1,0,0:0:0:0:
192,192,1520204,1,0,0:0:0:0:
64,192,1520288,1,0,0:0:0:0:
448,192,1520288,1,0,0:0:0:0:
320,192,1520371,1,0,0:0:0:0:
192,192,1520454,1,0,0:0:0:0:
64,192,1520454,1,0,0:0:0:0:
320,192,1520538,1,0,0:0:0:0:
64,192,1520621,1,0,0:0:0:0:
448,192,1520621,1,0,0:0:0:0:
192,192,1520621,1,0,0:0:0:0:
320,192,1520704,1,0,0:0:0:0:
448,192,1520788,1,0,0:0:0:0:
64,192,1520788,1,0,0:0:0:0:
192,192,1520871,1,0,0:0:0:0:
64,192,1520954,1,0,0:0:0:0:
448,192,1520954,1,0,0:0:0:0:
320,192,1520954,1,0,0:0:0:0:
192,192,1521038,1,0,0:0:0:0:
448,192,1521121,1,0,0:0:0:0:
64,192,1521121,1,0,0:0:0:0:
320,192,1521204,1,0,0:0:0:0:
64,192,1521288,1,0,0:0:0:0:
448,192,1521288,1,0,0:0:0:0:
192,192,1521288,1,0,0:0:0:0:
320,192,1521371,1,0,0:0:0:0:
448,192,1521454,1,0,0:0:0:0:
64,192,1521454,1,0,0:0:0:0:
192,192,1521538,1,0,0:0:0:0:
448,192,1521621,1,0,0:0:0:0:
320,192,1521621,1,0,0:0:0:0:
192,192,1521704,1,0,0:0:0:0:
448,192,1521788,1,0,0:0:0:0:
64,192,1521788,1,0,0:0:0:0:
320,192,1521871,1,0,0:0:0:0:
64,192,1521954,1,0,0:0:0:0:
192,192,1521954,1,0,0:0:0:0:
320,192,1522038,1,0,0:0:0:0:
448,192,1522121,1,0,0:0:0:0:
64,192,1522121,1,0,0:0:0:0:
192,192,1522204,1,0,0:0:0:0:
448,192,1522288,1,0,0:0:0:0:
320,192,1522288,1,0,0:0:0:0:
192,192,1522371,1,0,0:0:0:0:
448,192,1522454,1,0,0:0:0:0:
64,192,1522454,1,0,0:0:0:0:
320,192,1522538,1,0,0:0:0:0:
64,192,1522621,1,0,0:0:0:0:
192,192,1522621,1,0,0:0:0:0:
320,192,1522704,1,0,0:0:0:0:
448,192,1522788,1,0,0:0:0:0:
192,192,1522788,1,0,0:0:0:0:
64,192,1522871,1,0,0:0:0:0:
192,192,1522954,1,0,0:0:0:0:
320,192,1522954,1,0,0:0:0:0:
448,192,1523038,1,0,0:0:0:0:
320,192,1523121,1,0,0:0:0:0:
64,192,1523121,1,0,0:0:0:0:
192,192,1523204,1,0,0:0:0:0:
64,192,1523288,1,0,0:0:0:0:
192,192,1523329,1,0,0:0:0:0:
320,192,1523371,1,0,0:0:0:0:
448,192,1523413,1,0,0:0:0:0:
64,192,1523454,1,0,0:0:0:0:
192,192,1523496,1,0,0:0:0:0:
320,192,1523538,1,0,0:0:0:0:
448,192,1523579,1,0,0:0:0:0:
64,192,1523621,1,0,0:0:0:0:
192,192,1523663,1,0,0:0:0:0:
320,192,1523704,1,0,0:0:0:0:
448,192,1523746,1,0,0:0:0:0:
64,192,1523788,1,0,0:0:0:0:
192,192,1523829,1,0,0:0:0:0:
320,192,1523871,1,0,0:0:0:0:
448,192,1523913,1,0,0:0:0:0:
64,192,1523954,1,0,0:0:0:0:
192,192,1523954,1,0,0:0:0:0:
192,192,1524204,1,0,0:0:0:0:
320,192,1524288,1,0,0:0:0:0:
448,192,1524454,1,0,0:0:0:0:
64,192,1524454,1,0,0:0:0:0:
320,192,1524538,1,0,0:0:0:0:
192,192,1524538,1,0,0:0:0:0:
448,192,1524621,1,0,0:0:0:0:
64,192,1524621,1,0,0:0:0:0:
448,192,1524788,1,0,0:0:0:0:
192,192,1524871,1,0,0:0:0:0:
64,192,1524954,1,0,0:0:0:0:
320,192,1524954,1,0,0:0:0:0:
448,192,1524954,1,0,0:0:0:0:
192,192,1525121,1,0,0:0:0:0:
448,192,1525121,1,0,0:0:0:0:
448,192,1525288,1,0,0:0:0:0:
64,192,1525288,1,0,0:0:0:0:
192,192,1525288,1,0,0:0:0:0:
320,192,1525621,1,0,0:0:0:0:
448,192,1525788,1,0,0:0:0:0:
320,192,1525871,1,0,0:0:0:0:
64,192,1525954,1,0,0:0:0:0:
448,192,1525954,1,0,0:0:0:0:
192,192,1525954,1,0,0:0:0:0:
448,192,1526121,1,0,0:0:0:0:
64,192,1526121,1,0,0:0:0:0:
192,192,1526288,1,0,0:0:0:0:
448,192,1526288,1,0,0:0:0:0:
320,192,1526288,1,0,0:0:0:0:
448,192,1526454,1,0,0:0:0:0:
320,192,1526454,1,0,0:0:0:0:
64,192,1526621,1,0,0:0:0:0:
320,192,1526621,1,0,0:0:0:0:
448,192,1526621,1,0,0:0:0:0:
192,192,1526788,1,0,0:0:0:0:
448,192,1526788,1,0,0:0:0:0:
320,192,1526871,1,0,0:0:0:0:
64,192,1526871,1,0,0:0:0:0:
448,192,1526954,1,0,0:0:0:0:
192,192,1526954,1,0,0:0:0:0:
448,192,1527121,1,0,0:0:0:0:
320,192,1527204,1,0,0:0:0:0:
192,192,1527288,1,0,0:0:0:0:
320,192,1527454,1,0,0:0:0:0:
64,192,1527454,1,0,0:0:0:0:
448,192,1527538,1,0,0:0:0:0:
192,192,1527621,1,0,0:0:0:0:
64,192,1527621,1,0,0:0:0:0:
320,192,1527621,1,0,0:0:0:0:
320,192,1527788,1,0,0:0:0:0:
192,192,1527788,1,0,0:0:0:0:
448,192,1527954,1,0,0:0:0:0:
64,192,1527954,1,0,0:0:0:0:
320,192,1528288,1,0,0:0:0:0:
192,192,1528454,1,0,0:0:0:0:
320,192,1528538,1,0,0:0:0:0:
64,192,1528621,1,0,0:0:0:0:
448,192,1528621,1,0,0:0:0:0:
192,192,1528621,1,0,0:0:0:0:
448,192,1528732,1,0,0:0:0:0:
192,192,1528732,1,0,0:0:0:0:
448,192,1528843,1,0,0:0:0:0:
192,192,1528843,1,0,0:0:0:0:
320,192,1528954,1,0,0:0:0:0:
448,192,1528954,1,0,0:0:0:0:
448,192,1529065,1,0,0:0:0:0:
320,192,1529065,1,0,0:0:0:0:
448,192,1529176,1,0,0:0:0:0:
320,192,1529176,1,0,0:0:0:0:
64,192,1529288,1,0,0:0:0:0:
448,192,1529288,1,0,0:0:0:0:
320,192,1529288,1,0,0:0:0:0:
192,192,1529454,1,0,0:0:0:0:
320,192,1529538,1,0,0:0:0:0:
448,192,1529621,1,0,0:0:0:0:
64,192,1529788,1,0,0:0:0:0:
320,192,1529788,1,0,0:0:0:0:
64,192,1529871,1,0,0:0:0:0:
448,192,1529871,1,0,0:0:0:0:
192,192,1529954,1,0,0:0:0:0:
320,192,1529954,1,0,0:0:0:0:
192,192,1530121,1,0,0:0:0:0:
320,192,1530288,1,0,0:0:0:0:
64,192,1530288,1,0,0:0:0:0:
448,192,1530288,1,0,0:0:0:0:
448,192,1530454,1,0,0:0:0:0:
64,192,1530454,1,0,0:0:0:0:
192,192,1530454,1,0,0:0:0:0:
192,192,1530621,1,0,0:0:0:0:
320,192,1530621,1,0,0:0:0:0:
448,192,1530621,1,0,0:0:0:0:
320,192,1531121,1,0,0:0:0:0:
320,192,1531204,1,0,0:0:0:0:
320,192,1531288,1,0,0:0:0:0:
320,192,1531454,1,0,0:0:0:0:
64,192,1531621,1,0,0:0:0:0:
320,192,1531621,1,0,0:0:0:0:
320,192,1531788,1,0,0:0:0:0:
192,192,1531954,1,0,0:0:0:0:
448,192,1531954,1,0,0:0:0:0:
64,192,1531954,1,0,0:0:0:0:
448,192,1532065,1,0,0:0:0:0:
320,192,1532065,1,0,0:0:0:0:
448,192,1532176,1,0,0:0:0:0:
64,192,1532176,1,0,0:0:0:0:
448,192,1532288,1,0,0:0:0:0:
192,192,1532288,1,0,0:0:0:0:
320,192,1532621,1,0,0:0:0:0:
192,192,1532621,1,0,0:0:0:0:
64,192,1532621,1,0,0:0:0:0:
320,192,1532732,1,0,0:0:0:0:
320,192,1532843,1,0,0:0:0:0:
320,192,1532954,1,0,0:0:0:0:
448,192,1532954,1,0,0:0:0:0:
448,192,1533288,1,0,0:0:0:0:
64,192,1533288,1,0,0:0:0:0:
192,192,1533288,1,0,0:0:0:0:
192,192,1533399,1,0,0:0:0:0:
192,192,1533510,1,0,0:0:0:0:
192,192,1533621,1,0,0:0:0:0:
320,192,1533621,1,0,0:0:0:0:
192,192,1533954,1,0,0:0:0:0:
320,192,1533954,1,0,0:0:0:0:
64,192,1533954,1,0,0:0:0:0:
64,192,1534065,1,0,0:0:0:0:
64,192,1534176,1,0,0:0:0:0:
320,192,1534288,1,0,0:0:0:0:
64,192,1534288,1,0,0:0:0:0:
192,192,1534371,1,0,0:0:0:0:
448,192,1534371,1,0,0:0:0:0:
320,192,1534454,1,0,0:0:0:0:
64,192,1534454,1,0,0:0:0:0:
448,192,1534538,1,0,0:0:0:0:
192,192,1534538,1,0,0:0:0:0:
64,192,1534621,128,0,1535121:0:0:0:0:
320,192,1534621,1,0,0:0:0:0:
320,192,1534788,1,0,0:0:0:0:
192,192,1535121,128,0,1535621:0:0:0:0:
448,192,1535121,1,0,0:0:0:0:
448,192,1535204,1,0,0:0:0:0:
320,192,1535288,1,0,0:0:0:0:
320,192,1535454,1,0,0:0:0:0:
448,192,1535621,128,0,1535954:0:0:0:0:
64,192,1535621,1,0,0:0:0:0:
64,192,1535788,1,0,0:0:0:0:
320,192,1535954,128,0,1536121:0:0:0:0:
192,192,1535954,1,0,0:0:0:0:
448,192,1536121,128,0,1536454:0:0:0:0:
192,192,1536121,1,0,0:0:0:0:
320,192,1536454,128,0,1536621:0:0:0:0:
192,192,1536454,1,0,0:0:0:0:
192,192,1536538,1,0,0:0:0:0:
64,192,1536621,128,0,1536788:0:0:0:0:
448,192,1536621,1,0,0:0:0:0:
192,192,1536788,128,0,1536954:0:0:0:0:
64,192,1536954,128,0,1537121:0:0:0:0:
448,192,1536954,1,0,0:0:0:0:
320,192,1536954,1,0,0:0:0:0:
320,192,1537121,128,0,1537288:0:0:0:0:
192,192,1537288,128,0,1537788:0:0:0:0:
448,192,1537288,1,0,0:0:0:0:
64,192,1537288,1,0,0:0:0:0:
64,192,1537454,1,0,0:0:0:0:
64,192,1537788,128,0,1538038:0:0:0:0:
448,192,1537788,1,0,0:0:0:0:
448,192,1537871,1,0,0:0:0:0:
320,192,1537954,1,0,0:0:0:0:
192,192,1537954,1,0,0:0:0:0:
64,192,1538121,128,0,1538288:0:0:0:0:
192,192,1538121,1,0,0:0:0:0:
448,192,1538288,128,0,1538454:0:0:0:0:
192,192,1538288,1,0,0:0:0:0:
320,192,1538454,128,0,1538621:0:0:0:0:
192,192,1538454,1,0,0:0:0:0:
192,192,1538621,128,0,1538871:0:0:0:0:
64,192,1538621,1,0,0:0:0:0:
448,192,1538621,1,0,0:0:0:0:
320,192,1538788,1,0,0:0:0:0:
192,192,1538954,128,0,1539121:0:0:0:0:
64,192,1538954,1,0,0:0:0:0:
448,192,1538954,1,0,0:0:0:0:
320,192,1539121,128,0,1539621:0:0:0:0:
448,192,1539121,1,0,0:0:0:0:
64,192,1539288,1,0,0:0:0:0:
192,192,1539454,1,0,0:0:0:0:
448,192,1539621,128,0,1539954:0:0:0:0:
64,192,1539621,1,0,0:0:0:0:
320,192,1539788,1,0,0:0:0:0:
320,192,1539954,128,0,1540704:0:0:0:0:
192,192,1539954,1,0,0:0:0:0:
64,192,1539954,1,0,0:0:0:0:
192,192,1540288,1,0,0:0:0:0:
448,192,1540288,1,0,0:0:0:0:
448,192,1540399,1,0,0:0:0:0:
448,192,1540510,1,0,0:0:0:0:
192,192,1540621,1,0,0:0:0:0:
448,192,1540621,1,0,0:0:0:0:
320,192,1540788,128,0,1540954:0:0:0:0:
192,192,1540954,128,0,1541121:0:0:0:0:
64,192,1540954,1,0,0:0:0:0:
64,192,1541121,128,0,1541288:0:0:0:0:
320,192,1541288,128,0,1542121:0:0:0:0:
448,192,1541288,1,0,0:0:0:0:
192,192,1541288,1,0,0:0:0:0:
448,192,1541621,1,0,0:0:0:0:
64,192,1541621,1,0,0:0:0:0:
64,192,1541732,1,0,0:0:0:0:
64,192,1541843,1,0,0:0:0:0:
448,192,1541954,1,0,0:0:0:0:
64,192,1541954,1,0,0:0:0:0:
448,192,1542121,128,0,1542288:0:0:0:0:
320,192,1542288,128,0,1542454:0:0:0:0:
192,192,1542288,1,0,0:0:0:0:
192,192,1542454,128,0,1542621:0:0:0:0:
64,192,1542621,128,0,1543788:0:0:0:0:
448,192,1542621,1,0,0:0:0:0:
320,192,1542621,128,0,1542788:0:0:0:0:
448,192,1542788,1,0,0:0:0:0:
192,192,1542788,128,0,1542954:0:0:0:0:
448,192,1542954,1,0,0:0:0:0:
320,192,1542954,128,0,1543121:0:0:0:0:
448,192,1543121,1,0,0:0:0:0:
192,192,1543121,128,0,1543288:0:0:0:0:
448,192,1543288,1,0,0:0:0:0:
320,192,1543288,128,0,1543454:0:0:0:0:
448,192,1543454,1,0,0:0:0:0:
192,192,1543454,128,0,1543621:0:0:0:0:
448,192,1543621,1,0,0:0:0:0:
320,192,1543621,128,0,1543788:0:0:0:0:
448,192,1543788,1,0,0:0:0:0:
192,192,1543788,1,0,0:0:0:0:
320,192,1543871,1,0,0:0:0:0:
64,192,1543954,1,0,0:0:0:0:
192,192,1543954,1,0,0:0:0:0:
320,192,1544038,1,0,0:0:0:0:
448,192,1544038,1,0,0:0:0:0:
64,192,1544121,1,0,0:0:0:0:
192,192,1544121,1,0,0:0:0:0:
320,192,1544204,1,0,0:0:0:0:
448,192,1544204,1,0,0:0:0:0:
64,192,1544288,1,0,0:0:0:0:
192,192,1544288,1,0,0:0:0:0:
448,192,1544371,1,0,0:0:0:0:
320,192,1544371,1,0,0:0:0:0:
64,192,1544454,1,0,0:0:0:0:
192,192,1544454,1,0,0:0:0:0:
320,192,1544538,1,0,0:0:0:0:
448,192,1544538,1,0,0:0:0:0:
64,192,1544621,1,0,0:0:0:0:
192,192,1544663,1,0,0:0:0:0:
320,192,1544704,1,0,0:0:0:0:
448,192,1544746,1,0,0:0:0:0:
64,192,1544788,1,0,0:0:0:0:
192,192,1544829,1,0,0:0:0:0:
320,192,1544871,1,0,0:0:0:0:
448,192,1544913,1,0,0:0:0:0:
64,192,1544954,1,0,0:0:0:0:
192,192,1544996,1,0,0:0:0:0:
320,192,1545038,1,0,0:0:0:0:
448,192,1545079,1,0,0:0:0:0:
64,192,1545121,1,0,0:0:0:0:
192,192,1545163,1,0,0:0:0:0:
320,192,1545204,1,0,0:0:0:0:
448,192,1545246,1,0,0:0:0:0:
64,192,1545288,1,0,0:0:0:0:
192,192,1545288,1,0,0:0:0:0:
192,192,1545538,1,0,0:0:0:0:
448,192,1545538,1,0,0:0:0:0:
64,192,1545621,1,0,0:0:0:0:
320,192,1545621,1,0,0:0:0:0:
448,192,1545621,1,0,0:0:0:0:
192,192,1545788,1,0,0:0:0:0:
320,192,1545871,1,0,0:0:0:0:
64,192,1545954,1,0,0:0:0:0:
448,192,1545954,1,0,0:0:0:0:
192,192,1546204,1,0,0:0:0:0:
64,192,1546288,1,0,0:0:0:0:
320,192,1546288,1,0,0:0:0:0:
448,192,1546288,1,0,0:0:0:0:
192,192,1546454,1,0,0:0:0:0:
320,192,1546454,1,0,0:0:0:0:
64,192,1546621,1,0,0:0:0:0:
192,192,1546621,1,0,0:0:0:0:
448,192,1546621,1,0,0:0:0:0:
448,192,1546954,1,0,0:0:0:0:
64,192,1546954,1,0,0:0:0:0:
320,192,1546954,1,0,0:0:0:0:
448,192,1547288,1,0,0:0:0:0:
192,192,1547288,1,0,0:0:0:0:
320,192,1547288,1,0,0:0:0:0:
64,192,1547621,1,0,0:0:0:0:
192,192,1547621,1,0,0:0:0:0:
320,192,1547621,1,0,0:0:0:0:
448,192,1547954,1,0,0:0:0:0:
192,192,1547954,1,0,0:0:0:0:
320,192,1547954,1,0,0:0:0:0:
64,192,1548121,1,0,0:0:0:0:
192,192,1548121,1,0,0:0:0:0:
192,192,1548204,1,0,0:0:0:0:
320,192,1548204,1,0,0:0:0:0:
64,192,1548287,1,0,0:0:0:0:
448,192,1548287,1,0,0:0:0:0:
320,192,1548287,1,0,0:0:0:0:
192,192,1548454,1,0,0:0:0:0:
320,192,1548537,1,0,0:0:0:0:
64,192,1548621,1,0,0:0:0:0:
448,192,1548621,1,0,0:0:0:0:
448,192,1548787,1,0,0:0:0:0:
320,192,1548871,1,0,0:0:0:0:
64,192,1548954,1,0,0:0:0:0:
448,192,1548954,1,0,0:0:0:0:
192,192,1548954,1,0,0:0:0:0:
192,192,1549121,1,0,0:0:0:0:
320,192,1549121,1,0,0:0:0:0:
64,192,1549287,1,0,0:0:0:0:
448,192,1549287,1,0,0:0:0:0:
320,192,1549287,1,0,0:0:0:0:
320,192,1549621,1,0,0:0:0:0:
448,192,1549621,1,0,0:0:0:0:
192,192,1549621,1,0,0:0:0:0:
64,192,1549954,1,0,0:0:0:0:
192,192,1549954,1,0,0:0:0:0:
448,192,1549954,1,0,0:0:0:0:
64,192,1550287,1,0,0:0:0:0:
192,192,1550287,1,0,0:0:0:0:
320,192,1550287,1,0,0:0:0:0:
192,192,1550454,1,0,0:0:0:0:
64,192,1550454,1,0,0:0:0:0:
64,192,1550621,1,0,0:0:0:0:
192,192,1550621,1,0,0:0:0:0:
320,192,1550621,1,0,0:0:0:0:
320,192,1550787,1,0,0:0:0:0:
448,192,1550787,1,0,0:0:0:0:
192,192,1550871,1,0,0:0:0:0:
320,192,1550871,1,0,0:0:0:0:
64,192,1550954,1,0,0:0:0:0:
192,192,1550954,1,0,0:0:0:0:
448,192,1550954,1,0,0:0:0:0:
320,192,1551121,1,0,0:0:0:0:
192,192,1551204,1,0,0:0:0:0:
64,192,1551287,1,0,0:0:0:0:
448,192,1551287,1,0,0:0:0:0:
192,192,1551454,1,0,0:0:0:0:
64,192,1551621,1,0,0:0:0:0:
448,192,1551621,1,0,0:0:0:0:
320,192,1551621,1,0,0:0:0:0:
192,192,1551787,1,0,0:0:0:0:
320,192,1551787,1,0,0:0:0:0:
64,192,1551954,1,0,0:0:0:0:
448,192,1551954,1,0,0:0:0:0:
320,192,1551954,1,0,0:0:0:0:
192,192,1552121,1,0,0:0:0:0:
64,192,1552287,1,0,0:0:0:0:
448,192,1552287,1,0,0:0:0:0:
64,192,1552454,1,0,0:0:0:0:
448,192,1552454,1,0,0:0:0:0:
192,192,1552537,1,0,0:0:0:0:
320,192,1552537,1,0,0:0:0:0:
64,192,1552621,1,0,0:0:0:0:
320,192,1552621,1,0,0:0:0:0:
448,192,1552621,1,0,0:0:0:0:
192,192,1552787,1,0,0:0:0:0:
64,192,1552954,1,0,0:0:0:0:
448,192,1552954,1,0,0:0:0:0:
320,192,1552954,1,0,0:0:0:0:
192,192,1553121,1,0,0:0:0:0:
64,192,1553287,1,0,0:0:0:0:
448,192,1553287,1,0,0:0:0:0:
192,192,1553287,1,0,0:0:0:0:
64,192,1553454,1,0,0:0:0:0:
192,192,1553537,1,0,0:0:0:0:
448,192,1553621,1,0,0:0:0:0:
320,192,1553621,1,0,0:0:0:0:
192,192,1553787,1,0,0:0:0:0:
64,192,1553954,1,0,0:0:0:0:
448,192,1553954,1,0,0:0:0:0:
320,192,1553954,1,0,0:0:0:0:
448,192,1554121,1,0,0:0:0:0:
320,192,1554204,1,0,0:0:0:0:
64,192,1554287,1,0,0:0:0:0:
192,192,1554287,1,0,0:0:0:0:
320,192,1554454,1,0,0:0:0:0:
64,192,1554621,1,0,0:0:0:0:
448,192,1554621,1,0,0:0:0:0:
192,192,1554621,1,0,0:0:0:0:
192,192,1554787,1,0,0:0:0:0:
320,192,1554871,1,0,0:0:0:0:
64,192,1554954,1,0,0:0:0:0:
448,192,1554954,1,0,0:0:0:0:
192,192,1555121,1,0,0:0:0:0:
64,192,1555287,1,0,0:0:0:0:
448,192,1555287,1,0,0:0:0:0:
320,192,1555287,1,0,0:0:0:0:
320,192,1555454,1,0,0:0:0:0:
448,192,1555454,1,0,0:0:0:0:
320,192,1555621,1,0,0:0:0:0:
448,192,1555621,1,0,0:0:0:0:
320,192,1555787,1,0,0:0:0:0:
448,192,1555787,1,0,0:0:0:0:
64,192,1555954,1,0,0:0:0:0:
320,192,1555954,1,0,0:0:0:0:
448,192,1555954,1,0,0:0:0:0:
192,192,1556204,1,0,0:0:0:0:
320,192,1556204,1,0,0:0:0:0:
64,192,1556287,1,0,0:0:0:0:
448,192,1556287,1,0,0:0:0:0:
320,192,1556287,1,0,0:0:0:0:
320,192,1556537,1,0,0:0:0:0:
64,192,1556621,1,0,0:0:0:0:
448,192,1556621,1,0,0:0:0:0:
448,192,1556871,1,0,0:0:0:0:
64,192,1556954,1,0,0:0:0:0:
192,192,1556954,1,0,0:0:0:0:
320,192,1556954,1,0,0:0:0:0:
192,192,1557121,1,0,0:0:0:0:
320,192,1557121,1,0,0:0:0:0:
64,192,1557287,1,0,0:0:0:0:
448,192,1557287,1,0,0:0:0:0:
320,192,1557287,1,0,0:0:0:0:
192,192,1557454,1,0,0:0:0:0:
64,192,1557621,1,0,0:0:0:0:
192,192,1557621,1,0,0:0:0:0:
320,192,1557621,1,0,0:0:0:0:
64,192,1557787,1,0,0:0:0:0:
448,192,1557954,1,0,0:0:0:0:
192,192,1557954,1,0,0:0:0:0:
320,192,1557954,1,0,0:0:0:0:
192,192,1558121,1,0,0:0:0:0:
448,192,1558287,1,0,0:0:0:0:
64,192,1558287,1,0,0:0:0:0:
320,192,1558287,1,0,0:0:0:0:
320,192,1558454,1,0,0:0:0:0:
64,192,1558621,1,0,0:0:0:0:
192,192,1558621,1,0,0:0:0:0:
448,192,1558621,1,0,0:0:0:0:
192,192,1558787,1,0,0:0:0:0:
320,192,1558787,1,0,0:0:0:0:
192,192,1558871,1,0,0:0:0:0:
320,192,1558871,1,0,0:0:0:0:
64,192,1558954,1,0,0:0:0:0:
448,192,1558954,1,0,0:0:0:0:
320,192,1558954,1,0,0:0:0:0:
192,192,1559121,1,0,0:0:0:0:
320,192,1559204,1,0,0:0:0:0:
64,192,1559287,1,0,0:0:0:0:
448,192,1559287,1,0,0:0:0:0:
448,192,1559454,1,0,0:0:0:0:
320,192,1559537,1,0,0:0:0:0:
64,192,1559621,1,0,0:0:0:0:
192,192,1559621,1,0,0:0:0:0:
448,192,1559621,1,0,0:0:0:0:
192,192,1559787,1,0,0:0:0:0:
320,192,1559787,1,0,0:0:0:0:
64,192,1559954,1,0,0:0:0:0:
448,192,1559954,1,0,0:0:0:0:
320,192,1559954,1,0,0:0:0:0:
320,192,1560121,1,0,0:0:0:0:
64,192,1560287,1,0,0:0:0:0:
192,192,1560287,1,0,0:0:0:0:
448,192,1560287,1,0,0:0:0:0:
64,192,1560454,1,0,0:0:0:0:
448,192,1560621,1,0,0:0:0:0:
192,192,1560621,1,0,0:0:0:0:
320,192,1560621,1,0,0:0:0:0:
192,192,1560787,1,0,0:0:0:0:
448,192,1560954,1,0,0:0:0:0:
64,192,1560954,1,0,0:0:0:0:
320,192,1560954,1,0,0:0:0:0:
64,192,1561121,1,0,0:0:0:0:
320,192,1561121,1,0,0:0:0:0:
448,192,1561287,1,0,0:0:0:0:
192,192,1561287,1,0,0:0:0:0:
320,192,1561287,1,0,0:0:0:0:
320,192,1561454,1,0,0:0:0:0:
448,192,1561454,1,0,0:0:0:0:
320,192,1561537,1,0,0:0:0:0:
448,192,1561537,1,0,0:0:0:0:
64,192,1561621,1,0,0:0:0:0:
192,192,1561621,1,0,0:0:0:0:
448,192,1561621,1,0,0:0:0:0:
320,192,1561787,1,0,0:0:0:0:
192,192,1561871,1,0,0:0:0:0:
64,192,1561954,1,0,0:0:0:0:
448,192,1561954,1,0,0:0:0:0:
64,192,1562121,1,0,0:0:0:0:
192,192,1562204,1,0,0:0:0:0:
64,192,1562287,1,0,0:0:0:0:
448,192,1562287,1,0,0:0:0:0:
320,192,1562287,1,0,0:0:0:0:
192,192,1562454,1,0,0:0:0:0:
320,192,1562454,1,0,0:0:0:0:
64,192,1562621,1,0,0:0:0:0:
448,192,1562621,1,0,0:0:0:0:
320,192,1562621,1,0,0:0:0:0:
192,192,1562787,1,0,0:0:0:0:
320,192,1562954,1,0,0:0:0:0:
448,192,1562954,1,0,0:0:0:0:
64,192,1563121,1,0,0:0:0:0:
320,192,1563121,1,0,0:0:0:0:
192,192,1563204,1,0,0:0:0:0:
64,192,1563287,1,0,0:0:0:0:
448,192,1563287,1,0,0:0:0:0:
320,192,1563287,1,0,0:0:0:0:
192,192,1563454,1,0,0:0:0:0:
64,192,1563621,1,0,0:0:0:0:
320,192,1563621,1,0,0:0:0:0:
448,192,1563621,1,0,0:0:0:0:
192,192,1563787,1,0,0:0:0:0:
448,192,1563954,1,0,0:0:0:0:
64,192,1563954,1,0,0:0:0:0:
320,192,1563954,1,0,0:0:0:0:
448,192,1564121,1,0,0:0:0:0:
320,192,1564121,1,0,0:0:0:0:
320,192,1564204,1,0,0:0:0:0:
192,192,1564204,1,0,0:0:0:0:
64,192,1564287,1,0,0:0:0:0:
192,192,1564287,1,0,0:0:0:0:
448,192,1564287,1,0,0:0:0:0:
448,192,1564454,1,0,0:0:0:0:
320,192,1564537,1,0,0:0:0:0:
64,192,1564621,1,0,0:0:0:0:
192,192,1564621,1,0,0:0:0:0:
448,192,1564621,1,0,0:0:0:0:
448,192,1564787,1,0,0:0:0:0:
320,192,1564871,1,0,0:0:0:0:
64,192,1564954,1,0,0:0:0:0:
192,192,1564954,1,0,0:0:0:0:
448,192,1565121,1,0,0:0:0:0:
320,192,1565204,1,0,0:0:0:0:
64,192,1565287,1,0,0:0:0:0:
192,192,1565287,1,0,0:0:0:0:
448,192,1565287,1,0,0:0:0:0:
448,192,1565454,1,0,0:0:0:0:
64,192,1565454,1,0,0:0:0:0:
320,192,1565537,1,0,0:0:0:0:
192,192,1565537,1,0,0:0:0:0:
448,192,1565621,1,0,0:0:0:0:
320,192,1565621,1,0,0:0:0:0:
64,192,1565621,1,0,0:0:0:0:
192,192,1565704,1,0,0:0:0:0:
320,192,1565787,1,0,0:0:0:0:
64,192,1565787,1,0,0:0:0:0:
448,192,1565871,1,0,0:0:0:0:
192,192,1565871,1,0,0:0:0:0:
64,192,1565954,1,0,0:0:0:0:
448,192,1565954,1,0,0:0:0:0:
320,192,1565954,1,0,0:0:0:0:
320,192,1566121,1,0,0:0:0:0:
448,192,1566121,1,0,0:0:0:0:
64,192,1566287,1,0,0:0:0:0:
192,192,1566287,1,0,0:0:0:0:
320,192,1566454,1,0,0:0:0:0:
448,192,1566454,1,0,0:0:0:0:
64,192,1566621,1,0,0:0:0:0:
192,192,1566621,1,0,0:0:0:0:
320,192,1566621,128,0,1566787:0:0:0:0:
448,192,1566621,1,0,0:0:0:0:
448,192,1566787,128,0,1566954:0:0:0:0:
192,192,1566787,1,0,0:0:0:0:
64,192,1566954,1,0,0:0:0:0:
192,192,1566954,128,0,1567954:0:0:0:0:
320,192,1566954,1,0,0:0:0:0:
448,192,1567121,1,0,0:0:0:0:
64,192,1567287,1,0,0:0:0:0:
320,192,1567287,1,0,0:0:0:0:
448,192,1567454,1,0,0:0:0:0:
64,192,1567621,1,0,0:0:0:0:
320,192,1567621,1,0,0:0:0:0:
448,192,1567787,1,0,0:0:0:0:
64,192,1567954,1,0,0:0:0:0:
320,192,1567954,1,0,0:0:0:0:
192,192,1568121,128,0,1568287:0:0:0:0:
448,192,1568121,1,0,0:0:0:0:
64,192,1568287,1,0,0:0:0:0:
320,192,1568287,128,0,1568454:0:0:0:0:
448,192,1568287,1,0,0:0:0:0:
448,192,1568454,128,0,1568621:0:0:0:0:
192,192,1568454,1,0,0:0:0:0:
320,192,1568621,1,0,0:0:0:0:
64,192,1568621,128,0,1568787:0:0:0:0:
192,192,1568621,1,0,0:0:0:0:
192,192,1568787,128,0,1568954:0:0:0:0:
448,192,1568787,1,0,0:0:0:0:
64,192,1568954,1,0,0:0:0:0:
320,192,1568954,128,0,1569121:0:0:0:0:
448,192,1568954,1,0,0:0:0:0:
448,192,1569121,128,0,1569287:0:0:0:0:
192,192,1569121,1,0,0:0:0:0:
64,192,1569287,1,0,0:0:0:0:
192,192,1569287,128,0,1569454:0:0:0:0:
320,192,1569287,1,0,0:0:0:0:
320,192,1569454,128,0,1569621:0:0:0:0:
448,192,1569454,1,0,0:0:0:0:
64,192,1569621,1,0,0:0:0:0:
448,192,1569621,128,0,1569787:0:0:0:0:
192,192,1569621,1,0,0:0:0:0:
192,192,1569787,128,0,1569954:0:0:0:0:
320,192,1569787,1,0,0:0:0:0:
64,192,1569954,1,0,0:0:0:0:
320,192,1569954,128,0,1570121:0:0:0:0:
448,192,1569954,1,0,0:0:0:0:
448,192,1570121,128,0,1570621:0:0:0:0:
192,192,1570121,1,0,0:0:0:0:
64,192,1570287,1,0,0:0:0:0:
192,192,1570287,1,0,0:0:0:0:
320,192,1570454,1,0,0:0:0:0:
64,192,1570621,1,0,0:0:0:0:
192,192,1570621,128,0,1570787:0:0:0:0:
320,192,1570621,1,0,0:0:0:0:
448,192,1570787,128,0,1570871:0:0:0:0:
64,192,1570787,1,0,0:0:0:0:
320,192,1570871,128,0,1570954:0:0:0:0:
64,192,1570954,1,0,0:0:0:0:
192,192,1570954,128,0,1571037:0:0:0:0:
448,192,1570954,1,0,0:0:0:0:
64,192,1571121,128,0,1571204:0:0:0:0:
448,192,1571121,1,0,0:0:0:0:
192,192,1571204,128,0,1571287:0:0:0:0:
64,192,1571287,1,0,0:0:0:0:
320,192,1571287,128,0,1571371:0:0:0:0:
448,192,1571287,1,0,0:0:0:0:
192,192,1571454,128,0,1571537:0:0:0:0:
448,192,1571454,1,0,0:0:0:0:
320,192,1571537,128,0,1571621:0:0:0:0:
64,192,1571621,1,0,0:0:0:0:
448,192,1571621,128,0,1571704:0:0:0:0:
192,192,1571621,1,0,0:0:0:0:
64,192,1571787,1,0,0:0:0:0:
192,192,1571787,128,0,1571871:0:0:0:0:
448,192,1571787,1,0,0:0:0:0:
320,192,1571871,128,0,1571954:0:0:0:0:
64,192,1571954,1,0,0:0:0:0:
448,192,1571954,128,0,1572621:0:0:0:0:
192,192,1571954,1,0,0:0:0:0:
320,192,1572121,1,0,0:0:0:0:
64,192,1572287,1,0,0:0:0:0:
192,192,1572287,1,0,0:0:0:0:
320,192,1572454,1,0,0:0:0:0:
64,192,1572621,1,0,0:0:0:0:
192,192,1572621,1,0,0:0:0:0:
448,192,1572787,128,0,1572954:0:0:0:0:
320,192,1572787,1,0,0:0:0:0:
64,192,1572954,1,0,0:0:0:0:
320,192,1572954,128,0,1573121:0:0:0:0:
192,192,1572954,1,0,0:0:0:0:
192,192,1573121,128,0,1573204:0:0:0:0:
448,192,1573121,1,0,0:0:0:0:
320,192,1573204,128,0,1573287:0:0:0:0:
64,192,1573287,1,0,0:0:0:0:
448,192,1573287,128,0,1573621:0:0:0:0:
192,192,1573454,1,0,0:0:0:0:
64,192,1573621,1,0,0:0:0:0:
320,192,1573621,128,0,1573954:0:0:0:0:
192,192,1573787,1,0,0:0:0:0:
64,192,1573954,1,0,0:0:0:0:
448,192,1573954,128,0,1574176:0:0:0:0:
192,192,1574121,1,0,0:0:0:0:
320,192,1574176,128,0,1574399:0:0:0:0:
64,192,1574287,1,0,0:0:0:0:
192,192,1574399,128,0,1574621:0:0:0:0:
448,192,1574621,1,0,0:0:0:0:
64,192,1574621,128,0,1574704:0:0:0:0:
320,192,1574621,1,0,0:0:0:0:
448,192,1574787,128,0,1574871:0:0:0:0:
192,192,1574787,1,0,0:0:0:0:
320,192,1574871,128,0,1574954:0:0:0:0:
64,192,1574954,1,0,0:0:0:0:
192,192,1574954,128,0,1575037:0:0:0:0:
448,192,1574954,1,0,0:0:0:0:
320,192,1575121,1,0,0:0:0:0:
64,192,1575287,1,0,0:0:0:0:
192,192,1575287,128,0,1575371:0:0:0:0:
320,192,1575287,1,0,0:0:0:0:
320,192,1575454,128,0,1575537:0:0:0:0:
448,192,1575454,1,0,0:0:0:0:
192,192,1575537,128,0,1575621:0:0:0:0:
320,192,1575621,1,0,0:0:0:0:
64,192,1575621,128,0,1575704:0:0:0:0:
448,192,1575621,1,0,0:0:0:0:
320,192,1575787,1,0,0:0:0:0:
192,192,1575954,1,0,0:0:0:0:
320,192,1575954,128,0,1576037:0:0:0:0:
448,192,1575954,1,0,0:0:0:0:
64,192,1576121,128,0,1576204:0:0:0:0:
448,192,1576121,1,0,0:0:0:0:
192,192,1576204,128,0,1576287:0:0:0:0:
64,192,1576287,1,0,0:0:0:0:
320,192,1576287,128,0,1576371:0:0:0:0:
448,192,1576287,1,0,0:0:0:0:
192,192,1576454,128,0,1576537:0:0:0:0:
448,192,1576454,1,0,0:0:0:0:
320,192,1576537,128,0,1576621:0:0:0:0:
64,192,1576621,1,0,0:0:0:0:
448,192,1576621,128,0,1577121:0:0:0:0:
192,192,1576621,1,0,0:0:0:0:
64,192,1576787,1,0,0:0:0:0:
192,192,1576787,1,0,0:0:0:0:
64,192,1576954,1,0,0:0:0:0:
192,192,1576954,1,0,0:0:0:0:
64,192,1577121,1,0,0:0:0:0:
192,192,1577121,1,0,0:0:0:0:
64,192,1577287,1,0,0:0:0:0:
192,192,1577287,1,0,0:0:0:0:
448,192,1577287,1,0,0:0:0:0:
320,192,1577287,1,0,0:0:0:0:
