osu file format v14

[General]
AudioFilename: medley.mp3
AudioLeadIn: 2000
PreviewTime: 774
Countdown: 0
SampleSet: Normal
StackLeniency: 0.7
Mode: 3
LetterboxInBreaks: 0
SpecialStyle: 0
WidescreenStoryboard: 1

[Editor]
Bookmarks: 96674,199621,320884,408893,412093,487521,573235,580253,672073,704073,761673,787273,898706,1047336,1058436,1094446,1110446,1154446,1227446,1233106,1299872,1433288,1577289
DistanceSpacing: 1.5
BeatDivisor: 4
GridSize: 4
TimelineZoom: 0.1

[Metadata]
Title:THE MEDLEY OF POKEMON RGBY+GSC -3PBs-
TitleUnicode:THE MEDLEY OF POKéMON RGBY+GSC -3PBs-
Artist:hapi
ArtistUnicode:hapi⇒
Creator:pikechu
Version:The 5th Part
Source:Pokémon
Tags:remix red green blue gold silver crystal vocaloid master ntd03 golden sun pikachu raichu pichu nintendo gamefreak gb gba hapinano
BeatmapID:1911703
BeatmapSetID:908046

[Difficulty]
HPDrainRate:8
CircleSize:4
OverallDifficulty:8
ApproachRate:9
SliderMultiplier:1.6
SliderTickRate:1

[Events]
//Background and Video events
0,0,"background.jpg",0,0
//Break Periods
2,1227746,1232606
//Storyboard Layer 0 (Background)
//Storyboard Layer 1 (Fail)
//Storyboard Layer 2 (Pass)
//Storyboard Layer 3 (Foreground)
//Storyboard Sound Samples

[TimingPoints]
1406,315.789473684211,4,2,1,40,1,0
7721,-100,4,2,1,40,0,0
7800,-100,4,2,3,40,0,0
12774,-133.333333333333,4,2,2,40,0,0
12853,-80,4,2,2,40,0,0
12932,-100,4,2,2,40,0,0
13090,-133.333333333333,4,2,2,40,0,0
13169,-80,4,2,2,40,0,0
13248,-100,4,2,2,40,0,0
13406,-133.333333333333,4,2,2,40,0,0
13485,-80,4,2,2,40,0,0
13564,-100,4,2,2,40,0,0
13721,-133.333333333333,4,2,2,40,0,0
13800,-80,4,2,2,40,0,0
13879,-100,4,2,2,40,0,0
14037,-133.333333333333,4,2,2,40,0,0
14116,-80,4,2,2,40,0,0
14195,-100,4,2,2,40,0,0
14353,-133.333333333333,4,2,2,40,0,0
14432,-80,4,2,2,40,0,0
14511,-100,4,2,2,40,0,0
14669,-133.333333333333,4,2,2,40,0,0
14748,-80,4,2,2,40,0,0
14827,-133.333333333333,4,2,2,40,0,0
14906,-80,4,2,2,40,0,0
14984,-133.333333333333,4,2,2,40,0,0
15063,-80,4,2,2,40,0,0
15142,-100,4,2,2,40,0,0
15300,-133.333333333333,4,2,2,40,0,0
15379,-80,4,2,2,40,0,0
15458,-100,4,2,2,40,0,0
15616,-133.333333333333,4,2,2,40,0,0
15695,-80,4,2,2,40,0,0
15774,-100,4,2,2,40,0,0
15932,-133.333333333333,4,2,2,40,0,0
16011,-80,4,2,2,40,0,0
16090,-100,4,2,2,40,0,0
16248,-133.333333333333,4,2,2,40,0,0
16327,-80,4,2,2,40,0,0
16406,-100,4,2,2,40,0,0
16563,-133.333333333333,4,2,2,40,0,0
16642,-80,4,2,2,40,0,0
16721,-100,4,2,2,40,0,0
16879,-133.333333333333,4,2,2,40,0,0
16958,-80,4,2,2,40,0,0
17037,-133.333333333333,4,2,2,40,0,0
17116,-80,4,2,2,40,0,0
17194,-133.333333333333,4,2,2,40,0,0
17273,-80,4,2,2,40,0,0
17352,-100,4,2,2,40,0,0
17511,-133.333333333333,4,2,2,40,0,0
17590,-80,4,2,2,40,0,0
17669,-100,4,2,2,40,0,0
17827,-133.333333333333,4,2,2,40,0,0
17906,-80,4,2,2,40,0,0
17985,-100,4,2,2,40,0,0
18142,-133.333333333333,4,2,2,40,0,0
18221,-80,4,2,2,40,0,0
18300,-100,4,2,2,40,0,0
18458,-133.333333333333,4,2,2,40,0,0
18537,-80,4,2,2,40,0,0
18616,-100,4,2,2,40,0,0
18774,-133.333333333333,4,2,2,40,0,0
18853,-80,4,2,2,40,0,0
18932,-100,4,2,2,40,0,0
19090,-133.333333333333,4,2,2,40,0,0
19169,-80,4,2,2,40,0,0
19248,-100,4,2,2,40,0,0
19406,-133.333333333333,4,2,2,40,0,0
19485,-80,4,2,2,40,0,0
19564,-100,4,2,2,40,0,0
19721,-133.333333333333,4,2,2,40,0,0
19800,-80,4,2,2,40,0,0
19879,-133.333333333333,4,2,2,40,0,0
19958,-80,4,2,2,40,0,0
20036,-133.333333333333,4,2,2,40,0,0
20115,-80,4,2,2,40,0,0
20194,-100,4,2,2,40,0,0
20353,-133.333333333333,4,2,2,40,0,0
20432,-80,4,2,2,40,0,0
20511,-100,4,2,2,40,0,0
20669,-133.333333333333,4,2,2,40,0,0
20748,-80,4,2,2,40,0,0
20827,-100,4,2,2,40,0,0
20984,-133.333333333333,4,2,2,40,0,0
21063,-80,4,2,2,40,0,0
21142,-100,4,2,2,40,0,0
21300,-133.333333333333,4,2,2,40,0,0
21379,-80,4,2,2,40,0,0
21458,-100,4,2,2,40,0,0
21616,-133.333333333333,4,2,2,40,0,0
21695,-80,4,2,2,40,0,0
21774,-100,4,2,2,40,0,0
21932,-133.333333333333,4,2,2,40,0,0
22011,-80,4,2,2,40,0,0
22090,-133.333333333333,4,2,2,40,0,0
22169,-80,4,2,2,40,0,0
22247,-133.333333333333,4,2,2,40,0,0
22326,-80,4,2,2,40,0,0
22405,-100,4,2,2,40,0,0
22563,-133.333333333333,4,2,2,40,0,0
22642,-80,4,2,2,40,0,0
22721,-100,4,2,2,40,0,0
22879,-133.333333333333,4,2,2,40,0,0
22958,-80,4,2,2,40,0,0
23037,-100,4,2,2,40,0,0
23195,-133.333333333333,4,2,2,40,0,0
23274,-80,4,2,2,40,0,0
23353,-100,4,2,2,40,0,0
23511,-133.333333333333,4,2,2,40,0,0
23590,-80,4,2,2,40,0,0
23669,-100,4,2,2,40,0,0
25090,-133.333333333333,4,2,2,40,0,0
25169,-80,4,2,2,40,0,0
25248,-100,4,2,2,40,0,0
25405,-100,4,2,3,40,0,0
25484,-100,4,2,1,40,0,0
30458,-100,4,2,1,40,0,0
35511,-100,4,2,1,40,0,0
37406,-100,4,2,2,40,0,0
37721,-100,4,2,1,40,0,0
39616,-100,4,2,2,40,0,0
40011,-100,4,2,1,40,0,0
42458,-100,4,2,2,40,0,0
42853,-100,4,2,1,40,0,0
44669,-100,4,2,2,40,0,0
45063,-100,4,2,1,40,0,0
47511,-100,4,2,2,40,0,0
47906,-100,4,2,1,40,0,0
49721,-100,4,2,2,40,0,0
50116,-100,4,2,1,40,0,0
52563,-100,4,2,2,40,0,0
52958,-100,4,2,1,40,0,0
55090,-100,4,2,2,40,0,0
55800,-100,4,2,1,40,0,0
57616,-100,4,2,2,40,0,0
57932,-100,4,2,1,40,0,0
59511,-100,4,2,2,40,0,0
60537,-100,4,2,1,40,0,0
61406,-100,4,2,2,40,0,0
61563,-100,4,2,1,40,0,0
63932,-100,4,2,2,40,0,0
64090,-100,4,2,1,40,0,0
65195,-100,4,2,2,40,0,0
65353,-100,4,2,1,40,0,0
65511,-100,4,2,2,40,0,0
65827,-100,4,2,2,40,0,0
69616,-100,4,2,1,40,0,0
70879,-100,4,2,2,40,0,0
75932,-100,4,2,1,40,0,0
77827,-100,4,2,2,40,0,0
78221,-100,4,2,1,40,0,0
80195,-100,4,2,2,40,0,0
80511,-100,4,2,1,40,0,0
82879,-100,4,2,2,40,0,0
83195,-100,4,2,1,40,0,0
84774,-100,4,2,2,40,0,0
86037,-100,4,2,1,40,0,0
90300,-100,4,2,2,40,0,0
90616,-100,4,2,1,40,0,0
92984,-100,4,2,2,40,0,0
93300,-100,4,2,1,40,0,0
94879,-100,4,2,2,40,0,0
95984,-83.3333333333333,4,2,2,40,0,0
96063,-133.333333333333,4,2,2,40,0,0
96142,-83.3333333333333,4,2,2,40,0,0
96221,-133.333333333333,4,2,2,40,0,0
96300,-83.3333333333333,4,2,2,40,0,0
96379,-133.333333333333,4,2,2,40,0,0
96458,-83.3333333333333,4,2,2,40,0,0
96537,-133.333333333333,4,2,2,40,0,0
96616,-83.3333333333333,4,2,2,40,0,0
96695,-133.333333333333,4,2,2,40,0,0
96774,-100,4,2,2,40,0,0
106090,-133.333333333333,4,2,2,40,0,0
106169,-76.9230769230769,4,2,2,40,0,0
106248,-133.333333333333,4,2,2,40,0,0
106406,-76.9230769230769,4,2,2,40,0,0
106563,-133.333333333333,4,2,2,40,0,0
106721,-76.9230769230769,4,2,2,40,0,0
106879,-100,4,2,2,40,0,0
107195,-100,4,2,1,40,0,0
107511,-100,4,2,3,40,0,0
107590,-100,4,2,1,40,0,0
117300,-100,4,2,2,40,0,0
117616,-100,4,2,1,40,0,0
119511,-100,4,2,2,40,0,0
119906,-100,4,2,1,40,0,0
121879,-100,4,2,2,40,0,0
122195,-100,4,2,1,40,0,0
124563,-100,4,2,2,40,0,0
124958,-100,4,2,1,40,0,0
126142,-100,4,2,2,40,0,0
127721,-100,4,2,1,40,0,0
129616,-100,4,2,2,40,0,0
130011,-100,4,2,1,40,0,0
131827,-100,4,2,2,40,0,0
132221,-100,4,2,1,40,0,0
134669,-100,4,2,2,40,0,0
135063,-100,4,2,1,40,0,0
136563,-100,4,2,2,40,0,0
137827,-100,4,2,3,40,0,0
137984,-100,4,2,1,40,0,0
139721,-100,4,2,2,40,0,0
140037,-100,4,2,1,40,0,0
141932,-100,4,2,2,40,0,0
142327,-100,4,2,1,40,0,0
144774,-100,4,2,2,40,0,0
145090,-100,4,2,1,40,0,0
146827,-100,4,2,2,40,0,0
147616,-100,4,2,1,40,0,0
149827,-100,4,2,2,40,0,0
150221,-100,4,2,1,40,0,0
152353,-100,4,2,2,40,0,0
152827,-100,4,2,1,40,0,0
158037,-100,4,2,3,40,0,0
158116,-100,4,2,1,40,0,0
159932,-100,4,2,2,40,0,0
160406,-100,4,2,1,40,0,0
162142,-100,4,2,2,40,0,0
162537,-100,4,2,1,40,0,0
164984,-100,4,2,2,40,0,0
165300,-100,4,2,1,40,0,0
166879,-100,4,2,2,40,0,0
168063,-100,4,2,1,40,0,0
170037,-100,4,2,2,40,0,0
170353,-100,4,2,1,40,0,0
172248,-100,4,2,2,40,0,0
172642,-100,4,2,1,40,0,0
175090,-100,4,2,2,40,0,0
175406,-100,4,2,1,40,0,0
176984,-100,4,2,2,40,0,0
177300,-100,4,2,1,40,0,0
177379,-100,4,2,2,40,0,0
177616,-100,4,2,2,40,0,0
177932,-100,4,2,1,40,0,0
178011,-100,4,2,2,40,0,0
178090,-100,4,2,1,40,0,0
178248,-100,4,2,3,40,0,0
178327,-100,4,2,1,40,0,0
180142,-100,4,2,2,40,0,0
180300,-100,4,2,1,40,0,0
182511,-100,4,2,2,40,0,0
182827,-100,4,2,2,40,0,0
183142,-100,4,2,1,40,0,0
185195,-100,4,2,2,40,0,0
185590,-100,4,2,1,40,0,0
187090,-100,4,2,2,40,0,0
188353,-100,4,2,1,40,0,0
188432,-100,4,2,2,40,0,0
189616,-100,4,2,1,40,0,0
189695,-100,4,2,2,40,0,0
190879,-100,4,2,1,40,0,0
190958,-100,4,2,2,40,0,0
192142,-100,4,2,1,40,0,0
192221,-100,4,2,2,40,0,0
193406,-100,4,2,1,40,0,0
193484,-100,4,2,2,40,0,0
194669,-100,4,2,1,40,0,0
194748,-100,4,2,2,40,0,0
195932,-100,4,2,1,40,0,0
196011,-100,4,2,2,40,0,0
197195,-100,4,2,1,40,0,0
197274,-100,4,2,2,40,0,0
198616,-100,4,2,1,40,0,0
198774,-100,4,2,2,40,0,0
198932,-100,4,2,1,40,0,0
199090,-100,4,2,2,40,0,0
199721,-100,4,2,1,40,0,0
200669,-100,4,2,1,40,0,0
200984,-100,4,2,3,40,0,0
201063,-100,4,2,1,40,0,0
202879,-100,4,2,2,40,0,0
203195,-100,4,2,1,40,0,0
205090,-100,4,2,2,40,0,0
205563,-100,4,2,1,40,0,0
207932,-100,4,2,2,40,0,0
208248,-100,4,2,1,40,0,0
208721,-100,4,2,2,40,0,0
208879,-100,4,2,1,40,0,0
209037,-100,4,2,2,40,0,0
209511,-100,4,2,1,40,0,0
209669,-100,4,2,2,40,0,0
209827,-100,4,2,1,40,0,0
209984,-100,4,2,2,40,0,0
211090,-100,4,2,1,40,0,0
212984,-100,4,2,2,40,0,0
213300,-100,4,2,1,40,0,0
215195,-100,4,2,2,40,0,0
215669,-100,4,2,1,40,0,0
218037,-100,4,2,2,40,0,0
218353,-100,4,2,1,40,0,0
218669,-100,4,2,2,40,0,0
218984,-100,4,2,1,40,0,0
219142,-100,4,2,2,40,0,0
219616,-100,4,2,1,40,0,0
219774,-100,4,2,2,40,0,0
220721,-100,4,2,2,40,0,0
221195,-100,4,2,1,40,0,0
223090,-100,4,2,2,40,0,0
223406,-100,4,2,1,40,0,0
225300,-100,4,2,2,40,0,0
225932,-100,4,2,1,40,0,0
228142,-100,4,2,2,40,0,0
228458,-100,4,2,1,40,0,0
230037,-100,4,2,2,40,0,0
231300,-100,4,2,1,40,0,0
233195,-100,4,2,2,40,0,0
233511,-100,4,2,1,40,0,0
235563,-100,4,2,2,40,0,0
235958,-100,4,2,1,40,0,0
238248,-100,4,2,2,40,0,0
238563,-100,4,2,1,40,0,0
240300,-100,4,2,2,40,0,0
240458,-100,4,2,1,40,0,0
240616,-100,4,2,2,40,0,0
241090,-100,4,2,1,40,0,0
241248,-100,4,2,2,40,0,0
241406,-263.157894736842,4,2,1,40,0,0
241445,-100,4,2,1,40,0,0
241484,-263.157894736842,4,2,1,40,0,0
241523,-100,4,2,1,40,0,0
241563,-263.157894736842,4,2,1,40,0,0
241602,-100,4,2,1,40,0,0
241642,-263.157894736842,4,2,1,40,0,0
241681,-100,4,2,1,40,0,0
241721,-10000,4,2,1,40,0,0
241879,-100,4,2,1,40,0,0
242037,-10000,4,2,1,40,0,0
242195,-100,4,2,1,40,0,0
242669,-263.157894736842,4,2,1,40,0,0
242708,-100,4,2,1,40,0,0
242747,-263.157894736842,4,2,1,40,0,0
242786,-100,4,2,1,40,0,0
242826,-263.157894736842,4,2,1,40,0,0
242865,-100,4,2,1,40,0,0
242905,-263.157894736842,4,2,1,40,0,0
242944,-100,4,2,1,40,0,0
242984,-10000,4,2,1,40,0,0
243142,-100,4,2,1,40,0,0
243300,-10000,4,2,1,40,0,0
243458,-100,4,2,1,40,0,0
244090,-100,4,2,2,40,0,0
244248,-100,4,2,1,40,0,0
244563,-100,4,2,2,40,0,0
244721,-100,4,2,1,40,0,0
244958,-100,4,2,2,40,0,0
245195,-100,4,2,1,40,0,0
248353,-100,4,2,2,40,0,0
248590,-100,4,2,1,40,0,0
250484,-100,4,2,2,40,0,0
251037,-100,4,2,1,40,0,0
251984,-100,4,2,2,40,0,0
252458,-100,4,2,1,40,0,0
252616,-100,4,2,2,40,0,0
252774,-100,4,2,1,40,0,0
252932,-100,4,2,2,40,0,0
253090,-100,4,2,1,40,0,0
253248,-100,4,2,2,40,0,0
253721,-100,4,2,1,40,0,0
253879,-100,4,2,2,40,0,0
254037,-100,4,2,1,40,0,0
255458,-100,4,2,2,40,0,0
256248,-100,4,2,1,40,0,0
256327,-100,4,2,2,40,0,0
256563,-100,4,2,1,40,0,0
258458,-100,4,2,2,40,0,0
258695,-100,4,2,1,40,0,0
260669,-100,4,2,2,40,0,0
261063,-100,4,2,1,40,0,0
263511,-100,4,2,2,40,0,0
263827,-100,4,2,1,40,0,0
265642,-100,4,2,1,40,0,0
265721,-100,4,2,1,40,0,0
265958,-100,4,2,1,40,0,0
266037,-100,4,2,1,40,0,0
266353,-100,4,2,2,40,0,0
266669,-100,4,2,1,40,0,0
268563,-100,4,2,2,40,0,0
268879,-100,4,2,1,40,0,0
270932,-100,4,2,2,40,0,0
271248,-100,4,2,1,40,0,0
273616,-100,4,2,2,40,0,0
273932,-100,4,2,1,40,0,0
275511,-100,4,2,2,40,0,0
276142,-100,4,2,1,40,0,0
278669,-100,4,2,2,40,0,0
278984,-100,4,2,1,40,0,0
280879,-100,4,2,2,40,0,0
281511,-100,4,2,1,40,0,0
283721,-100,4,2,2,40,0,0
284116,-100,4,2,1,40,0,0
285774,-100,4,2,2,40,0,0
286327,-100,4,2,2,40,0,0
286406,-100,4,2,2,40,0,0
286879,-100,4,2,1,40,0,0
286958,-100,4,2,2,40,0,0
287195,-100,4,2,1,40,0,0
287274,-100,4,2,2,40,0,0
287511,-100,4,2,1,40,0,0
287590,-100,4,2,2,40,0,0
287827,-100,4,2,1,40,0,0
287906,-100,4,2,2,40,0,0
288142,-100,4,2,1,40,0,0
290037,-100,4,2,2,40,0,0
290353,-100,4,2,2,40,0,0
290511,-100,4,2,2,40,0,0
290669,-100,4,2,1,40,0,0
292248,-100,4,2,2,40,0,0
292642,-100,4,2,2,40,0,0
292879,-100,4,2,1,40,0,0
293037,-100,4,2,1,40,0,0
293353,-100,4,2,1,40,0,0
294537,-100,4,2,1,40,0,0
294616,-100,4,2,1,40,0,0
295090,-100,4,2,2,40,0,0
295563,-100,4,2,1,40,0,0
297142,-100,4,2,2,40,0,0
297616,-100,4,2,1,40,0,0
297774,-100,4,2,2,40,0,0
298248,-100,4,2,1,40,0,0
298484,-100,4,2,1,40,0,0
298563,-100,4,2,1,40,0,0
299037,-100,4,2,1,40,0,0
299116,-100,4,2,1,40,0,0
299195,-100,4,2,1,40,0,0
299590,-100,4,2,2,40,0,0
300774,-100,4,2,1,40,0,0
302669,-100,4,2,2,40,0,0
303300,-100,4,2,1,40,0,0
307721,-100,4,2,2,40,0,0
308116,-100,4,2,1,40,0,0
310090,-100,4,2,2,40,0,0
310563,-100,4,2,1,40,0,0
310721,-100,4,2,2,40,0,0
310879,-100,4,2,1,40,0,0
312774,-100,4,2,2,40,0,0
313011,-100,4,2,1,40,0,0
315142,-100,4,2,2,40,0,0
315537,-100,4,2,1,40,0,0
317827,-100,4,2,2,40,0,0
318063,-100,4,2,1,40,0,0
320195,-100,4,2,2,40,0,0
320906,-100,4,2,2,40,0,0
320984,-100,4,2,1,40,0,0
331090,-100,4,2,1,40,0,0
332984,-100,4,2,2,40,0,0
333300,-100,4,2,1,40,0,0
335353,-100,4,2,2,40,0,0
335827,-100,4,2,1,40,0,0
338037,-100,4,2,2,40,0,0
338353,-100,4,2,1,40,0,0
340879,-100,4,2,2,40,0,0
341116,-100,4,2,1,40,0,0
343090,-100,4,2,2,40,0,0
343406,-100,4,2,1,40,0,0
345458,-100,4,2,2,40,0,0
345774,-100,4,2,1,40,0,0
348142,-100,4,2,2,40,0,0
348458,-100,4,2,1,40,0,0
350037,-100,4,2,2,40,0,0
351300,-100,4,2,1,40,0,0
353195,-100,4,2,2,40,0,0
353511,-100,4,2,1,40,0,0
355563,-100,4,2,2,40,0,0
355879,-100,4,2,1,40,0,0
358248,-100,4,2,2,40,0,0
358563,-100,4,2,1,40,0,0
360142,-100,4,2,2,40,0,0
361406,-100,4,2,1,40,0,0
363300,-100,4,2,2,40,0,0
363774,-100,4,2,1,40,0,0
365669,-100,4,2,2,40,0,0
365984,-100,4,2,1,40,0,0
368353,-100,4,2,2,40,0,0
368748,-100,4,2,1,40,0,0
370721,-100,4,2,2,40,0,0
371037,-100,4,2,1,40,0,0
372616,-100,4,2,1,40,0,0
372853,-100,4,2,1,40,0,0
374037,-100,4,2,1,40,0,0
374984,-100,4,2,2,40,0,0
375300,-100,4,2,1,40,0,0
375932,-100,4,2,2,40,0,0
376090,-100,4,2,1,40,0,0
376406,-100,4,2,2,40,0,0
376563,-100,4,2,1,40,0,0
376721,-100,4,2,2,40,0,0
376800,-100,4,2,1,40,0,0
377037,-100,4,2,2,40,0,0
377353,-100,4,2,1,40,0,0
378458,-100,4,2,2,40,0,0
378616,-100,4,2,1,40,0,0
379721,-100,4,2,2,40,0,0
379879,-100,4,2,1,40,0,0
380511,-100,4,2,2,40,0,0
382879,-100,4,2,1,40,0,0
384774,-100,4,2,2,40,0,0
385011,-100,4,2,1,40,0,0
387142,-100,4,2,2,40,0,0
387379,-100,4,2,1,40,0,0
389827,-100,4,2,2,40,0,0
390142,-100,4,2,1,40,0,0
392827,-100,4,2,2,40,0,0
392984,-100,4,2,1,40,0,0
394879,-100,4,2,2,40,0,0
395195,-100,4,2,1,40,0,0
397248,-100,4,2,2,40,0,0
397484,-100,4,2,1,40,0,0
399300,327.868852459016,4,2,1,40,1,0
399300,-96.1538461538461,4,2,1,40,0,0
399955,-96.1538461538461,4,2,2,40,0,0
400283,-96.1538461538461,4,2,1,40,0,0
401922,342.857142857143,4,2,1,40,1,0
401922,-91.743119266055,4,2,1,40,0,0
402607,-91.743119266055,4,2,2,40,0,0
402950,-91.743119266055,4,2,1,40,0,0
403293,346.820809248555,4,2,1,40,1,0
403293,-90.9090909090909,4,2,1,40,0,0
406075,363.636363636364,4,2,1,40,1,0
406075,-86.9565217391304,4,2,1,40,0,0
407533,368.098159509202,4,2,1,40,1,0
407533,-85.4700854700855,4,2,1,40,0,0
408993,400,4,2,1,40,1,0
408993,-78.7401574803149,4,2,1,40,0,0
412193,428.571428571429,4,2,1,40,1,0
412193,-73.5294117647059,4,2,1,40,0,0
417764,-73.5294117647059,4,2,1,40,0,0
419050,-73.5294117647059,4,2,1,40,0,0
443050,-73.5294117647059,4,2,2,35,0,0
443907,-73.5294117647059,4,2,2,45,0,0
444764,-73.5294117647059,4,2,2,55,0,0
445621,-73.5294117647059,4,2,2,65,0,0
446264,-73.5294117647059,4,2,1,67,0,0
456228,-73.5294117647059,4,2,1,67,0,0
456443,-73.5294117647059,4,2,1,67,0,0
461264,-73.5294117647059,4,2,1,67,0,0
461478,-73.5294117647059,4,2,1,67,0,0
464693,-73.5294117647059,4,2,1,67,0,0
464907,-73.5294117647059,4,2,1,67,0,0
476478,-73.5294117647059,4,2,2,67,0,0
476907,-73.5294117647059,4,2,1,67,0,0
479907,-73.5294117647059,4,2,2,67,0,0
480335,-73.5294117647059,4,2,1,67,0,0
481621,-73.5294117647059,4,2,2,67,0,0
482050,-73.5294117647059,4,2,1,67,0,0
483550,-73.5294117647059,4,2,1,67,0,0
483764,-73.5294117647059,4,2,1,67,0,0
484193,-73.5294117647059,4,2,2,67,0,0
484300,-73.5294117647059,4,2,2,67,0,0
485050,-73.5294117647059,4,2,2,67,0,0
485907,-73.5294117647059,4,2,2,67,0,0
486335,-73.5294117647059,4,2,2,67,0,0
486764,-73.5294117647059,4,2,2,67,0,0
487193,-73.5294117647059,4,2,2,67,0,0
487621,-73.5294117647059,4,2,2,67,0,0
487728,-73.5294117647059,4,2,1,67,0,0
492764,-73.5294117647059,4,2,2,55,0,0
493621,-73.5294117647059,4,2,1,45,0,0
493907,-73.5294117647059,4,2,2,45,0,0
494050,-73.5294117647059,4,2,1,45,0,0
494335,-73.5294117647059,4,2,2,45,0,0
494478,-73.5294117647059,4,2,1,55,0,0
494621,-73.5294117647059,4,2,2,55,0,0
504764,-73.5294117647059,4,2,1,55,0,0
509907,-73.5294117647059,4,2,1,55,0,0
516621,-73.5294117647059,4,2,1,45,0,0
516764,-73.5294117647059,4,2,1,55,0,0
528764,-73.5294117647059,4,2,1,35,0,0
528907,-73.5294117647059,4,2,2,35,0,0
529621,-73.5294117647059,4,2,2,45,0,0
530478,-73.5294117647059,4,2,2,55,0,0
530907,-73.5294117647059,4,2,2,60,0,0
531335,-73.5294117647059,4,2,2,65,0,0
532193,-73.5294117647059,4,2,1,65,0,0
557907,-73.5294117647059,4,2,1,55,0,0
558014,-73.5294117647059,4,2,2,55,0,0
558335,-73.5294117647059,4,2,2,60,0,0
558764,-73.5294117647059,4,2,2,65,0,0
573335,-73.5294117647059,4,2,3,20,0,0
573550,-133.333333333333,4,2,3,20,0,0
580353,444.444444444444,4,2,1,20,1,0
580353,-71.4285714285714,4,2,1,20,0,0
594907,333.333333333333,4,2,1,20,1,0
594907,-94.3396226415094,4,2,1,20,0,0
609407,-133.333333333333,4,2,1,20,0,0
609490,-92.5925925925926,4,2,1,20,0,0
609576,317.460317460317,4,2,1,80,1,0
611322,-138.888888888889,4,2,1,80,0,0
611401,-98.0392156862745,4,2,1,80,0,0
611484,285.714285714286,4,2,1,80,1,0
611484,-111.111111111111,4,2,1,80,0,0
611626,-142.857142857143,4,2,1,80,0,0
611698,-106.382978723404,4,2,1,80,0,0
613555,-142.857142857143,4,2,1,80,0,0
613626,-106.382978723404,4,2,1,80,0,0
613698,250,4,2,1,80,1,0
613698,-126.582278481013,4,2,1,80,0,0
613823,-181.818181818182,4,2,1,80,0,0
613885,-117.647058823529,4,2,1,80,0,0
614073,-181.818181818182,4,2,1,80,0,0
614135,-117.647058823529,4,2,1,80,0,0
615323,-181.818181818182,4,2,1,80,0,0
615385,-117.647058823529,4,2,1,80,0,0
615416,226.415094339623,4,2,1,80,1,0
615416,-138.888888888889,4,2,1,80,0,0
615642,-200,4,2,1,80,0,0
615699,-125,4,2,1,80,0,0
615755,-200,4,2,1,80,0,0
615812,-125,4,2,1,80,0,0
615982,-200,4,2,1,80,0,0
616038,-125,4,2,1,80,0,0
616095,218.181818181818,4,2,1,80,1,0
616095,-144.927536231884,4,2,1,80,0,0
616422,-217.391304347826,4,2,1,80,0,0
616476,-126.582278481013,4,2,1,80,0,0
616544,214.285714285714,4,2,1,80,1,0
616544,-147.058823529412,4,2,1,80,0,0
616865,-222.222222222222,4,2,1,80,0,0
616919,-121.951219512195,4,2,1,80,0,0
616959,206.896551724138,4,2,1,80,1,0
616959,-151.515151515152,4,2,1,80,0,0
617269,-232.558139534884,4,2,1,80,0,0
617321,-121.951219512195,4,2,1,80,0,0
617683,-232.558139534884,4,2,1,80,0,0
617734,-121.951219512195,4,2,1,80,0,0
617773,400,4,2,1,80,1,0
617773,-78.7401574803149,4,2,1,80,0,0
630173,-78.7401574803149,4,2,2,80,0,0
630573,-78.7401574803149,4,2,1,80,0,0
636173,-78.7401574803149,4,2,2,80,0,0
636573,-78.7401574803149,4,2,1,80,0,0
641973,-78.7401574803149,4,2,2,80,0,0
643373,-78.7401574803149,4,2,1,70,0,0
643573,-78.7401574803149,4,2,1,30,0,0
643773,-78.7401574803149,4,2,1,40,0,0
643973,-78.7401574803149,4,2,1,30,0,0
644173,-78.7401574803149,4,2,1,40,0,0
645173,-78.7401574803149,4,2,1,30,0,0
645373,-78.7401574803149,4,2,1,40,0,0
645573,-78.7401574803149,4,2,1,30,0,0
645773,-78.7401574803149,4,2,1,70,0,0
645873,-78.7401574803149,4,2,1,40,0,0
646073,-78.7401574803149,4,2,2,70,0,0
646173,-78.7401574803149,4,2,1,30,0,0
646573,-78.7401574803149,4,2,1,31,0,0
652773,-78.7401574803149,4,2,2,31,0,0
652973,-78.7401574803149,4,2,1,31,0,0
657973,-78.7401574803149,4,2,1,30,0,0
658173,-78.7401574803149,4,2,1,40,0,0
658373,-78.7401574803149,4,2,1,30,0,0
658573,-78.7401574803149,4,2,1,40,0,0
658673,-78.7401574803149,4,2,1,50,0,0
658773,-78.7401574803149,4,2,1,60,0,0
658873,-78.7401574803149,4,2,1,30,0,0
659373,-66.6666666666667,4,2,1,30,0,0
659473,-133.333333333333,4,2,1,30,0,0
659573,-66.6666666666667,4,2,1,30,0,0
659673,-133.333333333333,4,2,1,30,0,0
659773,-66.6666666666667,4,2,1,30,0,0
659873,-133.333333333333,4,2,1,30,0,0
659973,-66.6666666666667,4,2,1,30,0,0
660073,-133.333333333333,4,2,1,30,0,0
660173,-78.7401574803149,4,2,1,30,0,0
660573,-133.333333333333,4,2,1,30,0,0
660973,-117.647058823529,4,2,1,30,0,0
661373,-105.263157894737,4,2,1,30,0,0
661773,-95.2380952380952,4,2,1,30,0,0
661973,-86.9565217391304,4,2,1,30,0,0
662173,-80,4,2,1,30,0,0
662373,-78.7401574803149,4,2,1,30,0,0
662573,-117.647058823529,4,2,1,30,0,0
662973,-105.263157894737,4,2,1,30,0,0
663173,-95.2380952380952,4,2,1,30,0,0
663373,-86.9565217391304,4,2,1,30,0,0
663773,-133.333333333333,4,2,1,30,0,0
664173,-105.263157894737,4,2,1,30,0,0
664573,-86.9565217391304,4,2,1,30,0,0
664973,-66.6666666666667,4,2,1,30,0,0
665073,-133.333333333333,4,2,1,30,0,0
665173,-66.6666666666667,4,2,1,30,0,0
665273,-133.333333333333,4,2,1,30,0,0
665373,-66.6666666666667,4,2,1,30,0,0
665473,-133.333333333333,4,2,1,30,0,0
665573,-66.6666666666667,4,2,1,30,0,0
665673,-133.333333333333,4,2,1,30,0,0
665773,-10000,4,2,1,30,0,0
665973,-33.3333333333333,4,2,1,30,0,0
666073,-78.7401574803149,4,2,1,30,0,0
666173,-10000,4,2,1,30,0,0
666398,-33.3333333333333,4,2,1,30,0,0
666473,-78.7401574803149,4,2,1,30,0,0
666573,-10000,4,2,1,30,0,0
666823,-33.3333333333333,4,2,1,30,0,0
666873,-78.7401574803149,4,2,1,30,0,0
666973,-10000,4,2,1,30,0,0
667248,-33.3333333333333,4,2,1,30,0,0
667273,-78.7401574803149,4,2,1,30,0,0
667373,-10000,4,2,1,30,0,0
667623,-33.3333333333333,4,2,1,30,0,0
667673,-78.7401574803149,4,2,1,30,0,0
667773,-10000,4,2,1,30,0,0
667973,-33.3333333333333,4,2,1,30,0,0
668073,-78.7401574803149,4,2,1,30,0,0
668173,-10000,4,2,1,30,0,0
668398,-33.3333333333333,4,2,1,30,0,0
668473,-78.7401574803149,4,2,1,30,0,0
668573,-10000,4,2,1,30,0,0
668823,-33.3333333333333,4,2,1,30,0,0
668873,-78.7401574803149,4,2,1,30,0,0
668973,-100,4,2,1,30,0,0
669173,-66.6666666666667,4,2,1,30,0,0
669273,-78.7401574803149,4,2,1,30,0,0
669373,-100,4,2,1,30,0,0
669573,-66.6666666666667,4,2,1,30,0,0
669673,-78.7401574803149,4,2,1,30,0,0
669773,-100,4,2,1,30,0,0
669973,-66.6666666666667,4,2,1,30,0,0
670073,-78.7401574803149,4,2,1,30,0,0
670173,-100,4,2,1,30,0,0
670373,-66.6666666666667,4,2,1,30,0,0
670473,-78.7401574803149,4,2,1,30,0,0
670573,-100,4,2,1,30,0,0
670773,-66.6666666666667,4,2,1,30,0,0
670873,-78.7401574803149,4,2,1,30,0,0
670973,-100,4,2,1,30,0,0
671173,-66.6666666666667,4,2,1,30,0,0
671273,-78.7401574803149,4,2,1,30,0,0
671373,-100,4,2,1,30,0,0
671573,-66.6666666666667,4,2,1,30,0,0
671673,-78.7401574803149,4,2,1,30,0,0
671773,-100,4,2,1,30,0,0
671973,-66.6666666666667,4,2,1,30,0,0
672073,-78.7401574803149,4,2,1,30,0,0
678573,-78.7401574803149,4,2,1,30,0,0
678673,-78.7401574803149,4,2,1,30,0,0
684973,-78.7401574803149,4,2,1,30,0,0
685073,-78.7401574803149,4,2,1,30,0,0
691373,-78.7401574803149,4,2,1,30,0,0
691473,-78.7401574803149,4,2,1,30,0,0
704173,-78.7401574803149,4,2,1,30,0,0
704973,-50,4,2,1,30,0,0
705373,-100,4,2,1,30,0,0
705573,-78.7401574803149,4,2,1,30,0,0
706573,-50,4,2,1,30,0,0
706973,-100,4,2,1,30,0,0
707173,-78.7401574803149,4,2,1,30,0,0
707773,-78.7401574803149,4,2,2,30,0,0
707873,-78.7401574803149,4,2,1,30,0,0
708173,-50,4,2,1,30,0,0
708573,-100,4,2,1,30,0,0
708773,-78.7401574803149,4,2,1,30,0,0
708973,-100,4,2,1,30,0,0
710473,-78.7401574803149,4,2,1,30,0,0
710573,-78.7401574803149,4,2,1,30,0,0
711373,-50,4,2,1,30,0,0
711773,-100,4,2,1,30,0,0
711973,-78.7401574803149,4,2,1,30,0,0
712973,-50,4,2,1,30,0,0
713373,-100,4,2,1,30,0,0
713573,-78.7401574803149,4,2,1,30,0,0
714573,-50,4,2,1,30,0,0
714973,-100,4,2,1,30,0,0
715173,-78.7401574803149,4,2,1,30,0,0
715373,-100,4,2,1,30,0,0
716873,-78.7401574803149,4,2,1,30,0,0
716973,-78.7401574803149,4,2,1,30,0,0
723173,-78.7401574803149,4,2,2,30,0,0
723373,-78.7401574803149,4,2,1,30,0,0
728973,-78.7401574803149,4,2,2,30,0,0
729373,-78.7401574803149,4,2,1,30,0,0
729573,-78.7401574803149,4,2,2,30,0,0
729773,-78.7401574803149,4,2,1,30,0,0
735173,-78.7401574803149,4,2,2,30,0,0
736173,-78.7401574803149,4,2,1,30,0,1
741773,-78.7401574803149,4,2,2,30,0,1
742173,-78.7401574803149,4,2,1,30,0,1
748173,-78.7401574803149,4,2,2,30,0,1
748573,-78.7401574803149,4,2,1,30,0,1
748773,-78.7401574803149,4,2,2,30,0,0
748973,-78.7401574803149,4,2,1,30,0,1
754573,-78.7401574803149,4,2,2,30,0,1
754973,-78.7401574803149,4,2,1,30,0,1
755173,-78.7401574803149,4,2,2,30,0,1
755373,-78.7401574803149,4,2,1,30,0,1
760973,-78.7401574803149,4,2,2,30,0,1
761373,-78.7401574803149,4,2,1,30,0,1
761573,-78.7401574803149,4,2,2,30,0,1
763373,-78.7401574803149,4,2,1,30,0,0
768973,-78.7401574803149,4,2,2,30,0,0
769473,-78.7401574803149,4,2,1,30,0,0
775373,-78.7401574803149,4,2,2,30,0,0
828973,387.096774193548,4,2,1,30,1,0
828973,-81.3008130081301,4,2,1,30,0,0
830521,375,4,2,1,30,1,0
830521,-84.0336134453781,4,2,1,30,0,0
832021,359.281437125748,4,2,1,30,1,0
832021,-87.719298245614,4,2,1,30,0,0
834807,333.333333333333,4,2,1,30,1,0
834807,-94.3396226415094,4,2,1,30,0,0
845474,-94.3396226415094,4,2,1,30,0,0
849474,-94.3396226415094,4,2,1,30,0,0
850140,-94.3396226415094,4,2,1,30,0,0
850474,-94.3396226415094,4,2,1,30,0,0
850807,-94.3396226415094,4,2,1,30,0,1
869474,-94.3396226415094,4,2,1,30,0,1
870807,-94.3396226415094,4,2,1,30,0,1
872140,-94.3396226415094,4,2,1,50,0,0
877474,-94.3396226415094,4,2,1,70,0,0
879807,-94.3396226415094,4,2,1,5,0,0
880140,-94.3396226415094,4,2,1,31,0,0
882140,-94.3396226415094,4,2,1,31,0,0
882474,-94.3396226415094,4,2,2,31,0,0
882807,-94.3396226415094,4,2,1,31,0,0
885140,-94.3396226415094,4,2,1,5,0,0
885474,-94.3396226415094,4,2,1,70,0,0
887140,-94.3396226415094,4,2,1,20,0,0
887474,-94.3396226415094,4,2,1,70,0,0
887807,-94.3396226415094,4,2,2,70,0,0
888140,-94.3396226415094,4,2,1,37,0,1
890696,-94.3396226415094,4,2,2,37,0,1
890807,-94.3396226415094,4,2,1,37,0,1
893140,-94.3396226415094,4,2,2,37,0,1
893473,-94.3396226415094,4,2,1,37,0,1
898807,333.333333333333,4,2,1,37,1,0
898807,-94.3396226415094,4,2,1,37,0,0
899473,324.324324324324,4,2,1,37,1,0
899473,-97.0873786407767,4,2,1,37,0,0
900121,307.692307692308,4,2,1,37,1,0
900121,-103.092783505155,4,2,1,37,0,0
900736,300,4,2,1,37,1,0
900736,-105.263157894737,4,2,1,37,0,0
901336,300,4,2,1,37,1,0
901336,-105.263157894737,4,2,1,37,0,0
901786,-105.263157894737,4,2,1,50,0,0
906136,-105.263157894737,4,2,1,70,0,0
910936,-105.263157894737,4,2,1,80,0,1
913111,-105.263157894737,4,2,2,40,0,1
913186,-105.263157894737,4,2,2,50,0,1
913261,-105.263157894737,4,2,2,60,0,1
913336,-105.263157894737,4,2,1,80,0,1
917911,-105.263157894737,4,2,2,40,0,1
917986,-105.263157894737,4,2,2,50,0,1
918061,-105.263157894737,4,2,2,60,0,1
918136,-105.263157894737,4,2,1,80,0,1
920311,-105.263157894737,4,2,2,40,0,1
920386,-105.263157894737,4,2,2,50,0,1
920461,-105.263157894737,4,2,2,60,0,1
920536,-105.263157894737,4,2,1,80,0,1
925261,-105.263157894737,4,2,1,40,0,0
934936,-105.263157894737,4,2,1,40,0,0
937036,-105.263157894737,4,2,2,40,0,0
937261,-105.263157894737,4,2,2,40,0,0
937336,-105.263157894737,4,2,1,40,0,0
939436,-105.263157894737,4,2,2,40,0,0
939736,-105.263157894737,4,2,1,40,0,1
941986,-105.263157894737,4,2,2,40,0,1
942136,-105.263157894737,4,2,1,40,0,1
944311,-105.263157894737,4,2,2,40,0,1
944386,-105.263157894737,4,2,2,40,0,1
944461,-105.263157894737,4,2,2,40,0,1
944536,-105.263157894737,4,2,1,40,0,1
946711,-105.263157894737,4,2,2,40,0,1
946936,-105.263157894737,4,2,1,40,0,1
949111,-105.263157894737,4,2,2,40,0,1
949186,-105.263157894737,4,2,2,40,0,1
949261,-105.263157894737,4,2,2,40,0,1
949336,-105.263157894737,4,2,1,40,0,1
951586,-105.263157894737,4,2,2,40,0,1
951736,-105.263157894737,4,2,1,40,0,1
954211,-105.263157894737,4,2,2,40,0,1
954736,-105.263157894737,4,2,1,40,0,1
954811,-105.263157894737,4,2,2,40,0,1
955336,-105.263157894737,4,2,1,40,0,1
955411,-105.263157894737,4,2,2,40,0,1
955636,-105.263157894737,4,2,1,50,0,1
955786,-105.263157894737,4,2,1,5,0,1
955936,-105.263157894737,4,2,1,31,0,1
956011,-105.263157894737,4,2,2,31,0,1
956536,-105.263157894737,4,2,1,31,0,1
958936,-105.263157894737,4,2,1,31,0,0
963736,-105.263157894737,4,2,1,31,0,1
968236,-105.263157894737,4,2,2,31,0,1
968536,-105.263157894737,4,2,1,31,0,1
972136,-105.263157894737,4,2,2,31,0,1
973036,-105.263157894737,4,2,2,31,0,1
975736,-105.263157894737,4,2,1,31,0,1
977686,-105.263157894737,4,2,2,31,0,1
977836,-105.263157894737,4,2,1,31,0,1
984361,-105.263157894737,4,2,2,31,0,1
984436,-105.263157894737,4,2,1,31,0,1
984511,-105.263157894737,4,2,2,31,0,1
984736,-105.263157894737,4,2,1,31,0,1
984811,-105.263157894737,4,2,2,32,0,1
985036,-105.263157894737,4,2,1,32,0,1
985111,-105.263157894737,4,2,2,32,0,1
985186,-105.263157894737,4,2,1,32,0,1
985261,-105.263157894737,4,2,2,32,0,1
986536,-105.263157894737,4,2,1,32,0,0
987736,-105.263157894737,4,2,1,32,0,1
989686,-105.263157894737,4,2,2,32,0,1
989836,-105.263157894737,4,2,1,32,0,1
992236,-105.263157894737,4,2,2,32,0,1
992536,-105.263157894737,4,2,1,32,0,1
997036,-105.263157894737,4,2,2,32,0,1
997336,-105.263157894737,4,2,1,32,0,1
1001836,-105.263157894737,4,2,2,32,0,1
1002136,-105.263157894737,4,2,1,32,0,1
1004086,-105.263157894737,4,2,2,32,0,1
1004236,-105.263157894737,4,2,2,32,0,1
1004536,-105.263157894737,4,2,1,32,0,1
1006636,-105.263157894737,4,2,2,32,0,1
1006936,-105.263157894737,4,2,1,32,0,1
1008886,-105.263157894737,4,2,2,32,0,1
1009336,-105.263157894737,4,2,1,32,0,1
1011436,-105.263157894737,4,2,2,32,0,1
1011736,-105.263157894737,4,2,1,32,0,1
1015336,-105.263157894737,4,2,1,32,0,1
1016236,-105.263157894737,4,2,2,32,0,1
1018936,-105.263157894737,4,2,1,32,0,1
1023436,-105.263157894737,4,2,2,32,0,1
1023736,-105.263157894737,4,2,1,32,0,1
1025686,-105.263157894737,4,2,2,32,0,1
1025836,-105.263157894737,4,2,1,32,0,1
1025986,-105.263157894737,4,2,2,32,0,1
1026136,-105.263157894737,4,2,1,32,0,1
1028236,-105.263157894737,4,2,2,32,0,1
1028386,-105.263157894737,4,2,1,32,0,1
1029886,-66.6666666666667,4,2,1,32,0,1
1030036,-133.333333333333,4,2,1,32,0,1
1030111,-105.263157894737,4,2,1,32,0,1
1030186,-66.6666666666667,4,2,1,32,0,1
1030336,-133.333333333333,4,2,1,32,0,1
1030411,-105.263157894737,4,2,1,32,0,1
1030486,-66.6666666666667,4,2,1,32,0,1
1030636,-133.333333333333,4,2,1,32,0,1
1030711,-105.263157894737,4,2,1,32,0,1
1030786,-105.263157894737,4,2,3,32,0,1
1030936,-105.263157894737,4,2,1,32,0,1
1032286,-133.333333333333,4,2,1,32,0,1
1032436,-66.6666666666667,4,2,1,32,0,1
1032511,-105.263157894737,4,2,1,32,0,1
1032586,-133.333333333333,4,2,1,32,0,1
1032736,-66.6666666666667,4,2,1,32,0,1
1032811,-105.263157894737,4,2,1,32,0,1
1032886,-133.333333333333,4,2,1,32,0,1
1033036,-66.6666666666667,4,2,1,32,0,1
1033111,-105.263157894737,4,2,1,32,0,1
1034086,-105.263157894737,4,2,2,32,0,1
1034236,-105.263157894737,4,2,1,32,0,1
1035286,-105.263157894737,4,2,2,32,0,1
1035436,-105.263157894737,4,2,1,32,0,1
1036486,-105.263157894737,4,2,2,32,0,1
1036636,-105.263157894737,4,2,1,32,0,1
1038136,-55.5555555555556,4,2,1,32,0,0
1038286,-153.846153846154,4,2,1,32,0,0
1038436,-105.263157894737,4,2,1,32,0,0
1038586,-55.5555555555556,4,2,1,32,0,0
1038736,-153.846153846154,4,2,1,32,0,0
1038886,-105.263157894737,4,2,1,32,0,0
1039036,-55.5555555555556,4,2,1,32,0,0
1039186,-153.846153846154,4,2,1,32,0,0
1039336,-105.263157894737,4,2,1,32,0,0
1039486,-55.5555555555556,4,2,1,32,0,0
1039561,-153.846153846154,4,2,1,32,0,0
1039636,-105.263157894737,4,2,1,32,0,0
1039786,-100,4,2,1,32,0,0
1039861,-105.263157894737,4,2,1,32,0,0
1039936,-100,4,2,1,32,0,0
1040011,-105.263157894737,4,2,1,32,0,0
1040086,-100,4,2,1,32,0,0
1040161,-105.263157894737,4,2,1,32,0,0
1040236,-55.5555555555556,4,2,1,32,0,0
1040311,-153.846153846154,4,2,1,32,0,0
1040386,-105.263157894737,4,2,1,32,0,0
1040536,-55.5555555555556,4,2,1,32,0,0
1040686,-153.846153846154,4,2,1,32,0,0
1040836,-105.263157894737,4,2,1,32,0,0
1040986,-55.5555555555556,4,2,1,32,0,0
1041061,-153.846153846154,4,2,1,32,0,0
1041136,-105.263157894737,4,2,1,32,0,0
1041286,-100,4,2,1,32,0,0
1041361,-105.263157894737,4,2,1,32,0,0
1041436,-55.5555555555556,4,2,1,32,0,0
1041511,-153.846153846154,4,2,1,32,0,0
1041586,-105.263157894737,4,2,1,32,0,0
1041736,-55.5555555555556,4,2,1,32,0,0
1041886,-153.846153846154,4,2,1,32,0,0
1041961,-105.263157894737,4,2,1,32,0,0
1042936,-105.263157894737,4,2,1,32,0,1
1044961,-105.263157894737,4,2,2,32,0,1
1045186,-105.263157894737,4,2,1,32,0,1
1046536,-105.263157894737,4,2,2,32,0,1
1047436,-105.263157894737,4,2,2,32,0,1
1047736,-105.263157894737,4,2,1,32,0,0
1048636,-105.263157894737,4,2,1,32,0,0
1058536,500,4,3,1,32,1,0
1058536,-63.2911392405063,4,3,1,32,0,0
1061536,-63.2911392405063,4,3,1,32,0,0
1062536,-63.2911392405063,4,3,1,32,0,0
1078536,-63.2911392405063,4,2,3,32,0,0
1086546,500,4,2,1,32,1,0
1086546,-63.2911392405063,4,2,1,32,0,0
1094546,-63.2911392405063,4,2,1,32,0,0
1098046,-63.2911392405063,4,2,2,32,0,0
1110546,250,4,1,2,32,1,1
1110546,-126.582278481013,4,1,2,32,0,1
1110608,-126.582278481013,4,1,1,32,0,1
1112546,-126.582278481013,4,1,2,32,0,1
1112608,-126.582278481013,4,1,1,32,0,1
1114546,-126.582278481013,4,1,2,32,0,1
1114608,-126.582278481013,4,1,1,32,0,1
1116546,-126.582278481013,4,1,2,32,0,1
1116608,-126.582278481013,4,1,1,32,0,1
1122546,-126.582278481013,4,1,2,32,0,1
1122608,-126.582278481013,4,1,1,32,0,1
1124546,-126.582278481013,4,1,2,32,0,1
1124608,-126.582278481013,4,1,1,32,0,1
1126546,-126.582278481013,4,1,2,32,0,1
1126608,-126.582278481013,4,1,1,32,0,1
1128546,-126.582278481013,4,1,2,32,0,1
1128608,-126.582278481013,4,1,1,32,0,1
1130546,-126.582278481013,4,1,2,32,0,1
1132046,-126.582278481013,4,1,1,32,0,1
1132296,-126.582278481013,4,1,1,32,0,1
1132421,-126.582278481013,4,1,1,32,0,0
1132546,-126.582278481013,4,1,2,32,0,1
1132608,-126.582278481013,4,1,1,32,0,1
1134546,-126.582278481013,4,1,2,32,0,1
1134608,-126.582278481013,4,1,1,32,0,1
1136546,-126.582278481013,4,1,2,32,0,1
1136608,-126.582278481013,4,1,1,32,0,1
1138546,-126.582278481013,4,1,2,32,0,1
1138608,-126.582278481013,4,1,1,32,0,1
1139546,-126.582278481013,4,1,1,32,0,1
1140546,-126.582278481013,4,1,1,32,0,0
1150546,-126.582278481013,4,1,1,32,0,0
1154546,-126.582278481013,4,1,2,32,0,1
1154608,-126.582278481013,4,1,1,32,0,1
1156546,-126.582278481013,4,1,2,32,0,1
1156608,-126.582278481013,4,1,1,32,0,1
1158546,-126.582278481013,4,1,2,32,0,1
1158608,-126.582278481013,4,1,1,32,0,1
1160546,-126.582278481013,4,1,2,32,0,1
1160608,-126.582278481013,4,1,1,32,0,1
1168546,-126.582278481013,4,1,2,32,0,1
1168608,-126.582278481013,4,1,1,32,0,1
1170546,-126.582278481013,4,1,2,32,0,1
1170608,-126.582278481013,4,1,1,32,0,1
1172546,-126.582278481013,4,1,2,32,0,1
1172608,-126.582278481013,4,1,1,32,0,1
1174546,-126.582278481013,4,1,2,32,0,1
1174608,-126.582278481013,4,1,1,32,0,1
1176421,-126.582278481013,4,1,1,32,0,0
1176546,-126.582278481013,4,1,2,32,0,1
1176608,-126.582278481013,4,1,1,32,0,1
1177671,-126.582278481013,4,1,1,32,0,1
1178171,-126.582278481013,4,1,1,32,0,1
1178546,-126.582278481013,4,1,2,32,0,1
1178608,-126.582278481013,4,1,1,32,0,1
1179671,-126.582278481013,4,1,1,32,0,1
1180171,-126.582278481013,4,1,1,32,0,1
1180546,-126.582278481013,4,1,2,32,0,1
1180608,-126.582278481013,4,1,1,32,0,1
1181671,-126.582278481013,4,1,1,32,0,1
1182171,-126.582278481013,4,1,1,32,0,1
1182546,-126.582278481013,4,1,1,32,0,1
1182671,-126.582278481013,4,1,1,32,0,1
1183171,-126.582278481013,4,1,1,32,0,1
1183546,-126.582278481013,4,1,2,32,0,1
1183608,-126.582278481013,4,1,1,32,0,1
1185546,-126.582278481013,4,1,2,32,0,1
1185608,-126.582278481013,4,1,1,32,0,1
1187546,-126.582278481013,4,1,2,32,0,1
1187608,-126.582278481013,4,1,1,32,0,1
1189546,-126.582278481013,4,1,2,32,0,1
1189608,-126.582278481013,4,1,1,32,0,1
1191546,-126.582278481013,4,1,2,32,0,1
1191608,-126.582278481013,4,1,1,32,0,1
1193546,-126.582278481013,4,1,2,32,0,1
1193608,-126.582278481013,4,1,1,32,0,1
1205546,-126.582278481013,4,1,2,32,0,1
1205608,-126.582278481013,4,1,1,32,0,1
1207546,-126.582278481013,4,1,2,32,0,1
1207608,-126.582278481013,4,1,1,32,0,1
1209546,-126.582278481013,4,1,2,32,0,1
1209608,-126.582278481013,4,1,1,32,0,1
1211546,-126.582278481013,4,1,2,32,0,1
1211608,-126.582278481013,4,1,1,32,0,1
1213546,-126.582278481013,4,1,2,32,0,1
1213608,-126.582278481013,4,1,1,32,0,1
1215546,-126.582278481013,4,1,2,32,0,1
1215608,-126.582278481013,4,1,1,32,0,1
1219546,-126.582278481013,4,1,2,32,0,1
1219608,-126.582278481013,4,1,1,32,0,1
1221546,-126.582278481013,4,1,2,32,0,1
1221608,-126.582278481013,4,1,1,32,0,1
1227483,-126.582278481013,4,1,1,32,0,0
1227546,-126.582278481013,4,1,1,32,0,1
1227608,-126.582278481013,4,2,1,32,0,0
1228046,-126.582278481013,4,2,1,70,0,0
1228358,-126.582278481013,4,2,1,60,0,0
1228608,-126.582278481013,4,2,1,50,0,0
1228921,-126.582278481013,4,2,1,40,0,0
1229233,-126.582278481013,4,2,1,30,0,0
1229546,-126.582278481013,4,2,1,20,0,0
1229858,-126.582278481013,4,2,1,10,0,0
1230046,-126.582278481013,4,2,1,5,0,0
1233206,666.666666666667,4,2,1,50,1,0
1233206,-47.6190476190476,4,2,1,50,0,0
1297206,-47.6190476190476,4,2,1,50,0,0
1299872,333.333333333333,4,2,1,51,1,0
1299872,-95.2380952380952,4,2,1,51,0,0
1350633,-95.2380952380952,4,2,1,51,0,1
1383967,-95.2380952380952,4,2,1,51,0,0
1395867,342.857142857143,4,2,1,51,1,0
1401352,352.941176470588,4,2,1,51,1,0
1405587,363.636363636364,4,2,1,51,1,0
1414314,375,4,2,1,51,1,0
1415814,387.096774193548,4,2,1,51,1,0
1417362,400,4,2,1,51,1,0
1418962,428.571428571429,4,2,1,51,1,0
1420676,461.538461538462,4,2,1,51,1,0
1422522,480,4,2,1,51,1,0
1424442,521.739130434783,4,2,1,51,1,0
1426525,545.454545454546,4,2,1,51,1,0
1426525,-58.1395348837209,4,2,1,51,0,0
1430888,600,4,2,1,51,1,0
1430888,-52.6315789473684,4,2,1,51,0,0
1433288,333.333333333333,4,2,1,51,1,0
1433288,-95.2380952380952,4,2,1,51,0,0

[HitObjects]
64,192,1058536,5,0,0:0:0:0:
448,192,1058536,1,0,0:0:0:0:
192,192,1058536,1,0,0:0:0:0:
192,192,1058786,1,0,0:0:0:0:
320,192,1058786,1,0,0:0:0:0:
192,192,1058911,1,0,0:0:0:0:
320,192,1058911,1,0,0:0:0:0:
192,192,1059036,1,0,0:0:0:0:
320,192,1059036,1,0,0:0:0:0:
64,192,1059286,1,0,0:0:0:0:
448,192,1059411,1,0,0:0:0:0:
320,192,1059536,1,0,0:0:0:0:
192,192,1059536,1,0,0:0:0:0:
64,192,1059536,1,0,0:0:0:0:
64,192,1059786,1,0,0:0:0:0:
320,192,1059786,1,0,0:0:0:0:
64,192,1059911,1,0,0:0:0:0:
320,192,1059911,1,0,0:0:0:0:
64,192,1060036,1,0,0:0:0:0:
320,192,1060036,1,0,0:0:0:0:
192,192,1060286,1,0,0:0:0:0:
448,192,1060411,1,0,0:0:0:0:
64,192,1060536,1,0,0:0:0:0:
192,192,1060536,1,0,0:0:0:0:
320,192,1060536,1,0,0:0:0:0:
192,192,1060786,1,0,0:0:0:0:
448,192,1060786,1,0,0:0:0:0:
192,192,1060911,1,0,0:0:0:0:
448,192,1060911,1,0,0:0:0:0:
192,192,1061036,1,0,0:0:0:0:
448,192,1061036,1,0,0:0:0:0:
64,192,1061286,1,0,0:0:0:0:
448,192,1061286,1,0,0:0:0:0:
64,192,1061411,1,0,0:0:0:0:
448,192,1061411,1,0,0:0:0:0:
64,192,1061536,1,0,0:0:0:0:
448,192,1061536,1,0,0:0:0:0:
320,192,1061536,1,0,0:0:0:0:
192,192,1061661,1,0,0:0:0:0:
64,192,1061786,1,0,0:0:0:0:
448,192,1061911,1,0,0:0:0:0:
320,192,1062036,1,0,0:0:0:0:
64,192,1062036,1,0,0:0:0:0:
192,192,1062161,1,0,0:0:0:0:
64,192,1062286,1,0,0:0:0:0:
448,192,1062411,1,0,0:0:0:0:
448,192,1062536,1,0,0:0:0:0:
320,192,1062536,1,0,0:0:0:0:
192,192,1062536,1,0,0:0:0:0:
192,192,1062911,1,0,0:0:0:0:
320,192,1062911,1,0,0:0:0:0:
192,192,1063286,1,0,0:0:0:0:
320,192,1063286,1,0,0:0:0:0:
320,192,1063536,1,0,0:0:0:0:
448,192,1063536,1,0,0:0:0:0:
192,192,1063661,1,0,0:0:0:0:
64,192,1063786,1,0,0:0:0:0:
64,192,1064036,1,0,0:0:0:0:
448,192,1064036,1,0,0:0:0:0:
320,192,1064161,1,0,0:0:0:0:
192,192,1064286,1,0,0:0:0:0:
448,192,1064286,1,0,0:0:0:0:
64,192,1064411,1,0,0:0:0:0:
448,192,1064536,1,0,0:0:0:0:
320,192,1064536,1,0,0:0:0:0:
192,192,1064536,1,0,0:0:0:0:
320,192,1064911,1,0,0:0:0:0:
64,192,1064911,1,0,0:0:0:0:
448,192,1064911,1,0,0:0:0:0:
320,192,1065036,1,0,0:0:0:0:
64,192,1065036,1,0,0:0:0:0:
448,192,1065036,1,0,0:0:0:0:
64,192,1065286,1,0,0:0:0:0:
448,192,1065286,1,0,0:0:0:0:
448,192,1065536,1,0,0:0:0:0:
320,192,1065536,1,0,0:0:0:0:
320,192,1065661,1,0,0:0:0:0:
320,192,1065786,1,0,0:0:0:0:
64,192,1065786,1,0,0:0:0:0:
192,192,1066036,1,0,0:0:0:0:
64,192,1066036,1,0,0:0:0:0:
448,192,1066036,1,0,0:0:0:0:
64,192,1066161,1,0,0:0:0:0:
64,192,1066286,1,0,0:0:0:0:
320,192,1066286,1,0,0:0:0:0:
64,192,1066411,1,0,0:0:0:0:
320,192,1066536,1,0,0:0:0:0:
448,192,1066536,1,0,0:0:0:0:
192,192,1066536,1,0,0:0:0:0:
320,192,1066911,1,0,0:0:0:0:
448,192,1066911,1,0,0:0:0:0:
320,192,1067286,1,0,0:0:0:0:
448,192,1067286,1,0,0:0:0:0:
192,192,1067536,1,0,0:0:0:0:
64,192,1067536,1,0,0:0:0:0:
448,192,1067536,1,0,0:0:0:0:
192,192,1067661,1,0,0:0:0:0:
192,192,1067786,1,0,0:0:0:0:
64,192,1068036,1,0,0:0:0:0:
320,192,1068036,1,0,0:0:0:0:
320,192,1068161,1,0,0:0:0:0:
192,192,1068286,1,0,0:0:0:0:
320,192,1068286,1,0,0:0:0:0:
320,192,1068411,1,0,0:0:0:0:
448,192,1068536,1,0,0:0:0:0:
64,192,1068536,1,0,0:0:0:0:
192,192,1068536,1,0,0:0:0:0:
320,192,1068786,1,0,0:0:0:0:
448,192,1068786,1,0,0:0:0:0:
192,192,1068911,1,0,0:0:0:0:
64,192,1068911,1,0,0:0:0:0:
320,192,1068911,1,0,0:0:0:0:
448,192,1069036,1,0,0:0:0:0:
64,192,1069036,1,0,0:0:0:0:
64,192,1069286,1,0,0:0:0:0:
192,192,1069286,1,0,0:0:0:0:
320,192,1069411,1,0,0:0:0:0:
192,192,1069473,1,0,0:0:0:0:
448,192,1069536,1,0,0:0:0:0:
64,192,1069536,1,0,0:0:0:0:
448,192,1069661,1,0,0:0:0:0:
448,192,1069786,1,0,0:0:0:0:
320,192,1069786,1,0,0:0:0:0:
448,192,1070036,1,0,0:0:0:0:
192,192,1070036,1,0,0:0:0:0:
320,192,1070161,1,0,0:0:0:0:
192,192,1070286,1,0,0:0:0:0:
448,192,1070286,1,0,0:0:0:0:
64,192,1070411,1,0,0:0:0:0:
448,192,1070536,1,0,0:0:0:0:
192,192,1070536,1,0,0:0:0:0:
320,192,1070536,1,0,0:0:0:0:
192,192,1070911,1,0,0:0:0:0:
320,192,1070911,1,0,0:0:0:0:
192,192,1071286,1,0,0:0:0:0:
320,192,1071286,1,0,0:0:0:0:
64,192,1071286,1,0,0:0:0:0:
192,192,1071536,1,0,0:0:0:0:
448,192,1071536,1,0,0:0:0:0:
192,192,1071661,1,0,0:0:0:0:
192,192,1071786,1,0,0:0:0:0:
320,192,1071786,1,0,0:0:0:0:
64,192,1072036,1,0,0:0:0:0:
320,192,1072036,1,0,0:0:0:0:
448,192,1072036,1,0,0:0:0:0:
320,192,1072161,1,0,0:0:0:0:
192,192,1072286,1,0,0:0:0:0:
320,192,1072286,1,0,0:0:0:0:
64,192,1072286,1,0,0:0:0:0:
320,192,1072411,1,0,0:0:0:0:
448,192,1072536,1,0,0:0:0:0:
64,192,1072536,1,0,0:0:0:0:
192,192,1072536,1,0,0:0:0:0:
64,192,1072786,1,0,0:0:0:0:
192,192,1072786,1,0,0:0:0:0:
320,192,1072911,1,0,0:0:0:0:
64,192,1072911,1,0,0:0:0:0:
192,192,1072911,1,0,0:0:0:0:
448,192,1072911,1,0,0:0:0:0:
320,192,1073036,1,0,0:0:0:0:
448,192,1073036,1,0,0:0:0:0:
64,192,1073286,1,0,0:0:0:0:
192,192,1073286,1,0,0:0:0:0:
448,192,1073536,1,0,0:0:0:0:
192,192,1073536,1,0,0:0:0:0:
64,192,1073536,1,0,0:0:0:0:
192,192,1073661,1,0,0:0:0:0:
192,192,1073786,1,0,0:0:0:0:
320,192,1073911,1,0,0:0:0:0:
448,192,1073911,1,0,0:0:0:0:
320,192,1074036,1,0,0:0:0:0:
64,192,1074036,1,0,0:0:0:0:
192,192,1074036,1,0,0:0:0:0:
64,192,1074161,1,0,0:0:0:0:
64,192,1074286,1,0,0:0:0:0:
448,192,1074286,1,0,0:0:0:0:
64,192,1074411,1,0,0:0:0:0:
320,192,1074411,1,0,0:0:0:0:
64,192,1074536,1,0,0:0:0:0:
192,192,1074536,1,0,0:0:0:0:
448,192,1074536,1,0,0:0:0:0:
64,192,1074911,1,0,0:0:0:0:
320,192,1074911,1,0,0:0:0:0:
448,192,1075036,1,0,0:0:0:0:
192,192,1075286,1,0,0:0:0:0:
448,192,1075286,1,0,0:0:0:0:
448,192,1075536,1,0,0:0:0:0:
320,192,1075536,1,0,0:0:0:0:
448,192,1075661,1,0,0:0:0:0:
448,192,1075786,1,0,0:0:0:0:
192,192,1075786,1,0,0:0:0:0:
64,192,1076036,1,0,0:0:0:0:
320,192,1076036,1,0,0:0:0:0:
448,192,1076036,1,0,0:0:0:0:
320,192,1076161,1,0,0:0:0:0:
192,192,1076286,1,0,0:0:0:0:
320,192,1076286,1,0,0:0:0:0:
320,192,1076411,1,0,0:0:0:0:
448,192,1076536,1,0,0:0:0:0:
64,192,1076536,1,0,0:0:0:0:
192,192,1076536,1,0,0:0:0:0:
64,192,1076786,1,0,0:0:0:0:
192,192,1076911,1,0,0:0:0:0:
448,192,1076911,1,0,0:0:0:0:
64,192,1076911,1,0,0:0:0:0:
448,192,1077036,1,0,0:0:0:0:
64,192,1077286,1,0,0:0:0:0:
192,192,1077286,1,0,0:0:0:0:
448,192,1077536,1,0,0:0:0:0:
64,192,1077536,1,0,0:0:0:0:
320,192,1077661,1,0,0:0:0:0:
192,192,1077786,1,0,0:0:0:0:
448,192,1077786,1,0,0:0:0:0:
64,192,1077911,1,0,0:0:0:0:
320,192,1077911,1,0,0:0:0:0:
320,192,1078036,1,0,0:0:0:0:
64,192,1078036,1,0,0:0:0:0:
448,192,1078036,1,0,0:0:0:0:
192,192,1078161,1,0,0:0:0:0:
320,192,1078286,1,0,0:0:0:0:
448,192,1078411,1,0,0:0:0:0:
64,192,1078536,1,0,0:0:0:0:
192,192,1078536,1,0,0:0:0:0:
320,192,1078536,1,0,0:0:0:0:
448,192,1078536,1,0,0:0:0:0:
192,192,1079036,1,0,0:0:0:0:
320,192,1079036,1,0,0:0:0:0:
448,192,1079286,1,0,0:0:0:0:
64,192,1079286,1,0,0:0:0:0:
64,192,1079411,1,0,0:0:0:0:
320,192,1079536,1,0,0:0:0:0:
64,192,1079536,1,0,0:0:0:0:
448,192,1079786,1,0,0:0:0:0:
448,192,1079911,1,0,0:0:0:0:
320,192,1080036,1,0,0:0:0:0:
192,192,1080036,1,0,0:0:0:0:
64,192,1080036,1,0,0:0:0:0:
192,192,1080161,1,0,0:0:0:0:
192,192,1080286,1,0,0:0:0:0:
192,192,1080411,1,0,0:0:0:0:
64,192,1080536,1,0,0:0:0:0:
320,192,1080536,1,0,0:0:0:0:
448,192,1080536,1,0,0:0:0:0:
192,192,1081036,1,0,0:0:0:0:
320,192,1081036,1,0,0:0:0:0:
64,192,1081036,1,0,0:0:0:0:
448,192,1081286,1,0,0:0:0:0:
448,192,1081411,1,0,0:0:0:0:
320,192,1081536,1,0,0:0:0:0:
192,192,1081536,1,0,0:0:0:0:
448,192,1081536,1,0,0:0:0:0:
64,192,1081786,1,0,0:0:0:0:
64,192,1081911,1,0,0:0:0:0:
448,192,1082036,1,0,0:0:0:0:
320,192,1082036,1,0,0:0:0:0:
192,192,1082036,1,0,0:0:0:0:
192,192,1082161,1,0,0:0:0:0:
192,192,1082286,1,0,0:0:0:0:
192,192,1082411,1,0,0:0:0:0:
64,192,1082536,1,0,0:0:0:0:
320,192,1082536,1,0,0:0:0:0:
448,192,1082536,1,0,0:0:0:0:
192,192,1082786,1,0,0:0:0:0:
320,192,1082911,1,0,0:0:0:0:
448,192,1083036,1,0,0:0:0:0:
192,192,1083036,1,0,0:0:0:0:
64,192,1083036,1,0,0:0:0:0:
192,192,1083286,1,0,0:0:0:0:
192,192,1083411,1,0,0:0:0:0:
320,192,1083536,1,0,0:0:0:0:
448,192,1083536,1,0,0:0:0:0:
64,192,1083786,1,0,0:0:0:0:
448,192,1083786,1,0,0:0:0:0:
448,192,1083911,1,0,0:0:0:0:
192,192,1084036,1,0,0:0:0:0:
320,192,1084036,1,0,0:0:0:0:
64,192,1084036,1,0,0:0:0:0:
64,192,1084161,1,0,0:0:0:0:
448,192,1084286,1,0,0:0:0:0:
64,192,1084286,1,0,0:0:0:0:
64,192,1084411,1,0,0:0:0:0:
320,192,1084536,1,0,0:0:0:0:
448,192,1084536,1,0,0:0:0:0:
448,192,1085036,1,0,0:0:0:0:
192,192,1085036,1,0,0:0:0:0:
64,192,1085036,1,0,0:0:0:0:
64,192,1085286,1,0,0:0:0:0:
64,192,1085411,1,0,0:0:0:0:
320,192,1085536,1,0,0:0:0:0:
192,192,1085536,1,0,0:0:0:0:
448,192,1085536,1,0,0:0:0:0:
192,192,1086036,1,0,0:0:0:0:
320,192,1086036,1,0,0:0:0:0:
448,192,1086546,1,0,0:0:0:0:
64,192,1086546,1,0,0:0:0:0:
320,192,1086546,1,0,0:0:0:0:
64,192,1086796,1,0,0:0:0:0:
64,192,1087046,1,0,0:0:0:0:
192,192,1087046,1,0,0:0:0:0:
448,192,1087296,1,0,0:0:0:0:
64,192,1087296,1,0,0:0:0:0:
192,192,1087546,1,0,0:0:0:0:
320,192,1087546,1,0,0:0:0:0:
192,192,1087796,1,0,0:0:0:0:
448,192,1088046,1,0,0:0:0:0:
64,192,1088046,1,0,0:0:0:0:
192,192,1088046,1,0,0:0:0:0:
192,192,1088296,1,0,0:0:0:0:
448,192,1088546,1,0,0:0:0:0:
64,192,1088546,1,0,0:0:0:0:
320,192,1088546,1,0,0:0:0:0:
320,192,1088796,1,0,0:0:0:0:
448,192,1089046,1,0,0:0:0:0:
320,192,1089046,1,0,0:0:0:0:
192,192,1089046,1,0,0:0:0:0:
320,192,1089296,1,0,0:0:0:0:
448,192,1089546,1,0,0:0:0:0:
64,192,1089546,1,0,0:0:0:0:
320,192,1089546,1,0,0:0:0:0:
320,192,1089796,1,0,0:0:0:0:
192,192,1089921,1,0,0:0:0:0:
448,192,1090046,1,0,0:0:0:0:
320,192,1090046,1,0,0:0:0:0:
64,192,1090046,1,0,0:0:0:0:
192,192,1090171,1,0,0:0:0:0:
320,192,1090296,1,0,0:0:0:0:
448,192,1090546,1,0,0:0:0:0:
64,192,1090546,1,0,0:0:0:0:
320,192,1090546,1,0,0:0:0:0:
320,192,1090796,1,0,0:0:0:0:
64,192,1090796,1,0,0:0:0:0:
448,192,1090921,1,0,0:0:0:0:
192,192,1090921,1,0,0:0:0:0:
448,192,1091046,1,0,0:0:0:0:
320,192,1091046,1,0,0:0:0:0:
64,192,1091046,1,0,0:0:0:0:
192,192,1091296,1,0,0:0:0:0:
192,192,1091546,1,0,0:0:0:0:
320,192,1091546,1,0,0:0:0:0:
448,192,1091796,1,0,0:0:0:0:
64,192,1091796,1,0,0:0:0:0:
192,192,1091921,1,0,0:0:0:0:
448,192,1092046,1,0,0:0:0:0:
64,192,1092046,1,0,0:0:0:0:
320,192,1092046,1,0,0:0:0:0:
192,192,1092171,1,0,0:0:0:0:
320,192,1092296,1,0,0:0:0:0:
192,192,1092421,1,0,0:0:0:0:
448,192,1092546,1,0,0:0:0:0:
64,192,1092546,1,0,0:0:0:0:
320,192,1092546,1,0,0:0:0:0:
448,192,1092796,1,0,0:0:0:0:
64,192,1092796,1,0,0:0:0:0:
192,192,1092796,1,0,0:0:0:0:
320,192,1092921,1,0,0:0:0:0:
448,192,1093046,1,0,0:0:0:0:
64,192,1093046,1,0,0:0:0:0:
192,192,1093046,1,0,0:0:0:0:
64,192,1093546,1,0,0:0:0:0:
192,192,1093608,1,0,0:0:0:0:
320,192,1093671,1,0,0:0:0:0:
448,192,1093733,1,0,0:0:0:0:
192,192,1093796,1,0,0:0:0:0:
64,192,1093858,1,0,0:0:0:0:
448,192,1093921,1,0,0:0:0:0:
320,192,1093983,5,0,0:0:0:0:
64,192,1094046,1,0,0:0:0:0:
192,192,1094108,1,0,0:0:0:0:
320,192,1094171,1,0,0:0:0:0:
448,192,1094233,1,0,0:0:0:0:
192,192,1094296,1,0,0:0:0:0:
64,192,1094358,1,0,0:0:0:0:
448,192,1094421,1,0,0:0:0:0:
320,192,1094483,1,0,0:0:0:0:
64,192,1094546,5,0,0:0:0:0:
192,192,1094546,1,0,0:0:0:0:
64,192,1095046,1,0,0:0:0:0:
192,192,1095046,1,0,0:0:0:0:
64,192,1095546,1,0,0:0:0:0:
192,192,1095546,1,0,0:0:0:0:
64,192,1096046,1,0,0:0:0:0:
192,192,1096046,1,0,0:0:0:0:
64,192,1096296,1,0,0:0:0:0:
192,192,1096296,1,0,0:0:0:0:
64,192,1096546,1,0,0:0:0:0:
192,192,1096546,1,0,0:0:0:0:
64,192,1097046,1,0,0:0:0:0:
192,192,1097046,1,0,0:0:0:0:
64,192,1097546,1,0,0:0:0:0:
192,192,1097546,1,0,0:0:0:0:
64,192,1098046,1,0,0:0:0:0:
448,192,1098046,1,0,0:0:0:0:
192,192,1098046,1,0,0:0:0:0:
64,192,1098171,1,0,0:0:0:0:
448,192,1098171,1,0,0:0:0:0:
192,192,1098171,1,0,0:0:0:0:
64,192,1098296,1,0,0:0:0:0:
448,192,1098296,1,0,0:0:0:0:
192,192,1098296,1,0,0:0:0:0:
64,192,1098546,1,0,0:0:0:0:
448,192,1098546,1,0,0:0:0:0:
192,192,1098546,1,0,0:0:0:0:
64,192,1099046,1,0,0:0:0:0:
192,192,1099046,1,0,0:0:0:0:
64,192,1099546,1,0,0:0:0:0:
192,192,1099546,1,0,0:0:0:0:
64,192,1100046,1,0,0:0:0:0:
192,192,1100046,1,0,0:0:0:0:
64,192,1100296,1,0,0:0:0:0:
192,192,1100296,1,0,0:0:0:0:
64,192,1100546,1,0,0:0:0:0:
448,192,1100546,1,0,0:0:0:0:
192,192,1100546,1,0,0:0:0:0:
64,192,1101046,1,0,0:0:0:0:
448,192,1101046,1,0,0:0:0:0:
192,192,1101046,1,0,0:0:0:0:
64,192,1101546,1,0,0:0:0:0:
448,192,1101546,1,0,0:0:0:0:
192,192,1101546,1,0,0:0:0:0:
448,192,1101671,1,0,0:0:0:0:
448,192,1101796,1,0,0:0:0:0:
448,192,1101921,1,0,0:0:0:0:
64,192,1102046,1,0,0:0:0:0:
448,192,1102046,1,0,0:0:0:0:
192,192,1102046,1,0,0:0:0:0:
64,192,1102296,1,0,0:0:0:0:
448,192,1102296,1,0,0:0:0:0:
192,192,1102296,1,0,0:0:0:0:
64,192,1102546,1,0,0:0:0:0:
448,192,1102546,1,0,0:0:0:0:
192,192,1102546,1,0,0:0:0:0:
320,192,1102671,1,0,0:0:0:0:
64,192,1102796,1,0,0:0:0:0:
448,192,1102921,1,0,0:0:0:0:
192,192,1102921,1,0,0:0:0:0:
320,192,1103046,1,0,0:0:0:0:
64,192,1103046,1,0,0:0:0:0:
192,192,1103171,1,0,0:0:0:0:
448,192,1103296,1,0,0:0:0:0:
320,192,1103296,1,0,0:0:0:0:
192,192,1103421,1,0,0:0:0:0:
448,192,1103546,1,0,0:0:0:0:
320,192,1103546,1,0,0:0:0:0:
64,192,1103546,1,0,0:0:0:0:
192,192,1103671,1,0,0:0:0:0:
448,192,1103796,1,0,0:0:0:0:
320,192,1103921,1,0,0:0:0:0:
64,192,1103921,1,0,0:0:0:0:
448,192,1104046,1,0,0:0:0:0:
192,192,1104046,1,0,0:0:0:0:
448,192,1104171,1,0,0:0:0:0:
320,192,1104171,1,0,0:0:0:0:
448,192,1104296,1,0,0:0:0:0:
64,192,1104296,1,0,0:0:0:0:
192,192,1104296,1,0,0:0:0:0:
448,192,1104421,1,0,0:0:0:0:
320,192,1104421,1,0,0:0:0:0:
448,192,1104546,1,0,0:0:0:0:
64,192,1104546,1,0,0:0:0:0:
192,192,1104546,1,0,0:0:0:0:
320,192,1104671,1,0,0:0:0:0:
64,192,1104796,1,0,0:0:0:0:
448,192,1104921,1,0,0:0:0:0:
192,192,1104921,1,0,0:0:0:0:
320,192,1105046,1,0,0:0:0:0:
64,192,1105046,1,0,0:0:0:0:
192,192,1105171,1,0,0:0:0:0:
448,192,1105296,1,0,0:0:0:0:
320,192,1105296,1,0,0:0:0:0:
64,192,1105421,1,0,0:0:0:0:
448,192,1105546,1,0,0:0:0:0:
320,192,1105546,1,0,0:0:0:0:
192,192,1105546,1,0,0:0:0:0:
64,192,1105671,1,0,0:0:0:0:
448,192,1105796,1,0,0:0:0:0:
320,192,1105921,1,0,0:0:0:0:
64,192,1105921,1,0,0:0:0:0:
448,192,1106046,1,0,0:0:0:0:
192,192,1106046,1,0,0:0:0:0:
320,192,1106171,1,0,0:0:0:0:
192,192,1106171,1,0,0:0:0:0:
448,192,1106296,1,0,0:0:0:0:
192,192,1106296,1,0,0:0:0:0:
64,192,1106296,1,0,0:0:0:0:
320,192,1106421,1,0,0:0:0:0:
192,192,1106421,1,0,0:0:0:0:
448,192,1106546,1,0,0:0:0:0:
64,192,1106546,1,0,0:0:0:0:
192,192,1106546,1,0,0:0:0:0:
64,192,1106671,1,0,0:0:0:0:
320,192,1106796,1,0,0:0:0:0:
448,192,1106921,1,0,0:0:0:0:
192,192,1106921,1,0,0:0:0:0:
320,192,1107046,1,0,0:0:0:0:
64,192,1107046,1,0,0:0:0:0:
192,192,1107171,1,0,0:0:0:0:
448,192,1107296,1,0,0:0:0:0:
64,192,1107296,1,0,0:0:0:0:
320,192,1107421,1,0,0:0:0:0:
448,192,1107546,1,0,0:0:0:0:
64,192,1107546,1,0,0:0:0:0:
192,192,1107546,1,0,0:0:0:0:
320,192,1107671,1,0,0:0:0:0:
448,192,1107796,1,0,0:0:0:0:
192,192,1107921,1,0,0:0:0:0:
64,192,1107921,1,0,0:0:0:0:
320,192,1108046,1,0,0:0:0:0:
448,192,1108046,1,0,0:0:0:0:
192,192,1108171,1,0,0:0:0:0:
320,192,1108171,1,0,0:0:0:0:
64,192,1108296,1,0,0:0:0:0:
320,192,1108296,1,0,0:0:0:0:
448,192,1108296,1,0,0:0:0:0:
320,192,1108421,1,0,0:0:0:0:
192,192,1108421,1,0,0:0:0:0:
448,192,1108546,1,0,0:0:0:0:
320,192,1108546,1,0,0:0:0:0:
64,192,1108546,1,0,0:0:0:0:
192,192,1108671,1,0,0:0:0:0:
320,192,1108796,1,0,0:0:0:0:
448,192,1108921,1,0,0:0:0:0:
192,192,1108921,1,0,0:0:0:0:
320,192,1109046,1,0,0:0:0:0:
64,192,1109046,1,0,0:0:0:0:
192,192,1109171,1,0,0:0:0:0:
448,192,1109296,1,0,0:0:0:0:
320,192,1109296,1,0,0:0:0:0:
192,192,1109421,1,0,0:0:0:0:
448,192,1109546,1,0,0:0:0:0:
320,192,1109546,1,0,0:0:0:0:
64,192,1109546,1,0,0:0:0:0:
192,192,1109671,1,0,0:0:0:0:
320,192,1109796,1,0,0:0:0:0:
448,192,1109921,1,0,0:0:0:0:
192,192,1109921,1,0,0:0:0:0:
64,192,1110046,1,0,0:0:0:0:
192,192,1110108,1,0,0:0:0:0:
320,192,1110171,1,0,0:0:0:0:
448,192,1110233,1,0,0:0:0:0:
320,192,1110296,1,0,0:0:0:0:
64,192,1110296,1,0,0:0:0:0:
192,192,1110358,1,0,0:0:0:0:
320,192,1110421,1,0,0:0:0:0:
448,192,1110483,1,0,0:0:0:0:
192,192,1110546,1,0,0:0:0:0:
64,192,1110546,1,0,0:0:0:0:
320,192,1110546,1,0,0:0:0:0:
448,192,1110608,1,0,0:0:0:0:
320,192,1110671,1,0,0:0:0:0:
192,192,1110733,1,0,0:0:0:0:
448,192,1110796,1,0,0:0:0:0:
320,192,1110796,1,0,0:0:0:0:
192,192,1110858,1,0,0:0:0:0:
64,192,1110921,1,0,0:0:0:0:
192,192,1110983,1,0,0:0:0:0:
448,192,1111046,1,0,0:0:0:0:
64,192,1111046,1,0,0:0:0:0:
320,192,1111046,1,0,0:0:0:0:
192,192,1111108,1,0,0:0:0:0:
448,192,1111171,1,0,0:0:0:0:
320,192,1111171,1,0,0:0:0:0:
192,192,1111233,1,0,0:0:0:0:
448,192,1111296,1,0,0:0:0:0:
64,192,1111296,1,0,0:0:0:0:
320,192,1111296,1,0,0:0:0:0:
192,192,1111358,1,0,0:0:0:0:
448,192,1111421,1,0,0:0:0:0:
320,192,1111421,1,0,0:0:0:0:
192,192,1111483,1,0,0:0:0:0:
448,192,1111546,1,0,0:0:0:0:
64,192,1111546,1,0,0:0:0:0:
320,192,1111546,1,0,0:0:0:0:
192,192,1111608,1,0,0:0:0:0:
448,192,1111671,1,0,0:0:0:0:
320,192,1111733,1,0,0:0:0:0:
64,192,1111796,1,0,0:0:0:0:
192,192,1111796,1,0,0:0:0:0:
320,192,1111858,1,0,0:0:0:0:
448,192,1111921,1,0,0:0:0:0:
320,192,1111983,1,0,0:0:0:0:
448,192,1112046,1,0,0:0:0:0:
64,192,1112046,1,0,0:0:0:0:
192,192,1112046,1,0,0:0:0:0:
320,192,1112108,1,0,0:0:0:0:
64,192,1112171,1,0,0:0:0:0:
192,192,1112171,1,0,0:0:0:0:
320,192,1112233,1,0,0:0:0:0:
448,192,1112296,1,0,0:0:0:0:
64,192,1112296,1,0,0:0:0:0:
192,192,1112296,1,0,0:0:0:0:
320,192,1112358,1,0,0:0:0:0:
448,192,1112421,1,0,0:0:0:0:
64,192,1112421,1,0,0:0:0:0:
192,192,1112421,1,0,0:0:0:0:
320,192,1112483,1,0,0:0:0:0:
448,192,1112546,1,0,0:0:0:0:
64,192,1112546,1,0,0:0:0:0:
192,192,1112546,1,0,0:0:0:0:
320,192,1112608,1,0,0:0:0:0:
192,192,1112671,1,0,0:0:0:0:
64,192,1112733,1,0,0:0:0:0:
448,192,1112796,1,0,0:0:0:0:
320,192,1112796,1,0,0:0:0:0:
192,192,1112858,1,0,0:0:0:0:
64,192,1112921,1,0,0:0:0:0:
192,192,1112983,1,0,0:0:0:0:
448,192,1113046,1,0,0:0:0:0:
320,192,1113046,1,0,0:0:0:0:
192,192,1113108,1,0,0:0:0:0:
64,192,1113171,1,0,0:0:0:0:
192,192,1113233,1,0,0:0:0:0:
448,192,1113296,1,0,0:0:0:0:
64,192,1113296,1,0,0:0:0:0:
320,192,1113296,1,0,0:0:0:0:
192,192,1113358,1,0,0:0:0:0:
320,192,1113421,1,0,0:0:0:0:
192,192,1113483,1,0,0:0:0:0:
448,192,1113546,1,0,0:0:0:0:
64,192,1113546,1,0,0:0:0:0:
320,192,1113546,1,0,0:0:0:0:
192,192,1113608,1,0,0:0:0:0:
320,192,1113671,1,0,0:0:0:0:
448,192,1113733,1,0,0:0:0:0:
320,192,1113796,1,0,0:0:0:0:
64,192,1113796,1,0,0:0:0:0:
192,192,1113858,1,0,0:0:0:0:
64,192,1113921,1,0,0:0:0:0:
192,192,1113983,1,0,0:0:0:0:
448,192,1114046,1,0,0:0:0:0:
320,192,1114046,1,0,0:0:0:0:
192,192,1114108,1,0,0:0:0:0:
448,192,1114171,1,0,0:0:0:0:
320,192,1114171,1,0,0:0:0:0:
192,192,1114233,1,0,0:0:0:0:
448,192,1114296,1,0,0:0:0:0:
64,192,1114296,1,0,0:0:0:0:
320,192,1114296,1,0,0:0:0:0:
192,192,1114358,1,0,0:0:0:0:
320,192,1114421,1,0,0:0:0:0:
448,192,1114421,1,0,0:0:0:0:
192,192,1114483,1,0,0:0:0:0:
448,192,1114546,1,0,0:0:0:0:
64,192,1114546,1,0,0:0:0:0:
320,192,1114546,1,0,0:0:0:0:
192,192,1114608,1,0,0:0:0:0:
64,192,1114671,1,0,0:0:0:0:
192,192,1114733,1,0,0:0:0:0:
448,192,1114796,1,0,0:0:0:0:
320,192,1114796,1,0,0:0:0:0:
192,192,1114858,1,0,0:0:0:0:
64,192,1114921,1,0,0:0:0:0:
192,192,1114983,1,0,0:0:0:0:
320,192,1115046,1,0,0:0:0:0:
64,192,1115046,1,0,0:0:0:0:
448,192,1115046,1,0,0:0:0:0:
192,192,1115108,1,0,0:0:0:0:
448,192,1115171,1,0,0:0:0:0:
320,192,1115171,1,0,0:0:0:0:
192,192,1115233,1,0,0:0:0:0:
448,192,1115296,1,0,0:0:0:0:
64,192,1115296,1,0,0:0:0:0:
320,192,1115296,1,0,0:0:0:0:
192,192,1115358,1,0,0:0:0:0:
448,192,1115421,1,0,0:0:0:0:
320,192,1115421,1,0,0:0:0:0:
192,192,1115483,1,0,0:0:0:0:
448,192,1115546,1,0,0:0:0:0:
320,192,1115546,1,0,0:0:0:0:
64,192,1115546,1,0,0:0:0:0:
192,192,1115608,1,0,0:0:0:0:
320,192,1115671,1,0,0:0:0:0:
448,192,1115733,1,0,0:0:0:0:
320,192,1115796,1,0,0:0:0:0:
64,192,1115796,1,0,0:0:0:0:
192,192,1115858,1,0,0:0:0:0:
64,192,1115921,1,0,0:0:0:0:
448,192,1115983,1,0,0:0:0:0:
320,192,1116046,1,0,0:0:0:0:
64,192,1116046,1,0,0:0:0:0:
192,192,1116046,1,0,0:0:0:0:
448,192,1116108,1,0,0:0:0:0:
192,192,1116171,1,0,0:0:0:0:
64,192,1116171,1,0,0:0:0:0:
320,192,1116233,1,0,0:0:0:0:
448,192,1116296,1,0,0:0:0:0:
64,192,1116296,1,0,0:0:0:0:
192,192,1116296,1,0,0:0:0:0:
320,192,1116358,1,0,0:0:0:0:
448,192,1116421,1,0,0:0:0:0:
64,192,1116421,1,0,0:0:0:0:
192,192,1116421,1,0,0:0:0:0:
320,192,1116483,1,0,0:0:0:0:
448,192,1116546,1,0,0:0:0:0:
64,192,1116546,1,0,0:0:0:0:
192,192,1116546,1,0,0:0:0:0:
320,192,1116608,1,0,0:0:0:0:
192,192,1116671,1,0,0:0:0:0:
64,192,1116733,1,0,0:0:0:0:
448,192,1116796,1,0,0:0:0:0:
192,192,1116796,1,0,0:0:0:0:
320,192,1116858,1,0,0:0:0:0:
192,192,1116921,1,0,0:0:0:0:
64,192,1116983,1,0,0:0:0:0:
448,192,1117046,1,0,0:0:0:0:
192,192,1117046,1,0,0:0:0:0:
320,192,1117108,1,0,0:0:0:0:
448,192,1117171,1,0,0:0:0:0:
320,192,1117233,1,0,0:0:0:0:
192,192,1117296,1,0,0:0:0:0:
64,192,1117296,1,0,0:0:0:0:
320,192,1117358,1,0,0:0:0:0:
192,192,1117421,1,0,0:0:0:0:
64,192,1117483,1,0,0:0:0:0:
448,192,1117546,1,0,0:0:0:0:
320,192,1117546,1,0,0:0:0:0:
192,192,1117546,1,0,0:0:0:0:
64,192,1117671,1,0,0:0:0:0:
192,192,1117671,1,0,0:0:0:0:
320,192,1117671,1,0,0:0:0:0:
320,192,1117796,1,0,0:0:0:0:
448,192,1117796,1,0,0:0:0:0:
64,192,1117796,1,0,0:0:0:0:
64,192,1117921,1,0,0:0:0:0:
192,192,1117921,1,0,0:0:0:0:
448,192,1117921,1,0,0:0:0:0:
448,192,1118046,1,0,0:0:0:0:
192,192,1118046,1,0,0:0:0:0:
320,192,1118046,1,0,0:0:0:0:
64,192,1118108,1,0,0:0:0:0:
192,192,1118171,1,0,0:0:0:0:
320,192,1118233,1,0,0:0:0:0:
64,192,1118296,1,0,0:0:0:0:
192,192,1118296,1,0,0:0:0:0:
448,192,1118296,1,0,0:0:0:0:
320,192,1118358,1,0,0:0:0:0:
448,192,1118421,1,0,0:0:0:0:
320,192,1118483,1,0,0:0:0:0:
448,192,1118546,1,0,0:0:0:0:
64,192,1118546,1,0,0:0:0:0:
192,192,1118546,1,0,0:0:0:0:
320,192,1118608,1,0,0:0:0:0:
192,192,1118671,1,0,0:0:0:0:
320,192,1118733,1,0,0:0:0:0:
448,192,1118796,1,0,0:0:0:0:
320,192,1118858,1,0,0:0:0:0:
192,192,1118921,1,0,0:0:0:0:
64,192,1118921,1,0,0:0:0:0:
320,192,1118983,1,0,0:0:0:0:
448,192,1119046,1,0,0:0:0:0:
320,192,1119108,1,0,0:0:0:0:
192,192,1119171,1,0,0:0:0:0:
64,192,1119233,1,0,0:0:0:0:
448,192,1119296,1,0,0:0:0:0:
320,192,1119296,1,0,0:0:0:0:
192,192,1119296,1,0,0:0:0:0:
64,192,1119358,1,0,0:0:0:0:
192,192,1119421,1,0,0:0:0:0:
320,192,1119483,1,0,0:0:0:0:
448,192,1119546,1,0,0:0:0:0:
64,192,1119546,1,0,0:0:0:0:
192,192,1119546,1,0,0:0:0:0:
320,192,1119608,1,0,0:0:0:0:
192,192,1119671,1,0,0:0:0:0:
64,192,1119733,1,0,0:0:0:0:
192,192,1119796,1,0,0:0:0:0:
320,192,1119858,1,0,0:0:0:0:
448,192,1119921,1,0,0:0:0:0:
192,192,1119921,1,0,0:0:0:0:
320,192,1119983,1,0,0:0:0:0:
448,192,1120046,1,0,0:0:0:0:
192,192,1120046,1,0,0:0:0:0:
64,192,1120046,1,0,0:0:0:0:
320,192,1120108,1,0,0:0:0:0:
448,192,1120171,1,0,0:0:0:0:
320,192,1120233,1,0,0:0:0:0:
192,192,1120296,1,0,0:0:0:0:
64,192,1120296,1,0,0:0:0:0:
320,192,1120358,1,0,0:0:0:0:
192,192,1120421,1,0,0:0:0:0:
320,192,1120483,1,0,0:0:0:0:
448,192,1120546,1,0,0:0:0:0:
64,192,1120546,1,0,0:0:0:0:
192,192,1120546,1,0,0:0:0:0:
320,192,1120608,1,0,0:0:0:0:
192,192,1120671,1,0,0:0:0:0:
64,192,1120733,1,0,0:0:0:0:
192,192,1120796,1,0,0:0:0:0:
64,192,1120858,1,0,0:0:0:0:
448,192,1120921,1,0,0:0:0:0:
192,192,1120921,1,0,0:0:0:0:
320,192,1120983,1,0,0:0:0:0:
192,192,1121046,1,0,0:0:0:0:
320,192,1121108,1,0,0:0:0:0:
448,192,1121171,1,0,0:0:0:0:
320,192,1121233,1,0,0:0:0:0:
448,192,1121296,1,0,0:0:0:0:
64,192,1121296,1,0,0:0:0:0:
192,192,1121296,1,0,0:0:0:0:
320,192,1121358,1,0,0:0:0:0:
192,192,1121421,1,0,0:0:0:0:
320,192,1121483,1,0,0:0:0:0:
448,192,1121546,1,0,0:0:0:0:
64,192,1121546,1,0,0:0:0:0:
192,192,1121546,1,0,0:0:0:0:
320,192,1121608,1,0,0:0:0:0:
192,192,1121671,1,0,0:0:0:0:
64,192,1121733,1,0,0:0:0:0:
192,192,1121796,1,0,0:0:0:0:
320,192,1121858,1,0,0:0:0:0:
448,192,1121921,1,0,0:0:0:0:
192,192,1121921,1,0,0:0:0:0:
64,192,1121983,1,0,0:0:0:0:
448,192,1122046,1,0,0:0:0:0:
192,192,1122046,1,0,0:0:0:0:
320,192,1122046,1,0,0:0:0:0:
448,192,1122171,1,0,0:0:0:0:
192,192,1122171,1,0,0:0:0:0:
64,192,1122171,1,0,0:0:0:0:
448,192,1122296,1,0,0:0:0:0:
320,192,1122296,1,0,0:0:0:0:
64,192,1122296,1,0,0:0:0:0:
64,192,1122421,1,0,0:0:0:0:
320,192,1122421,1,0,0:0:0:0:
192,192,1122421,1,0,0:0:0:0:
448,192,1122546,1,0,0:0:0:0:
64,192,1122546,1,0,0:0:0:0:
192,192,1122546,1,0,0:0:0:0:
320,192,1122608,1,0,0:0:0:0:
192,192,1122671,1,0,0:0:0:0:
320,192,1122733,1,0,0:0:0:0:
64,192,1122796,1,0,0:0:0:0:
192,192,1122796,1,0,0:0:0:0:
320,192,1122858,1,0,0:0:0:0:
448,192,1122921,1,0,0:0:0:0:
320,192,1122983,1,0,0:0:0:0:
64,192,1123046,1,0,0:0:0:0:
192,192,1123046,1,0,0:0:0:0:
320,192,1123108,1,0,0:0:0:0:
448,192,1123171,1,0,0:0:0:0:
320,192,1123233,1,0,0:0:0:0:
64,192,1123296,1,0,0:0:0:0:
192,192,1123296,1,0,0:0:0:0:
320,192,1123358,1,0,0:0:0:0:
192,192,1123421,1,0,0:0:0:0:
64,192,1123483,1,0,0:0:0:0:
448,192,1123546,1,0,0:0:0:0:
320,192,1123546,1,0,0:0:0:0:
192,192,1123546,1,0,0:0:0:0:
64,192,1123608,1,0,0:0:0:0:
192,192,1123671,1,0,0:0:0:0:
320,192,1123733,1,0,0:0:0:0:
64,192,1123796,1,0,0:0:0:0:
192,192,1123796,1,0,0:0:0:0:
320,192,1123858,1,0,0:0:0:0:
448,192,1123921,1,0,0:0:0:0:
320,192,1123983,1,0,0:0:0:0:
64,192,1124046,1,0,0:0:0:0:
192,192,1124046,1,0,0:0:0:0:
320,192,1124108,1,0,0:0:0:0:
448,192,1124171,1,0,0:0:0:0:
320,192,1124233,1,0,0:0:0:0:
448,192,1124296,1,0,0:0:0:0:
192,192,1124296,1,0,0:0:0:0:
320,192,1124358,1,0,0:0:0:0:
64,192,1124421,1,0,0:0:0:0:
192,192,1124421,1,0,0:0:0:0:
320,192,1124483,1,0,0:0:0:0:
448,192,1124546,1,0,0:0:0:0:
64,192,1124546,1,0,0:0:0:0:
192,192,1124546,1,0,0:0:0:0:
320,192,1124608,1,0,0:0:0:0:
192,192,1124671,1,0,0:0:0:0:
64,192,1124733,1,0,0:0:0:0:
448,192,1124796,1,0,0:0:0:0:
192,192,1124796,1,0,0:0:0:0:
320,192,1124858,1,0,0:0:0:0:
192,192,1124921,1,0,0:0:0:0:
64,192,1124983,1,0,0:0:0:0:
448,192,1125046,1,0,0:0:0:0:
192,192,1125046,1,0,0:0:0:0:
320,192,1125108,1,0,0:0:0:0:
192,192,1125171,1,0,0:0:0:0:
64,192,1125233,1,0,0:0:0:0:
448,192,1125296,1,0,0:0:0:0:
192,192,1125296,1,0,0:0:0:0:
320,192,1125358,1,0,0:0:0:0:
192,192,1125421,1,0,0:0:0:0:
64,192,1125483,1,0,0:0:0:0:
448,192,1125546,1,0,0:0:0:0:
320,192,1125546,1,0,0:0:0:0:
192,192,1125546,1,0,0:0:0:0:
64,192,1125608,1,0,0:0:0:0:
192,192,1125671,1,0,0:0:0:0:
320,192,1125733,1,0,0:0:0:0:
64,192,1125796,1,0,0:0:0:0:
192,192,1125796,1,0,0:0:0:0:
320,192,1125858,1,0,0:0:0:0:
448,192,1125921,1,0,0:0:0:0:
320,192,1125983,1,0,0:0:0:0:
448,192,1126046,1,0,0:0:0:0:
64,192,1126046,1,0,0:0:0:0:
192,192,1126046,1,0,0:0:0:0:
320,192,1126108,1,0,0:0:0:0:
448,192,1126171,1,0,0:0:0:0:
192,192,1126171,1,0,0:0:0:0:
64,192,1126233,1,0,0:0:0:0:
448,192,1126296,1,0,0:0:0:0:
192,192,1126296,1,0,0:0:0:0:
320,192,1126358,1,0,0:0:0:0:
448,192,1126421,1,0,0:0:0:0:
64,192,1126421,1,0,0:0:0:0:
192,192,1126421,1,0,0:0:0:0:
320,192,1126483,1,0,0:0:0:0:
448,192,1126546,1,0,0:0:0:0:
64,192,1126546,1,0,0:0:0:0:
192,192,1126546,1,0,0:0:0:0:
320,192,1126608,1,0,0:0:0:0:
192,192,1126671,1,0,0:0:0:0:
64,192,1126733,1,0,0:0:0:0:
448,192,1126796,1,0,0:0:0:0:
192,192,1126796,1,0,0:0:0:0:
320,192,1126858,1,0,0:0:0:0:
192,192,1126921,1,0,0:0:0:0:
64,192,1126983,1,0,0:0:0:0:
448,192,1127046,1,0,0:0:0:0:
192,192,1127046,1,0,0:0:0:0:
320,192,1127108,1,0,0:0:0:0:
192,192,1127171,1,0,0:0:0:0:
64,192,1127233,1,0,0:0:0:0:
448,192,1127296,1,0,0:0:0:0:
320,192,1127296,1,0,0:0:0:0:
192,192,1127358,1,0,0:0:0:0:
320,192,1127421,1,0,0:0:0:0:
448,192,1127483,1,0,0:0:0:0:
320,192,1127546,1,0,0:0:0:0:
64,192,1127546,1,0,0:0:0:0:
192,192,1127546,1,0,0:0:0:0:
448,192,1127608,1,0,0:0:0:0:
320,192,1127671,1,0,0:0:0:0:
192,192,1127733,1,0,0:0:0:0:
320,192,1127796,1,0,0:0:0:0:
64,192,1127796,1,0,0:0:0:0:
192,192,1127858,1,0,0:0:0:0:
320,192,1127921,1,0,0:0:0:0:
448,192,1127983,1,0,0:0:0:0:
320,192,1128046,1,0,0:0:0:0:
64,192,1128046,1,0,0:0:0:0:
192,192,1128108,1,0,0:0:0:0:
64,192,1128171,1,0,0:0:0:0:
192,192,1128233,1,0,0:0:0:0:
448,192,1128296,1,0,0:0:0:0:
320,192,1128296,1,0,0:0:0:0:
192,192,1128358,1,0,0:0:0:0:
448,192,1128421,1,0,0:0:0:0:
320,192,1128421,1,0,0:0:0:0:
192,192,1128483,1,0,0:0:0:0:
448,192,1128546,1,0,0:0:0:0:
64,192,1128546,1,0,0:0:0:0:
320,192,1128546,1,0,0:0:0:0:
192,192,1128608,1,0,0:0:0:0:
64,192,1128671,1,0,0:0:0:0:
320,192,1128671,1,0,0:0:0:0:
192,192,1128733,1,0,0:0:0:0:
64,192,1128796,1,0,0:0:0:0:
320,192,1128796,1,0,0:0:0:0:
448,192,1128858,1,0,0:0:0:0:
320,192,1128921,1,0,0:0:0:0:
64,192,1128921,1,0,0:0:0:0:
192,192,1128983,1,0,0:0:0:0:
448,192,1129046,1,0,0:0:0:0:
64,192,1129046,1,0,0:0:0:0:
320,192,1129046,1,0,0:0:0:0:
192,192,1129108,1,0,0:0:0:0:
320,192,1129171,1,0,0:0:0:0:
192,192,1129233,1,0,0:0:0:0:
448,192,1129296,1,0,0:0:0:0:
64,192,1129296,1,0,0:0:0:0:
320,192,1129296,1,0,0:0:0:0:
192,192,1129358,1,0,0:0:0:0:
320,192,1129421,1,0,0:0:0:0:
448,192,1129483,1,0,0:0:0:0:
320,192,1129546,1,0,0:0:0:0:
64,192,1129546,1,0,0:0:0:0:
192,192,1129546,1,0,0:0:0:0:
448,192,1129608,1,0,0:0:0:0:
320,192,1129671,1,0,0:0:0:0:
64,192,1129671,1,0,0:0:0:0:
192,192,1129733,1,0,0:0:0:0:
320,192,1129796,1,0,0:0:0:0:
64,192,1129796,1,0,0:0:0:0:
448,192,1129858,1,0,0:0:0:0:
320,192,1129921,1,0,0:0:0:0:
64,192,1129921,1,0,0:0:0:0:
192,192,1129983,1,0,0:0:0:0:
448,192,1130046,1,0,0:0:0:0:
64,192,1130046,1,0,0:0:0:0:
320,192,1130046,1,0,0:0:0:0:
192,192,1130108,1,0,0:0:0:0:
320,192,1130171,1,0,0:0:0:0:
192,192,1130233,1,0,0:0:0:0:
448,192,1130296,1,0,0:0:0:0:
64,192,1130296,1,0,0:0:0:0:
320,192,1130296,1,0,0:0:0:0:
192,192,1130358,1,0,0:0:0:0:
64,192,1130421,1,0,0:0:0:0:
192,192,1130483,1,0,0:0:0:0:
64,192,1130546,1,0,0:0:0:0:
448,192,1130546,1,0,0:0:0:0:
320,192,1130546,1,0,0:0:0:0:
192,192,1130608,1,0,0:0:0:0:
64,192,1130671,1,0,0:0:0:0:
448,192,1130671,1,0,0:0:0:0:
320,192,1130671,1,0,0:0:0:0:
192,192,1130733,1,0,0:0:0:0:
320,192,1130796,1,0,0:0:0:0:
448,192,1130796,1,0,0:0:0:0:
192,192,1130858,1,0,0:0:0:0:
64,192,1130921,1,0,0:0:0:0:
448,192,1130921,1,0,0:0:0:0:
320,192,1130921,1,0,0:0:0:0:
192,192,1130983,1,0,0:0:0:0:
64,192,1131046,1,0,0:0:0:0:
448,192,1131046,1,0,0:0:0:0:
320,192,1131046,1,0,0:0:0:0:
192,192,1131108,1,0,0:0:0:0:
448,192,1131171,1,0,0:0:0:0:
320,192,1131171,1,0,0:0:0:0:
192,192,1131233,1,0,0:0:0:0:
64,192,1131296,1,0,0:0:0:0:
448,192,1131296,1,0,0:0:0:0:
320,192,1131296,1,0,0:0:0:0:
192,192,1131358,1,0,0:0:0:0:
320,192,1131421,1,0,0:0:0:0:
448,192,1131421,1,0,0:0:0:0:
192,192,1131483,1,0,0:0:0:0:
64,192,1131546,1,0,0:0:0:0:
448,192,1131546,1,0,0:0:0:0:
320,192,1131546,1,0,0:0:0:0:
192,192,1131608,1,0,0:0:0:0:
320,192,1131671,1,0,0:0:0:0:
448,192,1131671,1,0,0:0:0:0:
64,192,1131733,1,0,0:0:0:0:
192,192,1131733,1,0,0:0:0:0:
448,192,1131796,1,0,0:0:0:0:
320,192,1131858,1,0,0:0:0:0:
192,192,1131921,1,0,0:0:0:0:
64,192,1131921,1,0,0:0:0:0:
448,192,1131921,1,0,0:0:0:0:
320,192,1131983,1,0,0:0:0:0:
448,192,1132046,1,0,0:0:0:0:
64,192,1132046,1,0,0:0:0:0:
192,192,1132046,1,0,0:0:0:0:
320,192,1132108,1,0,0:0:0:0:
448,192,1132171,1,0,0:0:0:0:
192,192,1132233,1,0,0:0:0:0:
64,192,1132233,1,0,0:0:0:0:
320,192,1132296,1,0,0:0:0:0:
448,192,1132296,1,0,0:0:0:0:
192,192,1132358,1,0,0:0:0:0:
448,192,1132421,1,0,0:0:0:0:
64,192,1132421,1,0,0:0:0:0:
320,192,1132421,1,0,0:0:0:0:
192,192,1132483,1,0,0:0:0:0:
448,192,1132546,1,0,0:0:0:0:
64,192,1132546,1,0,0:0:0:0:
320,192,1132546,1,0,0:0:0:0:
192,192,1132608,1,0,0:0:0:0:
320,192,1132671,1,0,0:0:0:0:
448,192,1132733,1,0,0:0:0:0:
320,192,1132796,1,0,0:0:0:0:
64,192,1132796,1,0,0:0:0:0:
192,192,1132796,1,0,0:0:0:0:
448,192,1132858,1,0,0:0:0:0:
320,192,1132921,1,0,0:0:0:0:
192,192,1132983,1,0,0:0:0:0:
448,192,1133046,1,0,0:0:0:0:
64,192,1133046,1,0,0:0:0:0:
320,192,1133046,1,0,0:0:0:0:
192,192,1133108,1,0,0:0:0:0:
320,192,1133171,1,0,0:0:0:0:
192,192,1133233,1,0,0:0:0:0:
448,192,1133296,1,0,0:0:0:0:
320,192,1133296,1,0,0:0:0:0:
64,192,1133296,1,0,0:0:0:0:
192,192,1133358,1,0,0:0:0:0:
448,192,1133421,1,0,0:0:0:0:
320,192,1133421,1,0,0:0:0:0:
192,192,1133483,1,0,0:0:0:0:
320,192,1133546,1,0,0:0:0:0:
64,192,1133546,1,0,0:0:0:0:
192,192,1133608,1,0,0:0:0:0:
448,192,1133671,1,0,0:0:0:0:
64,192,1133671,1,0,0:0:0:0:
320,192,1133733,1,0,0:0:0:0:
192,192,1133796,1,0,0:0:0:0:
448,192,1133796,1,0,0:0:0:0:
64,192,1133858,1,0,0:0:0:0:
448,192,1133921,1,0,0:0:0:0:
192,192,1133921,1,0,0:0:0:0:
320,192,1133983,1,0,0:0:0:0:
64,192,1134046,1,0,0:0:0:0:
448,192,1134046,1,0,0:0:0:0:
192,192,1134046,1,0,0:0:0:0:
320,192,1134108,1,0,0:0:0:0:
192,192,1134171,1,0,0:0:0:0:
448,192,1134171,1,0,0:0:0:0:
320,192,1134233,1,0,0:0:0:0:
64,192,1134296,1,0,0:0:0:0:
448,192,1134296,1,0,0:0:0:0:
192,192,1134296,1,0,0:0:0:0:
320,192,1134358,1,0,0:0:0:0:
64,192,1134421,1,0,0:0:0:0:
192,192,1134421,1,0,0:0:0:0:
448,192,1134421,1,0,0:0:0:0:
320,192,1134483,1,0,0:0:0:0:
64,192,1134546,1,0,0:0:0:0:
448,192,1134546,1,0,0:0:0:0:
192,192,1134546,1,0,0:0:0:0:
320,192,1134608,1,0,0:0:0:0:
192,192,1134671,1,0,0:0:0:0:
64,192,1134733,1,0,0:0:0:0:
192,192,1134796,1,0,0:0:0:0:
448,192,1134796,1,0,0:0:0:0:
320,192,1134858,1,0,0:0:0:0:
192,192,1134921,1,0,0:0:0:0:
320,192,1134983,1,0,0:0:0:0:
448,192,1135046,1,0,0:0:0:0:
64,192,1135046,1,0,0:0:0:0:
192,192,1135046,1,0,0:0:0:0:
320,192,1135108,1,0,0:0:0:0:
192,192,1135171,1,0,0:0:0:0:
64,192,1135233,1,0,0:0:0:0:
448,192,1135296,1,0,0:0:0:0:
192,192,1135296,1,0,0:0:0:0:
320,192,1135358,1,0,0:0:0:0:
192,192,1135421,1,0,0:0:0:0:
320,192,1135483,1,0,0:0:0:0:
448,192,1135546,1,0,0:0:0:0:
64,192,1135546,1,0,0:0:0:0:
192,192,1135546,1,0,0:0:0:0:
320,192,1135608,1,0,0:0:0:0:
192,192,1135671,1,0,0:0:0:0:
64,192,1135733,1,0,0:0:0:0:
320,192,1135796,1,0,0:0:0:0:
192,192,1135796,1,0,0:0:0:0:
448,192,1135858,1,0,0:0:0:0:
320,192,1135921,1,0,0:0:0:0:
192,192,1135983,1,0,0:0:0:0:
448,192,1136046,1,0,0:0:0:0:
64,192,1136046,1,0,0:0:0:0:
320,192,1136046,1,0,0:0:0:0:
192,192,1136108,1,0,0:0:0:0:
320,192,1136171,1,0,0:0:0:0:
64,192,1136171,1,0,0:0:0:0:
192,192,1136233,1,0,0:0:0:0:
320,192,1136296,1,0,0:0:0:0:
448,192,1136296,1,0,0:0:0:0:
192,192,1136358,1,0,0:0:0:0:
448,192,1136421,1,0,0:0:0:0:
320,192,1136421,1,0,0:0:0:0:
192,192,1136483,1,0,0:0:0:0:
448,192,1136546,1,0,0:0:0:0:
64,192,1136546,1,0,0:0:0:0:
320,192,1136546,1,0,0:0:0:0:
192,192,1136608,1,0,0:0:0:0:
64,192,1136671,1,0,0:0:0:0:
192,192,1136733,1,0,0:0:0:0:
448,192,1136796,1,0,0:0:0:0:
320,192,1136796,1,0,0:0:0:0:
64,192,1136796,1,0,0:0:0:0:
192,192,1136858,1,0,0:0:0:0:
320,192,1136921,1,0,0:0:0:0:
448,192,1136983,1,0,0:0:0:0:
320,192,1137046,1,0,0:0:0:0:
64,192,1137046,1,0,0:0:0:0:
192,192,1137046,1,0,0:0:0:0:
448,192,1137108,1,0,0:0:0:0:
320,192,1137171,1,0,0:0:0:0:
192,192,1137233,1,0,0:0:0:0:
448,192,1137296,1,0,0:0:0:0:
64,192,1137296,1,0,0:0:0:0:
320,192,1137296,1,0,0:0:0:0:
192,192,1137358,1,0,0:0:0:0:
448,192,1137421,1,0,0:0:0:0:
320,192,1137421,1,0,0:0:0:0:
192,192,1137483,1,0,0:0:0:0:
320,192,1137546,1,0,0:0:0:0:
64,192,1137546,1,0,0:0:0:0:
448,192,1137608,1,0,0:0:0:0:
320,192,1137671,1,0,0:0:0:0:
64,192,1137671,1,0,0:0:0:0:
192,192,1137733,1,0,0:0:0:0:
448,192,1137796,1,0,0:0:0:0:
64,192,1137796,1,0,0:0:0:0:
320,192,1137858,1,0,0:0:0:0:
448,192,1137921,1,0,0:0:0:0:
192,192,1137921,1,0,0:0:0:0:
64,192,1137983,1,0,0:0:0:0:
192,192,1138046,1,0,0:0:0:0:
448,192,1138046,1,0,0:0:0:0:
320,192,1138046,1,0,0:0:0:0:
64,192,1138108,1,0,0:0:0:0:
192,192,1138171,1,0,0:0:0:0:
448,192,1138171,1,0,0:0:0:0:
320,192,1138233,1,0,0:0:0:0:
64,192,1138296,1,0,0:0:0:0:
192,192,1138296,1,0,0:0:0:0:
448,192,1138296,1,0,0:0:0:0:
320,192,1138358,1,0,0:0:0:0:
64,192,1138421,1,0,0:0:0:0:
192,192,1138421,1,0,0:0:0:0:
448,192,1138421,1,0,0:0:0:0:
320,192,1138483,1,0,0:0:0:0:
64,192,1138546,1,0,0:0:0:0:
192,192,1138546,1,0,0:0:0:0:
448,192,1138546,1,0,0:0:0:0:
320,192,1138608,1,0,0:0:0:0:
448,192,1138671,1,0,0:0:0:0:
320,192,1138733,1,0,0:0:0:0:
64,192,1138796,1,0,0:0:0:0:
192,192,1138796,1,0,0:0:0:0:
320,192,1138858,1,0,0:0:0:0:
448,192,1138921,1,0,0:0:0:0:
320,192,1138983,1,0,0:0:0:0:
64,192,1139046,1,0,0:0:0:0:
448,192,1139046,1,0,0:0:0:0:
192,192,1139046,1,0,0:0:0:0:
320,192,1139108,1,0,0:0:0:0:
448,192,1139171,1,0,0:0:0:0:
320,192,1139233,1,0,0:0:0:0:
64,192,1139296,1,0,0:0:0:0:
192,192,1139296,1,0,0:0:0:0:
320,192,1139358,1,0,0:0:0:0:
448,192,1139421,1,0,0:0:0:0:
320,192,1139483,1,0,0:0:0:0:
64,192,1139546,1,0,0:0:0:0:
448,192,1139546,1,0,0:0:0:0:
192,192,1139546,1,0,0:0:0:0:
320,192,1139608,1,0,0:0:0:0:
192,192,1139671,1,0,0:0:0:0:
64,192,1139671,1,0,0:0:0:0:
320,192,1139733,1,0,0:0:0:0:
64,192,1139796,1,0,0:0:0:0:
192,192,1139796,1,0,0:0:0:0:
320,192,1139858,1,0,0:0:0:0:
64,192,1139921,1,0,0:0:0:0:
192,192,1139921,1,0,0:0:0:0:
320,192,1139983,1,0,0:0:0:0:
64,192,1140046,1,0,0:0:0:0:
448,192,1140046,1,0,0:0:0:0:
192,192,1140046,1,0,0:0:0:0:
320,192,1140108,1,0,0:0:0:0:
192,192,1140171,1,0,0:0:0:0:
64,192,1140233,1,0,0:0:0:0:
448,192,1140296,1,0,0:0:0:0:
192,192,1140296,1,0,0:0:0:0:
320,192,1140358,1,0,0:0:0:0:
192,192,1140421,1,0,0:0:0:0:
320,192,1140483,1,0,0:0:0:0:
64,192,1140546,1,0,0:0:0:0:
192,192,1140546,1,0,0:0:0:0:
192,192,1140671,1,0,0:0:0:0:
64,192,1140671,1,0,0:0:0:0:
192,192,1140796,1,0,0:0:0:0:
64,192,1140796,1,0,0:0:0:0:
448,192,1140796,1,0,0:0:0:0:
320,192,1140858,1,0,0:0:0:0:
192,192,1140983,1,0,0:0:0:0:
320,192,1141046,1,0,0:0:0:0:
448,192,1141046,1,0,0:0:0:0:
320,192,1141171,1,0,0:0:0:0:
448,192,1141171,1,0,0:0:0:0:
320,192,1141296,1,0,0:0:0:0:
448,192,1141296,1,0,0:0:0:0:
64,192,1141296,1,0,0:0:0:0:
192,192,1141358,1,0,0:0:0:0:
320,192,1141483,1,0,0:0:0:0:
64,192,1141546,1,0,0:0:0:0:
192,192,1141546,1,0,0:0:0:0:
64,192,1141671,1,0,0:0:0:0:
192,192,1141671,1,0,0:0:0:0:
64,192,1141796,1,0,0:0:0:0:
192,192,1141796,1,0,0:0:0:0:
448,192,1141796,1,0,0:0:0:0:
320,192,1141858,1,0,0:0:0:0:
192,192,1141983,1,0,0:0:0:0:
320,192,1142046,1,0,0:0:0:0:
448,192,1142046,1,0,0:0:0:0:
320,192,1142171,1,0,0:0:0:0:
448,192,1142171,1,0,0:0:0:0:
320,192,1142296,1,0,0:0:0:0:
448,192,1142296,1,0,0:0:0:0:
64,192,1142296,1,0,0:0:0:0:
192,192,1142421,1,0,0:0:0:0:
64,192,1142546,1,0,0:0:0:0:
192,192,1142546,1,0,0:0:0:0:
448,192,1142546,1,0,0:0:0:0:
320,192,1142608,1,0,0:0:0:0:
64,192,1142671,1,0,0:0:0:0:
192,192,1142671,1,0,0:0:0:0:
448,192,1142733,1,0,0:0:0:0:
64,192,1142796,1,0,0:0:0:0:
192,192,1142796,1,0,0:0:0:0:
320,192,1143046,1,0,0:0:0:0:
448,192,1143046,1,0,0:0:0:0:
64,192,1143046,1,0,0:0:0:0:
192,192,1143108,1,0,0:0:0:0:
320,192,1143171,1,0,0:0:0:0:
448,192,1143171,1,0,0:0:0:0:
64,192,1143233,1,0,0:0:0:0:
320,192,1143296,1,0,0:0:0:0:
448,192,1143296,1,0,0:0:0:0:
64,192,1143546,1,0,0:0:0:0:
192,192,1143546,1,0,0:0:0:0:
448,192,1143546,1,0,0:0:0:0:
320,192,1143608,1,0,0:0:0:0:
64,192,1143671,1,0,0:0:0:0:
192,192,1143671,1,0,0:0:0:0:
448,192,1143733,1,0,0:0:0:0:
64,192,1143796,1,0,0:0:0:0:
192,192,1143796,1,0,0:0:0:0:
320,192,1143796,1,0,0:0:0:0:
192,192,1143921,1,0,0:0:0:0:
320,192,1144046,1,0,0:0:0:0:
448,192,1144046,1,0,0:0:0:0:
64,192,1144046,1,0,0:0:0:0:
320,192,1144171,1,0,0:0:0:0:
448,192,1144171,1,0,0:0:0:0:
192,192,1144171,1,0,0:0:0:0:
320,192,1144296,1,0,0:0:0:0:
448,192,1144296,1,0,0:0:0:0:
64,192,1144296,1,0,0:0:0:0:
192,192,1144421,1,0,0:0:0:0:
320,192,1144483,1,0,0:0:0:0:
64,192,1144546,1,0,0:0:0:0:
192,192,1144546,1,0,0:0:0:0:
448,192,1144546,1,0,0:0:0:0:
192,192,1144796,128,0,1145421:0:0:0:0:
64,192,1144796,128,0,1145421:0:0:0:0:
448,192,1144796,128,0,1145421:0:0:0:0:
64,192,1145546,1,0,0:0:0:0:
192,192,1145546,1,0,0:0:0:0:
448,192,1145546,1,0,0:0:0:0:
192,192,1145671,1,0,0:0:0:0:
320,192,1145671,1,0,0:0:0:0:
64,192,1145796,128,0,1146421:0:0:0:0:
320,192,1145796,128,0,1146421:0:0:0:0:
448,192,1145796,128,0,1146421:0:0:0:0:
64,192,1146546,1,0,0:0:0:0:
320,192,1146546,1,0,0:0:0:0:
448,192,1146546,1,0,0:0:0:0:
192,192,1146796,1,0,0:0:0:0:
448,192,1146796,1,0,0:0:0:0:
64,192,1147046,1,0,0:0:0:0:
320,192,1147046,1,0,0:0:0:0:
64,192,1147296,1,0,0:0:0:0:
448,192,1147296,1,0,0:0:0:0:
320,192,1147421,1,0,0:0:0:0:
192,192,1147546,1,0,0:0:0:0:
320,192,1147671,1,0,0:0:0:0:
192,192,1147796,1,0,0:0:0:0:
448,192,1147796,1,0,0:0:0:0:
320,192,1147921,1,0,0:0:0:0:
448,192,1148046,1,0,0:0:0:0:
64,192,1148046,1,0,0:0:0:0:
192,192,1148171,1,0,0:0:0:0:
320,192,1148296,1,0,0:0:0:0:
64,192,1148296,1,0,0:0:0:0:
448,192,1148421,1,0,0:0:0:0:
192,192,1148421,1,0,0:0:0:0:
64,192,1148546,1,0,0:0:0:0:
320,192,1148546,1,0,0:0:0:0:
320,192,1148671,1,0,0:0:0:0:
192,192,1148671,1,0,0:0:0:0:
448,192,1148796,1,0,0:0:0:0:
320,192,1148796,1,0,0:0:0:0:
64,192,1148796,1,0,0:0:0:0:
192,192,1149046,1,0,0:0:0:0:
192,192,1149296,1,0,0:0:0:0:
192,192,1149546,1,0,0:0:0:0:
448,192,1149546,1,0,0:0:0:0:
64,192,1149546,1,0,0:0:0:0:
448,192,1149671,1,0,0:0:0:0:
320,192,1149733,1,0,0:0:0:0:
192,192,1149796,1,0,0:0:0:0:
64,192,1149796,1,0,0:0:0:0:
320,192,1149858,1,0,0:0:0:0:
448,192,1149921,1,0,0:0:0:0:
320,192,1149983,1,0,0:0:0:0:
192,192,1150046,1,0,0:0:0:0:
448,192,1150046,1,0,0:0:0:0:
64,192,1150046,1,0,0:0:0:0:
320,192,1150108,1,0,0:0:0:0:
192,192,1150171,1,0,0:0:0:0:
64,192,1150233,1,0,0:0:0:0:
192,192,1150296,1,0,0:0:0:0:
448,192,1150296,1,0,0:0:0:0:
320,192,1150358,1,0,0:0:0:0:
192,192,1150421,1,0,0:0:0:0:
64,192,1150421,1,0,0:0:0:0:
320,192,1150483,1,0,0:0:0:0:
192,192,1150546,1,0,0:0:0:0:
448,192,1150546,1,0,0:0:0:0:
64,192,1150546,1,0,0:0:0:0:
320,192,1150671,1,0,0:0:0:0:
192,192,1150796,1,0,0:0:0:0:
448,192,1150796,1,0,0:0:0:0:
64,192,1150796,1,0,0:0:0:0:
320,192,1150921,1,0,0:0:0:0:
192,192,1151046,1,0,0:0:0:0:
448,192,1151046,1,0,0:0:0:0:
64,192,1151046,1,0,0:0:0:0:
320,192,1151171,1,0,0:0:0:0:
192,192,1151171,1,0,0:0:0:0:
448,192,1151296,1,0,0:0:0:0:
64,192,1151296,1,0,0:0:0:0:
192,192,1151421,1,0,0:0:0:0:
320,192,1151546,1,0,0:0:0:0:
448,192,1151546,1,0,0:0:0:0:
64,192,1151546,1,0,0:0:0:0:
192,192,1151671,1,0,0:0:0:0:
448,192,1151796,1,0,0:0:0:0:
320,192,1151796,1,0,0:0:0:0:
64,192,1151796,1,0,0:0:0:0:
192,192,1151921,1,0,0:0:0:0:
320,192,1151921,1,0,0:0:0:0:
192,192,1152046,1,0,0:0:0:0:
64,192,1152046,1,0,0:0:0:0:
320,192,1152171,1,0,0:0:0:0:
448,192,1152171,1,0,0:0:0:0:
192,192,1152296,1,0,0:0:0:0:
64,192,1152296,1,0,0:0:0:0:
320,192,1152421,1,0,0:0:0:0:
448,192,1152421,1,0,0:0:0:0:
192,192,1152546,1,0,0:0:0:0:
448,192,1152546,1,0,0:0:0:0:
64,192,1152546,1,0,0:0:0:0:
320,192,1152671,1,0,0:0:0:0:
448,192,1152796,1,0,0:0:0:0:
192,192,1152796,1,0,0:0:0:0:
64,192,1152796,1,0,0:0:0:0:
320,192,1152921,1,0,0:0:0:0:
192,192,1153046,1,0,0:0:0:0:
448,192,1153046,1,0,0:0:0:0:
64,192,1153046,1,0,0:0:0:0:
448,192,1153171,1,0,0:0:0:0:
320,192,1153171,1,0,0:0:0:0:
192,192,1153171,1,0,0:0:0:0:
320,192,1153296,1,0,0:0:0:0:
64,192,1153296,1,0,0:0:0:0:
192,192,1153421,1,0,0:0:0:0:
64,192,1153546,1,0,0:0:0:0:
320,192,1153546,1,0,0:0:0:0:
448,192,1153546,1,0,0:0:0:0:
320,192,1153671,1,0,0:0:0:0:
448,192,1153796,1,0,0:0:0:0:
192,192,1153796,1,0,0:0:0:0:
64,192,1153796,1,0,0:0:0:0:
192,192,1153921,1,0,0:0:0:0:
320,192,1153921,1,0,0:0:0:0:
320,192,1154046,1,0,0:0:0:0:
64,192,1154046,1,0,0:0:0:0:
448,192,1154046,1,0,0:0:0:0:
320,192,1154171,1,0,0:0:0:0:
192,192,1154171,1,0,0:0:0:0:
448,192,1154171,1,0,0:0:0:0:
448,192,1154296,1,0,0:0:0:0:
64,192,1154296,1,0,0:0:0:0:
320,192,1154296,1,0,0:0:0:0:
192,192,1154421,1,0,0:0:0:0:
448,192,1154421,1,0,0:0:0:0:
320,192,1154421,1,0,0:0:0:0:
192,192,1154546,1,0,0:0:0:0:
320,192,1154546,1,0,0:0:0:0:
448,192,1154546,1,0,0:0:0:0:
320,192,1154671,1,0,0:0:0:0:
64,192,1154671,1,0,0:0:0:0:
192,192,1154796,1,0,0:0:0:0:
448,192,1154796,1,0,0:0:0:0:
320,192,1154921,1,0,0:0:0:0:
448,192,1154921,1,0,0:0:0:0:
320,192,1155046,1,0,0:0:0:0:
64,192,1155046,1,0,0:0:0:0:
192,192,1155171,1,0,0:0:0:0:
448,192,1155171,1,0,0:0:0:0:
192,192,1155296,1,0,0:0:0:0:
64,192,1155296,1,0,0:0:0:0:
320,192,1155421,1,0,0:0:0:0:
448,192,1155421,1,0,0:0:0:0:
64,192,1155546,1,0,0:0:0:0:
192,192,1155546,1,0,0:0:0:0:
320,192,1155546,1,0,0:0:0:0:
448,192,1155671,1,0,0:0:0:0:
64,192,1155671,1,0,0:0:0:0:
192,192,1155796,1,0,0:0:0:0:
320,192,1155796,1,0,0:0:0:0:
448,192,1155796,1,0,0:0:0:0:
64,192,1155921,1,0,0:0:0:0:
192,192,1155921,1,0,0:0:0:0:
320,192,1156046,1,0,0:0:0:0:
448,192,1156046,1,0,0:0:0:0:
64,192,1156046,1,0,0:0:0:0:
192,192,1156171,1,0,0:0:0:0:
320,192,1156171,1,0,0:0:0:0:
448,192,1156171,1,0,0:0:0:0:
64,192,1156296,1,0,0:0:0:0:
192,192,1156296,1,0,0:0:0:0:
192,192,1156421,1,0,0:0:0:0:
64,192,1156421,1,0,0:0:0:0:
320,192,1156421,1,0,0:0:0:0:
64,192,1156546,1,0,0:0:0:0:
192,192,1156546,1,0,0:0:0:0:
448,192,1156546,1,0,0:0:0:0:
320,192,1156671,1,0,0:0:0:0:
64,192,1156671,1,0,0:0:0:0:
192,192,1156796,1,0,0:0:0:0:
448,192,1156796,1,0,0:0:0:0:
320,192,1156921,1,0,0:0:0:0:
448,192,1156921,1,0,0:0:0:0:
320,192,1157046,1,0,0:0:0:0:
64,192,1157046,1,0,0:0:0:0:
192,192,1157171,1,0,0:0:0:0:
64,192,1157171,1,0,0:0:0:0:
192,192,1157296,1,0,0:0:0:0:
448,192,1157296,1,0,0:0:0:0:
320,192,1157421,1,0,0:0:0:0:
448,192,1157421,1,0,0:0:0:0:
64,192,1157546,1,0,0:0:0:0:
192,192,1157546,1,0,0:0:0:0:
320,192,1157546,1,0,0:0:0:0:
192,192,1157671,1,0,0:0:0:0:
448,192,1157671,1,0,0:0:0:0:
320,192,1157796,1,0,0:0:0:0:
64,192,1157796,1,0,0:0:0:0:
448,192,1157921,1,0,0:0:0:0:
192,192,1157921,1,0,0:0:0:0:
320,192,1158046,1,0,0:0:0:0:
64,192,1158046,1,0,0:0:0:0:
192,192,1158171,1,0,0:0:0:0:
320,192,1158171,1,0,0:0:0:0:
64,192,1158171,1,0,0:0:0:0:
64,192,1158296,1,0,0:0:0:0:
320,192,1158296,1,0,0:0:0:0:
448,192,1158296,1,0,0:0:0:0:
320,192,1158421,1,0,0:0:0:0:
192,192,1158421,1,0,0:0:0:0:
64,192,1158421,1,0,0:0:0:0:
64,192,1158546,1,0,0:0:0:0:
448,192,1158546,1,0,0:0:0:0:
320,192,1158546,1,0,0:0:0:0:
192,192,1158671,1,0,0:0:0:0:
320,192,1158671,1,0,0:0:0:0:
64,192,1158796,1,0,0:0:0:0:
448,192,1158796,1,0,0:0:0:0:
64,192,1158921,1,0,0:0:0:0:
192,192,1158921,1,0,0:0:0:0:
192,192,1159046,1,0,0:0:0:0:
320,192,1159046,1,0,0:0:0:0:
448,192,1159171,1,0,0:0:0:0:
320,192,1159171,1,0,0:0:0:0:
64,192,1159296,1,0,0:0:0:0:
192,192,1159296,1,0,0:0:0:0:
192,192,1159421,1,0,0:0:0:0:
448,192,1159421,1,0,0:0:0:0:
64,192,1159546,1,0,0:0:0:0:
320,192,1159546,1,0,0:0:0:0:
448,192,1159546,1,0,0:0:0:0:
320,192,1159671,1,0,0:0:0:0:
192,192,1159671,1,0,0:0:0:0:
64,192,1159796,1,0,0:0:0:0:
192,192,1159796,1,0,0:0:0:0:
448,192,1159796,1,0,0:0:0:0:
320,192,1159921,1,0,0:0:0:0:
64,192,1159921,1,0,0:0:0:0:
320,192,1160046,1,0,0:0:0:0:
192,192,1160046,1,0,0:0:0:0:
448,192,1160046,1,0,0:0:0:0:
64,192,1160171,1,0,0:0:0:0:
320,192,1160171,1,0,0:0:0:0:
448,192,1160171,1,0,0:0:0:0:
64,192,1160296,1,0,0:0:0:0:
192,192,1160296,1,0,0:0:0:0:
64,192,1160421,1,0,0:0:0:0:
192,192,1160421,1,0,0:0:0:0:
448,192,1160421,1,0,0:0:0:0:
64,192,1160546,1,0,0:0:0:0:
192,192,1160546,1,0,0:0:0:0:
448,192,1160546,1,0,0:0:0:0:
320,192,1160671,1,0,0:0:0:0:
64,192,1160671,1,0,0:0:0:0:
192,192,1160796,1,0,0:0:0:0:
320,192,1160796,1,0,0:0:0:0:
64,192,1160921,1,0,0:0:0:0:
192,192,1160921,1,0,0:0:0:0:
320,192,1161046,1,0,0:0:0:0:
448,192,1161046,1,0,0:0:0:0:
64,192,1161171,1,0,0:0:0:0:
448,192,1161171,1,0,0:0:0:0:
192,192,1161296,1,0,0:0:0:0:
64,192,1161296,1,0,0:0:0:0:
192,192,1161421,1,0,0:0:0:0:
448,192,1161421,1,0,0:0:0:0:
64,192,1161546,1,0,0:0:0:0:
320,192,1161546,1,0,0:0:0:0:
448,192,1161546,1,0,0:0:0:0:
192,192,1161671,1,0,0:0:0:0:
64,192,1161671,1,0,0:0:0:0:
192,192,1161796,1,0,0:0:0:0:
320,192,1161796,1,0,0:0:0:0:
320,192,1161921,1,0,0:0:0:0:
448,192,1161921,1,0,0:0:0:0:
192,192,1162046,1,0,0:0:0:0:
64,192,1162046,1,0,0:0:0:0:
448,192,1162046,1,0,0:0:0:0:
64,192,1162171,1,0,0:0:0:0:
192,192,1162171,1,0,0:0:0:0:
320,192,1162171,1,0,0:0:0:0:
192,192,1162296,1,0,0:0:0:0:
64,192,1162296,1,0,0:0:0:0:
448,192,1162296,1,0,0:0:0:0:
64,192,1162421,1,0,0:0:0:0:
192,192,1162421,1,0,0:0:0:0:
320,192,1162421,1,0,0:0:0:0:
192,192,1162546,1,0,0:0:0:0:
64,192,1162546,1,0,0:0:0:0:
448,192,1162546,1,0,0:0:0:0:
192,192,1162671,1,0,0:0:0:0:
320,192,1162671,1,0,0:0:0:0:
320,192,1162796,1,0,0:0:0:0:
448,192,1162796,1,0,0:0:0:0:
320,192,1162921,1,0,0:0:0:0:
64,192,1162921,1,0,0:0:0:0:
192,192,1163046,1,0,0:0:0:0:
448,192,1163046,1,0,0:0:0:0:
192,192,1163171,1,0,0:0:0:0:
64,192,1163171,1,0,0:0:0:0:
64,192,1163296,1,0,0:0:0:0:
320,192,1163296,1,0,0:0:0:0:
192,192,1163421,1,0,0:0:0:0:
320,192,1163421,1,0,0:0:0:0:
64,192,1163546,1,0,0:0:0:0:
192,192,1163546,1,0,0:0:0:0:
448,192,1163546,1,0,0:0:0:0:
320,192,1163671,1,0,0:0:0:0:
448,192,1163671,1,0,0:0:0:0:
192,192,1163796,1,0,0:0:0:0:
64,192,1163796,1,0,0:0:0:0:
64,192,1163921,1,0,0:0:0:0:
320,192,1163921,1,0,0:0:0:0:
448,192,1164046,1,0,0:0:0:0:
192,192,1164046,1,0,0:0:0:0:
320,192,1164046,1,0,0:0:0:0:
64,192,1164171,1,0,0:0:0:0:
448,192,1164171,1,0,0:0:0:0:
192,192,1164296,1,0,0:0:0:0:
320,192,1164296,1,0,0:0:0:0:
320,192,1164421,1,0,0:0:0:0:
64,192,1164421,1,0,0:0:0:0:
448,192,1164421,1,0,0:0:0:0:
448,192,1164546,1,0,0:0:0:0:
192,192,1164546,1,0,0:0:0:0:
64,192,1164546,1,0,0:0:0:0:
320,192,1164671,1,0,0:0:0:0:
192,192,1164671,1,0,0:0:0:0:
64,192,1164796,1,0,0:0:0:0:
448,192,1164796,1,0,0:0:0:0:
64,192,1164921,1,0,0:0:0:0:
320,192,1164921,1,0,0:0:0:0:
192,192,1165046,1,0,0:0:0:0:
448,192,1165046,1,0,0:0:0:0:
320,192,1165171,1,0,0:0:0:0:
448,192,1165171,1,0,0:0:0:0:
320,192,1165296,1,0,0:0:0:0:
64,192,1165296,1,0,0:0:0:0:
64,192,1165421,1,0,0:0:0:0:
448,192,1165421,1,0,0:0:0:0:
320,192,1165546,1,0,0:0:0:0:
192,192,1165546,1,0,0:0:0:0:
448,192,1165546,1,0,0:0:0:0:
192,192,1165671,1,0,0:0:0:0:
64,192,1165671,1,0,0:0:0:0:
320,192,1165796,1,0,0:0:0:0:
448,192,1165796,1,0,0:0:0:0:
192,192,1165921,1,0,0:0:0:0:
64,192,1165921,1,0,0:0:0:0:
192,192,1166046,1,0,0:0:0:0:
320,192,1166046,1,0,0:0:0:0:
64,192,1166171,1,0,0:0:0:0:
320,192,1166171,1,0,0:0:0:0:
448,192,1166171,1,0,0:0:0:0:
192,192,1166296,1,0,0:0:0:0:
64,192,1166296,1,0,0:0:0:0:
448,192,1166296,1,0,0:0:0:0:
64,192,1166421,1,0,0:0:0:0:
320,192,1166421,1,0,0:0:0:0:
448,192,1166421,1,0,0:0:0:0:
64,192,1166546,1,0,0:0:0:0:
192,192,1166546,1,0,0:0:0:0:
448,192,1166546,1,0,0:0:0:0:
320,192,1166671,1,0,0:0:0:0:
192,192,1166671,1,0,0:0:0:0:
64,192,1166796,1,0,0:0:0:0:
320,192,1166796,1,0,0:0:0:0:
64,192,1166921,1,0,0:0:0:0:
192,192,1166921,1,0,0:0:0:0:
320,192,1167046,1,0,0:0:0:0:
448,192,1167046,1,0,0:0:0:0:
192,192,1167171,1,0,0:0:0:0:
320,192,1167171,1,0,0:0:0:0:
192,192,1167296,1,0,0:0:0:0:
448,192,1167296,1,0,0:0:0:0:
320,192,1167421,1,0,0:0:0:0:
64,192,1167421,1,0,0:0:0:0:
64,192,1167546,1,0,0:0:0:0:
192,192,1167546,1,0,0:0:0:0:
448,192,1167546,1,0,0:0:0:0:
320,192,1167671,1,0,0:0:0:0:
448,192,1167671,1,0,0:0:0:0:
192,192,1167796,1,0,0:0:0:0:
320,192,1167796,1,0,0:0:0:0:
64,192,1167921,1,0,0:0:0:0:
448,192,1167921,1,0,0:0:0:0:
64,192,1168046,1,0,0:0:0:0:
192,192,1168046,1,0,0:0:0:0:
320,192,1168046,1,0,0:0:0:0:
320,192,1168171,1,0,0:0:0:0:
448,192,1168171,1,0,0:0:0:0:
192,192,1168296,1,0,0:0:0:0:
64,192,1168296,1,0,0:0:0:0:
192,192,1168421,1,0,0:0:0:0:
64,192,1168421,1,0,0:0:0:0:
448,192,1168421,1,0,0:0:0:0:
64,192,1168546,1,0,0:0:0:0:
192,192,1168546,1,0,0:0:0:0:
320,192,1168546,1,0,0:0:0:0:
320,192,1168671,1,0,0:0:0:0:
448,192,1168671,1,0,0:0:0:0:
192,192,1168796,1,0,0:0:0:0:
448,192,1168796,1,0,0:0:0:0:
192,192,1168921,1,0,0:0:0:0:
64,192,1168921,1,0,0:0:0:0:
320,192,1169046,1,0,0:0:0:0:
448,192,1169046,1,0,0:0:0:0:
64,192,1169171,1,0,0:0:0:0:
320,192,1169171,1,0,0:0:0:0:
192,192,1169296,1,0,0:0:0:0:
64,192,1169296,1,0,0:0:0:0:
192,192,1169421,1,0,0:0:0:0:
448,192,1169421,1,0,0:0:0:0:
320,192,1169546,1,0,0:0:0:0:
64,192,1169546,1,0,0:0:0:0:
320,192,1169671,1,0,0:0:0:0:
448,192,1169671,1,0,0:0:0:0:
192,192,1169796,1,0,0:0:0:0:
64,192,1169796,1,0,0:0:0:0:
320,192,1169921,1,0,0:0:0:0:
448,192,1169921,1,0,0:0:0:0:
64,192,1170046,1,0,0:0:0:0:
320,192,1170046,1,0,0:0:0:0:
192,192,1170046,1,0,0:0:0:0:
192,192,1170171,1,0,0:0:0:0:
320,192,1170171,1,0,0:0:0:0:
448,192,1170171,1,0,0:0:0:0:
64,192,1170296,1,0,0:0:0:0:
320,192,1170296,1,0,0:0:0:0:
192,192,1170296,1,0,0:0:0:0:
192,192,1170421,1,0,0:0:0:0:
320,192,1170421,1,0,0:0:0:0:
448,192,1170421,1,0,0:0:0:0:
64,192,1170546,1,0,0:0:0:0:
320,192,1170546,1,0,0:0:0:0:
192,192,1170546,1,0,0:0:0:0:
192,192,1170671,1,0,0:0:0:0:
64,192,1170671,1,0,0:0:0:0:
320,192,1170796,1,0,0:0:0:0:
448,192,1170796,1,0,0:0:0:0:
192,192,1170921,1,0,0:0:0:0:
320,192,1170921,1,0,0:0:0:0:
64,192,1171046,1,0,0:0:0:0:
192,192,1171046,1,0,0:0:0:0:
64,192,1171171,1,0,0:0:0:0:
448,192,1171171,1,0,0:0:0:0:
64,192,1171296,1,0,0:0:0:0:
192,192,1171296,1,0,0:0:0:0:
320,192,1171296,1,0,0:0:0:0:
192,192,1171421,1,0,0:0:0:0:
320,192,1171421,1,0,0:0:0:0:
448,192,1171421,1,0,0:0:0:0:
64,192,1171546,1,0,0:0:0:0:
320,192,1171546,1,0,0:0:0:0:
448,192,1171546,1,0,0:0:0:0:
192,192,1171671,1,0,0:0:0:0:
448,192,1171671,1,0,0:0:0:0:
192,192,1171796,1,0,0:0:0:0:
64,192,1171796,1,0,0:0:0:0:
64,192,1171921,1,0,0:0:0:0:
320,192,1171921,1,0,0:0:0:0:
192,192,1172046,1,0,0:0:0:0:
448,192,1172046,1,0,0:0:0:0:
320,192,1172046,1,0,0:0:0:0:
448,192,1172171,1,0,0:0:0:0:
320,192,1172171,1,0,0:0:0:0:
64,192,1172171,1,0,0:0:0:0:
320,192,1172296,1,0,0:0:0:0:
448,192,1172296,1,0,0:0:0:0:
192,192,1172421,1,0,0:0:0:0:
320,192,1172421,1,0,0:0:0:0:
448,192,1172421,1,0,0:0:0:0:
64,192,1172546,1,0,0:0:0:0:
320,192,1172546,1,0,0:0:0:0:
448,192,1172546,1,0,0:0:0:0:
192,192,1172671,1,0,0:0:0:0:
448,192,1172671,1,0,0:0:0:0:
64,192,1172796,1,0,0:0:0:0:
320,192,1172796,1,0,0:0:0:0:
64,192,1172921,1,0,0:0:0:0:
192,192,1172921,1,0,0:0:0:0:
192,192,1173046,1,0,0:0:0:0:
320,192,1173046,1,0,0:0:0:0:
320,192,1173171,1,0,0:0:0:0:
448,192,1173171,1,0,0:0:0:0:
64,192,1173296,1,0,0:0:0:0:
448,192,1173296,1,0,0:0:0:0:
192,192,1173421,1,0,0:0:0:0:
320,192,1173421,1,0,0:0:0:0:
64,192,1173546,1,0,0:0:0:0:
192,192,1173546,1,0,0:0:0:0:
448,192,1173546,1,0,0:0:0:0:
320,192,1173671,1,0,0:0:0:0:
448,192,1173671,1,0,0:0:0:0:
320,192,1173796,1,0,0:0:0:0:
64,192,1173796,1,0,0:0:0:0:
64,192,1173921,1,0,0:0:0:0:
192,192,1173921,1,0,0:0:0:0:
320,192,1174046,1,0,0:0:0:0:
448,192,1174046,1,0,0:0:0:0:
64,192,1174171,1,0,0:0:0:0:
320,192,1174171,1,0,0:0:0:0:
192,192,1174296,1,0,0:0:0:0:
64,192,1174296,1,0,0:0:0:0:
320,192,1174421,1,0,0:0:0:0:
448,192,1174421,1,0,0:0:0:0:
64,192,1174546,1,0,0:0:0:0:
192,192,1174546,1,0,0:0:0:0:
320,192,1174546,1,0,0:0:0:0:
192,192,1174671,1,0,0:0:0:0:
448,192,1174671,1,0,0:0:0:0:
64,192,1174796,1,0,0:0:0:0:
320,192,1174796,1,0,0:0:0:0:
448,192,1174796,1,0,0:0:0:0:
192,192,1174921,1,0,0:0:0:0:
320,192,1174921,1,0,0:0:0:0:
64,192,1175046,1,0,0:0:0:0:
320,192,1175046,1,0,0:0:0:0:
448,192,1175046,1,0,0:0:0:0:
192,192,1175171,1,0,0:0:0:0:
64,192,1175171,1,0,0:0:0:0:
192,192,1175296,1,0,0:0:0:0:
320,192,1175296,1,0,0:0:0:0:
448,192,1175296,1,0,0:0:0:0:
64,192,1175421,1,0,0:0:0:0:
320,192,1175421,1,0,0:0:0:0:
64,192,1175546,1,0,0:0:0:0:
448,192,1175546,1,0,0:0:0:0:
192,192,1175546,1,0,0:0:0:0:
192,192,1175671,1,0,0:0:0:0:
320,192,1175671,1,0,0:0:0:0:
64,192,1175796,1,0,0:0:0:0:
320,192,1175796,1,0,0:0:0:0:
448,192,1175796,1,0,0:0:0:0:
192,192,1175921,1,0,0:0:0:0:
64,192,1175921,1,0,0:0:0:0:
192,192,1176046,1,0,0:0:0:0:
320,192,1176046,1,0,0:0:0:0:
448,192,1176046,1,0,0:0:0:0:
448,192,1176171,1,0,0:0:0:0:
320,192,1176171,1,0,0:0:0:0:
192,192,1176296,1,0,0:0:0:0:
64,192,1176296,1,0,0:0:0:0:
320,192,1176296,1,0,0:0:0:0:
64,192,1176421,1,0,0:0:0:0:
192,192,1176421,1,0,0:0:0:0:
64,192,1176546,1,0,0:0:0:0:
192,192,1176546,1,0,0:0:0:0:
320,192,1176546,1,0,0:0:0:0:
448,192,1176546,1,0,0:0:0:0:
448,192,1176671,1,0,0:0:0:0:
320,192,1176671,1,0,0:0:0:0:
192,192,1176733,1,0,0:0:0:0:
320,192,1176796,1,0,0:0:0:0:
64,192,1176796,1,0,0:0:0:0:
64,192,1176921,1,0,0:0:0:0:
448,192,1176921,1,0,0:0:0:0:
192,192,1176921,1,0,0:0:0:0:
320,192,1176983,1,0,0:0:0:0:
448,192,1177046,1,0,0:0:0:0:
64,192,1177171,1,0,0:0:0:0:
192,192,1177171,1,0,0:0:0:0:
320,192,1177233,1,0,0:0:0:0:
448,192,1177296,1,0,0:0:0:0:
320,192,1177421,1,0,0:0:0:0:
448,192,1177421,1,0,0:0:0:0:
192,192,1177483,1,0,0:0:0:0:
64,192,1177546,1,0,0:0:0:0:
64,192,1177671,1,0,0:0:0:0:
192,192,1177712,1,0,0:0:0:0:
320,192,1177754,1,0,0:0:0:0:
448,192,1177796,1,0,0:0:0:0:
64,192,1177921,1,0,0:0:0:0:
192,192,1177962,1,0,0:0:0:0:
320,192,1178004,1,0,0:0:0:0:
448,192,1178046,1,0,0:0:0:0:
192,192,1178171,1,0,0:0:0:0:
448,192,1178171,1,0,0:0:0:0:
320,192,1178233,1,0,0:0:0:0:
64,192,1178296,1,0,0:0:0:0:
192,192,1178296,1,0,0:0:0:0:
64,192,1178421,1,0,0:0:0:0:
320,192,1178421,1,0,0:0:0:0:
192,192,1178483,1,0,0:0:0:0:
448,192,1178546,1,0,0:0:0:0:
64,192,1178546,1,0,0:0:0:0:
320,192,1178546,1,0,0:0:0:0:
64,192,1178671,1,0,0:0:0:0:
192,192,1178671,1,0,0:0:0:0:
320,192,1178733,1,0,0:0:0:0:
64,192,1178796,1,0,0:0:0:0:
448,192,1178796,1,0,0:0:0:0:
192,192,1178796,1,0,0:0:0:0:
448,192,1178921,1,0,0:0:0:0:
64,192,1178921,1,0,0:0:0:0:
320,192,1178921,1,0,0:0:0:0:
192,192,1178983,1,0,0:0:0:0:
448,192,1179046,1,0,0:0:0:0:
320,192,1179046,1,0,0:0:0:0:
448,192,1179171,1,0,0:0:0:0:
192,192,1179171,1,0,0:0:0:0:
64,192,1179171,1,0,0:0:0:0:
320,192,1179233,1,0,0:0:0:0:
192,192,1179296,1,0,0:0:0:0:
64,192,1179296,1,0,0:0:0:0:
448,192,1179421,1,0,0:0:0:0:
64,192,1179421,1,0,0:0:0:0:
320,192,1179421,1,0,0:0:0:0:
192,192,1179483,1,0,0:0:0:0:
448,192,1179546,1,0,0:0:0:0:
320,192,1179546,1,0,0:0:0:0:
64,192,1179671,1,0,0:0:0:0:
192,192,1179712,1,0,0:0:0:0:
320,192,1179754,1,0,0:0:0:0:
448,192,1179796,1,0,0:0:0:0:
64,192,1179921,1,0,0:0:0:0:
192,192,1179962,1,0,0:0:0:0:
320,192,1180004,1,0,0:0:0:0:
448,192,1180046,1,0,0:0:0:0:
320,192,1180171,1,0,0:0:0:0:
64,192,1180171,1,0,0:0:0:0:
192,192,1180233,1,0,0:0:0:0:
448,192,1180296,1,0,0:0:0:0:
320,192,1180296,1,0,0:0:0:0:
64,192,1180358,1,0,0:0:0:0:
448,192,1180421,1,0,0:0:0:0:
192,192,1180421,1,0,0:0:0:0:
320,192,1180483,1,0,0:0:0:0:
64,192,1180546,1,0,0:0:0:0:
448,192,1180546,1,0,0:0:0:0:
192,192,1180546,1,0,0:0:0:0:
448,192,1180671,1,0,0:0:0:0:
320,192,1180671,1,0,0:0:0:0:
192,192,1180733,1,0,0:0:0:0:
64,192,1180796,1,0,0:0:0:0:
448,192,1180796,1,0,0:0:0:0:
320,192,1180796,1,0,0:0:0:0:
448,192,1180921,1,0,0:0:0:0:
64,192,1180921,1,0,0:0:0:0:
192,192,1180921,1,0,0:0:0:0:
320,192,1180983,1,0,0:0:0:0:
64,192,1181046,1,0,0:0:0:0:
192,192,1181046,1,0,0:0:0:0:
448,192,1181171,1,0,0:0:0:0:
192,192,1181171,1,0,0:0:0:0:
320,192,1181233,1,0,0:0:0:0:
192,192,1181296,1,0,0:0:0:0:
64,192,1181296,1,0,0:0:0:0:
320,192,1181421,1,0,0:0:0:0:
64,192,1181421,1,0,0:0:0:0:
192,192,1181483,1,0,0:0:0:0:
448,192,1181546,1,0,0:0:0:0:
320,192,1181546,1,0,0:0:0:0:
64,192,1181671,1,0,0:0:0:0:
192,192,1181712,1,0,0:0:0:0:
320,192,1181754,1,0,0:0:0:0:
448,192,1181796,1,0,0:0:0:0:
64,192,1181921,1,0,0:0:0:0:
192,192,1181962,1,0,0:0:0:0:
320,192,1182004,1,0,0:0:0:0:
448,192,1182046,1,0,0:0:0:0:
192,192,1182171,1,0,0:0:0:0:
64,192,1182171,1,0,0:0:0:0:
320,192,1182233,1,0,0:0:0:0:
448,192,1182296,1,0,0:0:0:0:
192,192,1182296,1,0,0:0:0:0:
320,192,1182421,1,0,0:0:0:0:
64,192,1182421,1,0,0:0:0:0:
192,192,1182483,1,0,0:0:0:0:
448,192,1182546,1,0,0:0:0:0:
320,192,1182546,1,0,0:0:0:0:
448,192,1182671,1,0,0:0:0:0:
320,192,1182733,1,0,0:0:0:0:
192,192,1182796,1,0,0:0:0:0:
64,192,1182796,1,0,0:0:0:0:
448,192,1182921,1,0,0:0:0:0:
320,192,1182983,1,0,0:0:0:0:
192,192,1183046,1,0,0:0:0:0:
64,192,1183046,1,0,0:0:0:0:
192,192,1183171,1,0,0:0:0:0:
448,192,1183171,1,0,0:0:0:0:
320,192,1183233,1,0,0:0:0:0:
448,192,1183296,1,0,0:0:0:0:
64,192,1183296,1,0,0:0:0:0:
192,192,1183358,1,0,0:0:0:0:
448,192,1183421,1,0,0:0:0:0:
320,192,1183421,1,0,0:0:0:0:
192,192,1183483,1,0,0:0:0:0:
64,192,1183546,1,0,0:0:0:0:
448,192,1183546,1,0,0:0:0:0:
320,192,1183546,1,0,0:0:0:0:
64,192,1183671,1,0,0:0:0:0:
192,192,1183671,1,0,0:0:0:0:
320,192,1183796,1,0,0:0:0:0:
448,192,1183796,1,0,0:0:0:0:
192,192,1183921,1,0,0:0:0:0:
320,192,1184046,1,0,0:0:0:0:
64,192,1184046,1,0,0:0:0:0:
192,192,1184171,1,0,0:0:0:0:
320,192,1184296,1,0,0:0:0:0:
448,192,1184296,1,0,0:0:0:0:
192,192,1184421,1,0,0:0:0:0:
64,192,1184546,1,0,0:0:0:0:
320,192,1184546,1,0,0:0:0:0:
448,192,1184671,1,0,0:0:0:0:
192,192,1184796,1,0,0:0:0:0:
64,192,1184796,1,0,0:0:0:0:
448,192,1184921,1,0,0:0:0:0:
64,192,1185046,1,0,0:0:0:0:
320,192,1185046,1,0,0:0:0:0:
448,192,1185171,1,0,0:0:0:0:
192,192,1185171,1,0,0:0:0:0:
64,192,1185296,1,0,0:0:0:0:
320,192,1185296,1,0,0:0:0:0:
192,192,1185421,1,0,0:0:0:0:
448,192,1185421,1,0,0:0:0:0:
448,192,1185546,1,0,0:0:0:0:
64,192,1185546,1,0,0:0:0:0:
192,192,1185546,1,0,0:0:0:0:
448,192,1185671,1,0,0:0:0:0:
320,192,1185671,1,0,0:0:0:0:
192,192,1185796,1,0,0:0:0:0:
64,192,1185921,1,0,0:0:0:0:
320,192,1185921,1,0,0:0:0:0:
192,192,1186046,1,0,0:0:0:0:
448,192,1186171,1,0,0:0:0:0:
320,192,1186171,1,0,0:0:0:0:
192,192,1186296,1,0,0:0:0:0:
64,192,1186421,1,0,0:0:0:0:
320,192,1186421,1,0,0:0:0:0:
64,192,1186546,1,0,0:0:0:0:
192,192,1186546,1,0,0:0:0:0:
448,192,1186671,1,0,0:0:0:0:
64,192,1186796,1,0,0:0:0:0:
320,192,1186796,1,0,0:0:0:0:
192,192,1186796,1,0,0:0:0:0:
448,192,1186921,1,0,0:0:0:0:
64,192,1187046,1,0,0:0:0:0:
320,192,1187046,1,0,0:0:0:0:
448,192,1187171,1,0,0:0:0:0:
192,192,1187171,1,0,0:0:0:0:
64,192,1187296,1,0,0:0:0:0:
320,192,1187296,1,0,0:0:0:0:
448,192,1187421,1,0,0:0:0:0:
192,192,1187421,1,0,0:0:0:0:
64,192,1187546,1,0,0:0:0:0:
192,192,1187546,1,0,0:0:0:0:
448,192,1187546,1,0,0:0:0:0:
320,192,1187671,1,0,0:0:0:0:
192,192,1187796,1,0,0:0:0:0:
64,192,1187796,1,0,0:0:0:0:
320,192,1187921,1,0,0:0:0:0:
448,192,1188046,1,0,0:0:0:0:
192,192,1188046,1,0,0:0:0:0:
320,192,1188171,1,0,0:0:0:0:
64,192,1188296,1,0,0:0:0:0:
192,192,1188296,1,0,0:0:0:0:
448,192,1188421,1,0,0:0:0:0:
64,192,1188546,1,0,0:0:0:0:
320,192,1188546,1,0,0:0:0:0:
192,192,1188671,1,0,0:0:0:0:
448,192,1188796,1,0,0:0:0:0:
320,192,1188796,1,0,0:0:0:0:
192,192,1188921,1,0,0:0:0:0:
320,192,1189046,1,0,0:0:0:0:
64,192,1189046,1,0,0:0:0:0:
448,192,1189171,1,0,0:0:0:0:
64,192,1189296,1,0,0:0:0:0:
192,192,1189296,1,0,0:0:0:0:
448,192,1189421,1,0,0:0:0:0:
320,192,1189421,1,0,0:0:0:0:
64,192,1189546,1,0,0:0:0:0:
448,192,1189546,1,0,0:0:0:0:
192,192,1189546,1,0,0:0:0:0:
320,192,1189671,1,0,0:0:0:0:
64,192,1189796,1,0,0:0:0:0:
192,192,1189796,1,0,0:0:0:0:
320,192,1189921,1,0,0:0:0:0:
448,192,1190046,1,0,0:0:0:0:
192,192,1190046,1,0,0:0:0:0:
64,192,1190171,1,0,0:0:0:0:
448,192,1190296,1,0,0:0:0:0:
192,192,1190296,1,0,0:0:0:0:
320,192,1190421,1,0,0:0:0:0:
64,192,1190546,1,0,0:0:0:0:
448,192,1190546,1,0,0:0:0:0:
192,192,1190546,1,0,0:0:0:0:
320,192,1190671,1,0,0:0:0:0:
64,192,1190796,1,0,0:0:0:0:
192,192,1190796,1,0,0:0:0:0:
320,192,1190921,1,0,0:0:0:0:
64,192,1191046,1,0,0:0:0:0:
192,192,1191046,1,0,0:0:0:0:
448,192,1191046,1,0,0:0:0:0:
320,192,1191171,1,0,0:0:0:0:
448,192,1191171,1,0,0:0:0:0:
192,192,1191171,1,0,0:0:0:0:
320,192,1191296,1,0,0:0:0:0:
448,192,1191296,1,0,0:0:0:0:
64,192,1191296,1,0,0:0:0:0:
64,192,1191421,1,0,0:0:0:0:
448,192,1191421,1,0,0:0:0:0:
192,192,1191421,1,0,0:0:0:0:
64,192,1191546,1,0,0:0:0:0:
320,192,1191546,1,0,0:0:0:0:
192,192,1191546,1,0,0:0:0:0:
448,192,1191671,1,0,0:0:0:0:
320,192,1191671,1,0,0:0:0:0:
192,192,1191796,1,0,0:0:0:0:
448,192,1191796,1,0,0:0:0:0:
320,192,1191921,1,0,0:0:0:0:
64,192,1191921,1,0,0:0:0:0:
448,192,1192046,1,0,0:0:0:0:
64,192,1192046,1,0,0:0:0:0:
448,192,1192171,1,0,0:0:0:0:
192,192,1192171,1,0,0:0:0:0:
64,192,1192296,1,0,0:0:0:0:
320,192,1192296,1,0,0:0:0:0:
320,192,1192421,1,0,0:0:0:0:
192,192,1192421,1,0,0:0:0:0:
64,192,1192546,1,0,0:0:0:0:
448,192,1192546,1,0,0:0:0:0:
192,192,1192546,1,0,0:0:0:0:
448,192,1192671,1,0,0:0:0:0:
64,192,1192671,1,0,0:0:0:0:
320,192,1192796,1,0,0:0:0:0:
192,192,1192796,1,0,0:0:0:0:
64,192,1192921,1,0,0:0:0:0:
320,192,1192921,1,0,0:0:0:0:
64,192,1193046,1,0,0:0:0:0:
448,192,1193046,1,0,0:0:0:0:
192,192,1193046,1,0,0:0:0:0:
448,192,1193171,1,0,0:0:0:0:
320,192,1193171,1,0,0:0:0:0:
320,192,1193296,1,0,0:0:0:0:
64,192,1193296,1,0,0:0:0:0:
448,192,1193421,1,0,0:0:0:0:
192,192,1193421,1,0,0:0:0:0:
64,192,1193546,1,0,0:0:0:0:
320,192,1193546,1,0,0:0:0:0:
192,192,1193546,1,0,0:0:0:0:
448,192,1193671,1,0,0:0:0:0:
320,192,1193671,1,0,0:0:0:0:
64,192,1193796,1,0,0:0:0:0:
448,192,1193796,1,0,0:0:0:0:
192,192,1193921,1,0,0:0:0:0:
320,192,1193921,1,0,0:0:0:0:
64,192,1194046,1,0,0:0:0:0:
448,192,1194046,1,0,0:0:0:0:
320,192,1194046,1,0,0:0:0:0:
448,192,1194171,1,0,0:0:0:0:
192,192,1194171,1,0,0:0:0:0:
320,192,1194296,1,0,0:0:0:0:
192,192,1194296,1,0,0:0:0:0:
64,192,1194296,1,0,0:0:0:0:
448,192,1194421,1,0,0:0:0:0:
320,192,1194421,1,0,0:0:0:0:
64,192,1194546,1,0,0:0:0:0:
192,192,1194546,1,0,0:0:0:0:
448,192,1194546,1,0,0:0:0:0:
320,192,1194608,1,0,0:0:0:0:
192,192,1194671,1,0,0:0:0:0:
64,192,1194671,1,0,0:0:0:0:
320,192,1194733,1,0,0:0:0:0:
448,192,1194796,1,0,0:0:0:0:
64,192,1194796,1,0,0:0:0:0:
192,192,1194858,1,0,0:0:0:0:
448,192,1194921,1,0,0:0:0:0:
320,192,1194921,1,0,0:0:0:0:
192,192,1194983,1,0,0:0:0:0:
64,192,1195046,1,0,0:0:0:0:
448,192,1195046,1,0,0:0:0:0:
320,192,1195108,1,0,0:0:0:0:
64,192,1195171,1,0,0:0:0:0:
192,192,1195171,1,0,0:0:0:0:
320,192,1195233,1,0,0:0:0:0:
448,192,1195296,1,0,0:0:0:0:
64,192,1195296,1,0,0:0:0:0:
192,192,1195358,1,0,0:0:0:0:
448,192,1195421,1,0,0:0:0:0:
320,192,1195421,1,0,0:0:0:0:
192,192,1195483,1,0,0:0:0:0:
64,192,1195546,1,0,0:0:0:0:
320,192,1195546,1,0,0:0:0:0:
448,192,1195546,1,0,0:0:0:0:
64,192,1195671,1,0,0:0:0:0:
192,192,1195671,1,0,0:0:0:0:
320,192,1195796,1,0,0:0:0:0:
448,192,1195796,1,0,0:0:0:0:
192,192,1196046,1,0,0:0:0:0:
320,192,1196046,1,0,0:0:0:0:
192,192,1196171,1,0,0:0:0:0:
320,192,1196171,1,0,0:0:0:0:
64,192,1196296,1,0,0:0:0:0:
448,192,1196296,1,0,0:0:0:0:
64,192,1196546,1,0,0:0:0:0:
192,192,1196546,1,0,0:0:0:0:
64,192,1196671,1,0,0:0:0:0:
192,192,1196671,1,0,0:0:0:0:
320,192,1196796,1,0,0:0:0:0:
448,192,1196796,1,0,0:0:0:0:
320,192,1197046,1,0,0:0:0:0:
448,192,1197046,1,0,0:0:0:0:
320,192,1197171,1,0,0:0:0:0:
448,192,1197171,1,0,0:0:0:0:
64,192,1197296,1,0,0:0:0:0:
192,192,1197296,1,0,0:0:0:0:
192,192,1197546,1,0,0:0:0:0:
64,192,1197546,1,0,0:0:0:0:
64,192,1197671,1,0,0:0:0:0:
192,192,1197671,1,0,0:0:0:0:
320,192,1197796,1,0,0:0:0:0:
448,192,1197796,1,0,0:0:0:0:
192,192,1198046,1,0,0:0:0:0:
320,192,1198046,1,0,0:0:0:0:
192,192,1198171,1,0,0:0:0:0:
320,192,1198171,1,0,0:0:0:0:
64,192,1198296,1,0,0:0:0:0:
448,192,1198296,1,0,0:0:0:0:
64,192,1198546,1,0,0:0:0:0:
192,192,1198546,1,0,0:0:0:0:
64,192,1198671,1,0,0:0:0:0:
192,192,1198671,1,0,0:0:0:0:
320,192,1198796,1,0,0:0:0:0:
448,192,1198796,1,0,0:0:0:0:
448,192,1199046,1,0,0:0:0:0:
192,192,1199046,1,0,0:0:0:0:
448,192,1199171,1,0,0:0:0:0:
192,192,1199171,1,0,0:0:0:0:
64,192,1199296,1,0,0:0:0:0:
320,192,1199296,1,0,0:0:0:0:
64,192,1199546,1,0,0:0:0:0:
192,192,1199546,1,0,0:0:0:0:
320,192,1199546,1,0,0:0:0:0:
64,192,1199671,1,0,0:0:0:0:
192,192,1199671,1,0,0:0:0:0:
320,192,1199796,1,0,0:0:0:0:
448,192,1199796,1,0,0:0:0:0:
192,192,1200046,1,0,0:0:0:0:
320,192,1200046,1,0,0:0:0:0:
64,192,1200046,1,0,0:0:0:0:
192,192,1200171,1,0,0:0:0:0:
320,192,1200171,1,0,0:0:0:0:
64,192,1200296,1,0,0:0:0:0:
448,192,1200296,1,0,0:0:0:0:
64,192,1200546,1,0,0:0:0:0:
192,192,1200546,1,0,0:0:0:0:
320,192,1200546,1,0,0:0:0:0:
64,192,1200671,1,0,0:0:0:0:
192,192,1200671,1,0,0:0:0:0:
320,192,1200796,1,0,0:0:0:0:
448,192,1200796,1,0,0:0:0:0:
320,192,1201046,1,0,0:0:0:0:
448,192,1201046,1,0,0:0:0:0:
192,192,1201046,1,0,0:0:0:0:
320,192,1201171,1,0,0:0:0:0:
448,192,1201171,1,0,0:0:0:0:
64,192,1201296,1,0,0:0:0:0:
192,192,1201296,1,0,0:0:0:0:
64,192,1201546,1,0,0:0:0:0:
192,192,1201546,1,0,0:0:0:0:
320,192,1201546,1,0,0:0:0:0:
64,192,1201671,1,0,0:0:0:0:
192,192,1201671,1,0,0:0:0:0:
320,192,1201796,1,0,0:0:0:0:
448,192,1201796,1,0,0:0:0:0:
64,192,1201796,1,0,0:0:0:0:
192,192,1202046,1,0,0:0:0:0:
320,192,1202046,1,0,0:0:0:0:
448,192,1202046,1,0,0:0:0:0:
192,192,1202171,1,0,0:0:0:0:
320,192,1202171,1,0,0:0:0:0:
64,192,1202296,1,0,0:0:0:0:
448,192,1202296,1,0,0:0:0:0:
192,192,1202296,1,0,0:0:0:0:
320,192,1202546,1,0,0:0:0:0:
448,192,1202546,1,0,0:0:0:0:
192,192,1202546,1,0,0:0:0:0:
320,192,1202671,1,0,0:0:0:0:
448,192,1202671,1,0,0:0:0:0:
64,192,1202671,1,0,0:0:0:0:
64,192,1202796,1,0,0:0:0:0:
192,192,1202796,1,0,0:0:0:0:
448,192,1202796,1,0,0:0:0:0:
320,192,1202921,1,0,0:0:0:0:
192,192,1203046,1,0,0:0:0:0:
448,192,1203046,1,0,0:0:0:0:
64,192,1203046,1,0,0:0:0:0:
192,192,1203171,1,0,0:0:0:0:
448,192,1203171,1,0,0:0:0:0:
320,192,1203171,1,0,0:0:0:0:
64,192,1203296,1,0,0:0:0:0:
320,192,1203296,1,0,0:0:0:0:
448,192,1203296,1,0,0:0:0:0:
192,192,1203421,1,0,0:0:0:0:
64,192,1203546,1,0,0:0:0:0:
192,192,1203546,1,0,0:0:0:0:
448,192,1203546,1,0,0:0:0:0:
320,192,1203546,1,0,0:0:0:0:
320,192,1204046,1,0,0:0:0:0:
448,192,1204046,1,0,0:0:0:0:
64,192,1204546,1,0,0:0:0:0:
192,192,1204546,1,0,0:0:0:0:
448,192,1204546,1,0,0:0:0:0:
320,192,1204546,1,0,0:0:0:0:
64,192,1204796,1,0,0:0:0:0:
448,192,1204796,1,0,0:0:0:0:
64,192,1205046,5,0,0:0:0:0:
448,192,1205046,1,0,0:0:0:0:
64,192,1205296,1,0,0:0:0:0:
448,192,1205296,1,0,0:0:0:0:
448,192,1205546,5,0,0:0:0:0:
64,192,1205546,1,0,0:0:0:0:
192,192,1205546,1,0,0:0:0:0:
320,192,1205608,1,0,0:0:0:0:
448,192,1205671,1,0,0:0:0:0:
64,192,1205671,1,0,0:0:0:0:
192,192,1205733,1,0,0:0:0:0:
64,192,1205796,1,0,0:0:0:0:
448,192,1205796,1,0,0:0:0:0:
320,192,1205858,1,0,0:0:0:0:
192,192,1205921,1,0,0:0:0:0:
64,192,1205921,1,0,0:0:0:0:
320,192,1205983,1,0,0:0:0:0:
64,192,1206046,1,0,0:0:0:0:
448,192,1206046,1,0,0:0:0:0:
192,192,1206108,1,0,0:0:0:0:
320,192,1206171,1,0,0:0:0:0:
192,192,1206233,1,0,0:0:0:0:
64,192,1206296,1,0,0:0:0:0:
320,192,1206296,1,0,0:0:0:0:
448,192,1206296,1,0,0:0:0:0:
192,192,1206358,1,0,0:0:0:0:
320,192,1206421,1,0,0:0:0:0:
448,192,1206421,1,0,0:0:0:0:
192,192,1206483,1,0,0:0:0:0:
64,192,1206546,1,0,0:0:0:0:
320,192,1206546,1,0,0:0:0:0:
448,192,1206546,1,0,0:0:0:0:
192,192,1206608,1,0,0:0:0:0:
448,192,1206671,1,0,0:0:0:0:
320,192,1206733,1,0,0:0:0:0:
64,192,1206796,1,0,0:0:0:0:
192,192,1206796,1,0,0:0:0:0:
448,192,1206796,1,0,0:0:0:0:
320,192,1206858,1,0,0:0:0:0:
64,192,1206921,1,0,0:0:0:0:
192,192,1206983,1,0,0:0:0:0:
64,192,1207046,1,0,0:0:0:0:
320,192,1207046,1,0,0:0:0:0:
448,192,1207046,1,0,0:0:0:0:
192,192,1207108,1,0,0:0:0:0:
448,192,1207171,1,0,0:0:0:0:
320,192,1207233,1,0,0:0:0:0:
64,192,1207296,1,0,0:0:0:0:
448,192,1207296,1,0,0:0:0:0:
192,192,1207296,1,0,0:0:0:0:
320,192,1207358,1,0,0:0:0:0:
64,192,1207421,1,0,0:0:0:0:
192,192,1207421,1,0,0:0:0:0:
320,192,1207483,1,0,0:0:0:0:
64,192,1207546,1,0,0:0:0:0:
448,192,1207546,1,0,0:0:0:0:
192,192,1207546,1,0,0:0:0:0:
320,192,1207608,1,0,0:0:0:0:
448,192,1207671,1,0,0:0:0:0:
64,192,1207733,1,0,0:0:0:0:
448,192,1207796,1,0,0:0:0:0:
192,192,1207796,1,0,0:0:0:0:
320,192,1207858,1,0,0:0:0:0:
64,192,1207921,1,0,0:0:0:0:
192,192,1207983,1,0,0:0:0:0:
64,192,1208046,1,0,0:0:0:0:
320,192,1208046,1,0,0:0:0:0:
448,192,1208046,1,0,0:0:0:0:
192,192,1208108,1,0,0:0:0:0:
448,192,1208171,1,0,0:0:0:0:
320,192,1208233,1,0,0:0:0:0:
64,192,1208296,1,0,0:0:0:0:
448,192,1208296,1,0,0:0:0:0:
192,192,1208358,1,0,0:0:0:0:
320,192,1208421,1,0,0:0:0:0:
192,192,1208483,1,0,0:0:0:0:
64,192,1208546,1,0,0:0:0:0:
320,192,1208546,1,0,0:0:0:0:
448,192,1208546,1,0,0:0:0:0:
192,192,1208608,1,0,0:0:0:0:
448,192,1208671,1,0,0:0:0:0:
320,192,1208733,1,0,0:0:0:0:
64,192,1208796,1,0,0:0:0:0:
192,192,1208796,1,0,0:0:0:0:
320,192,1208858,1,0,0:0:0:0:
448,192,1208921,1,0,0:0:0:0:
192,192,1208983,1,0,0:0:0:0:
64,192,1209046,1,0,0:0:0:0:
320,192,1209046,1,0,0:0:0:0:
448,192,1209046,1,0,0:0:0:0:
192,192,1209108,1,0,0:0:0:0:
320,192,1209171,1,0,0:0:0:0:
448,192,1209171,1,0,0:0:0:0:
64,192,1209233,1,0,0:0:0:0:
448,192,1209296,1,0,0:0:0:0:
192,192,1209296,1,0,0:0:0:0:
320,192,1209358,1,0,0:0:0:0:
64,192,1209421,1,0,0:0:0:0:
448,192,1209421,1,0,0:0:0:0:
192,192,1209483,1,0,0:0:0:0:
64,192,1209546,1,0,0:0:0:0:
320,192,1209546,1,0,0:0:0:0:
448,192,1209546,1,0,0:0:0:0:
192,192,1209608,1,0,0:0:0:0:
448,192,1209671,1,0,0:0:0:0:
320,192,1209733,1,0,0:0:0:0:
64,192,1209796,1,0,0:0:0:0:
448,192,1209796,1,0,0:0:0:0:
192,192,1209858,1,0,0:0:0:0:
320,192,1209921,1,0,0:0:0:0:
448,192,1209921,1,0,0:0:0:0:
192,192,1209983,1,0,0:0:0:0:
64,192,1210046,1,0,0:0:0:0:
320,192,1210046,1,0,0:0:0:0:
448,192,1210108,1,0,0:0:0:0:
64,192,1210171,1,0,0:0:0:0:
192,192,1210233,1,0,0:0:0:0:
64,192,1210296,1,0,0:0:0:0:
320,192,1210296,1,0,0:0:0:0:
448,192,1210296,1,0,0:0:0:0:
192,192,1210358,1,0,0:0:0:0:
448,192,1210421,1,0,0:0:0:0:
320,192,1210421,1,0,0:0:0:0:
64,192,1210483,1,0,0:0:0:0:
448,192,1210546,1,0,0:0:0:0:
320,192,1210546,1,0,0:0:0:0:
192,192,1210546,1,0,0:0:0:0:
64,192,1210608,1,0,0:0:0:0:
448,192,1210671,1,0,0:0:0:0:
320,192,1210733,1,0,0:0:0:0:
64,192,1210796,1,0,0:0:0:0:
192,192,1210796,1,0,0:0:0:0:
448,192,1210796,1,0,0:0:0:0:
320,192,1210858,1,0,0:0:0:0:
64,192,1210921,1,0,0:0:0:0:
192,192,1210983,1,0,0:0:0:0:
64,192,1211046,1,0,0:0:0:0:
320,192,1211046,1,0,0:0:0:0:
448,192,1211046,1,0,0:0:0:0:
192,192,1211108,1,0,0:0:0:0:
320,192,1211171,1,0,0:0:0:0:
192,192,1211233,1,0,0:0:0:0:
64,192,1211296,1,0,0:0:0:0:
320,192,1211296,1,0,0:0:0:0:
448,192,1211296,1,0,0:0:0:0:
192,192,1211358,1,0,0:0:0:0:
448,192,1211421,1,0,0:0:0:0:
320,192,1211421,1,0,0:0:0:0:
192,192,1211483,1,0,0:0:0:0:
64,192,1211546,1,0,0:0:0:0:
320,192,1211546,1,0,0:0:0:0:
448,192,1211546,1,0,0:0:0:0:
192,192,1211608,1,0,0:0:0:0:
64,192,1211671,1,0,0:0:0:0:
448,192,1211733,1,0,0:0:0:0:
64,192,1211796,1,0,0:0:0:0:
320,192,1211796,1,0,0:0:0:0:
192,192,1211858,1,0,0:0:0:0:
64,192,1211921,1,0,0:0:0:0:
192,192,1211983,1,0,0:0:0:0:
64,192,1212046,1,0,0:0:0:0:
320,192,1212046,1,0,0:0:0:0:
448,192,1212046,1,0,0:0:0:0:
192,192,1212108,1,0,0:0:0:0:
448,192,1212171,1,0,0:0:0:0:
320,192,1212233,1,0,0:0:0:0:
64,192,1212296,1,0,0:0:0:0:
448,192,1212296,1,0,0:0:0:0:
192,192,1212358,1,0,0:0:0:0:
320,192,1212421,1,0,0:0:0:0:
192,192,1212483,1,0,0:0:0:0:
64,192,1212546,1,0,0:0:0:0:
320,192,1212546,1,0,0:0:0:0:
448,192,1212546,1,0,0:0:0:0:
192,192,1212608,1,0,0:0:0:0:
64,192,1212671,1,0,0:0:0:0:
448,192,1212671,1,0,0:0:0:0:
320,192,1212733,1,0,0:0:0:0:
64,192,1212796,1,0,0:0:0:0:
192,192,1212796,1,0,0:0:0:0:
320,192,1212858,1,0,0:0:0:0:
64,192,1212921,1,0,0:0:0:0:
448,192,1212921,1,0,0:0:0:0:
192,192,1212983,1,0,0:0:0:0:
64,192,1213046,1,0,0:0:0:0:
320,192,1213046,1,0,0:0:0:0:
448,192,1213046,1,0,0:0:0:0:
192,192,1213108,1,0,0:0:0:0:
320,192,1213171,1,0,0:0:0:0:
448,192,1213233,1,0,0:0:0:0:
64,192,1213296,1,0,0:0:0:0:
320,192,1213296,1,0,0:0:0:0:
192,192,1213358,1,0,0:0:0:0:
64,192,1213421,1,0,0:0:0:0:
192,192,1213483,1,0,0:0:0:0:
64,192,1213546,1,0,0:0:0:0:
320,192,1213546,1,0,0:0:0:0:
448,192,1213546,1,0,0:0:0:0:
192,192,1213608,1,0,0:0:0:0:
320,192,1213671,1,0,0:0:0:0:
448,192,1213733,1,0,0:0:0:0:
64,192,1213796,1,0,0:0:0:0:
320,192,1213796,1,0,0:0:0:0:
192,192,1213858,1,0,0:0:0:0:
64,192,1213921,1,0,0:0:0:0:
192,192,1213983,1,0,0:0:0:0:
64,192,1214046,1,0,0:0:0:0:
320,192,1214046,1,0,0:0:0:0:
448,192,1214108,1,0,0:0:0:0:
320,192,1214171,1,0,0:0:0:0:
192,192,1214233,1,0,0:0:0:0:
64,192,1214296,1,0,0:0:0:0:
320,192,1214296,1,0,0:0:0:0:
192,192,1214358,1,0,0:0:0:0:
320,192,1214421,1,0,0:0:0:0:
448,192,1214483,1,0,0:0:0:0:
64,192,1214546,1,0,0:0:0:0:
192,192,1214546,1,0,0:0:0:0:
320,192,1214608,1,0,0:0:0:0:
448,192,1214671,1,0,0:0:0:0:
320,192,1214733,1,0,0:0:0:0:
448,192,1214796,1,0,0:0:0:0:
192,192,1214796,1,0,0:0:0:0:
64,192,1214858,1,0,0:0:0:0:
192,192,1214921,1,0,0:0:0:0:
320,192,1214983,1,0,0:0:0:0:
192,192,1215046,1,0,0:0:0:0:
64,192,1215046,1,0,0:0:0:0:
320,192,1215108,1,0,0:0:0:0:
448,192,1215171,1,0,0:0:0:0:
320,192,1215233,1,0,0:0:0:0:
448,192,1215296,1,0,0:0:0:0:
192,192,1215296,1,0,0:0:0:0:
64,192,1215358,1,0,0:0:0:0:
448,192,1215421,1,0,0:0:0:0:
192,192,1215421,1,0,0:0:0:0:
320,192,1215483,1,0,0:0:0:0:
64,192,1215546,1,0,0:0:0:0:
448,192,1215546,1,0,0:0:0:0:
192,192,1215608,1,0,0:0:0:0:
320,192,1215671,1,0,0:0:0:0:
448,192,1215733,1,0,0:0:0:0:
64,192,1215796,1,0,0:0:0:0:
320,192,1215796,1,0,0:0:0:0:
192,192,1215858,1,0,0:0:0:0:
64,192,1215921,1,0,0:0:0:0:
192,192,1215983,1,0,0:0:0:0:
64,192,1216046,1,0,0:0:0:0:
320,192,1216046,1,0,0:0:0:0:
448,192,1216108,1,0,0:0:0:0:
320,192,1216171,1,0,0:0:0:0:
192,192,1216233,1,0,0:0:0:0:
64,192,1216296,1,0,0:0:0:0:
320,192,1216296,1,0,0:0:0:0:
192,192,1216358,1,0,0:0:0:0:
320,192,1216421,1,0,0:0:0:0:
448,192,1216483,1,0,0:0:0:0:
64,192,1216546,1,0,0:0:0:0:
192,192,1216546,1,0,0:0:0:0:
320,192,1216608,1,0,0:0:0:0:
448,192,1216671,1,0,0:0:0:0:
320,192,1216733,1,0,0:0:0:0:
448,192,1216796,1,0,0:0:0:0:
192,192,1216796,1,0,0:0:0:0:
64,192,1216858,1,0,0:0:0:0:
192,192,1216921,1,0,0:0:0:0:
320,192,1216983,1,0,0:0:0:0:
64,192,1217046,1,0,0:0:0:0:
192,192,1217046,1,0,0:0:0:0:
320,192,1217108,1,0,0:0:0:0:
192,192,1217171,1,0,0:0:0:0:
448,192,1217171,1,0,0:0:0:0:
320,192,1217233,1,0,0:0:0:0:
448,192,1217296,1,0,0:0:0:0:
192,192,1217296,1,0,0:0:0:0:
64,192,1217358,1,0,0:0:0:0:
448,192,1217421,1,0,0:0:0:0:
192,192,1217421,1,0,0:0:0:0:
320,192,1217483,1,0,0:0:0:0:
448,192,1217546,1,0,0:0:0:0:
64,192,1217546,128,0,1218046:0:0:0:0:
192,192,1217546,128,0,1218046:0:0:0:0:
320,192,1218046,128,0,1218546:0:0:0:0:
448,192,1218046,128,0,1218546:0:0:0:0:
64,192,1218546,128,0,1219046:0:0:0:0:
192,192,1218546,128,0,1219046:0:0:0:0:
320,192,1219046,128,0,1219546:0:0:0:0:
448,192,1219046,128,0,1219546:0:0:0:0:
64,192,1219296,1,0,0:0:0:0:
192,192,1219296,1,0,0:0:0:0:
64,192,1219421,1,0,0:0:0:0:
192,192,1219421,1,0,0:0:0:0:
64,192,1219546,1,0,0:0:0:0:
192,192,1219546,1,0,0:0:0:0:
320,192,1219796,1,0,0:0:0:0:
448,192,1219796,1,0,0:0:0:0:
192,192,1219796,1,0,0:0:0:0:
64,192,1220046,1,0,0:0:0:0:
192,192,1220046,1,0,0:0:0:0:
448,192,1220046,1,0,0:0:0:0:
320,192,1220296,1,0,0:0:0:0:
448,192,1220296,1,0,0:0:0:0:
64,192,1220296,1,0,0:0:0:0:
64,192,1220546,1,0,0:0:0:0:
192,192,1220546,1,0,0:0:0:0:
448,192,1220546,1,0,0:0:0:0:
320,192,1220796,1,0,0:0:0:0:
448,192,1220796,1,0,0:0:0:0:
64,192,1220796,1,0,0:0:0:0:
64,192,1221046,1,0,0:0:0:0:
192,192,1221046,1,0,0:0:0:0:
448,192,1221046,1,0,0:0:0:0:
320,192,1221296,1,0,0:0:0:0:
448,192,1221296,1,0,0:0:0:0:
64,192,1221296,1,0,0:0:0:0:
320,192,1221421,1,0,0:0:0:0:
448,192,1221421,1,0,0:0:0:0:
192,192,1221421,1,0,0:0:0:0:
320,192,1221546,1,0,0:0:0:0:
448,192,1221546,1,0,0:0:0:0:
64,192,1221546,1,0,0:0:0:0:
192,192,1221546,1,0,0:0:0:0:
64,192,1221796,1,0,0:0:0:0:
192,192,1221796,1,0,0:0:0:0:
448,192,1221796,1,0,0:0:0:0:
320,192,1222046,1,0,0:0:0:0:
448,192,1222046,1,0,0:0:0:0:
64,192,1222046,1,0,0:0:0:0:
192,192,1222296,1,0,0:0:0:0:
64,192,1222296,1,0,0:0:0:0:
448,192,1222296,1,0,0:0:0:0:
320,192,1222546,5,0,0:0:0:0:
448,192,1222546,1,0,0:0:0:0:
64,192,1222546,1,0,0:0:0:0:
64,192,1222796,1,0,0:0:0:0:
192,192,1222796,1,0,0:0:0:0:
448,192,1222796,1,0,0:0:0:0:
320,192,1223046,5,0,0:0:0:0:
64,192,1223046,1,0,0:0:0:0:
448,192,1223046,1,0,0:0:0:0:
192,192,1223171,1,0,0:0:0:0:
448,192,1223171,1,0,0:0:0:0:
64,192,1223171,1,0,0:0:0:0:
320,192,1223296,1,0,0:0:0:0:
192,192,1223296,1,0,0:0:0:0:
64,192,1223296,1,0,0:0:0:0:
320,192,1223421,1,0,0:0:0:0:
192,192,1223421,1,0,0:0:0:0:
448,192,1223421,1,0,0:0:0:0:
64,192,1223546,1,0,0:0:0:0:
320,192,1223546,1,0,0:0:0:0:
448,192,1223546,1,0,0:0:0:0:
192,192,1223671,1,0,0:0:0:0:
64,192,1223671,1,0,0:0:0:0:
448,192,1223671,1,0,0:0:0:0:
320,192,1223796,1,0,0:0:0:0:
192,192,1223796,1,0,0:0:0:0:
64,192,1223796,1,0,0:0:0:0:
448,192,1223921,1,0,0:0:0:0:
320,192,1223921,1,0,0:0:0:0:
192,192,1223921,1,0,0:0:0:0:
64,192,1224046,1,0,0:0:0:0:
320,192,1224046,1,0,0:0:0:0:
448,192,1224046,1,0,0:0:0:0:
192,192,1224171,1,0,0:0:0:0:
64,192,1224171,1,0,0:0:0:0:
448,192,1224171,1,0,0:0:0:0:
320,192,1224296,1,0,0:0:0:0:
192,192,1224296,1,0,0:0:0:0:
64,192,1224296,1,0,0:0:0:0:
192,192,1224421,1,0,0:0:0:0:
320,192,1224421,1,0,0:0:0:0:
448,192,1224421,1,0,0:0:0:0:
320,192,1224546,1,0,0:0:0:0:
64,192,1224546,1,0,0:0:0:0:
448,192,1224546,1,0,0:0:0:0:
64,192,1224671,1,0,0:0:0:0:
192,192,1224671,1,0,0:0:0:0:
448,192,1224671,1,0,0:0:0:0:
320,192,1224796,1,0,0:0:0:0:
192,192,1224796,1,0,0:0:0:0:
64,192,1224796,1,0,0:0:0:0:
448,192,1224921,1,0,0:0:0:0:
320,192,1224921,1,0,0:0:0:0:
192,192,1224921,1,0,0:0:0:0:
64,192,1225046,1,0,0:0:0:0:
320,192,1225046,1,0,0:0:0:0:
448,192,1225046,1,0,0:0:0:0:
192,192,1225171,1,0,0:0:0:0:
64,192,1225171,1,0,0:0:0:0:
448,192,1225171,1,0,0:0:0:0:
320,192,1225296,1,0,0:0:0:0:
192,192,1225296,1,0,0:0:0:0:
64,192,1225296,1,0,0:0:0:0:
448,192,1225421,1,0,0:0:0:0:
320,192,1225421,1,0,0:0:0:0:
192,192,1225421,1,0,0:0:0:0:
64,192,1225421,1,0,0:0:0:0:
64,192,1225546,1,0,0:0:0:0:
192,192,1225546,1,0,0:0:0:0:
320,192,1225608,1,0,0:0:0:0:
448,192,1225608,1,0,0:0:0:0:
64,192,1225671,1,0,0:0:0:0:
192,192,1225671,1,0,0:0:0:0:
320,192,1225733,1,0,0:0:0:0:
448,192,1225733,1,0,0:0:0:0:
64,192,1225796,1,0,0:0:0:0:
192,192,1225796,1,0,0:0:0:0:
320,192,1225858,1,0,0:0:0:0:
448,192,1225858,1,0,0:0:0:0:
64,192,1225921,1,0,0:0:0:0:
192,192,1225921,1,0,0:0:0:0:
320,192,1225983,1,0,0:0:0:0:
448,192,1225983,1,0,0:0:0:0:
64,192,1226046,1,0,0:0:0:0:
192,192,1226046,1,0,0:0:0:0:
448,192,1226108,1,0,0:0:0:0:
320,192,1226108,1,0,0:0:0:0:
64,192,1226171,1,0,0:0:0:0:
192,192,1226171,1,0,0:0:0:0:
320,192,1226233,1,0,0:0:0:0:
448,192,1226233,1,0,0:0:0:0:
64,192,1226296,1,0,0:0:0:0:
192,192,1226296,1,0,0:0:0:0:
320,192,1226358,1,0,0:0:0:0:
448,192,1226358,1,0,0:0:0:0:
64,192,1226421,1,0,0:0:0:0:
192,192,1226421,1,0,0:0:0:0:
320,192,1226483,1,0,0:0:0:0:
448,192,1226483,1,0,0:0:0:0:
64,192,1226546,1,0,0:0:0:0:
192,192,1226577,1,0,0:0:0:0:
320,192,1226608,1,0,0:0:0:0:
448,192,1226639,1,0,0:0:0:0:
64,192,1226671,1,0,0:0:0:0:
192,192,1226702,1,0,0:0:0:0:
320,192,1226733,1,0,0:0:0:0:
448,192,1226764,1,0,0:0:0:0:
64,192,1226796,1,0,0:0:0:0:
192,192,1226827,1,0,0:0:0:0:
320,192,1226858,1,0,0:0:0:0:
448,192,1226889,1,0,0:0:0:0:
64,192,1226921,1,0,0:0:0:0:
192,192,1226952,1,0,0:0:0:0:
320,192,1226983,1,0,0:0:0:0:
448,192,1227014,1,0,0:0:0:0:
64,192,1227046,1,0,0:0:0:0:
192,192,1227077,1,0,0:0:0:0:
320,192,1227108,1,0,0:0:0:0:
448,192,1227139,1,0,0:0:0:0:
64,192,1227171,1,0,0:0:0:0:
192,192,1227202,1,0,0:0:0:0:
320,192,1227233,1,0,0:0:0:0:
448,192,1227264,1,0,0:0:0:0:
64,192,1227296,1,0,0:0:0:0:
192,192,1227327,1,0,0:0:0:0:
320,192,1227358,1,0,0:0:0:0:
448,192,1227389,1,0,0:0:0:0:
64,192,1227421,1,0,0:0:0:0:
192,192,1227452,1,0,0:0:0:0:
320,192,1227483,1,0,0:0:0:0:
448,192,1227514,1,0,0:0:0:0:
64,192,1227546,1,0,0:0:0:0:
192,192,1227546,1,0,0:0:0:0:
64,192,1233206,5,0,0:0:0:0:
320,192,1233206,128,0,1233872:0:0:0:0:
192,192,1233289,1,0,0:0:0:0:
192,192,1233872,128,0,1234539:0:0:0:0:
448,192,1234206,1,0,0:0:0:0:
320,192,1234289,1,0,0:0:0:0:
64,192,1234539,128,0,1236539:0:0:0:0:
320,192,1236539,128,0,1236872:0:0:0:0:
448,192,1236872,128,0,1237539:0:0:0:0:
320,192,1237539,128,0,1237872:0:0:0:0:
192,192,1237872,128,0,1238206:0:0:0:0:
448,192,1238206,128,0,1238539:0:0:0:0:
64,192,1238539,1,0,0:0:0:0:
320,192,1238539,128,0,1238872:0:0:0:0:
192,192,1238622,1,0,0:0:0:0:
64,192,1238872,128,0,1243539:0:0:0:0:
448,192,1239539,1,0,0:0:0:0:
320,192,1239622,1,0,0:0:0:0:
64,192,1243872,1,0,0:0:0:0:
448,192,1243872,128,0,1244539:0:0:0:0:
192,192,1243956,1,0,0:0:0:0:
192,192,1244539,128,0,1245206:0:0:0:0:
448,192,1244872,1,0,0:0:0:0:
320,192,1244956,1,0,0:0:0:0:
64,192,1245206,128,0,1246872:0:0:0:0:
192,192,1246872,128,0,1247206:0:0:0:0:
320,192,1247206,128,0,1247539:0:0:0:0:
448,192,1247539,128,0,1248206:0:0:0:0:
64,192,1248206,128,0,1248539:0:0:0:0:
192,192,1248539,128,0,1248872:0:0:0:0:
320,192,1248872,128,0,1249206:0:0:0:0:
64,192,1249206,1,0,0:0:0:0:
448,192,1249206,128,0,1249539:0:0:0:0:
192,192,1249289,1,0,0:0:0:0:
192,192,1249539,128,0,1251872:0:0:0:0:
448,192,1250206,1,0,0:0:0:0:
320,192,1250289,1,0,0:0:0:0:
448,192,1251872,1,0,0:0:0:0:
320,192,1252039,1,0,0:0:0:0:
64,192,1252206,1,0,0:0:0:0:
448,192,1252206,1,0,0:0:0:0:
192,192,1252247,1,0,0:0:0:0:
320,192,1252372,1,0,0:0:0:0:
448,192,1252539,1,0,0:0:0:0:
64,192,1252539,1,0,0:0:0:0:
320,192,1252581,1,0,0:0:0:0:
192,192,1252706,1,0,0:0:0:0:
64,192,1252872,1,0,0:0:0:0:
448,192,1252872,1,0,0:0:0:0:
192,192,1252914,1,0,0:0:0:0:
320,192,1253039,1,0,0:0:0:0:
448,192,1253206,1,0,0:0:0:0:
64,192,1253206,1,0,0:0:0:0:
320,192,1253247,1,0,0:0:0:0:
192,192,1253372,1,0,0:0:0:0:
64,192,1253539,1,0,0:0:0:0:
448,192,1253539,1,0,0:0:0:0:
192,192,1253581,1,0,0:0:0:0:
320,192,1253706,1,0,0:0:0:0:
448,192,1253872,1,0,0:0:0:0:
64,192,1253872,1,0,0:0:0:0:
320,192,1253914,1,0,0:0:0:0:
192,192,1254039,1,0,0:0:0:0:
64,192,1254206,1,0,0:0:0:0:
448,192,1254206,1,0,0:0:0:0:
192,192,1254247,1,0,0:0:0:0:
320,192,1254372,1,0,0:0:0:0:
192,192,1254539,1,0,0:0:0:0:
448,192,1254539,128,0,1256539:0:0:0:0:
64,192,1254539,1,0,0:0:0:0:
320,192,1254581,1,0,0:0:0:0:
192,192,1254706,1,0,0:0:0:0:
320,192,1254872,1,0,0:0:0:0:
192,192,1255039,1,0,0:0:0:0:
64,192,1255206,1,0,0:0:0:0:
320,192,1255206,1,0,0:0:0:0:
192,192,1255247,1,0,0:0:0:0:
64,192,1255372,1,0,0:0:0:0:
192,192,1255539,1,0,0:0:0:0:
192,192,1255706,1,0,0:0:0:0:
64,192,1255706,1,0,0:0:0:0:
320,192,1255747,1,0,0:0:0:0:
192,192,1255872,1,0,0:0:0:0:
320,192,1256039,1,0,0:0:0:0:
64,192,1256206,1,0,0:0:0:0:
320,192,1256206,1,0,0:0:0:0:
192,192,1256247,1,0,0:0:0:0:
64,192,1256372,1,0,0:0:0:0:
192,192,1256539,1,0,0:0:0:0:
64,192,1256539,128,0,1257206:0:0:0:0:
320,192,1256581,1,0,0:0:0:0:
448,192,1256706,1,0,0:0:0:0:
320,192,1256872,1,0,0:0:0:0:
448,192,1256872,1,0,0:0:0:0:
192,192,1256914,1,0,0:0:0:0:
320,192,1257039,1,0,0:0:0:0:
192,192,1257206,1,0,0:0:0:0:
448,192,1257206,128,0,1258539:0:0:0:0:
320,192,1257247,1,0,0:0:0:0:
64,192,1257372,1,0,0:0:0:0:
192,192,1257539,1,0,0:0:0:0:
320,192,1257706,1,0,0:0:0:0:
64,192,1257872,1,0,0:0:0:0:
320,192,1257872,1,0,0:0:0:0:
192,192,1257914,1,0,0:0:0:0:
320,192,1258039,1,0,0:0:0:0:
192,192,1258206,1,0,0:0:0:0:
192,192,1258372,1,0,0:0:0:0:
64,192,1258372,1,0,0:0:0:0:
320,192,1258414,1,0,0:0:0:0:
64,192,1258539,128,0,1258872:0:0:0:0:
192,192,1258539,1,0,0:0:0:0:
320,192,1258706,1,0,0:0:0:0:
320,192,1258872,1,0,0:0:0:0:
448,192,1258872,128,0,1259206:0:0:0:0:
192,192,1258914,1,0,0:0:0:0:
64,192,1259039,1,0,0:0:0:0:
192,192,1259206,1,0,0:0:0:0:
64,192,1259206,128,0,1259539:0:0:0:0:
320,192,1259247,1,0,0:0:0:0:
448,192,1259372,1,0,0:0:0:0:
320,192,1259539,1,0,0:0:0:0:
448,192,1259539,128,0,1259872:0:0:0:0:
192,192,1259581,1,0,0:0:0:0:
64,192,1259706,1,0,0:0:0:0:
192,192,1259872,1,0,0:0:0:0:
320,192,1259872,128,0,1261872:0:0:0:0:
64,192,1259914,1,0,0:0:0:0:
448,192,1260039,1,0,0:0:0:0:
192,192,1260206,1,0,0:0:0:0:
448,192,1260372,1,0,0:0:0:0:
64,192,1260539,1,0,0:0:0:0:
448,192,1260539,1,0,0:0:0:0:
192,192,1260581,1,0,0:0:0:0:
64,192,1260706,1,0,0:0:0:0:
448,192,1260872,1,0,0:0:0:0:
64,192,1261039,1,0,0:0:0:0:
448,192,1261039,1,0,0:0:0:0:
192,192,1261081,1,0,0:0:0:0:
64,192,1261206,1,0,0:0:0:0:
448,192,1261372,1,0,0:0:0:0:
192,192,1261539,1,0,0:0:0:0:
448,192,1261539,1,0,0:0:0:0:
64,192,1261581,1,0,0:0:0:0:
192,192,1261706,1,0,0:0:0:0:
64,192,1261872,1,0,0:0:0:0:
448,192,1261872,128,0,1262539:0:0:0:0:
192,192,1261914,1,0,0:0:0:0:
64,192,1262039,1,0,0:0:0:0:
320,192,1262206,1,0,0:0:0:0:
64,192,1262206,1,0,0:0:0:0:
192,192,1262247,1,0,0:0:0:0:
320,192,1262372,1,0,0:0:0:0:
64,192,1262539,128,0,1265206:0:0:0:0:
320,192,1262539,1,0,0:0:0:0:
192,192,1262581,1,0,0:0:0:0:
448,192,1262706,1,0,0:0:0:0:
320,192,1262872,1,0,0:0:0:0:
192,192,1263039,1,0,0:0:0:0:
320,192,1263206,1,0,0:0:0:0:
448,192,1263206,1,0,0:0:0:0:
192,192,1263247,1,0,0:0:0:0:
320,192,1263372,1,0,0:0:0:0:
448,192,1263539,1,0,0:0:0:0:
192,192,1263706,1,0,0:0:0:0:
448,192,1263706,1,0,0:0:0:0:
320,192,1263747,1,0,0:0:0:0:
192,192,1263872,1,0,0:0:0:0:
448,192,1264039,1,0,0:0:0:0:
320,192,1264206,1,0,0:0:0:0:
192,192,1264206,1,0,0:0:0:0:
448,192,1264247,1,0,0:0:0:0:
320,192,1264372,1,0,0:0:0:0:
448,192,1264539,1,0,0:0:0:0:
192,192,1264539,1,0,0:0:0:0:
320,192,1264581,1,0,0:0:0:0:
448,192,1264706,1,0,0:0:0:0:
320,192,1264872,1,0,0:0:0:0:
448,192,1264872,1,0,0:0:0:0:
192,192,1264914,1,0,0:0:0:0:
448,192,1265039,128,0,1267206:0:0:0:0:
320,192,1265039,1,0,0:0:0:0:
192,192,1265206,1,0,0:0:0:0:
320,192,1265247,1,0,0:0:0:0:
64,192,1265372,1,0,0:0:0:0:
192,192,1265539,1,0,0:0:0:0:
320,192,1265706,1,0,0:0:0:0:
192,192,1265872,1,0,0:0:0:0:
64,192,1265872,1,0,0:0:0:0:
320,192,1265914,1,0,0:0:0:0:
192,192,1266039,1,0,0:0:0:0:
64,192,1266206,1,0,0:0:0:0:
320,192,1266372,1,0,0:0:0:0:
64,192,1266372,1,0,0:0:0:0:
192,192,1266414,1,0,0:0:0:0:
320,192,1266539,1,0,0:0:0:0:
192,192,1266706,1,0,0:0:0:0:
192,192,1266872,1,0,0:0:0:0:
320,192,1266872,1,0,0:0:0:0:
64,192,1266914,1,0,0:0:0:0:
192,192,1267039,1,0,0:0:0:0:
192,192,1267206,1,0,0:0:0:0:
64,192,1267206,128,0,1267539:0:0:0:0:
320,192,1267247,1,0,0:0:0:0:
448,192,1267372,1,0,0:0:0:0:
320,192,1267539,1,0,0:0:0:0:
448,192,1267539,128,0,1267872:0:0:0:0:
192,192,1267581,1,0,0:0:0:0:
320,192,1267706,1,0,0:0:0:0:
192,192,1267872,1,0,0:0:0:0:
64,192,1267872,128,0,1268539:0:0:0:0:
320,192,1267914,1,0,0:0:0:0:
448,192,1268039,1,0,0:0:0:0:
320,192,1268206,1,0,0:0:0:0:
192,192,1268372,1,0,0:0:0:0:
320,192,1268539,1,0,0:0:0:0:
448,192,1268539,128,0,1269206:0:0:0:0:
192,192,1268581,1,0,0:0:0:0:
64,192,1268706,1,0,0:0:0:0:
320,192,1268872,1,0,0:0:0:0:
192,192,1269039,1,0,0:0:0:0:
320,192,1269039,1,0,0:0:0:0:
64,192,1269081,1,0,0:0:0:0:
320,192,1269206,128,0,1269872:0:0:0:0:
192,192,1269206,1,0,0:0:0:0:
448,192,1269372,1,0,0:0:0:0:
64,192,1269539,1,0,0:0:0:0:
448,192,1269539,1,0,0:0:0:0:
192,192,1269581,1,0,0:0:0:0:
64,192,1269706,1,0,0:0:0:0:
192,192,1269872,1,0,0:0:0:0:
448,192,1269872,128,0,1270539:0:0:0:0:
64,192,1269914,1,0,0:0:0:0:
320,192,1270039,1,0,0:0:0:0:
320,192,1270206,1,0,0:0:0:0:
64,192,1270206,1,0,0:0:0:0:
192,192,1270247,1,0,0:0:0:0:
320,192,1270372,1,0,0:0:0:0:
64,192,1270539,1,0,0:0:0:0:
320,192,1270539,128,0,1272539:0:0:0:0:
192,192,1270581,1,0,0:0:0:0:
448,192,1270706,1,0,0:0:0:0:
192,192,1270872,1,0,0:0:0:0:
64,192,1271039,1,0,0:0:0:0:
192,192,1271206,1,0,0:0:0:0:
448,192,1271206,1,0,0:0:0:0:
64,192,1271247,1,0,0:0:0:0:
192,192,1271372,1,0,0:0:0:0:
448,192,1271539,1,0,0:0:0:0:
64,192,1271706,1,0,0:0:0:0:
448,192,1271706,1,0,0:0:0:0:
192,192,1271747,1,0,0:0:0:0:
64,192,1271872,1,0,0:0:0:0:
448,192,1272039,1,0,0:0:0:0:
64,192,1272206,1,0,0:0:0:0:
448,192,1272206,1,0,0:0:0:0:
192,192,1272247,1,0,0:0:0:0:
64,192,1272372,1,0,0:0:0:0:
192,192,1272539,1,0,0:0:0:0:
448,192,1272539,128,0,1273206:0:0:0:0:
64,192,1272581,1,0,0:0:0:0:
320,192,1272706,1,0,0:0:0:0:
64,192,1272872,1,0,0:0:0:0:
320,192,1272872,1,0,0:0:0:0:
192,192,1272914,1,0,0:0:0:0:
320,192,1273039,1,0,0:0:0:0:
320,192,1273206,1,0,0:0:0:0:
64,192,1273206,128,0,1275872:0:0:0:0:
192,192,1273247,1,0,0:0:0:0:
448,192,1273372,1,0,0:0:0:0:
448,192,1273539,1,0,0:0:0:0:
192,192,1273539,1,0,0:0:0:0:
320,192,1273581,1,0,0:0:0:0:
448,192,1273706,1,0,0:0:0:0:
320,192,1273872,1,0,0:0:0:0:
192,192,1273872,1,0,0:0:0:0:
448,192,1273914,1,0,0:0:0:0:
320,192,1274039,1,0,0:0:0:0:
448,192,1274206,1,0,0:0:0:0:
192,192,1274206,1,0,0:0:0:0:
320,192,1274247,1,0,0:0:0:0:
448,192,1274372,1,0,0:0:0:0:
320,192,1274539,1,0,0:0:0:0:
448,192,1274539,1,0,0:0:0:0:
192,192,1274581,1,0,0:0:0:0:
320,192,1274706,1,0,0:0:0:0:
320,192,1274872,1,0,0:0:0:0:
448,192,1274872,1,0,0:0:0:0:
192,192,1274914,1,0,0:0:0:0:
320,192,1275039,1,0,0:0:0:0:
448,192,1275206,1,0,0:0:0:0:
192,192,1275206,1,0,0:0:0:0:
320,192,1275247,1,0,0:0:0:0:
448,192,1275372,1,0,0:0:0:0:
192,192,1275539,1,0,0:0:0:0:
448,192,1275539,1,0,0:0:0:0:
320,192,1275581,1,0,0:0:0:0:
192,192,1275706,1,0,0:0:0:0:
448,192,1275872,1,0,0:0:0:0:
192,192,1275872,128,0,1277539:0:0:0:0:
320,192,1275914,1,0,0:0:0:0:
64,192,1276039,1,0,0:0:0:0:
448,192,1276206,1,0,0:0:0:0:
320,192,1276372,1,0,0:0:0:0:
320,192,1276539,1,0,0:0:0:0:
64,192,1276539,1,0,0:0:0:0:
448,192,1276581,1,0,0:0:0:0:
320,192,1276706,1,0,0:0:0:0:
64,192,1276872,1,0,0:0:0:0:
448,192,1277039,1,0,0:0:0:0:
64,192,1277039,1,0,0:0:0:0:
320,192,1277081,1,0,0:0:0:0:
448,192,1277206,1,0,0:0:0:0:
320,192,1277372,1,0,0:0:0:0:
448,192,1277539,1,0,0:0:0:0:
64,192,1277539,128,0,1277872:0:0:0:0:
320,192,1277581,1,0,0:0:0:0:
192,192,1277706,1,0,0:0:0:0:
448,192,1277872,1,0,0:0:0:0:
192,192,1277872,128,0,1278206:0:0:0:0:
320,192,1277914,1,0,0:0:0:0:
448,192,1278039,1,0,0:0:0:0:
320,192,1278206,1,0,0:0:0:0:
64,192,1278206,128,0,1278539:0:0:0:0:
448,192,1278247,1,0,0:0:0:0:
320,192,1278372,1,0,0:0:0:0:
448,192,1278539,1,0,0:0:0:0:
192,192,1278539,128,0,1279206:0:0:0:0:
320,192,1278581,1,0,0:0:0:0:
448,192,1278706,1,0,0:0:0:0:
64,192,1278872,1,0,0:0:0:0:
448,192,1279039,1,0,0:0:0:0:
320,192,1279206,1,0,0:0:0:0:
64,192,1279206,128,0,1279872:0:0:0:0:
448,192,1279247,1,0,0:0:0:0:
192,192,1279372,1,0,0:0:0:0:
448,192,1279539,1,0,0:0:0:0:
320,192,1279706,1,0,0:0:0:0:
448,192,1279706,1,0,0:0:0:0:
192,192,1279747,1,0,0:0:0:0:
448,192,1279872,128,0,1280539:0:0:0:0:
320,192,1279872,1,0,0:0:0:0:
64,192,1280039,1,0,0:0:0:0:
192,192,1280206,1,0,0:0:0:0:
64,192,1280206,1,0,0:0:0:0:
320,192,1280247,1,0,0:0:0:0:
192,192,1280372,1,0,0:0:0:0:
320,192,1280539,1,0,0:0:0:0:
64,192,1280539,128,0,1281206:0:0:0:0:
192,192,1280581,1,0,0:0:0:0:
448,192,1280706,1,0,0:0:0:0:
448,192,1280872,1,0,0:0:0:0:
192,192,1280872,1,0,0:0:0:0:
320,192,1280914,1,0,0:0:0:0:
448,192,1281039,1,0,0:0:0:0:
320,192,1281206,1,0,0:0:0:0:
448,192,1281206,128,0,1283206:0:0:0:0:
192,192,1281247,1,0,0:0:0:0:
64,192,1281372,1,0,0:0:0:0:
320,192,1281539,1,0,0:0:0:0:
192,192,1281706,1,0,0:0:0:0:
64,192,1281872,1,0,0:0:0:0:
320,192,1281872,1,0,0:0:0:0:
192,192,1281914,1,0,0:0:0:0:
64,192,1282039,1,0,0:0:0:0:
320,192,1282206,1,0,0:0:0:0:
192,192,1282372,1,0,0:0:0:0:
64,192,1282372,1,0,0:0:0:0:
320,192,1282414,1,0,0:0:0:0:
192,192,1282539,1,0,0:0:0:0:
64,192,1282706,1,0,0:0:0:0:
320,192,1282872,1,0,0:0:0:0:
64,192,1282872,1,0,0:0:0:0:
192,192,1282914,1,0,0:0:0:0:
320,192,1283039,1,0,0:0:0:0:
192,192,1283206,1,0,0:0:0:0:
64,192,1283206,128,0,1283539:0:0:0:0:
320,192,1283247,1,0,0:0:0:0:
448,192,1283372,1,0,0:0:0:0:
320,192,1283539,1,0,0:0:0:0:
448,192,1283539,128,0,1283872:0:0:0:0:
192,192,1283581,1,0,0:0:0:0:
320,192,1283706,1,0,0:0:0:0:
192,192,1283872,1,0,0:0:0:0:
320,192,1283872,128,0,1284539:0:0:0:0:
64,192,1283914,1,0,0:0:0:0:
448,192,1284039,1,0,0:0:0:0:
192,192,1284206,1,0,0:0:0:0:
64,192,1284372,1,0,0:0:0:0:
64,192,1284539,1,0,0:0:0:0:
448,192,1284539,128,0,1285039:0:0:0:0:
192,192,1284581,1,0,0:0:0:0:
320,192,1284706,1,0,0:0:0:0:
64,192,1284872,1,0,0:0:0:0:
192,192,1285039,1,0,0:0:0:0:
64,192,1285039,128,0,1285872:0:0:0:0:
320,192,1285081,1,0,0:0:0:0:
448,192,1285206,1,0,0:0:0:0:
192,192,1285372,1,0,0:0:0:0:
320,192,1285539,1,0,0:0:0:0:
448,192,1285539,1,0,0:0:0:0:
192,192,1285581,1,0,0:0:0:0:
320,192,1285706,1,0,0:0:0:0:
192,192,1285872,1,0,0:0:0:0:
448,192,1285872,128,0,1286539:0:0:0:0:
320,192,1285914,1,0,0:0:0:0:
64,192,1286039,1,0,0:0:0:0:
320,192,1286206,1,0,0:0:0:0:
64,192,1286206,1,0,0:0:0:0:
192,192,1286247,1,0,0:0:0:0:
320,192,1286372,1,0,0:0:0:0:
192,192,1286539,1,0,0:0:0:0:
320,192,1286539,128,0,1288539:0:0:0:0:
64,192,1286581,1,0,0:0:0:0:
448,192,1286706,1,0,0:0:0:0:
192,192,1286872,1,0,0:0:0:0:
448,192,1287039,1,0,0:0:0:0:
64,192,1287206,1,0,0:0:0:0:
448,192,1287206,1,0,0:0:0:0:
192,192,1287247,1,0,0:0:0:0:
64,192,1287372,1,0,0:0:0:0:
448,192,1287539,1,0,0:0:0:0:
192,192,1287706,1,0,0:0:0:0:
448,192,1287706,1,0,0:0:0:0:
64,192,1287747,1,0,0:0:0:0:
192,192,1287872,1,0,0:0:0:0:
448,192,1288039,1,0,0:0:0:0:
64,192,1288206,1,0,0:0:0:0:
448,192,1288206,1,0,0:0:0:0:
192,192,1288247,1,0,0:0:0:0:
64,192,1288372,1,0,0:0:0:0:
64,192,1288539,1,0,0:0:0:0:
448,192,1288539,128,0,1288872:0:0:0:0:
192,192,1288581,1,0,0:0:0:0:
320,192,1288706,1,0,0:0:0:0:
192,192,1288872,1,0,0:0:0:0:
320,192,1288872,128,0,1289206:0:0:0:0:
64,192,1288914,1,0,0:0:0:0:
448,192,1289039,1,0,0:0:0:0:
64,192,1289206,1,0,0:0:0:0:
448,192,1289206,128,0,1289872:0:0:0:0:
192,192,1289247,1,0,0:0:0:0:
320,192,1289372,1,0,0:0:0:0:
192,192,1289539,1,0,0:0:0:0:
64,192,1289706,1,0,0:0:0:0:
192,192,1289872,1,0,0:0:0:0:
64,192,1289872,128,0,1290539:0:0:0:0:
320,192,1289914,1,0,0:0:0:0:
448,192,1290039,1,0,0:0:0:0:
320,192,1290206,1,0,0:0:0:0:
320,192,1290372,1,0,0:0:0:0:
448,192,1290372,1,0,0:0:0:0:
192,192,1290414,1,0,0:0:0:0:
448,192,1290539,128,0,1291206:0:0:0:0:
320,192,1290539,1,0,0:0:0:0:
64,192,1290706,1,0,0:0:0:0:
192,192,1290872,1,0,0:0:0:0:
320,192,1290872,1,0,0:0:0:0:
64,192,1290914,1,0,0:0:0:0:
192,192,1291039,1,0,0:0:0:0:
64,192,1291206,1,0,0:0:0:0:
320,192,1291206,128,0,1291872:0:0:0:0:
192,192,1291247,1,0,0:0:0:0:
448,192,1291372,1,0,0:0:0:0:
192,192,1291539,1,0,0:0:0:0:
448,192,1291539,1,0,0:0:0:0:
64,192,1291581,1,0,0:0:0:0:
192,192,1291706,1,0,0:0:0:0:
64,192,1291872,1,0,0:0:0:0:
448,192,1291872,128,0,1293206:0:0:0:0:
192,192,1291914,1,0,0:0:0:0:
320,192,1292039,1,0,0:0:0:0:
192,192,1292206,1,0,0:0:0:0:
64,192,1292372,1,0,0:0:0:0:
320,192,1292372,1,0,0:0:0:0:
192,192,1292414,1,0,0:0:0:0:
320,192,1292539,1,0,0:0:0:0:
64,192,1292706,1,0,0:0:0:0:
192,192,1292872,1,0,0:0:0:0:
64,192,1292872,1,0,0:0:0:0:
320,192,1292914,1,0,0:0:0:0:
192,192,1293039,1,0,0:0:0:0:
320,192,1293206,1,0,0:0:0:0:
64,192,1293206,128,0,1294539:0:0:0:0:
192,192,1293247,1,0,0:0:0:0:
448,192,1293372,1,0,0:0:0:0:
320,192,1293539,1,0,0:0:0:0:
192,192,1293706,1,0,0:0:0:0:
448,192,1293706,1,0,0:0:0:0:
320,192,1293747,1,0,0:0:0:0:
448,192,1293872,1,0,0:0:0:0:
192,192,1294039,1,0,0:0:0:0:
448,192,1294206,1,0,0:0:0:0:
192,192,1294206,1,0,0:0:0:0:
320,192,1294247,1,0,0:0:0:0:
448,192,1294372,1,0,0:0:0:0:
320,192,1294539,1,0,0:0:0:0:
448,192,1294539,128,0,1297206:0:0:0:0:
192,192,1294581,1,0,0:0:0:0:
320,192,1294706,1,0,0:0:0:0:
192,192,1294872,1,0,0:0:0:0:
192,192,1295039,1,0,0:0:0:0:
320,192,1295039,1,0,0:0:0:0:
64,192,1295081,1,0,0:0:0:0:
192,192,1295206,1,0,0:0:0:0:
64,192,1295372,1,0,0:0:0:0:
320,192,1295539,1,0,0:0:0:0:
64,192,1295539,1,0,0:0:0:0:
192,192,1295581,1,0,0:0:0:0:
320,192,1295706,1,0,0:0:0:0:
192,192,1295872,1,0,0:0:0:0:
64,192,1296039,1,0,0:0:0:0:
320,192,1296039,1,0,0:0:0:0:
192,192,1296081,1,0,0:0:0:0:
64,192,1296206,1,0,0:0:0:0:
320,192,1296372,1,0,0:0:0:0:
192,192,1296539,1,0,0:0:0:0:
64,192,1296539,1,0,0:0:0:0:
320,192,1296581,1,0,0:0:0:0:
192,192,1296706,1,0,0:0:0:0:
320,192,1296872,1,0,0:0:0:0:
64,192,1296872,1,0,0:0:0:0:
192,192,1296914,1,0,0:0:0:0:
320,192,1297039,1,0,0:0:0:0:
192,192,1297206,1,0,0:0:0:0:
320,192,1297206,1,0,0:0:0:0:
64,192,1297247,1,0,0:0:0:0:
