osu file format v14

[General]
AudioFilename: medley.mp3
AudioLeadIn: 2000
PreviewTime: 787373
Countdown: 0
SampleSet: Soft
StackLeniency: 0.7
Mode: 3
LetterboxInBreaks: 0
SpecialStyle: 0
WidescreenStoryboard: 1

[Editor]
Bookmarks: 96674,199621,320884,408893,412093,487521,573235,580253,672073,704073,761673,787273,898706,1047336,1058436,1094446,1110446,1154446,1227446,1233106,1299872,1433288,1577289
DistanceSpacing: 1.5
BeatDivisor: 3
GridSize: 4
TimelineZoom: 0.1

[Metadata]
Title:THE MEDLEY OF POKEMON RGBY+GSC -3PBs-
TitleUnicode:THE MEDLEY OF POKéMON RGBY+GSC -3PBs-
Artist:hapi
ArtistUnicode:hapi⇒
Creator:pikechu
Version:The 4th Part
Source:Pokémon
Tags:remix red green blue gold silver crystal vocaloid master ntd03 golden sun pikachu raichu pichu nintendo gamefreak gb gba hapinano
BeatmapID:1906418
BeatmapSetID:908046

[Difficulty]
HPDrainRate:8
CircleSize:4
OverallDifficulty:8
ApproachRate:9
SliderMultiplier:1.6
SliderTickRate:1

[Events]
//Background and Video events
0,0,"background.jpg",0,0
//Break Periods
//Storyboard Layer 0 (Background)
//Storyboard Layer 1 (Fail)
//Storyboard Layer 2 (Pass)
//Storyboard Layer 3 (Foreground)
//Storyboard Sound Samples

[TimingPoints]
1406,315.789473684211,4,2,1,40,1,0
7721,-100,4,2,1,40,0,0
7800,-100,4,2,3,40,0,0
12774,-133.333333333333,4,2,2,40,0,0
12853,-80,4,2,2,40,0,0
12932,-100,4,2,2,40,0,0
13090,-133.333333333333,4,2,2,40,0,0
13169,-80,4,2,2,40,0,0
13248,-100,4,2,2,40,0,0
13406,-133.333333333333,4,2,2,40,0,0
13485,-80,4,2,2,40,0,0
13564,-100,4,2,2,40,0,0
13721,-133.333333333333,4,2,2,40,0,0
13800,-80,4,2,2,40,0,0
13879,-100,4,2,2,40,0,0
14037,-133.333333333333,4,2,2,40,0,0
14116,-80,4,2,2,40,0,0
14195,-100,4,2,2,40,0,0
14353,-133.333333333333,4,2,2,40,0,0
14432,-80,4,2,2,40,0,0
14511,-100,4,2,2,40,0,0
14669,-133.333333333333,4,2,2,40,0,0
14748,-80,4,2,2,40,0,0
14827,-133.333333333333,4,2,2,40,0,0
14906,-80,4,2,2,40,0,0
14984,-133.333333333333,4,2,2,40,0,0
15063,-80,4,2,2,40,0,0
15142,-100,4,2,2,40,0,0
15300,-133.333333333333,4,2,2,40,0,0
15379,-80,4,2,2,40,0,0
15458,-100,4,2,2,40,0,0
15616,-133.333333333333,4,2,2,40,0,0
15695,-80,4,2,2,40,0,0
15774,-100,4,2,2,40,0,0
15932,-133.333333333333,4,2,2,40,0,0
16011,-80,4,2,2,40,0,0
16090,-100,4,2,2,40,0,0
16248,-133.333333333333,4,2,2,40,0,0
16327,-80,4,2,2,40,0,0
16406,-100,4,2,2,40,0,0
16563,-133.333333333333,4,2,2,40,0,0
16642,-80,4,2,2,40,0,0
16721,-100,4,2,2,40,0,0
16879,-133.333333333333,4,2,2,40,0,0
16958,-80,4,2,2,40,0,0
17037,-133.333333333333,4,2,2,40,0,0
17116,-80,4,2,2,40,0,0
17194,-133.333333333333,4,2,2,40,0,0
17273,-80,4,2,2,40,0,0
17352,-100,4,2,2,40,0,0
17511,-133.333333333333,4,2,2,40,0,0
17590,-80,4,2,2,40,0,0
17669,-100,4,2,2,40,0,0
17827,-133.333333333333,4,2,2,40,0,0
17906,-80,4,2,2,40,0,0
17985,-100,4,2,2,40,0,0
18142,-133.333333333333,4,2,2,40,0,0
18221,-80,4,2,2,40,0,0
18300,-100,4,2,2,40,0,0
18458,-133.333333333333,4,2,2,40,0,0
18537,-80,4,2,2,40,0,0
18616,-100,4,2,2,40,0,0
18774,-133.333333333333,4,2,2,40,0,0
18853,-80,4,2,2,40,0,0
18932,-100,4,2,2,40,0,0
19090,-133.333333333333,4,2,2,40,0,0
19169,-80,4,2,2,40,0,0
19248,-100,4,2,2,40,0,0
19406,-133.333333333333,4,2,2,40,0,0
19485,-80,4,2,2,40,0,0
19564,-100,4,2,2,40,0,0
19721,-133.333333333333,4,2,2,40,0,0
19800,-80,4,2,2,40,0,0
19879,-133.333333333333,4,2,2,40,0,0
19958,-80,4,2,2,40,0,0
20036,-133.333333333333,4,2,2,40,0,0
20115,-80,4,2,2,40,0,0
20194,-100,4,2,2,40,0,0
20353,-133.333333333333,4,2,2,40,0,0
20432,-80,4,2,2,40,0,0
20511,-100,4,2,2,40,0,0
20669,-133.333333333333,4,2,2,40,0,0
20748,-80,4,2,2,40,0,0
20827,-100,4,2,2,40,0,0
20984,-133.333333333333,4,2,2,40,0,0
21063,-80,4,2,2,40,0,0
21142,-100,4,2,2,40,0,0
21300,-133.333333333333,4,2,2,40,0,0
21379,-80,4,2,2,40,0,0
21458,-100,4,2,2,40,0,0
21616,-133.333333333333,4,2,2,40,0,0
21695,-80,4,2,2,40,0,0
21774,-100,4,2,2,40,0,0
21932,-133.333333333333,4,2,2,40,0,0
22011,-80,4,2,2,40,0,0
22090,-133.333333333333,4,2,2,40,0,0
22169,-80,4,2,2,40,0,0
22247,-133.333333333333,4,2,2,40,0,0
22326,-80,4,2,2,40,0,0
22405,-100,4,2,2,40,0,0
22563,-133.333333333333,4,2,2,40,0,0
22642,-80,4,2,2,40,0,0
22721,-100,4,2,2,40,0,0
22879,-133.333333333333,4,2,2,40,0,0
22958,-80,4,2,2,40,0,0
23037,-100,4,2,2,40,0,0
23195,-133.333333333333,4,2,2,40,0,0
23274,-80,4,2,2,40,0,0
23353,-100,4,2,2,40,0,0
23511,-133.333333333333,4,2,2,40,0,0
23590,-80,4,2,2,40,0,0
23669,-100,4,2,2,40,0,0
25090,-133.333333333333,4,2,2,40,0,0
25169,-80,4,2,2,40,0,0
25248,-100,4,2,2,40,0,0
25405,-100,4,2,3,40,0,0
25484,-100,4,2,1,40,0,0
30458,-100,4,2,1,40,0,0
35511,-100,4,2,1,40,0,0
37406,-100,4,2,2,40,0,0
37721,-100,4,2,1,40,0,0
39616,-100,4,2,2,40,0,0
40011,-100,4,2,1,40,0,0
42458,-100,4,2,2,40,0,0
42853,-100,4,2,1,40,0,0
44669,-100,4,2,2,40,0,0
45063,-100,4,2,1,40,0,0
47511,-100,4,2,2,40,0,0
47906,-100,4,2,1,40,0,0
49721,-100,4,2,2,40,0,0
50116,-100,4,2,1,40,0,0
52563,-100,4,2,2,40,0,0
52958,-100,4,2,1,40,0,0
55090,-100,4,2,2,40,0,0
55800,-100,4,2,1,40,0,0
57616,-100,4,2,2,40,0,0
57932,-100,4,2,1,40,0,0
59511,-100,4,2,2,40,0,0
60537,-100,4,2,1,40,0,0
61406,-100,4,2,2,40,0,0
61563,-100,4,2,1,40,0,0
63932,-100,4,2,2,40,0,0
64090,-100,4,2,1,40,0,0
65195,-100,4,2,2,40,0,0
65353,-100,4,2,1,40,0,0
65511,-100,4,2,2,40,0,0
65827,-100,4,2,2,40,0,0
69616,-100,4,2,1,40,0,0
70879,-100,4,2,2,40,0,0
75932,-100,4,2,1,40,0,0
77827,-100,4,2,2,40,0,0
78221,-100,4,2,1,40,0,0
80195,-100,4,2,2,40,0,0
80511,-100,4,2,1,40,0,0
82879,-100,4,2,2,40,0,0
83195,-100,4,2,1,40,0,0
84774,-100,4,2,2,40,0,0
86037,-100,4,2,1,40,0,0
90300,-100,4,2,2,40,0,0
90616,-100,4,2,1,40,0,0
92984,-100,4,2,2,40,0,0
93300,-100,4,2,1,40,0,0
94879,-100,4,2,2,40,0,0
95984,-83.3333333333333,4,2,2,40,0,0
96063,-133.333333333333,4,2,2,40,0,0
96142,-83.3333333333333,4,2,2,40,0,0
96221,-133.333333333333,4,2,2,40,0,0
96300,-83.3333333333333,4,2,2,40,0,0
96379,-133.333333333333,4,2,2,40,0,0
96458,-83.3333333333333,4,2,2,40,0,0
96537,-133.333333333333,4,2,2,40,0,0
96616,-83.3333333333333,4,2,2,40,0,0
96695,-133.333333333333,4,2,2,40,0,0
96774,-100,4,2,2,40,0,0
106090,-133.333333333333,4,2,2,40,0,0
106169,-76.9230769230769,4,2,2,40,0,0
106248,-133.333333333333,4,2,2,40,0,0
106406,-76.9230769230769,4,2,2,40,0,0
106563,-133.333333333333,4,2,2,40,0,0
106721,-76.9230769230769,4,2,2,40,0,0
106879,-100,4,2,2,40,0,0
107195,-100,4,2,1,40,0,0
107511,-100,4,2,3,40,0,0
107590,-100,4,2,1,40,0,0
117300,-100,4,2,2,40,0,0
117616,-100,4,2,1,40,0,0
119511,-100,4,2,2,40,0,0
119906,-100,4,2,1,40,0,0
121879,-100,4,2,2,40,0,0
122195,-100,4,2,1,40,0,0
124563,-100,4,2,2,40,0,0
124958,-100,4,2,1,40,0,0
126142,-100,4,2,2,40,0,0
127721,-100,4,2,1,40,0,0
129616,-100,4,2,2,40,0,0
130011,-100,4,2,1,40,0,0
131827,-100,4,2,2,40,0,0
132221,-100,4,2,1,40,0,0
134669,-100,4,2,2,40,0,0
135063,-100,4,2,1,40,0,0
136563,-100,4,2,2,40,0,0
137827,-100,4,2,3,40,0,0
137984,-100,4,2,1,40,0,0
139721,-100,4,2,2,40,0,0
140037,-100,4,2,1,40,0,0
141932,-100,4,2,2,40,0,0
142327,-100,4,2,1,40,0,0
144774,-100,4,2,2,40,0,0
145090,-100,4,2,1,40,0,0
146827,-100,4,2,2,40,0,0
147616,-100,4,2,1,40,0,0
149827,-100,4,2,2,40,0,0
150221,-100,4,2,1,40,0,0
152353,-100,4,2,2,40,0,0
152827,-100,4,2,1,40,0,0
158037,-100,4,2,3,40,0,0
158116,-100,4,2,1,40,0,0
159932,-100,4,2,2,40,0,0
160406,-100,4,2,1,40,0,0
162142,-100,4,2,2,40,0,0
162537,-100,4,2,1,40,0,0
164984,-100,4,2,2,40,0,0
165300,-100,4,2,1,40,0,0
166879,-100,4,2,2,40,0,0
168063,-100,4,2,1,40,0,0
170037,-100,4,2,2,40,0,0
170353,-100,4,2,1,40,0,0
172248,-100,4,2,2,40,0,0
172642,-100,4,2,1,40,0,0
175090,-100,4,2,2,40,0,0
175406,-100,4,2,1,40,0,0
176984,-100,4,2,2,40,0,0
177300,-100,4,2,1,40,0,0
177379,-100,4,2,2,40,0,0
177616,-100,4,2,2,40,0,0
177932,-100,4,2,1,40,0,0
178011,-100,4,2,2,40,0,0
178090,-100,4,2,1,40,0,0
178248,-100,4,2,3,40,0,0
178327,-100,4,2,1,40,0,0
180142,-100,4,2,2,40,0,0
180300,-100,4,2,1,40,0,0
182511,-100,4,2,2,40,0,0
182827,-100,4,2,2,40,0,0
183142,-100,4,2,1,40,0,0
185195,-100,4,2,2,40,0,0
185590,-100,4,2,1,40,0,0
187090,-100,4,2,2,40,0,0
188353,-100,4,2,1,40,0,0
188432,-100,4,2,2,40,0,0
189616,-100,4,2,1,40,0,0
189695,-100,4,2,2,40,0,0
190879,-100,4,2,1,40,0,0
190958,-100,4,2,2,40,0,0
192142,-100,4,2,1,40,0,0
192221,-100,4,2,2,40,0,0
193406,-100,4,2,1,40,0,0
193484,-100,4,2,2,40,0,0
194669,-100,4,2,1,40,0,0
194748,-100,4,2,2,40,0,0
195932,-100,4,2,1,40,0,0
196011,-100,4,2,2,40,0,0
197195,-100,4,2,1,40,0,0
197274,-100,4,2,2,40,0,0
198616,-100,4,2,1,40,0,0
198774,-100,4,2,2,40,0,0
198932,-100,4,2,1,40,0,0
199090,-100,4,2,2,40,0,0
199721,-100,4,2,1,40,0,0
200669,-100,4,2,1,40,0,0
200984,-100,4,2,3,40,0,0
201063,-100,4,2,1,40,0,0
202879,-100,4,2,2,40,0,0
203195,-100,4,2,1,40,0,0
205090,-100,4,2,2,40,0,0
205563,-100,4,2,1,40,0,0
207932,-100,4,2,2,40,0,0
208248,-100,4,2,1,40,0,0
208721,-100,4,2,2,40,0,0
208879,-100,4,2,1,40,0,0
209037,-100,4,2,2,40,0,0
209511,-100,4,2,1,40,0,0
209669,-100,4,2,2,40,0,0
209827,-100,4,2,1,40,0,0
209984,-100,4,2,2,40,0,0
211090,-100,4,2,1,40,0,0
212984,-100,4,2,2,40,0,0
213300,-100,4,2,1,40,0,0
215195,-100,4,2,2,40,0,0
215669,-100,4,2,1,40,0,0
218037,-100,4,2,2,40,0,0
218353,-100,4,2,1,40,0,0
218669,-100,4,2,2,40,0,0
218984,-100,4,2,1,40,0,0
219142,-100,4,2,2,40,0,0
219616,-100,4,2,1,40,0,0
219774,-100,4,2,2,40,0,0
220721,-100,4,2,2,40,0,0
221195,-100,4,2,1,40,0,0
223090,-100,4,2,2,40,0,0
223406,-100,4,2,1,40,0,0
225300,-100,4,2,2,40,0,0
225932,-100,4,2,1,40,0,0
228142,-100,4,2,2,40,0,0
228458,-100,4,2,1,40,0,0
230037,-100,4,2,2,40,0,0
231300,-100,4,2,1,40,0,0
233195,-100,4,2,2,40,0,0
233511,-100,4,2,1,40,0,0
235563,-100,4,2,2,40,0,0
235958,-100,4,2,1,40,0,0
238248,-100,4,2,2,40,0,0
238563,-100,4,2,1,40,0,0
240300,-100,4,2,2,40,0,0
240458,-100,4,2,1,40,0,0
240616,-100,4,2,2,40,0,0
241090,-100,4,2,1,40,0,0
241248,-100,4,2,2,40,0,0
241406,-263.157894736842,4,2,1,40,0,0
241445,-100,4,2,1,40,0,0
241484,-263.157894736842,4,2,1,40,0,0
241523,-100,4,2,1,40,0,0
241563,-263.157894736842,4,2,1,40,0,0
241602,-100,4,2,1,40,0,0
241642,-263.157894736842,4,2,1,40,0,0
241681,-100,4,2,1,40,0,0
241721,-10000,4,2,1,40,0,0
241879,-100,4,2,1,40,0,0
242037,-10000,4,2,1,40,0,0
242195,-100,4,2,1,40,0,0
242669,-263.157894736842,4,2,1,40,0,0
242708,-100,4,2,1,40,0,0
242747,-263.157894736842,4,2,1,40,0,0
242786,-100,4,2,1,40,0,0
242826,-263.157894736842,4,2,1,40,0,0
242865,-100,4,2,1,40,0,0
242905,-263.157894736842,4,2,1,40,0,0
242944,-100,4,2,1,40,0,0
242984,-10000,4,2,1,40,0,0
243142,-100,4,2,1,40,0,0
243300,-10000,4,2,1,40,0,0
243458,-100,4,2,1,40,0,0
244090,-100,4,2,2,40,0,0
244248,-100,4,2,1,40,0,0
244563,-100,4,2,2,40,0,0
244721,-100,4,2,1,40,0,0
244958,-100,4,2,2,40,0,0
245195,-100,4,2,1,40,0,0
248353,-100,4,2,2,40,0,0
248590,-100,4,2,1,40,0,0
250484,-100,4,2,2,40,0,0
251037,-100,4,2,1,40,0,0
251984,-100,4,2,2,40,0,0
252458,-100,4,2,1,40,0,0
252616,-100,4,2,2,40,0,0
252774,-100,4,2,1,40,0,0
252932,-100,4,2,2,40,0,0
253090,-100,4,2,1,40,0,0
253248,-100,4,2,2,40,0,0
253721,-100,4,2,1,40,0,0
253879,-100,4,2,2,40,0,0
254037,-100,4,2,1,40,0,0
255458,-100,4,2,2,40,0,0
256248,-100,4,2,1,40,0,0
256327,-100,4,2,2,40,0,0
256563,-100,4,2,1,40,0,0
258458,-100,4,2,2,40,0,0
258695,-100,4,2,1,40,0,0
260669,-100,4,2,2,40,0,0
261063,-100,4,2,1,40,0,0
263511,-100,4,2,2,40,0,0
263827,-100,4,2,1,40,0,0
265642,-100,4,2,1,40,0,0
265721,-100,4,2,1,40,0,0
265958,-100,4,2,1,40,0,0
266037,-100,4,2,1,40,0,0
266353,-100,4,2,2,40,0,0
266669,-100,4,2,1,40,0,0
268563,-100,4,2,2,40,0,0
268879,-100,4,2,1,40,0,0
270932,-100,4,2,2,40,0,0
271248,-100,4,2,1,40,0,0
273616,-100,4,2,2,40,0,0
273932,-100,4,2,1,40,0,0
275511,-100,4,2,2,40,0,0
276142,-100,4,2,1,40,0,0
278669,-100,4,2,2,40,0,0
278984,-100,4,2,1,40,0,0
280879,-100,4,2,2,40,0,0
281511,-100,4,2,1,40,0,0
283721,-100,4,2,2,40,0,0
284116,-100,4,2,1,40,0,0
285774,-100,4,2,2,40,0,0
286327,-100,4,2,2,40,0,0
286406,-100,4,2,2,40,0,0
286879,-100,4,2,1,40,0,0
286958,-100,4,2,2,40,0,0
287195,-100,4,2,1,40,0,0
287274,-100,4,2,2,40,0,0
287511,-100,4,2,1,40,0,0
287590,-100,4,2,2,40,0,0
287827,-100,4,2,1,40,0,0
287906,-100,4,2,2,40,0,0
288142,-100,4,2,1,40,0,0
290037,-100,4,2,2,40,0,0
290353,-100,4,2,2,40,0,0
290511,-100,4,2,2,40,0,0
290669,-100,4,2,1,40,0,0
292248,-100,4,2,2,40,0,0
292642,-100,4,2,2,40,0,0
292879,-100,4,2,1,40,0,0
293037,-100,4,2,1,40,0,0
293353,-100,4,2,1,40,0,0
294537,-100,4,2,1,40,0,0
294616,-100,4,2,1,40,0,0
295090,-100,4,2,2,40,0,0
295563,-100,4,2,1,40,0,0
297142,-100,4,2,2,40,0,0
297616,-100,4,2,1,40,0,0
297774,-100,4,2,2,40,0,0
298248,-100,4,2,1,40,0,0
298484,-100,4,2,1,40,0,0
298563,-100,4,2,1,40,0,0
299037,-100,4,2,1,40,0,0
299116,-100,4,2,1,40,0,0
299195,-100,4,2,1,40,0,0
299590,-100,4,2,2,40,0,0
300774,-100,4,2,1,40,0,0
302669,-100,4,2,2,40,0,0
303300,-100,4,2,1,40,0,0
307721,-100,4,2,2,40,0,0
308116,-100,4,2,1,40,0,0
310090,-100,4,2,2,40,0,0
310563,-100,4,2,1,40,0,0
310721,-100,4,2,2,40,0,0
310879,-100,4,2,1,40,0,0
312774,-100,4,2,2,40,0,0
313011,-100,4,2,1,40,0,0
315142,-100,4,2,2,40,0,0
315537,-100,4,2,1,40,0,0
317827,-100,4,2,2,40,0,0
318063,-100,4,2,1,40,0,0
320195,-100,4,2,2,40,0,0
320906,-100,4,2,2,40,0,0
320984,-100,4,2,1,40,0,0
331090,-100,4,2,1,40,0,0
332984,-100,4,2,2,40,0,0
333300,-100,4,2,1,40,0,0
335353,-100,4,2,2,40,0,0
335827,-100,4,2,1,40,0,0
338037,-100,4,2,2,40,0,0
338353,-100,4,2,1,40,0,0
340879,-100,4,2,2,40,0,0
341116,-100,4,2,1,40,0,0
343090,-100,4,2,2,40,0,0
343406,-100,4,2,1,40,0,0
345458,-100,4,2,2,40,0,0
345774,-100,4,2,1,40,0,0
348142,-100,4,2,2,40,0,0
348458,-100,4,2,1,40,0,0
350037,-100,4,2,2,40,0,0
351300,-100,4,2,1,40,0,0
353195,-100,4,2,2,40,0,0
353511,-100,4,2,1,40,0,0
355563,-100,4,2,2,40,0,0
355879,-100,4,2,1,40,0,0
358248,-100,4,2,2,40,0,0
358563,-100,4,2,1,40,0,0
360142,-100,4,2,2,40,0,0
361406,-100,4,2,1,40,0,0
363300,-100,4,2,2,40,0,0
363774,-100,4,2,1,40,0,0
365669,-100,4,2,2,40,0,0
365984,-100,4,2,1,40,0,0
368353,-100,4,2,2,40,0,0
368748,-100,4,2,1,40,0,0
370721,-100,4,2,2,40,0,0
371037,-100,4,2,1,40,0,0
372616,-100,4,2,1,40,0,0
372853,-100,4,2,1,40,0,0
374037,-100,4,2,1,40,0,0
374984,-100,4,2,2,40,0,0
375300,-100,4,2,1,40,0,0
375932,-100,4,2,2,40,0,0
376090,-100,4,2,1,40,0,0
376406,-100,4,2,2,40,0,0
376563,-100,4,2,1,40,0,0
376721,-100,4,2,2,40,0,0
376800,-100,4,2,1,40,0,0
377037,-100,4,2,2,40,0,0
377353,-100,4,2,1,40,0,0
378458,-100,4,2,2,40,0,0
378616,-100,4,2,1,40,0,0
379721,-100,4,2,2,40,0,0
379879,-100,4,2,1,40,0,0
380511,-100,4,2,2,40,0,0
382879,-100,4,2,1,40,0,0
384774,-100,4,2,2,40,0,0
385011,-100,4,2,1,40,0,0
387142,-100,4,2,2,40,0,0
387379,-100,4,2,1,40,0,0
389827,-100,4,2,2,40,0,0
390142,-100,4,2,1,40,0,0
392827,-100,4,2,2,40,0,0
392984,-100,4,2,1,40,0,0
394879,-100,4,2,2,40,0,0
395195,-100,4,2,1,40,0,0
397248,-100,4,2,2,40,0,0
397484,-100,4,2,1,40,0,0
399300,327.868852459016,4,2,1,40,1,0
399300,-96.1538461538461,4,2,1,40,0,0
399955,-96.1538461538461,4,2,2,40,0,0
400283,-96.1538461538461,4,2,1,40,0,0
401922,342.857142857143,4,2,1,40,1,0
401922,-91.743119266055,4,2,1,40,0,0
402607,-91.743119266055,4,2,2,40,0,0
402950,-91.743119266055,4,2,1,40,0,0
403293,346.820809248555,4,2,1,40,1,0
403293,-90.9090909090909,4,2,1,40,0,0
406075,363.636363636364,4,2,1,40,1,0
406075,-86.9565217391304,4,2,1,40,0,0
407533,368.098159509202,4,2,1,40,1,0
407533,-85.4700854700855,4,2,1,40,0,0
408993,400,4,2,1,40,1,0
408993,-78.7401574803149,4,2,1,40,0,0
412193,428.571428571429,4,2,1,40,1,0
412193,-73.5294117647059,4,2,1,40,0,0
417764,-73.5294117647059,4,2,1,40,0,0
419050,-73.5294117647059,4,2,1,40,0,0
443050,-73.5294117647059,4,2,2,35,0,0
443907,-73.5294117647059,4,2,2,45,0,0
444764,-73.5294117647059,4,2,2,55,0,0
445621,-73.5294117647059,4,2,2,65,0,0
446264,-73.5294117647059,4,2,1,67,0,0
456228,-73.5294117647059,4,2,1,67,0,0
456443,-73.5294117647059,4,2,1,67,0,0
461264,-73.5294117647059,4,2,1,67,0,0
461478,-73.5294117647059,4,2,1,67,0,0
464693,-73.5294117647059,4,2,1,67,0,0
464907,-73.5294117647059,4,2,1,67,0,0
476478,-73.5294117647059,4,2,2,67,0,0
476907,-73.5294117647059,4,2,1,67,0,0
479907,-73.5294117647059,4,2,2,67,0,0
480335,-73.5294117647059,4,2,1,67,0,0
481621,-73.5294117647059,4,2,2,67,0,0
482050,-73.5294117647059,4,2,1,67,0,0
483550,-73.5294117647059,4,2,1,67,0,0
483764,-73.5294117647059,4,2,1,67,0,0
484193,-73.5294117647059,4,2,2,67,0,0
484300,-73.5294117647059,4,2,2,67,0,0
485050,-73.5294117647059,4,2,2,67,0,0
485907,-73.5294117647059,4,2,2,67,0,0
486335,-73.5294117647059,4,2,2,67,0,0
486764,-73.5294117647059,4,2,2,67,0,0
487193,-73.5294117647059,4,2,2,67,0,0
487621,-73.5294117647059,4,2,2,67,0,0
487728,-73.5294117647059,4,2,1,67,0,0
492764,-73.5294117647059,4,2,2,55,0,0
493621,-73.5294117647059,4,2,1,45,0,0
493907,-73.5294117647059,4,2,2,45,0,0
494050,-73.5294117647059,4,2,1,45,0,0
494335,-73.5294117647059,4,2,2,45,0,0
494478,-73.5294117647059,4,2,1,55,0,0
494621,-73.5294117647059,4,2,2,55,0,0
504764,-73.5294117647059,4,2,1,55,0,0
509907,-73.5294117647059,4,2,1,55,0,0
516621,-73.5294117647059,4,2,1,45,0,0
516764,-73.5294117647059,4,2,1,55,0,0
528764,-73.5294117647059,4,2,1,35,0,0
528907,-73.5294117647059,4,2,2,35,0,0
529621,-73.5294117647059,4,2,2,45,0,0
530478,-73.5294117647059,4,2,2,55,0,0
530907,-73.5294117647059,4,2,2,60,0,0
531335,-73.5294117647059,4,2,2,65,0,0
532193,-73.5294117647059,4,2,1,65,0,0
557907,-73.5294117647059,4,2,1,55,0,0
558014,-73.5294117647059,4,2,2,55,0,0
558335,-73.5294117647059,4,2,2,60,0,0
558764,-73.5294117647059,4,2,2,65,0,0
573335,-73.5294117647059,4,2,3,20,0,0
573550,-133.333333333333,4,2,3,20,0,0
580353,444.444444444444,4,2,1,20,1,0
580353,-71.4285714285714,4,2,1,20,0,0
594907,333.333333333333,4,2,1,20,1,0
594907,-94.3396226415094,4,2,1,20,0,0
609407,-133.333333333333,4,2,1,20,0,0
609490,-92.5925925925926,4,2,1,20,0,0
609576,317.460317460317,4,2,1,80,1,0
611322,-138.888888888889,4,2,1,80,0,0
611401,-98.0392156862745,4,2,1,80,0,0
611484,285.714285714286,4,2,1,80,1,0
611484,-111.111111111111,4,2,1,80,0,0
611626,-142.857142857143,4,2,1,80,0,0
611698,-106.382978723404,4,2,1,80,0,0
613555,-142.857142857143,4,2,1,80,0,0
613626,-106.382978723404,4,2,1,80,0,0
613698,250,4,2,1,80,1,0
613698,-126.582278481013,4,2,1,80,0,0
613823,-181.818181818182,4,2,1,80,0,0
613885,-117.647058823529,4,2,1,80,0,0
614073,-181.818181818182,4,2,1,80,0,0
614135,-117.647058823529,4,2,1,80,0,0
615323,-181.818181818182,4,2,1,80,0,0
615385,-117.647058823529,4,2,1,80,0,0
615416,226.415094339623,4,2,1,80,1,0
615416,-138.888888888889,4,2,1,80,0,0
615642,-200,4,2,1,80,0,0
615699,-125,4,2,1,80,0,0
615755,-200,4,2,1,80,0,0
615812,-125,4,2,1,80,0,0
615982,-200,4,2,1,80,0,0
616038,-125,4,2,1,80,0,0
616095,218.181818181818,4,2,1,80,1,0
616095,-144.927536231884,4,2,1,80,0,0
616422,-217.391304347826,4,2,1,80,0,0
616476,-126.582278481013,4,2,1,80,0,0
616544,214.285714285714,4,2,1,80,1,0
616544,-147.058823529412,4,2,1,80,0,0
616865,-222.222222222222,4,2,1,80,0,0
616919,-121.951219512195,4,2,1,80,0,0
616959,206.896551724138,4,2,1,80,1,0
616959,-151.515151515152,4,2,1,80,0,0
617269,-232.558139534884,4,2,1,80,0,0
617321,-121.951219512195,4,2,1,80,0,0
617683,-232.558139534884,4,2,1,80,0,0
617734,-121.951219512195,4,2,1,80,0,0
617773,400,4,2,1,80,1,0
617773,-78.7401574803149,4,2,1,80,0,0
630173,-78.7401574803149,4,2,2,80,0,0
630573,-78.7401574803149,4,2,1,80,0,0
636173,-78.7401574803149,4,2,2,80,0,0
636573,-78.7401574803149,4,2,1,80,0,0
641973,-78.7401574803149,4,2,2,80,0,0
643373,-78.7401574803149,4,2,1,70,0,0
643573,-78.7401574803149,4,2,1,30,0,0
643773,-78.7401574803149,4,2,1,40,0,0
643973,-78.7401574803149,4,2,1,30,0,0
644173,-78.7401574803149,4,2,1,40,0,0
645173,-78.7401574803149,4,2,1,30,0,0
645373,-78.7401574803149,4,2,1,40,0,0
645573,-78.7401574803149,4,2,1,30,0,0
645773,-78.7401574803149,4,2,1,70,0,0
645873,-78.7401574803149,4,2,1,40,0,0
646073,-78.7401574803149,4,2,2,70,0,0
646173,-78.7401574803149,4,2,1,30,0,0
646573,-78.7401574803149,4,2,1,31,0,0
652773,-78.7401574803149,4,2,2,31,0,0
652973,-78.7401574803149,4,2,1,31,0,0
657973,-78.7401574803149,4,2,1,30,0,0
658173,-78.7401574803149,4,2,1,40,0,0
658373,-78.7401574803149,4,2,1,30,0,0
658573,-78.7401574803149,4,2,1,40,0,0
658673,-78.7401574803149,4,2,1,50,0,0
658773,-78.7401574803149,4,2,1,60,0,0
658873,-78.7401574803149,4,2,1,30,0,0
659373,-66.6666666666667,4,2,1,30,0,0
659473,-133.333333333333,4,2,1,30,0,0
659573,-66.6666666666667,4,2,1,30,0,0
659673,-133.333333333333,4,2,1,30,0,0
659773,-66.6666666666667,4,2,1,30,0,0
659873,-133.333333333333,4,2,1,30,0,0
659973,-66.6666666666667,4,2,1,30,0,0
660073,-133.333333333333,4,2,1,30,0,0
660173,-78.7401574803149,4,2,1,30,0,0
660573,-133.333333333333,4,2,1,30,0,0
660973,-117.647058823529,4,2,1,30,0,0
661373,-105.263157894737,4,2,1,30,0,0
661773,-95.2380952380952,4,2,1,30,0,0
661973,-86.9565217391304,4,2,1,30,0,0
662173,-80,4,2,1,30,0,0
662373,-78.7401574803149,4,2,1,30,0,0
662573,-117.647058823529,4,2,1,30,0,0
662973,-105.263157894737,4,2,1,30,0,0
663173,-95.2380952380952,4,2,1,30,0,0
663373,-86.9565217391304,4,2,1,30,0,0
663773,-133.333333333333,4,2,1,30,0,0
664173,-105.263157894737,4,2,1,30,0,0
664573,-86.9565217391304,4,2,1,30,0,0
664973,-66.6666666666667,4,2,1,30,0,0
665073,-133.333333333333,4,2,1,30,0,0
665173,-66.6666666666667,4,2,1,30,0,0
665273,-133.333333333333,4,2,1,30,0,0
665373,-66.6666666666667,4,2,1,30,0,0
665473,-133.333333333333,4,2,1,30,0,0
665573,-66.6666666666667,4,2,1,30,0,0
665673,-133.333333333333,4,2,1,30,0,0
665773,-10000,4,2,1,30,0,0
665973,-33.3333333333333,4,2,1,30,0,0
666073,-78.7401574803149,4,2,1,30,0,0
666173,-10000,4,2,1,30,0,0
666398,-33.3333333333333,4,2,1,30,0,0
666473,-78.7401574803149,4,2,1,30,0,0
666573,-10000,4,2,1,30,0,0
666823,-33.3333333333333,4,2,1,30,0,0
666873,-78.7401574803149,4,2,1,30,0,0
666973,-10000,4,2,1,30,0,0
667248,-33.3333333333333,4,2,1,30,0,0
667273,-78.7401574803149,4,2,1,30,0,0
667373,-10000,4,2,1,30,0,0
667623,-33.3333333333333,4,2,1,30,0,0
667673,-78.7401574803149,4,2,1,30,0,0
667773,-10000,4,2,1,30,0,0
667973,-33.3333333333333,4,2,1,30,0,0
668073,-78.7401574803149,4,2,1,30,0,0
668173,-10000,4,2,1,30,0,0
668398,-33.3333333333333,4,2,1,30,0,0
668473,-78.7401574803149,4,2,1,30,0,0
668573,-10000,4,2,1,30,0,0
668823,-33.3333333333333,4,2,1,30,0,0
668873,-78.7401574803149,4,2,1,30,0,0
668973,-100,4,2,1,30,0,0
669173,-66.6666666666667,4,2,1,30,0,0
669273,-78.7401574803149,4,2,1,30,0,0
669373,-100,4,2,1,30,0,0
669573,-66.6666666666667,4,2,1,30,0,0
669673,-78.7401574803149,4,2,1,30,0,0
669773,-100,4,2,1,30,0,0
669973,-66.6666666666667,4,2,1,30,0,0
670073,-78.7401574803149,4,2,1,30,0,0
670173,-100,4,2,1,30,0,0
670373,-66.6666666666667,4,2,1,30,0,0
670473,-78.7401574803149,4,2,1,30,0,0
670573,-100,4,2,1,30,0,0
670773,-66.6666666666667,4,2,1,30,0,0
670873,-78.7401574803149,4,2,1,30,0,0
670973,-100,4,2,1,30,0,0
671173,-66.6666666666667,4,2,1,30,0,0
671273,-78.7401574803149,4,2,1,30,0,0
671373,-100,4,2,1,30,0,0
671573,-66.6666666666667,4,2,1,30,0,0
671673,-78.7401574803149,4,2,1,30,0,0
671773,-100,4,2,1,30,0,0
671973,-66.6666666666667,4,2,1,30,0,0
672073,-78.7401574803149,4,2,1,30,0,0
678573,-78.7401574803149,4,2,1,30,0,0
678673,-78.7401574803149,4,2,1,30,0,0
684973,-78.7401574803149,4,2,1,30,0,0
685073,-78.7401574803149,4,2,1,30,0,0
691373,-78.7401574803149,4,2,1,30,0,0
691473,-78.7401574803149,4,2,1,30,0,0
704173,-78.7401574803149,4,2,1,30,0,0
704973,-50,4,2,1,30,0,0
705373,-100,4,2,1,30,0,0
705573,-78.7401574803149,4,2,1,30,0,0
706573,-50,4,2,1,30,0,0
706973,-100,4,2,1,30,0,0
707173,-78.7401574803149,4,2,1,30,0,0
707773,-78.7401574803149,4,2,2,30,0,0
707873,-78.7401574803149,4,2,1,30,0,0
708173,-50,4,2,1,30,0,0
708573,-100,4,2,1,30,0,0
708773,-78.7401574803149,4,2,1,30,0,0
708973,-100,4,2,1,30,0,0
710473,-78.7401574803149,4,2,1,30,0,0
710573,-78.7401574803149,4,2,1,30,0,0
711373,-50,4,2,1,30,0,0
711773,-100,4,2,1,30,0,0
711973,-78.7401574803149,4,2,1,30,0,0
712973,-50,4,2,1,30,0,0
713373,-100,4,2,1,30,0,0
713573,-78.7401574803149,4,2,1,30,0,0
714573,-50,4,2,1,30,0,0
714973,-100,4,2,1,30,0,0
715173,-78.7401574803149,4,2,1,30,0,0
715373,-100,4,2,1,30,0,0
716873,-78.7401574803149,4,2,1,30,0,0
716973,-78.7401574803149,4,2,1,30,0,0
723173,-78.7401574803149,4,2,2,30,0,0
723373,-78.7401574803149,4,2,1,30,0,0
728973,-78.7401574803149,4,2,2,30,0,0
729373,-78.7401574803149,4,2,1,30,0,0
729573,-78.7401574803149,4,2,2,30,0,0
729773,-78.7401574803149,4,2,1,30,0,0
735173,-78.7401574803149,4,2,2,30,0,0
736173,-78.7401574803149,4,2,1,30,0,1
741773,-78.7401574803149,4,2,2,30,0,1
742173,-78.7401574803149,4,2,1,30,0,1
748173,-78.7401574803149,4,2,2,30,0,1
748573,-78.7401574803149,4,2,1,30,0,1
748773,-78.7401574803149,4,2,2,30,0,0
748973,-78.7401574803149,4,2,1,30,0,1
754573,-78.7401574803149,4,2,2,30,0,1
754973,-78.7401574803149,4,2,1,30,0,1
755173,-78.7401574803149,4,2,2,30,0,1
755373,-78.7401574803149,4,2,1,30,0,1
760973,-78.7401574803149,4,2,2,30,0,1
761373,-78.7401574803149,4,2,1,30,0,1
761573,-78.7401574803149,4,2,2,30,0,1
763373,-78.7401574803149,4,2,1,30,0,0
768973,-78.7401574803149,4,2,2,30,0,0
769473,-78.7401574803149,4,2,1,30,0,0
775373,-78.7401574803149,4,2,2,30,0,0
828973,387.096774193548,4,2,1,30,1,0
828973,-81.3008130081301,4,2,1,30,0,0
830521,375,4,2,1,30,1,0
830521,-84.0336134453781,4,2,1,30,0,0
832021,359.281437125748,4,2,1,30,1,0
832021,-87.719298245614,4,2,1,30,0,0
834807,333.333333333333,4,2,1,30,1,0
834807,-94.3396226415094,4,2,1,30,0,0
845474,-94.3396226415094,4,2,1,30,0,0
849474,-94.3396226415094,4,2,1,30,0,0
850140,-94.3396226415094,4,2,1,30,0,0
850474,-94.3396226415094,4,2,1,30,0,0
850807,-94.3396226415094,4,2,1,30,0,1
869474,-94.3396226415094,4,2,1,30,0,1
870807,-94.3396226415094,4,2,1,30,0,1
872140,-94.3396226415094,4,2,1,50,0,0
877474,-94.3396226415094,4,2,1,70,0,0
879807,-94.3396226415094,4,2,1,5,0,0
880140,-94.3396226415094,4,2,1,31,0,0
882140,-94.3396226415094,4,2,1,31,0,0
882474,-94.3396226415094,4,2,2,31,0,0
882807,-94.3396226415094,4,2,1,31,0,0
885140,-94.3396226415094,4,2,1,5,0,0
885474,-94.3396226415094,4,2,1,70,0,0
887140,-94.3396226415094,4,2,1,20,0,0
887474,-94.3396226415094,4,2,1,70,0,0
887807,-94.3396226415094,4,2,2,70,0,0
888140,-94.3396226415094,4,2,1,37,0,1
890696,-94.3396226415094,4,2,2,37,0,1
890807,-94.3396226415094,4,2,1,37,0,1
893140,-94.3396226415094,4,2,2,37,0,1
893473,-94.3396226415094,4,2,1,37,0,1
898807,333.333333333333,4,2,1,37,1,0
898807,-94.3396226415094,4,2,1,37,0,0
899473,324.324324324324,4,2,1,37,1,0
899473,-97.0873786407767,4,2,1,37,0,0
900121,307.692307692308,4,2,1,37,1,0
900121,-103.092783505155,4,2,1,37,0,0
900736,300,4,2,1,37,1,0
900736,-105.263157894737,4,2,1,37,0,0
901336,300,4,2,1,37,1,0
901336,-105.263157894737,4,2,1,37,0,0
901786,-105.263157894737,4,2,1,50,0,0
906136,-105.263157894737,4,2,1,70,0,0
910936,-105.263157894737,4,2,1,80,0,1
913111,-105.263157894737,4,2,2,40,0,1
913186,-105.263157894737,4,2,2,50,0,1
913261,-105.263157894737,4,2,2,60,0,1
913336,-105.263157894737,4,2,1,80,0,1
917911,-105.263157894737,4,2,2,40,0,1
917986,-105.263157894737,4,2,2,50,0,1
918061,-105.263157894737,4,2,2,60,0,1
918136,-105.263157894737,4,2,1,80,0,1
920311,-105.263157894737,4,2,2,40,0,1
920386,-105.263157894737,4,2,2,50,0,1
920461,-105.263157894737,4,2,2,60,0,1
920536,-105.263157894737,4,2,1,80,0,1
925261,-105.263157894737,4,2,1,40,0,0
934936,-105.263157894737,4,2,1,40,0,0
937036,-105.263157894737,4,2,2,40,0,0
937261,-105.263157894737,4,2,2,40,0,0
937336,-105.263157894737,4,2,1,40,0,0
939436,-105.263157894737,4,2,2,40,0,0
939736,-105.263157894737,4,2,1,40,0,1
941986,-105.263157894737,4,2,2,40,0,1
942136,-105.263157894737,4,2,1,40,0,1
944311,-105.263157894737,4,2,2,40,0,1
944386,-105.263157894737,4,2,2,40,0,1
944461,-105.263157894737,4,2,2,40,0,1
944536,-105.263157894737,4,2,1,40,0,1
946711,-105.263157894737,4,2,2,40,0,1
946936,-105.263157894737,4,2,1,40,0,1
949111,-105.263157894737,4,2,2,40,0,1
949186,-105.263157894737,4,2,2,40,0,1
949261,-105.263157894737,4,2,2,40,0,1
949336,-105.263157894737,4,2,1,40,0,1
951586,-105.263157894737,4,2,2,40,0,1
951736,-105.263157894737,4,2,1,40,0,1
954211,-105.263157894737,4,2,2,40,0,1
954736,-105.263157894737,4,2,1,40,0,1
954811,-105.263157894737,4,2,2,40,0,1
955336,-105.263157894737,4,2,1,40,0,1
955411,-105.263157894737,4,2,2,40,0,1
955636,-105.263157894737,4,2,1,50,0,1
955786,-105.263157894737,4,2,1,5,0,1
955936,-105.263157894737,4,2,1,31,0,1
956011,-105.263157894737,4,2,2,31,0,1
956536,-105.263157894737,4,2,1,31,0,1
958936,-105.263157894737,4,2,1,31,0,0
963736,-105.263157894737,4,2,1,31,0,1
968236,-105.263157894737,4,2,2,31,0,1
968536,-105.263157894737,4,2,1,31,0,1
972136,-105.263157894737,4,2,2,31,0,1
973036,-105.263157894737,4,2,2,31,0,1
975736,-105.263157894737,4,2,1,31,0,1
977686,-105.263157894737,4,2,2,31,0,1
977836,-105.263157894737,4,2,1,31,0,1
984361,-105.263157894737,4,2,2,31,0,1
984436,-105.263157894737,4,2,1,31,0,1
984511,-105.263157894737,4,2,2,31,0,1
984736,-105.263157894737,4,2,1,31,0,1
984811,-105.263157894737,4,2,2,32,0,1
985036,-105.263157894737,4,2,1,32,0,1
985111,-105.263157894737,4,2,2,32,0,1
985186,-105.263157894737,4,2,1,32,0,1
985261,-105.263157894737,4,2,2,32,0,1
986536,-105.263157894737,4,2,1,32,0,0
987736,-105.263157894737,4,2,1,32,0,1
989686,-105.263157894737,4,2,2,32,0,1
989836,-105.263157894737,4,2,1,32,0,1
992236,-105.263157894737,4,2,2,32,0,1
992536,-105.263157894737,4,2,1,32,0,1
997036,-105.263157894737,4,2,2,32,0,1
997336,-105.263157894737,4,2,1,32,0,1
1001836,-105.263157894737,4,2,2,32,0,1
1002136,-105.263157894737,4,2,1,32,0,1
1004086,-105.263157894737,4,2,2,32,0,1
1004236,-105.263157894737,4,2,2,32,0,1
1004536,-105.263157894737,4,2,1,32,0,1
1006636,-105.263157894737,4,2,2,32,0,1
1006936,-105.263157894737,4,2,1,32,0,1
1008886,-105.263157894737,4,2,2,32,0,1
1009336,-105.263157894737,4,2,1,32,0,1
1011436,-105.263157894737,4,2,2,32,0,1
1011736,-105.263157894737,4,2,1,32,0,1
1015336,-105.263157894737,4,2,1,32,0,1
1016236,-105.263157894737,4,2,2,32,0,1
1018936,-105.263157894737,4,2,1,32,0,1
1023436,-105.263157894737,4,2,2,32,0,1
1023736,-105.263157894737,4,2,1,32,0,1
1025686,-105.263157894737,4,2,2,32,0,1
1025836,-105.263157894737,4,2,1,32,0,1
1025986,-105.263157894737,4,2,2,32,0,1
1026136,-105.263157894737,4,2,1,32,0,1
1028236,-105.263157894737,4,2,2,32,0,1
1028386,-105.263157894737,4,2,1,32,0,1
1029886,-66.6666666666667,4,2,1,32,0,1
1030036,-133.333333333333,4,2,1,32,0,1
1030111,-105.263157894737,4,2,1,32,0,1
1030186,-66.6666666666667,4,2,1,32,0,1
1030336,-133.333333333333,4,2,1,32,0,1
1030411,-105.263157894737,4,2,1,32,0,1
1030486,-66.6666666666667,4,2,1,32,0,1
1030636,-133.333333333333,4,2,1,32,0,1
1030711,-105.263157894737,4,2,1,32,0,1
1030786,-105.263157894737,4,2,3,32,0,1
1030936,-105.263157894737,4,2,1,32,0,1
1032286,-133.333333333333,4,2,1,32,0,1
1032436,-66.6666666666667,4,2,1,32,0,1
1032511,-105.263157894737,4,2,1,32,0,1
1032586,-133.333333333333,4,2,1,32,0,1
1032736,-66.6666666666667,4,2,1,32,0,1
1032811,-105.263157894737,4,2,1,32,0,1
1032886,-133.333333333333,4,2,1,32,0,1
1033036,-66.6666666666667,4,2,1,32,0,1
1033111,-105.263157894737,4,2,1,32,0,1
1034086,-105.263157894737,4,2,2,32,0,1
1034236,-105.263157894737,4,2,1,32,0,1
1035286,-105.263157894737,4,2,2,32,0,1
1035436,-105.263157894737,4,2,1,32,0,1
1036486,-105.263157894737,4,2,2,32,0,1
1036636,-105.263157894737,4,2,1,32,0,1
1038136,-55.5555555555556,4,2,1,32,0,0
1038286,-153.846153846154,4,2,1,32,0,0
1038436,-105.263157894737,4,2,1,32,0,0
1038586,-55.5555555555556,4,2,1,32,0,0
1038736,-153.846153846154,4,2,1,32,0,0
1038886,-105.263157894737,4,2,1,32,0,0
1039036,-55.5555555555556,4,2,1,32,0,0
1039186,-153.846153846154,4,2,1,32,0,0
1039336,-105.263157894737,4,2,1,32,0,0
1039486,-55.5555555555556,4,2,1,32,0,0
1039561,-153.846153846154,4,2,1,32,0,0
1039636,-105.263157894737,4,2,1,32,0,0
1039786,-100,4,2,1,32,0,0
1039861,-105.263157894737,4,2,1,32,0,0
1039936,-100,4,2,1,32,0,0
1040011,-105.263157894737,4,2,1,32,0,0
1040086,-100,4,2,1,32,0,0
1040161,-105.263157894737,4,2,1,32,0,0
1040236,-55.5555555555556,4,2,1,32,0,0
1040311,-153.846153846154,4,2,1,32,0,0
1040386,-105.263157894737,4,2,1,32,0,0
1040536,-55.5555555555556,4,2,1,32,0,0
1040686,-153.846153846154,4,2,1,32,0,0
1040836,-105.263157894737,4,2,1,32,0,0
1040986,-55.5555555555556,4,2,1,32,0,0
1041061,-153.846153846154,4,2,1,32,0,0
1041136,-105.263157894737,4,2,1,32,0,0
1041286,-100,4,2,1,32,0,0
1041361,-105.263157894737,4,2,1,32,0,0
1041436,-55.5555555555556,4,2,1,32,0,0
1041511,-153.846153846154,4,2,1,32,0,0
1041586,-105.263157894737,4,2,1,32,0,0
1041736,-55.5555555555556,4,2,1,32,0,0
1041886,-153.846153846154,4,2,1,32,0,0
1041961,-105.263157894737,4,2,1,32,0,0
1042936,-105.263157894737,4,2,1,32,0,1
1044961,-105.263157894737,4,2,2,32,0,1
1045186,-105.263157894737,4,2,1,32,0,1
1046536,-105.263157894737,4,2,2,32,0,1
1047436,-105.263157894737,4,2,2,32,0,1
1047736,-105.263157894737,4,2,1,32,0,0
1048636,-105.263157894737,4,2,1,32,0,0
1058536,500,4,3,1,32,1,0
1058536,-63.2911392405063,4,3,1,32,0,0
1061536,-63.2911392405063,4,3,1,32,0,0
1062536,-63.2911392405063,4,3,1,32,0,0
1078536,-63.2911392405063,4,2,3,32,0,0
1086546,500,4,2,1,32,1,0
1086546,-63.2911392405063,4,2,1,32,0,0
1094546,-63.2911392405063,4,2,1,32,0,0
1098046,-63.2911392405063,4,2,2,32,0,0
1110546,250,4,1,2,32,1,1
1110546,-126.582278481013,4,1,2,32,0,1
1110608,-126.582278481013,4,1,1,32,0,1
1112546,-126.582278481013,4,1,2,32,0,1
1112608,-126.582278481013,4,1,1,32,0,1
1114546,-126.582278481013,4,1,2,32,0,1
1114608,-126.582278481013,4,1,1,32,0,1
1116546,-126.582278481013,4,1,2,32,0,1
1116608,-126.582278481013,4,1,1,32,0,1
1122546,-126.582278481013,4,1,2,32,0,1
1122608,-126.582278481013,4,1,1,32,0,1
1124546,-126.582278481013,4,1,2,32,0,1
1124608,-126.582278481013,4,1,1,32,0,1
1126546,-126.582278481013,4,1,2,32,0,1
1126608,-126.582278481013,4,1,1,32,0,1
1128546,-126.582278481013,4,1,2,32,0,1
1128608,-126.582278481013,4,1,1,32,0,1
1130546,-126.582278481013,4,1,2,32,0,1
1132046,-126.582278481013,4,1,1,32,0,1
1132296,-126.582278481013,4,1,1,32,0,1
1132421,-126.582278481013,4,1,1,32,0,0
1132546,-126.582278481013,4,1,2,32,0,1
1132608,-126.582278481013,4,1,1,32,0,1
1134546,-126.582278481013,4,1,2,32,0,1
1134608,-126.582278481013,4,1,1,32,0,1
1136546,-126.582278481013,4,1,2,32,0,1
1136608,-126.582278481013,4,1,1,32,0,1
1138546,-126.582278481013,4,1,2,32,0,1
1138608,-126.582278481013,4,1,1,32,0,1
1139546,-126.582278481013,4,1,1,32,0,1
1140546,-126.582278481013,4,1,1,32,0,0
1150546,-126.582278481013,4,1,1,32,0,0
1154546,-126.582278481013,4,1,2,32,0,1
1154608,-126.582278481013,4,1,1,32,0,1
1156546,-126.582278481013,4,1,2,32,0,1
1156608,-126.582278481013,4,1,1,32,0,1
1158546,-126.582278481013,4,1,2,32,0,1
1158608,-126.582278481013,4,1,1,32,0,1
1160546,-126.582278481013,4,1,2,32,0,1
1160608,-126.582278481013,4,1,1,32,0,1
1168546,-126.582278481013,4,1,2,32,0,1
1168608,-126.582278481013,4,1,1,32,0,1
1170546,-126.582278481013,4,1,2,32,0,1
1170608,-126.582278481013,4,1,1,32,0,1
1172546,-126.582278481013,4,1,2,32,0,1
1172608,-126.582278481013,4,1,1,32,0,1
1174546,-126.582278481013,4,1,2,32,0,1
1174608,-126.582278481013,4,1,1,32,0,1
1176421,-126.582278481013,4,1,1,32,0,0
1176546,-126.582278481013,4,1,2,32,0,1
1176608,-126.582278481013,4,1,1,32,0,1
1177671,-126.582278481013,4,1,1,32,0,1
1178171,-126.582278481013,4,1,1,32,0,1
1178546,-126.582278481013,4,1,2,32,0,1
1178608,-126.582278481013,4,1,1,32,0,1
1179671,-126.582278481013,4,1,1,32,0,1
1180171,-126.582278481013,4,1,1,32,0,1
1180546,-126.582278481013,4,1,2,32,0,1
1180608,-126.582278481013,4,1,1,32,0,1
1181671,-126.582278481013,4,1,1,32,0,1
1182171,-126.582278481013,4,1,1,32,0,1
1182546,-126.582278481013,4,1,1,32,0,1
1182671,-126.582278481013,4,1,1,32,0,1
1183171,-126.582278481013,4,1,1,32,0,1
1183546,-126.582278481013,4,1,2,32,0,1
1183608,-126.582278481013,4,1,1,32,0,1
1185546,-126.582278481013,4,1,2,32,0,1
1185608,-126.582278481013,4,1,1,32,0,1
1187546,-126.582278481013,4,1,2,32,0,1
1187608,-126.582278481013,4,1,1,32,0,1
1189546,-126.582278481013,4,1,2,32,0,1
1189608,-126.582278481013,4,1,1,32,0,1
1191546,-126.582278481013,4,1,2,32,0,1
1191608,-126.582278481013,4,1,1,32,0,1
1193546,-126.582278481013,4,1,2,32,0,1
1193608,-126.582278481013,4,1,1,32,0,1
1205546,-126.582278481013,4,1,2,32,0,1
1205608,-126.582278481013,4,1,1,32,0,1
1207546,-126.582278481013,4,1,2,32,0,1
1207608,-126.582278481013,4,1,1,32,0,1
1209546,-126.582278481013,4,1,2,32,0,1
1209608,-126.582278481013,4,1,1,32,0,1
1211546,-126.582278481013,4,1,2,32,0,1
1211608,-126.582278481013,4,1,1,32,0,1
1213546,-126.582278481013,4,1,2,32,0,1
1213608,-126.582278481013,4,1,1,32,0,1
1215546,-126.582278481013,4,1,2,32,0,1
1215608,-126.582278481013,4,1,1,32,0,1
1219546,-126.582278481013,4,1,2,32,0,1
1219608,-126.582278481013,4,1,1,32,0,1
1221546,-126.582278481013,4,1,2,32,0,1
1221608,-126.582278481013,4,1,1,32,0,1
1227483,-126.582278481013,4,1,1,32,0,0
1227546,-126.582278481013,4,1,1,32,0,1
1227608,-126.582278481013,4,2,1,32,0,0
1228046,-126.582278481013,4,2,1,70,0,0
1228358,-126.582278481013,4,2,1,60,0,0
1228608,-126.582278481013,4,2,1,50,0,0
1228921,-126.582278481013,4,2,1,40,0,0
1229233,-126.582278481013,4,2,1,30,0,0
1229546,-126.582278481013,4,2,1,20,0,0
1229858,-126.582278481013,4,2,1,10,0,0
1230046,-126.582278481013,4,2,1,5,0,0
1233206,666.666666666667,4,2,1,50,1,0
1233206,-47.6190476190476,4,2,1,50,0,0
1297206,-47.6190476190476,4,2,1,50,0,0
1299872,333.333333333333,4,2,1,51,1,0
1299872,-95.2380952380952,4,2,1,51,0,0
1350633,-95.2380952380952,4,2,1,51,0,1
1383967,-95.2380952380952,4,2,1,51,0,0
1395867,342.857142857143,4,2,1,51,1,0
1401352,352.941176470588,4,2,1,51,1,0
1405587,363.636363636364,4,2,1,51,1,0
1414314,375,4,2,1,51,1,0
1415814,387.096774193548,4,2,1,51,1,0
1417362,400,4,2,1,51,1,0
1418962,428.571428571429,4,2,1,51,1,0
1420676,461.538461538462,4,2,1,51,1,0
1422522,480,4,2,1,51,1,0
1424442,521.739130434783,4,2,1,51,1,0
1426525,545.454545454546,4,2,1,51,1,0
1426525,-58.1395348837209,4,2,1,51,0,0
1430888,600,4,2,1,51,1,0
1430888,-52.6315789473684,4,2,1,51,0,0
1433288,333.333333333333,4,2,1,51,1,0
1433288,-95.2380952380952,4,2,1,51,0,0

[HitObjects]
448,192,787373,5,0,0:0:0:0:
320,192,787473,1,0,0:0:0:0:
192,192,787573,1,0,0:0:0:0:
64,192,787673,1,0,0:0:0:0:
448,192,788773,1,0,0:0:0:0:
448,192,788973,1,0,0:0:0:0:
320,192,789073,1,0,0:0:0:0:
192,192,789173,1,0,0:0:0:0:
64,192,789273,1,0,0:0:0:0:
448,192,790573,1,0,0:0:0:0:
320,192,790673,1,0,0:0:0:0:
192,192,790773,1,0,0:0:0:0:
64,192,790873,1,0,0:0:0:0:
448,192,791973,1,0,0:0:0:0:
448,192,792173,1,0,0:0:0:0:
320,192,792273,1,0,0:0:0:0:
192,192,792373,1,0,0:0:0:0:
64,192,792473,1,0,0:0:0:0:
448,192,793773,128,0,794473:0:0:0:0:
448,192,794573,128,0,795373:0:0:0:0:
320,192,795373,128,0,796073:0:0:0:0:
320,192,796173,128,0,796973:0:0:0:0:
448,192,796973,128,0,797373:0:0:0:0:
320,192,797373,128,0,797773:0:0:0:0:
64,192,797773,128,0,798173:0:0:0:0:
448,192,798173,128,0,798573:0:0:0:0:
192,192,798573,128,0,799273:0:0:0:0:
192,192,799373,128,0,800173:0:0:0:0:
448,192,800173,128,0,800873:0:0:0:0:
448,192,800973,128,0,801773:0:0:0:0:
320,192,801773,128,0,802473:0:0:0:0:
320,192,802573,128,0,803373:0:0:0:0:
448,192,803373,128,0,803773:0:0:0:0:
320,192,803773,128,0,804173:0:0:0:0:
64,192,804173,128,0,804573:0:0:0:0:
448,192,804573,128,0,804973:0:0:0:0:
320,192,804973,128,0,805673:0:0:0:0:
320,192,805773,128,0,806573:0:0:0:0:
448,192,806573,128,0,807273:0:0:0:0:
448,192,807373,128,0,808173:0:0:0:0:
320,192,808173,128,0,808873:0:0:0:0:
320,192,808973,128,0,809773:0:0:0:0:
448,192,809773,128,0,810173:0:0:0:0:
320,192,810173,128,0,810573:0:0:0:0:
64,192,810573,128,0,810973:0:0:0:0:
448,192,810973,128,0,811373:0:0:0:0:
192,192,811373,128,0,812073:0:0:0:0:
192,192,812173,128,0,812973:0:0:0:0:
448,192,812973,128,0,813673:0:0:0:0:
448,192,813773,128,0,814573:0:0:0:0:
320,192,814573,128,0,815273:0:0:0:0:
320,192,815373,128,0,816173:0:0:0:0:
448,192,816173,128,0,816573:0:0:0:0:
320,192,816573,128,0,816973:0:0:0:0:
64,192,816973,128,0,817373:0:0:0:0:
448,192,817373,128,0,817773:0:0:0:0:
192,192,817773,128,0,818473:0:0:0:0:
192,192,818573,128,0,819273:0:0:0:0:
192,192,819373,128,0,820973:0:0:0:0:
64,192,822573,128,0,823373:0:0:0:0:
448,192,823373,128,0,824173:0:0:0:0:
320,192,824173,128,0,824573:0:0:0:0:
192,192,824573,128,0,824973:0:0:0:0:
64,192,824973,128,0,825373:0:0:0:0:
192,192,825373,128,0,825673:0:0:0:0:
192,192,825773,128,0,826573:0:0:0:0:
448,192,826573,128,0,827373:0:0:0:0:
320,192,827373,128,0,828973:0:0:0:0:
64,192,828973,128,0,829747:0:0:0:0:
448,192,829747,128,0,830521:0:0:0:0:
320,192,830521,128,0,830896:0:0:0:0:
192,192,830896,128,0,831271:0:0:0:0:
64,192,831271,128,0,831646:0:0:0:0:
192,192,831646,128,0,831927:0:0:0:0:
192,192,832021,128,0,832739:0:0:0:0:
448,192,832739,128,0,833458:0:0:0:0:
320,192,833458,128,0,834807:0:0:0:0:
64,192,834805,128,0,835473:0:0:0:0:
192,192,834807,1,0,0:0:0:0:
192,192,835140,1,0,0:0:0:0:
448,192,835473,128,0,836140:0:0:0:0:
192,192,835473,1,0,0:0:0:0:
192,192,835807,1,0,0:0:0:0:
192,192,836029,1,0,0:0:0:0:
320,192,836140,128,0,836473:0:0:0:0:
64,192,836140,1,0,0:0:0:0:
192,192,836473,128,0,836807:0:0:0:0:
448,192,836473,1,0,0:0:0:0:
64,192,836807,128,0,837140:0:0:0:0:
448,192,836807,1,0,0:0:0:0:
192,192,837140,128,0,837390:0:0:0:0:
448,192,837140,1,0,0:0:0:0:
448,192,837362,1,0,0:0:0:0:
192,192,837473,128,0,838140:0:0:0:0:
320,192,837473,1,0,0:0:0:0:
64,192,837807,1,0,0:0:0:0:
448,192,838140,128,0,838807:0:0:0:0:
64,192,838140,1,0,0:0:0:0:
64,192,838473,1,0,0:0:0:0:
64,192,838695,1,0,0:0:0:0:
320,192,838807,128,0,840140:0:0:0:0:
192,192,838807,1,0,0:0:0:0:
64,192,839140,1,0,0:0:0:0:
64,192,839473,1,0,0:0:0:0:
64,192,839584,1,0,0:0:0:0:
64,192,839695,1,0,0:0:0:0:
64,192,839807,1,0,0:0:0:0:
64,192,840140,128,0,840807:0:0:0:0:
192,192,840140,1,0,0:0:0:0:
192,192,840473,1,0,0:0:0:0:
448,192,840807,128,0,841473:0:0:0:0:
192,192,840807,1,0,0:0:0:0:
192,192,841140,1,0,0:0:0:0:
192,192,841362,1,0,0:0:0:0:
320,192,841473,128,0,841807:0:0:0:0:
64,192,841473,1,0,0:0:0:0:
192,192,841807,128,0,842140:0:0:0:0:
448,192,841807,1,0,0:0:0:0:
64,192,842140,128,0,842473:0:0:0:0:
448,192,842140,1,0,0:0:0:0:
448,192,842251,1,0,0:0:0:0:
448,192,842362,1,0,0:0:0:0:
192,192,842473,128,0,842723:0:0:0:0:
448,192,842473,1,0,0:0:0:0:
320,192,842695,1,0,0:0:0:0:
192,192,842807,128,0,843473:0:0:0:0:
320,192,842807,1,0,0:0:0:0:
320,192,843140,1,0,0:0:0:0:
448,192,843473,128,0,844140:0:0:0:0:
320,192,843473,1,0,0:0:0:0:
320,192,843807,1,0,0:0:0:0:
320,192,844029,1,0,0:0:0:0:
64,192,844140,128,0,844807:0:0:0:0:
320,192,844140,1,0,0:0:0:0:
192,192,844140,1,0,0:0:0:0:
448,192,844251,1,0,0:0:0:0:
192,192,844362,1,0,0:0:0:0:
448,192,844473,1,0,0:0:0:0:
320,192,844473,1,0,0:0:0:0:
192,192,844584,1,0,0:0:0:0:
320,192,844695,1,0,0:0:0:0:
192,192,844807,1,0,0:0:0:0:
448,192,844807,1,0,0:0:0:0:
320,192,844918,1,0,0:0:0:0:
64,192,844918,1,0,0:0:0:0:
192,192,845029,1,0,0:0:0:0:
448,192,845029,1,0,0:0:0:0:
192,192,845140,1,0,0:0:0:0:
64,192,845140,1,0,0:0:0:0:
320,192,845140,1,0,0:0:0:0:
448,192,845251,1,0,0:0:0:0:
64,192,845251,1,0,0:0:0:0:
448,192,845362,1,0,0:0:0:0:
192,192,845362,1,0,0:0:0:0:
448,192,845473,1,0,0:0:0:0:
320,192,845473,1,0,0:0:0:0:
64,192,845473,128,0,846140:0:0:0:0:
448,192,846140,128,0,846807:0:0:0:0:
320,192,846140,1,0,0:0:0:0:
320,192,846807,128,0,847140:0:0:0:0:
192,192,846807,1,0,0:0:0:0:
192,192,847140,128,0,847473:0:0:0:0:
64,192,847140,1,0,0:0:0:0:
64,192,847473,128,0,847807:0:0:0:0:
320,192,847473,1,0,0:0:0:0:
192,192,847807,128,0,848140:0:0:0:0:
448,192,847807,1,0,0:0:0:0:
448,192,848140,128,0,849473:0:0:0:0:
320,192,848140,1,0,0:0:0:0:
64,192,849473,1,0,0:0:0:0:
192,192,849473,1,0,0:0:0:0:
320,192,849473,1,0,0:0:0:0:
64,192,849695,1,0,0:0:0:0:
448,192,849695,1,0,0:0:0:0:
64,192,849807,1,0,0:0:0:0:
448,192,849807,1,0,0:0:0:0:
192,192,850029,1,0,0:0:0:0:
448,192,850029,1,0,0:0:0:0:
320,192,850140,1,0,0:0:0:0:
64,192,850140,1,0,0:0:0:0:
448,192,850473,1,0,0:0:0:0:
64,192,850473,1,0,0:0:0:0:
320,192,850584,1,0,0:0:0:0:
192,192,850584,1,0,0:0:0:0:
192,192,850695,1,0,0:0:0:0:
64,192,850695,1,0,0:0:0:0:
320,192,850807,1,0,0:0:0:0:
448,192,850807,1,0,0:0:0:0:
64,192,850807,1,0,0:0:0:0:
448,192,850918,1,0,0:0:0:0:
64,192,851029,1,0,0:0:0:0:
320,192,851029,1,0,0:0:0:0:
64,192,851140,1,0,0:0:0:0:
192,192,851140,1,0,0:0:0:0:
320,192,851140,1,0,0:0:0:0:
192,192,851251,1,0,0:0:0:0:
448,192,851362,1,0,0:0:0:0:
320,192,851362,1,0,0:0:0:0:
64,192,851473,1,0,0:0:0:0:
448,192,851473,1,0,0:0:0:0:
320,192,851473,1,0,0:0:0:0:
320,192,851584,1,0,0:0:0:0:
64,192,851695,1,0,0:0:0:0:
192,192,851695,1,0,0:0:0:0:
64,192,851807,1,0,0:0:0:0:
192,192,851807,1,0,0:0:0:0:
320,192,851807,1,0,0:0:0:0:
64,192,851918,1,0,0:0:0:0:
448,192,851918,1,0,0:0:0:0:
192,192,852029,1,0,0:0:0:0:
320,192,852029,1,0,0:0:0:0:
64,192,852140,1,0,0:0:0:0:
192,192,852140,1,0,0:0:0:0:
320,192,852140,1,0,0:0:0:0:
320,192,852251,1,0,0:0:0:0:
64,192,852362,1,0,0:0:0:0:
448,192,852362,1,0,0:0:0:0:
64,192,852473,1,0,0:0:0:0:
320,192,852473,1,0,0:0:0:0:
448,192,852473,1,0,0:0:0:0:
192,192,852584,1,0,0:0:0:0:
448,192,852695,1,0,0:0:0:0:
320,192,852695,1,0,0:0:0:0:
64,192,852807,1,0,0:0:0:0:
320,192,852807,1,0,0:0:0:0:
448,192,852807,1,0,0:0:0:0:
448,192,852918,1,0,0:0:0:0:
320,192,852918,1,0,0:0:0:0:
448,192,853029,1,0,0:0:0:0:
320,192,853029,1,0,0:0:0:0:
192,192,853140,1,0,0:0:0:0:
320,192,853140,1,0,0:0:0:0:
448,192,853140,1,0,0:0:0:0:
64,192,853251,1,0,0:0:0:0:
320,192,853362,1,0,0:0:0:0:
192,192,853362,1,0,0:0:0:0:
192,192,853473,1,0,0:0:0:0:
320,192,853473,1,0,0:0:0:0:
448,192,853584,1,0,0:0:0:0:
64,192,853695,1,0,0:0:0:0:
192,192,853695,1,0,0:0:0:0:
64,192,853807,1,0,0:0:0:0:
192,192,853807,1,0,0:0:0:0:
320,192,853918,1,0,0:0:0:0:
192,192,854029,1,0,0:0:0:0:
448,192,854029,1,0,0:0:0:0:
64,192,854140,1,0,0:0:0:0:
192,192,854140,1,0,0:0:0:0:
448,192,854140,1,0,0:0:0:0:
320,192,854251,1,0,0:0:0:0:
64,192,854362,1,0,0:0:0:0:
320,192,854362,1,0,0:0:0:0:
64,192,854473,1,0,0:0:0:0:
320,192,854473,1,0,0:0:0:0:
64,192,854584,1,0,0:0:0:0:
320,192,854584,1,0,0:0:0:0:
64,192,854695,1,0,0:0:0:0:
320,192,854695,1,0,0:0:0:0:
64,192,854807,1,0,0:0:0:0:
192,192,854807,1,0,0:0:0:0:
320,192,854807,1,0,0:0:0:0:
448,192,854918,1,0,0:0:0:0:
192,192,855029,1,0,0:0:0:0:
320,192,855029,1,0,0:0:0:0:
192,192,855140,1,0,0:0:0:0:
320,192,855140,1,0,0:0:0:0:
64,192,855251,1,0,0:0:0:0:
192,192,855362,1,0,0:0:0:0:
448,192,855362,1,0,0:0:0:0:
448,192,855473,1,0,0:0:0:0:
192,192,855473,1,0,0:0:0:0:
320,192,855473,1,0,0:0:0:0:
64,192,855584,1,0,0:0:0:0:
192,192,855695,1,0,0:0:0:0:
448,192,855695,1,0,0:0:0:0:
192,192,855807,1,0,0:0:0:0:
448,192,855807,1,0,0:0:0:0:
192,192,855918,1,0,0:0:0:0:
448,192,855918,1,0,0:0:0:0:
448,192,856029,1,0,0:0:0:0:
192,192,856029,1,0,0:0:0:0:
64,192,856140,1,0,0:0:0:0:
192,192,856140,1,0,0:0:0:0:
448,192,856140,1,0,0:0:0:0:
448,192,856251,1,0,0:0:0:0:
64,192,856362,1,0,0:0:0:0:
320,192,856362,1,0,0:0:0:0:
64,192,856473,1,0,0:0:0:0:
320,192,856473,1,0,0:0:0:0:
192,192,856584,1,0,0:0:0:0:
448,192,856695,1,0,0:0:0:0:
320,192,856695,1,0,0:0:0:0:
192,192,856807,1,0,0:0:0:0:
320,192,856807,1,0,0:0:0:0:
448,192,856807,1,0,0:0:0:0:
192,192,856918,1,0,0:0:0:0:
64,192,857029,1,0,0:0:0:0:
320,192,857029,1,0,0:0:0:0:
64,192,857140,1,0,0:0:0:0:
320,192,857140,1,0,0:0:0:0:
64,192,857251,1,0,0:0:0:0:
320,192,857251,1,0,0:0:0:0:
64,192,857362,1,0,0:0:0:0:
320,192,857362,1,0,0:0:0:0:
64,192,857473,1,0,0:0:0:0:
192,192,857473,1,0,0:0:0:0:
320,192,857473,1,0,0:0:0:0:
448,192,857584,1,0,0:0:0:0:
64,192,857695,1,0,0:0:0:0:
192,192,857695,1,0,0:0:0:0:
64,192,857807,1,0,0:0:0:0:
192,192,857807,1,0,0:0:0:0:
320,192,857807,1,0,0:0:0:0:
192,192,857918,1,0,0:0:0:0:
448,192,858029,1,0,0:0:0:0:
320,192,858029,1,0,0:0:0:0:
64,192,858140,1,0,0:0:0:0:
448,192,858140,1,0,0:0:0:0:
320,192,858140,1,0,0:0:0:0:
448,192,858251,1,0,0:0:0:0:
320,192,858251,1,0,0:0:0:0:
448,192,858362,1,0,0:0:0:0:
320,192,858362,1,0,0:0:0:0:
64,192,858473,1,0,0:0:0:0:
448,192,858473,1,0,0:0:0:0:
320,192,858473,1,0,0:0:0:0:
192,192,858584,1,0,0:0:0:0:
64,192,858695,1,0,0:0:0:0:
192,192,858695,1,0,0:0:0:0:
64,192,858807,1,0,0:0:0:0:
192,192,858807,1,0,0:0:0:0:
320,192,858807,1,0,0:0:0:0:
448,192,858918,1,0,0:0:0:0:
192,192,859029,1,0,0:0:0:0:
320,192,859029,1,0,0:0:0:0:
192,192,859140,1,0,0:0:0:0:
320,192,859140,1,0,0:0:0:0:
320,192,859251,1,0,0:0:0:0:
64,192,859362,1,0,0:0:0:0:
448,192,859362,1,0,0:0:0:0:
64,192,859473,1,0,0:0:0:0:
192,192,859473,1,0,0:0:0:0:
448,192,859473,1,0,0:0:0:0:
320,192,859584,1,0,0:0:0:0:
192,192,859695,1,0,0:0:0:0:
448,192,859695,1,0,0:0:0:0:
192,192,859807,1,0,0:0:0:0:
448,192,859807,1,0,0:0:0:0:
192,192,859918,1,0,0:0:0:0:
448,192,859918,1,0,0:0:0:0:
192,192,860029,1,0,0:0:0:0:
448,192,860029,1,0,0:0:0:0:
448,192,860140,1,0,0:0:0:0:
192,192,860140,1,0,0:0:0:0:
320,192,860140,1,0,0:0:0:0:
320,192,860251,1,0,0:0:0:0:
64,192,860362,1,0,0:0:0:0:
192,192,860362,1,0,0:0:0:0:
64,192,860473,1,0,0:0:0:0:
192,192,860473,1,0,0:0:0:0:
448,192,860584,1,0,0:0:0:0:
64,192,860695,1,0,0:0:0:0:
320,192,860695,1,0,0:0:0:0:
64,192,860807,1,0,0:0:0:0:
320,192,860807,1,0,0:0:0:0:
64,192,860918,1,0,0:0:0:0:
320,192,860918,1,0,0:0:0:0:
64,192,861029,1,0,0:0:0:0:
320,192,861029,1,0,0:0:0:0:
64,192,861140,1,0,0:0:0:0:
320,192,861140,1,0,0:0:0:0:
64,192,861251,1,0,0:0:0:0:
320,192,861251,1,0,0:0:0:0:
64,192,861362,1,0,0:0:0:0:
320,192,861362,1,0,0:0:0:0:
64,192,861473,1,0,0:0:0:0:
192,192,861473,1,0,0:0:0:0:
320,192,861473,1,0,0:0:0:0:
320,192,861584,1,0,0:0:0:0:
192,192,861695,1,0,0:0:0:0:
448,192,861695,1,0,0:0:0:0:
64,192,861807,1,0,0:0:0:0:
192,192,861807,1,0,0:0:0:0:
448,192,861807,1,0,0:0:0:0:
320,192,861918,1,0,0:0:0:0:
64,192,862029,1,0,0:0:0:0:
320,192,862029,1,0,0:0:0:0:
64,192,862140,1,0,0:0:0:0:
192,192,862140,1,0,0:0:0:0:
320,192,862140,1,0,0:0:0:0:
320,192,862251,1,0,0:0:0:0:
64,192,862362,1,0,0:0:0:0:
192,192,862362,1,0,0:0:0:0:
64,192,862473,1,0,0:0:0:0:
192,192,862473,1,0,0:0:0:0:
448,192,862473,1,0,0:0:0:0:
64,192,862584,1,0,0:0:0:0:
192,192,862584,1,0,0:0:0:0:
64,192,862695,1,0,0:0:0:0:
192,192,862695,1,0,0:0:0:0:
64,192,862807,1,0,0:0:0:0:
192,192,862807,1,0,0:0:0:0:
448,192,862807,1,0,0:0:0:0:
320,192,862918,1,0,0:0:0:0:
64,192,863029,1,0,0:0:0:0:
320,192,863029,1,0,0:0:0:0:
64,192,863140,1,0,0:0:0:0:
320,192,863140,1,0,0:0:0:0:
320,192,863251,1,0,0:0:0:0:
192,192,863362,1,0,0:0:0:0:
448,192,863362,1,0,0:0:0:0:
192,192,863473,1,0,0:0:0:0:
448,192,863473,1,0,0:0:0:0:
192,192,863584,1,0,0:0:0:0:
448,192,863584,1,0,0:0:0:0:
192,192,863695,1,0,0:0:0:0:
448,192,863695,1,0,0:0:0:0:
192,192,863807,1,0,0:0:0:0:
448,192,863807,1,0,0:0:0:0:
64,192,863918,1,0,0:0:0:0:
192,192,864029,1,0,0:0:0:0:
320,192,864029,1,0,0:0:0:0:
64,192,864140,1,0,0:0:0:0:
192,192,864140,1,0,0:0:0:0:
320,192,864140,1,0,0:0:0:0:
320,192,864251,1,0,0:0:0:0:
64,192,864362,1,0,0:0:0:0:
192,192,864362,1,0,0:0:0:0:
64,192,864473,1,0,0:0:0:0:
192,192,864473,1,0,0:0:0:0:
320,192,864473,1,0,0:0:0:0:
320,192,864584,1,0,0:0:0:0:
192,192,864695,1,0,0:0:0:0:
448,192,864695,1,0,0:0:0:0:
64,192,864807,1,0,0:0:0:0:
448,192,864807,1,0,0:0:0:0:
192,192,864807,1,0,0:0:0:0:
320,192,864918,1,0,0:0:0:0:
64,192,865029,1,0,0:0:0:0:
192,192,865029,1,0,0:0:0:0:
64,192,865140,1,0,0:0:0:0:
192,192,865140,1,0,0:0:0:0:
320,192,865140,1,0,0:0:0:0:
448,192,865251,1,0,0:0:0:0:
320,192,865362,1,0,0:0:0:0:
448,192,865362,1,0,0:0:0:0:
64,192,865473,1,0,0:0:0:0:
320,192,865473,1,0,0:0:0:0:
448,192,865473,1,0,0:0:0:0:
320,192,865584,1,0,0:0:0:0:
64,192,865695,1,0,0:0:0:0:
448,192,865695,1,0,0:0:0:0:
64,192,865807,1,0,0:0:0:0:
448,192,865807,1,0,0:0:0:0:
192,192,865918,1,0,0:0:0:0:
320,192,866029,1,0,0:0:0:0:
448,192,866029,1,0,0:0:0:0:
320,192,866140,1,0,0:0:0:0:
448,192,866140,1,0,0:0:0:0:
320,192,866251,1,0,0:0:0:0:
448,192,866251,1,0,0:0:0:0:
320,192,866362,1,0,0:0:0:0:
448,192,866362,1,0,0:0:0:0:
320,192,866473,1,0,0:0:0:0:
448,192,866473,1,0,0:0:0:0:
320,192,866584,1,0,0:0:0:0:
448,192,866584,1,0,0:0:0:0:
320,192,866695,1,0,0:0:0:0:
448,192,866695,1,0,0:0:0:0:
320,192,866807,1,0,0:0:0:0:
64,192,866807,1,0,0:0:0:0:
448,192,866807,1,0,0:0:0:0:
192,192,866918,1,0,0:0:0:0:
320,192,867029,1,0,0:0:0:0:
448,192,867029,1,0,0:0:0:0:
64,192,867140,1,0,0:0:0:0:
320,192,867140,1,0,0:0:0:0:
448,192,867140,1,0,0:0:0:0:
192,192,867251,1,0,0:0:0:0:
64,192,867362,1,0,0:0:0:0:
448,192,867362,1,0,0:0:0:0:
64,192,867473,1,0,0:0:0:0:
192,192,867473,1,0,0:0:0:0:
448,192,867473,1,0,0:0:0:0:
192,192,867584,1,0,0:0:0:0:
448,192,867695,1,0,0:0:0:0:
320,192,867695,1,0,0:0:0:0:
64,192,867807,1,0,0:0:0:0:
448,192,867807,1,0,0:0:0:0:
320,192,867807,1,0,0:0:0:0:
448,192,867918,1,0,0:0:0:0:
320,192,867918,1,0,0:0:0:0:
448,192,868029,1,0,0:0:0:0:
320,192,868029,1,0,0:0:0:0:
64,192,868140,1,0,0:0:0:0:
320,192,868140,1,0,0:0:0:0:
448,192,868140,1,0,0:0:0:0:
192,192,868251,1,0,0:0:0:0:
192,192,868362,1,0,0:0:0:0:
320,192,868362,1,0,0:0:0:0:
192,192,868473,1,0,0:0:0:0:
320,192,868473,1,0,0:0:0:0:
320,192,868584,1,0,0:0:0:0:
64,192,868695,1,0,0:0:0:0:
448,192,868695,1,0,0:0:0:0:
64,192,868807,1,0,0:0:0:0:
448,192,868807,1,0,0:0:0:0:
320,192,868918,1,0,0:0:0:0:
64,192,869029,1,0,0:0:0:0:
192,192,869029,1,0,0:0:0:0:
64,192,869140,1,0,0:0:0:0:
192,192,869140,1,0,0:0:0:0:
64,192,869251,1,0,0:0:0:0:
192,192,869251,1,0,0:0:0:0:
64,192,869362,1,0,0:0:0:0:
192,192,869362,1,0,0:0:0:0:
64,192,869473,1,0,0:0:0:0:
192,192,869473,1,0,0:0:0:0:
320,192,869473,1,0,0:0:0:0:
64,192,869584,1,0,0:0:0:0:
192,192,869584,1,0,0:0:0:0:
64,192,869695,1,0,0:0:0:0:
192,192,869695,1,0,0:0:0:0:
64,192,869807,1,0,0:0:0:0:
192,192,869807,1,0,0:0:0:0:
320,192,869807,1,0,0:0:0:0:
192,192,869918,1,0,0:0:0:0:
320,192,870029,1,0,0:0:0:0:
448,192,870029,1,0,0:0:0:0:
64,192,870140,1,0,0:0:0:0:
192,192,870140,1,0,0:0:0:0:
320,192,870140,1,0,0:0:0:0:
320,192,870251,1,0,0:0:0:0:
192,192,870251,1,0,0:0:0:0:
192,192,870362,1,0,0:0:0:0:
320,192,870362,1,0,0:0:0:0:
320,192,870473,1,0,0:0:0:0:
448,192,870473,1,0,0:0:0:0:
192,192,870473,1,0,0:0:0:0:
320,192,870584,1,0,0:0:0:0:
192,192,870584,1,0,0:0:0:0:
192,192,870695,1,0,0:0:0:0:
320,192,870695,1,0,0:0:0:0:
64,192,870807,1,0,0:0:0:0:
192,192,870807,1,0,0:0:0:0:
448,192,870807,1,0,0:0:0:0:
64,192,870918,1,0,0:0:0:0:
192,192,870918,1,0,0:0:0:0:
64,192,871029,1,0,0:0:0:0:
192,192,871029,1,0,0:0:0:0:
64,192,871140,1,0,0:0:0:0:
448,192,871140,1,0,0:0:0:0:
192,192,871140,1,0,0:0:0:0:
64,192,871251,1,0,0:0:0:0:
192,192,871251,1,0,0:0:0:0:
64,192,871362,1,0,0:0:0:0:
192,192,871362,1,0,0:0:0:0:
64,192,871473,1,0,0:0:0:0:
448,192,871473,1,0,0:0:0:0:
320,192,871473,1,0,0:0:0:0:
320,192,871584,1,0,0:0:0:0:
448,192,871584,1,0,0:0:0:0:
320,192,871695,1,0,0:0:0:0:
448,192,871695,1,0,0:0:0:0:
320,192,871807,1,0,0:0:0:0:
448,192,871807,1,0,0:0:0:0:
64,192,871807,1,0,0:0:0:0:
320,192,871918,1,0,0:0:0:0:
448,192,871918,1,0,0:0:0:0:
320,192,872029,1,0,0:0:0:0:
448,192,872029,1,0,0:0:0:0:
320,192,872140,1,0,0:0:0:0:
448,192,872140,1,0,0:0:0:0:
64,192,872140,1,0,0:0:0:0:
320,192,872473,1,0,0:0:0:0:
192,192,872807,1,0,0:0:0:0:
192,192,873140,1,0,0:0:0:0:
64,192,873473,1,0,0:0:0:0:
448,192,873807,1,0,0:0:0:0:
320,192,874140,1,0,0:0:0:0:
192,192,874473,1,0,0:0:0:0:
64,192,874807,1,0,0:0:0:0:
64,192,875807,1,0,0:0:0:0:
448,192,875807,1,0,0:0:0:0:
64,192,876140,1,0,0:0:0:0:
448,192,876140,1,0,0:0:0:0:
64,192,876473,1,0,0:0:0:0:
448,192,876473,1,0,0:0:0:0:
64,192,876807,1,0,0:0:0:0:
448,192,876807,1,0,0:0:0:0:
64,192,877140,1,0,0:0:0:0:
448,192,877140,1,0,0:0:0:0:
448,192,877473,1,0,0:0:0:0:
64,192,877473,1,0,0:0:0:0:
192,192,877473,1,0,0:0:0:0:
320,192,877695,1,0,0:0:0:0:
448,192,877807,1,0,0:0:0:0:
64,192,877807,1,0,0:0:0:0:
192,192,877807,1,0,0:0:0:0:
320,192,878029,1,0,0:0:0:0:
448,192,878140,1,0,0:0:0:0:
64,192,878140,1,0,0:0:0:0:
192,192,878140,1,0,0:0:0:0:
448,192,878362,1,0,0:0:0:0:
320,192,878362,1,0,0:0:0:0:
448,192,878473,1,0,0:0:0:0:
64,192,878473,1,0,0:0:0:0:
192,192,878473,1,0,0:0:0:0:
320,192,878695,1,0,0:0:0:0:
448,192,878807,1,0,0:0:0:0:
64,192,878807,1,0,0:0:0:0:
192,192,878807,1,0,0:0:0:0:
448,192,878918,1,0,0:0:0:0:
64,192,879029,1,0,0:0:0:0:
192,192,879029,1,0,0:0:0:0:
448,192,879140,1,0,0:0:0:0:
64,192,879140,1,0,0:0:0:0:
192,192,879140,1,0,0:0:0:0:
64,192,879251,1,0,0:0:0:0:
192,192,879251,1,0,0:0:0:0:
448,192,879362,1,0,0:0:0:0:
64,192,879362,1,0,0:0:0:0:
192,192,879362,1,0,0:0:0:0:
448,192,879473,1,0,0:0:0:0:
64,192,879473,1,0,0:0:0:0:
192,192,879473,1,0,0:0:0:0:
448,192,880140,1,0,0:0:0:0:
64,192,880140,1,0,0:0:0:0:
192,192,880140,1,0,0:0:0:0:
320,192,880362,1,0,0:0:0:0:
448,192,880473,1,0,0:0:0:0:
64,192,880473,1,0,0:0:0:0:
192,192,880473,1,0,0:0:0:0:
320,192,880695,1,0,0:0:0:0:
448,192,880807,1,0,0:0:0:0:
64,192,880807,1,0,0:0:0:0:
192,192,880807,1,0,0:0:0:0:
448,192,881029,1,0,0:0:0:0:
320,192,881029,1,0,0:0:0:0:
448,192,881140,1,0,0:0:0:0:
64,192,881140,1,0,0:0:0:0:
192,192,881140,1,0,0:0:0:0:
320,192,881362,1,0,0:0:0:0:
448,192,881473,1,0,0:0:0:0:
64,192,882140,1,0,0:0:0:0:
320,192,882140,1,0,0:0:0:0:
448,192,882140,1,0,0:0:0:0:
64,192,882473,1,0,0:0:0:0:
320,192,882473,1,0,0:0:0:0:
448,192,882473,1,0,0:0:0:0:
64,192,882584,1,0,0:0:0:0:
320,192,882584,1,0,0:0:0:0:
448,192,882584,1,0,0:0:0:0:
64,192,882695,1,0,0:0:0:0:
320,192,882695,1,0,0:0:0:0:
448,192,882695,1,0,0:0:0:0:
64,192,882807,1,0,0:0:0:0:
320,192,882807,1,0,0:0:0:0:
448,192,882807,1,0,0:0:0:0:
192,192,883029,1,0,0:0:0:0:
64,192,883140,1,0,0:0:0:0:
448,192,883140,1,0,0:0:0:0:
320,192,883140,1,0,0:0:0:0:
192,192,883362,1,0,0:0:0:0:
64,192,883473,1,0,0:0:0:0:
320,192,883473,1,0,0:0:0:0:
448,192,883473,1,0,0:0:0:0:
64,192,883695,1,0,0:0:0:0:
192,192,883695,1,0,0:0:0:0:
64,192,883807,1,0,0:0:0:0:
320,192,883807,1,0,0:0:0:0:
448,192,883807,1,0,0:0:0:0:
192,192,884029,1,0,0:0:0:0:
64,192,884140,1,0,0:0:0:0:
320,192,884140,1,0,0:0:0:0:
448,192,884140,1,0,0:0:0:0:
64,192,884251,1,0,0:0:0:0:
320,192,884362,1,0,0:0:0:0:
448,192,884362,1,0,0:0:0:0:
64,192,884473,1,0,0:0:0:0:
448,192,884473,1,0,0:0:0:0:
320,192,884473,1,0,0:0:0:0:
320,192,884584,1,0,0:0:0:0:
448,192,884584,1,0,0:0:0:0:
64,192,884695,1,0,0:0:0:0:
320,192,884695,1,0,0:0:0:0:
448,192,884695,1,0,0:0:0:0:
64,192,884807,1,0,0:0:0:0:
320,192,884807,1,0,0:0:0:0:
448,192,884807,1,0,0:0:0:0:
448,192,885473,1,0,0:0:0:0:
192,192,885473,1,0,0:0:0:0:
64,192,885473,1,0,0:0:0:0:
320,192,885695,1,0,0:0:0:0:
448,192,885807,1,0,0:0:0:0:
192,192,885807,1,0,0:0:0:0:
64,192,885807,1,0,0:0:0:0:
320,192,886029,1,0,0:0:0:0:
448,192,886140,1,0,0:0:0:0:
192,192,886140,1,0,0:0:0:0:
64,192,886140,1,0,0:0:0:0:
448,192,886362,1,0,0:0:0:0:
320,192,886362,1,0,0:0:0:0:
448,192,886473,1,0,0:0:0:0:
192,192,886473,1,0,0:0:0:0:
64,192,886473,1,0,0:0:0:0:
320,192,886695,1,0,0:0:0:0:
448,192,886807,1,0,0:0:0:0:
64,192,886807,1,0,0:0:0:0:
192,192,886807,1,0,0:0:0:0:
320,192,887029,1,0,0:0:0:0:
64,192,887140,1,0,0:0:0:0:
64,192,887251,1,0,0:0:0:0:
64,192,887362,1,0,0:0:0:0:
448,192,887473,1,0,0:0:0:0:
64,192,887473,1,0,0:0:0:0:
64,192,887584,1,0,0:0:0:0:
192,192,887584,1,0,0:0:0:0:
64,192,887695,1,0,0:0:0:0:
192,192,887695,1,0,0:0:0:0:
320,192,887807,1,0,0:0:0:0:
448,192,887807,1,0,0:0:0:0:
320,192,887918,1,0,0:0:0:0:
448,192,887918,1,0,0:0:0:0:
64,192,888029,1,0,0:0:0:0:
192,192,888029,1,0,0:0:0:0:
448,192,888140,1,0,0:0:0:0:
64,192,888140,1,0,0:0:0:0:
192,192,888140,1,0,0:0:0:0:
64,192,888362,1,0,0:0:0:0:
448,192,888473,1,0,0:0:0:0:
320,192,888473,1,0,0:0:0:0:
192,192,888473,1,0,0:0:0:0:
192,192,888695,1,0,0:0:0:0:
448,192,888807,1,0,0:0:0:0:
320,192,888807,1,0,0:0:0:0:
64,192,888807,1,0,0:0:0:0:
320,192,889029,1,0,0:0:0:0:
448,192,889140,1,0,0:0:0:0:
64,192,889140,1,0,0:0:0:0:
192,192,889140,1,0,0:0:0:0:
448,192,889362,1,0,0:0:0:0:
320,192,889473,1,0,0:0:0:0:
64,192,889473,1,0,0:0:0:0:
192,192,889473,1,0,0:0:0:0:
64,192,889695,1,0,0:0:0:0:
448,192,889807,1,0,0:0:0:0:
320,192,889807,1,0,0:0:0:0:
192,192,889807,1,0,0:0:0:0:
192,192,890029,1,0,0:0:0:0:
448,192,890140,1,0,0:0:0:0:
64,192,890140,1,0,0:0:0:0:
320,192,890140,1,0,0:0:0:0:
320,192,890362,1,0,0:0:0:0:
448,192,890473,1,0,0:0:0:0:
64,192,890473,1,0,0:0:0:0:
192,192,890473,1,0,0:0:0:0:
320,192,890695,1,0,0:0:0:0:
192,192,890695,1,0,0:0:0:0:
64,192,890695,1,0,0:0:0:0:
448,192,890806,1,0,0:0:0:0:
64,192,890806,1,0,0:0:0:0:
192,192,890806,1,0,0:0:0:0:
64,192,891029,1,0,0:0:0:0:
448,192,891140,1,0,0:0:0:0:
192,192,891140,1,0,0:0:0:0:
320,192,891140,1,0,0:0:0:0:
192,192,891362,1,0,0:0:0:0:
448,192,891473,1,0,0:0:0:0:
320,192,891473,1,0,0:0:0:0:
64,192,891473,1,0,0:0:0:0:
320,192,891695,1,0,0:0:0:0:
448,192,891806,1,0,0:0:0:0:
192,192,891806,1,0,0:0:0:0:
64,192,891806,1,0,0:0:0:0:
448,192,892029,1,0,0:0:0:0:
320,192,892140,1,0,0:0:0:0:
192,192,892140,1,0,0:0:0:0:
64,192,892140,1,0,0:0:0:0:
448,192,892251,1,0,0:0:0:0:
320,192,892362,1,0,0:0:0:0:
448,192,892473,1,0,0:0:0:0:
192,192,892473,1,0,0:0:0:0:
64,192,892473,1,0,0:0:0:0:
192,192,892695,1,0,0:0:0:0:
448,192,892806,1,0,0:0:0:0:
320,192,892806,1,0,0:0:0:0:
64,192,892806,1,0,0:0:0:0:
64,192,893029,1,0,0:0:0:0:
448,192,893140,1,0,0:0:0:0:
192,192,893140,1,0,0:0:0:0:
320,192,893140,1,0,0:0:0:0:
192,192,893251,1,0,0:0:0:0:
64,192,893251,1,0,0:0:0:0:
192,192,893362,1,0,0:0:0:0:
64,192,893362,1,0,0:0:0:0:
448,192,893473,1,0,0:0:0:0:
192,192,893473,1,0,0:0:0:0:
64,192,893473,1,0,0:0:0:0:
64,192,893695,1,0,0:0:0:0:
448,192,893806,1,0,0:0:0:0:
192,192,893806,1,0,0:0:0:0:
320,192,893806,1,0,0:0:0:0:
192,192,894029,1,0,0:0:0:0:
448,192,894140,1,0,0:0:0:0:
320,192,894140,1,0,0:0:0:0:
64,192,894140,1,0,0:0:0:0:
320,192,894362,1,0,0:0:0:0:
448,192,894473,1,0,0:0:0:0:
192,192,894473,1,0,0:0:0:0:
64,192,894473,1,0,0:0:0:0:
448,192,894695,1,0,0:0:0:0:
320,192,894806,1,0,0:0:0:0:
192,192,894806,1,0,0:0:0:0:
64,192,894806,1,0,0:0:0:0:
64,192,895029,1,0,0:0:0:0:
448,192,895140,1,0,0:0:0:0:
192,192,895140,1,0,0:0:0:0:
320,192,895140,1,0,0:0:0:0:
192,192,895362,1,0,0:0:0:0:
448,192,895473,1,0,0:0:0:0:
320,192,895473,1,0,0:0:0:0:
64,192,895473,1,0,0:0:0:0:
320,192,895695,1,0,0:0:0:0:
448,192,895806,1,0,0:0:0:0:
192,192,895806,1,0,0:0:0:0:
64,192,895806,1,0,0:0:0:0:
320,192,896029,1,0,0:0:0:0:
192,192,896029,1,0,0:0:0:0:
64,192,896029,1,0,0:0:0:0:
448,192,896140,1,0,0:0:0:0:
192,192,896140,1,0,0:0:0:0:
64,192,896140,1,0,0:0:0:0:
64,192,896362,1,0,0:0:0:0:
448,192,896473,1,0,0:0:0:0:
192,192,896473,1,0,0:0:0:0:
320,192,896473,1,0,0:0:0:0:
192,192,896695,1,0,0:0:0:0:
448,192,896806,1,0,0:0:0:0:
320,192,896806,1,0,0:0:0:0:
64,192,896806,1,0,0:0:0:0:
320,192,897029,1,0,0:0:0:0:
448,192,897140,1,0,0:0:0:0:
192,192,897140,1,0,0:0:0:0:
64,192,897140,1,0,0:0:0:0:
448,192,897362,1,0,0:0:0:0:
320,192,897473,1,0,0:0:0:0:
192,192,897473,1,0,0:0:0:0:
64,192,897473,1,0,0:0:0:0:
320,192,897695,1,0,0:0:0:0:
448,192,897806,1,0,0:0:0:0:
192,192,897806,1,0,0:0:0:0:
64,192,897806,1,0,0:0:0:0:
192,192,898029,1,0,0:0:0:0:
448,192,898140,1,0,0:0:0:0:
320,192,898140,1,0,0:0:0:0:
64,192,898140,1,0,0:0:0:0:
64,192,898362,5,0,0:0:0:0:
448,192,898473,5,0,0:0:0:0:
192,192,898473,1,0,0:0:0:0:
320,192,898473,1,0,0:0:0:0:
192,192,898584,1,0,0:0:0:0:
448,192,898584,1,0,0:0:0:0:
64,192,898695,1,0,0:0:0:0:
320,192,898695,1,0,0:0:0:0:
448,192,898806,5,0,0:0:0:0:
192,192,898807,1,0,0:0:0:0:
320,192,898890,1,0,0:0:0:0:
64,192,898890,1,0,0:0:0:0:
192,192,898973,1,0,0:0:0:0:
448,192,898973,1,0,0:0:0:0:
64,192,899057,1,0,0:0:0:0:
320,192,899057,1,0,0:0:0:0:
192,192,899140,1,0,0:0:0:0:
448,192,899140,1,0,0:0:0:0:
64,192,899223,1,0,0:0:0:0:
320,192,899223,1,0,0:0:0:0:
192,192,899307,1,0,0:0:0:0:
448,192,899307,1,0,0:0:0:0:
64,192,899390,1,0,0:0:0:0:
320,192,899390,1,0,0:0:0:0:
64,192,899473,1,0,0:0:0:0:
448,192,899473,1,0,0:0:0:0:
192,192,899554,1,0,0:0:0:0:
320,192,899554,1,0,0:0:0:0:
64,192,899635,1,0,0:0:0:0:
448,192,899635,1,0,0:0:0:0:
192,192,899716,1,0,0:0:0:0:
320,192,899716,1,0,0:0:0:0:
64,192,899797,1,0,0:0:0:0:
448,192,899797,1,0,0:0:0:0:
192,192,899878,1,0,0:0:0:0:
320,192,899878,1,0,0:0:0:0:
64,192,899959,1,0,0:0:0:0:
448,192,899959,1,0,0:0:0:0:
192,192,900040,1,0,0:0:0:0:
320,192,900040,1,0,0:0:0:0:
64,192,900121,1,0,0:0:0:0:
320,192,900121,1,0,0:0:0:0:
448,192,900197,1,0,0:0:0:0:
192,192,900197,1,0,0:0:0:0:
64,192,900274,1,0,0:0:0:0:
320,192,900274,1,0,0:0:0:0:
192,192,900351,1,0,0:0:0:0:
448,192,900351,1,0,0:0:0:0:
64,192,900428,1,0,0:0:0:0:
448,192,900428,1,0,0:0:0:0:
192,192,900505,1,0,0:0:0:0:
320,192,900505,1,0,0:0:0:0:
64,192,900582,1,0,0:0:0:0:
448,192,900582,1,0,0:0:0:0:
192,192,900659,1,0,0:0:0:0:
320,192,900659,1,0,0:0:0:0:
64,192,900736,1,0,0:0:0:0:
320,192,900736,1,0,0:0:0:0:
192,192,900811,1,0,0:0:0:0:
448,192,900811,1,0,0:0:0:0:
64,192,900886,1,0,0:0:0:0:
320,192,900886,1,0,0:0:0:0:
192,192,900961,1,0,0:0:0:0:
448,192,900961,1,0,0:0:0:0:
64,192,901036,1,0,0:0:0:0:
320,192,901036,1,0,0:0:0:0:
192,192,901111,1,0,0:0:0:0:
448,192,901111,1,0,0:0:0:0:
64,192,901186,1,0,0:0:0:0:
320,192,901186,1,0,0:0:0:0:
192,192,901261,1,0,0:0:0:0:
448,192,901261,1,0,0:0:0:0:
64,192,901336,1,0,0:0:0:0:
448,192,901336,1,0,0:0:0:0:
320,192,901336,1,0,0:0:0:0:
320,192,901486,1,0,0:0:0:0:
192,192,901486,1,0,0:0:0:0:
320,192,901636,1,0,0:0:0:0:
64,192,901786,1,0,0:0:0:0:
192,192,901786,1,0,0:0:0:0:
320,192,901936,1,0,0:0:0:0:
192,192,902086,1,0,0:0:0:0:
320,192,902236,1,0,0:0:0:0:
192,192,902236,1,0,0:0:0:0:
320,192,902386,1,0,0:0:0:0:
192,192,902386,1,0,0:0:0:0:
448,192,902536,1,0,0:0:0:0:
192,192,902536,1,0,0:0:0:0:
320,192,902686,1,0,0:0:0:0:
64,192,902686,1,0,0:0:0:0:
320,192,902836,1,0,0:0:0:0:
64,192,902986,1,0,0:0:0:0:
320,192,903136,1,0,0:0:0:0:
448,192,903136,1,0,0:0:0:0:
192,192,903136,1,0,0:0:0:0:
320,192,903286,1,0,0:0:0:0:
64,192,903286,1,0,0:0:0:0:
64,192,903586,1,0,0:0:0:0:
448,192,903586,1,0,0:0:0:0:
192,192,903661,1,0,0:0:0:0:
448,192,903736,1,0,0:0:0:0:
320,192,903736,1,0,0:0:0:0:
64,192,903736,1,0,0:0:0:0:
192,192,903886,1,0,0:0:0:0:
320,192,903886,1,0,0:0:0:0:
192,192,904036,1,0,0:0:0:0:
448,192,904186,1,0,0:0:0:0:
320,192,904186,1,0,0:0:0:0:
192,192,904336,1,0,0:0:0:0:
448,192,904336,1,0,0:0:0:0:
64,192,904336,1,0,0:0:0:0:
320,192,904486,1,0,0:0:0:0:
192,192,904636,1,0,0:0:0:0:
192,192,904786,1,0,0:0:0:0:
320,192,904786,1,0,0:0:0:0:
448,192,904936,1,0,0:0:0:0:
64,192,904936,1,0,0:0:0:0:
192,192,905086,1,0,0:0:0:0:
320,192,905086,1,0,0:0:0:0:
192,192,905236,1,0,0:0:0:0:
448,192,905236,1,0,0:0:0:0:
64,192,905236,1,0,0:0:0:0:
320,192,905386,1,0,0:0:0:0:
192,192,905536,1,0,0:0:0:0:
448,192,905536,1,0,0:0:0:0:
64,192,905536,1,0,0:0:0:0:
192,192,905686,1,0,0:0:0:0:
320,192,905686,1,0,0:0:0:0:
448,192,905836,1,0,0:0:0:0:
64,192,905836,1,0,0:0:0:0:
320,192,905986,1,0,0:0:0:0:
64,192,906136,1,0,0:0:0:0:
448,192,906136,1,0,0:0:0:0:
192,192,906136,1,0,0:0:0:0:
320,192,906286,1,0,0:0:0:0:
448,192,906286,1,0,0:0:0:0:
320,192,906436,1,0,0:0:0:0:
192,192,906436,1,0,0:0:0:0:
64,192,906586,1,0,0:0:0:0:
448,192,906586,1,0,0:0:0:0:
320,192,906736,1,0,0:0:0:0:
192,192,906736,1,0,0:0:0:0:
448,192,906886,1,0,0:0:0:0:
320,192,907036,1,0,0:0:0:0:
192,192,907036,1,0,0:0:0:0:
320,192,907186,1,0,0:0:0:0:
448,192,907186,1,0,0:0:0:0:
192,192,907336,1,0,0:0:0:0:
320,192,907486,1,0,0:0:0:0:
64,192,907486,1,0,0:0:0:0:
320,192,907636,1,0,0:0:0:0:
192,192,907636,1,0,0:0:0:0:
64,192,907786,1,0,0:0:0:0:
320,192,907936,1,0,0:0:0:0:
192,192,907936,1,0,0:0:0:0:
320,192,908086,1,0,0:0:0:0:
64,192,908086,1,0,0:0:0:0:
192,192,908236,1,0,0:0:0:0:
64,192,908386,1,0,0:0:0:0:
320,192,908386,1,0,0:0:0:0:
448,192,908386,1,0,0:0:0:0:
192,192,908461,1,0,0:0:0:0:
448,192,908536,1,0,0:0:0:0:
320,192,908536,1,0,0:0:0:0:
192,192,908686,1,0,0:0:0:0:
64,192,908686,1,0,0:0:0:0:
192,192,908836,1,0,0:0:0:0:
320,192,908836,1,0,0:0:0:0:
448,192,908986,1,0,0:0:0:0:
64,192,908986,1,0,0:0:0:0:
192,192,909136,1,0,0:0:0:0:
320,192,909136,1,0,0:0:0:0:
64,192,909286,1,0,0:0:0:0:
192,192,909436,1,0,0:0:0:0:
320,192,909436,1,0,0:0:0:0:
192,192,909586,1,0,0:0:0:0:
64,192,909586,1,0,0:0:0:0:
320,192,909736,1,0,0:0:0:0:
192,192,909886,1,0,0:0:0:0:
320,192,909886,1,0,0:0:0:0:
448,192,909886,1,0,0:0:0:0:
192,192,910036,1,0,0:0:0:0:
320,192,910036,1,0,0:0:0:0:
320,192,910186,1,0,0:0:0:0:
448,192,910186,1,0,0:0:0:0:
192,192,910336,1,0,0:0:0:0:
320,192,910336,1,0,0:0:0:0:
192,192,910486,1,0,0:0:0:0:
448,192,910486,1,0,0:0:0:0:
448,192,910636,1,0,0:0:0:0:
320,192,910711,1,0,0:0:0:0:
192,192,910786,1,0,0:0:0:0:
448,192,910786,1,0,0:0:0:0:
64,192,910861,1,0,0:0:0:0:
320,192,910861,1,0,0:0:0:0:
448,192,910936,1,0,0:0:0:0:
192,192,910936,1,0,0:0:0:0:
64,192,910936,1,0,0:0:0:0:
320,192,911086,1,0,0:0:0:0:
64,192,911086,1,0,0:0:0:0:
320,192,911236,1,0,0:0:0:0:
192,192,911236,1,0,0:0:0:0:
448,192,911386,1,0,0:0:0:0:
64,192,911386,1,0,0:0:0:0:
192,192,911386,1,0,0:0:0:0:
320,192,911461,1,0,0:0:0:0:
192,192,911536,1,0,0:0:0:0:
448,192,911536,1,0,0:0:0:0:
320,192,911611,1,0,0:0:0:0:
448,192,911686,1,0,0:0:0:0:
64,192,911686,1,0,0:0:0:0:
320,192,911761,1,0,0:0:0:0:
192,192,911836,1,0,0:0:0:0:
448,192,911836,1,0,0:0:0:0:
64,192,911836,1,0,0:0:0:0:
320,192,911911,1,0,0:0:0:0:
192,192,911986,1,0,0:0:0:0:
448,192,911986,1,0,0:0:0:0:
64,192,912061,1,0,0:0:0:0:
448,192,912136,1,0,0:0:0:0:
192,192,912136,1,0,0:0:0:0:
320,192,912286,1,0,0:0:0:0:
448,192,912436,1,0,0:0:0:0:
448,192,912586,1,0,0:0:0:0:
64,192,912586,1,0,0:0:0:0:
192,192,912586,1,0,0:0:0:0:
320,192,912661,1,0,0:0:0:0:
192,192,912736,1,0,0:0:0:0:
64,192,912736,1,0,0:0:0:0:
320,192,912811,1,0,0:0:0:0:
448,192,912886,1,0,0:0:0:0:
192,192,912886,1,0,0:0:0:0:
320,192,912961,1,0,0:0:0:0:
192,192,913036,1,0,0:0:0:0:
64,192,913036,1,0,0:0:0:0:
320,192,913111,1,0,0:0:0:0:
448,192,913111,1,0,0:0:0:0:
192,192,913186,1,0,0:0:0:0:
64,192,913186,1,0,0:0:0:0:
320,192,913261,1,0,0:0:0:0:
448,192,913261,1,0,0:0:0:0:
64,192,913336,1,0,0:0:0:0:
192,192,913336,1,0,0:0:0:0:
448,192,913486,1,0,0:0:0:0:
192,192,913486,1,0,0:0:0:0:
320,192,913561,1,0,0:0:0:0:
192,192,913636,1,0,0:0:0:0:
64,192,913636,1,0,0:0:0:0:
320,192,913711,1,0,0:0:0:0:
192,192,913786,1,0,0:0:0:0:
448,192,913786,1,0,0:0:0:0:
64,192,913861,1,0,0:0:0:0:
192,192,913936,1,0,0:0:0:0:
448,192,913936,1,0,0:0:0:0:
320,192,914011,1,0,0:0:0:0:
192,192,914086,1,0,0:0:0:0:
64,192,914086,1,0,0:0:0:0:
320,192,914161,1,0,0:0:0:0:
448,192,914236,1,0,0:0:0:0:
64,192,914236,1,0,0:0:0:0:
192,192,914236,1,0,0:0:0:0:
320,192,914311,1,0,0:0:0:0:
192,192,914386,1,0,0:0:0:0:
448,192,914386,1,0,0:0:0:0:
320,192,914461,1,0,0:0:0:0:
448,192,914536,1,0,0:0:0:0:
192,192,914536,1,0,0:0:0:0:
64,192,914536,1,0,0:0:0:0:
320,192,914611,1,0,0:0:0:0:
192,192,914686,1,0,0:0:0:0:
448,192,914686,1,0,0:0:0:0:
64,192,914686,1,0,0:0:0:0:
320,192,914761,1,0,0:0:0:0:
192,192,914836,1,0,0:0:0:0:
448,192,914836,1,0,0:0:0:0:
64,192,914911,1,0,0:0:0:0:
192,192,914986,1,0,0:0:0:0:
448,192,914986,1,0,0:0:0:0:
64,192,915061,1,0,0:0:0:0:
192,192,915136,1,0,0:0:0:0:
448,192,915136,1,0,0:0:0:0:
320,192,915136,1,0,0:0:0:0:
64,192,915211,1,0,0:0:0:0:
192,192,915286,1,0,0:0:0:0:
448,192,915286,1,0,0:0:0:0:
320,192,915361,1,0,0:0:0:0:
192,192,915436,1,0,0:0:0:0:
64,192,915436,1,0,0:0:0:0:
448,192,915511,1,0,0:0:0:0:
320,192,915511,1,0,0:0:0:0:
192,192,915586,1,0,0:0:0:0:
64,192,915586,1,0,0:0:0:0:
448,192,915661,1,0,0:0:0:0:
320,192,915661,1,0,0:0:0:0:
192,192,915736,1,0,0:0:0:0:
64,192,915736,1,0,0:0:0:0:
320,192,915886,1,0,0:0:0:0:
192,192,915886,1,0,0:0:0:0:
320,192,916036,1,0,0:0:0:0:
448,192,916036,1,0,0:0:0:0:
448,192,916186,1,0,0:0:0:0:
64,192,916186,1,0,0:0:0:0:
192,192,916186,1,0,0:0:0:0:
320,192,916261,1,0,0:0:0:0:
192,192,916336,1,0,0:0:0:0:
64,192,916336,1,0,0:0:0:0:
320,192,916411,1,0,0:0:0:0:
448,192,916486,1,0,0:0:0:0:
192,192,916486,1,0,0:0:0:0:
320,192,916561,1,0,0:0:0:0:
192,192,916636,1,0,0:0:0:0:
448,192,916636,1,0,0:0:0:0:
64,192,916636,1,0,0:0:0:0:
320,192,916711,1,0,0:0:0:0:
192,192,916786,1,0,0:0:0:0:
448,192,916786,1,0,0:0:0:0:
64,192,916861,1,0,0:0:0:0:
448,192,916936,1,0,0:0:0:0:
320,192,916936,1,0,0:0:0:0:
320,192,917086,1,0,0:0:0:0:
192,192,917086,1,0,0:0:0:0:
320,192,917236,1,0,0:0:0:0:
64,192,917236,1,0,0:0:0:0:
448,192,917386,1,0,0:0:0:0:
64,192,917386,1,0,0:0:0:0:
192,192,917386,1,0,0:0:0:0:
320,192,917461,1,0,0:0:0:0:
192,192,917536,1,0,0:0:0:0:
448,192,917536,1,0,0:0:0:0:
320,192,917611,1,0,0:0:0:0:
448,192,917686,1,0,0:0:0:0:
192,192,917686,1,0,0:0:0:0:
320,192,917761,1,0,0:0:0:0:
192,192,917836,1,0,0:0:0:0:
64,192,917836,1,0,0:0:0:0:
320,192,917911,1,0,0:0:0:0:
448,192,917911,1,0,0:0:0:0:
192,192,917986,1,0,0:0:0:0:
64,192,917986,1,0,0:0:0:0:
320,192,918061,1,0,0:0:0:0:
448,192,918061,1,0,0:0:0:0:
64,192,918136,1,0,0:0:0:0:
192,192,918136,1,0,0:0:0:0:
320,192,918286,1,0,0:0:0:0:
192,192,918286,1,0,0:0:0:0:
320,192,918436,1,0,0:0:0:0:
64,192,918436,1,0,0:0:0:0:
448,192,918586,1,0,0:0:0:0:
192,192,918586,1,0,0:0:0:0:
64,192,918586,1,0,0:0:0:0:
320,192,918661,1,0,0:0:0:0:
192,192,918736,1,0,0:0:0:0:
448,192,918736,1,0,0:0:0:0:
320,192,918811,1,0,0:0:0:0:
448,192,918886,1,0,0:0:0:0:
192,192,918886,1,0,0:0:0:0:
64,192,918961,1,0,0:0:0:0:
192,192,919036,1,0,0:0:0:0:
448,192,919036,1,0,0:0:0:0:
320,192,919036,1,0,0:0:0:0:
64,192,919111,1,0,0:0:0:0:
192,192,919186,1,0,0:0:0:0:
320,192,919186,1,0,0:0:0:0:
64,192,919261,1,0,0:0:0:0:
192,192,919336,1,0,0:0:0:0:
448,192,919336,1,0,0:0:0:0:
320,192,919486,1,0,0:0:0:0:
192,192,919486,1,0,0:0:0:0:
320,192,919636,1,0,0:0:0:0:
64,192,919636,1,0,0:0:0:0:
448,192,919636,1,0,0:0:0:0:
448,192,919786,1,0,0:0:0:0:
192,192,919786,1,0,0:0:0:0:
320,192,919861,1,0,0:0:0:0:
192,192,919936,1,0,0:0:0:0:
64,192,919936,1,0,0:0:0:0:
448,192,919936,1,0,0:0:0:0:
320,192,920011,1,0,0:0:0:0:
448,192,920086,1,0,0:0:0:0:
192,192,920086,1,0,0:0:0:0:
320,192,920161,1,0,0:0:0:0:
192,192,920236,1,0,0:0:0:0:
64,192,920236,1,0,0:0:0:0:
320,192,920311,1,0,0:0:0:0:
448,192,920311,1,0,0:0:0:0:
192,192,920386,1,0,0:0:0:0:
64,192,920386,1,0,0:0:0:0:
320,192,920461,1,0,0:0:0:0:
448,192,920461,1,0,0:0:0:0:
64,192,920536,1,0,0:0:0:0:
192,192,920536,1,0,0:0:0:0:
448,192,920686,1,0,0:0:0:0:
192,192,920686,1,0,0:0:0:0:
320,192,920761,1,0,0:0:0:0:
192,192,920836,1,0,0:0:0:0:
64,192,920836,1,0,0:0:0:0:
320,192,920911,1,0,0:0:0:0:
192,192,920986,1,0,0:0:0:0:
448,192,920986,1,0,0:0:0:0:
64,192,921061,1,0,0:0:0:0:
192,192,921136,1,0,0:0:0:0:
448,192,921136,1,0,0:0:0:0:
320,192,921211,1,0,0:0:0:0:
192,192,921286,1,0,0:0:0:0:
64,192,921286,1,0,0:0:0:0:
320,192,921361,1,0,0:0:0:0:
448,192,921436,1,0,0:0:0:0:
64,192,921436,1,0,0:0:0:0:
320,192,921511,1,0,0:0:0:0:
192,192,921586,1,0,0:0:0:0:
448,192,921586,1,0,0:0:0:0:
64,192,921661,1,0,0:0:0:0:
448,192,921736,1,0,0:0:0:0:
192,192,921736,1,0,0:0:0:0:
320,192,921811,1,0,0:0:0:0:
192,192,921886,1,0,0:0:0:0:
64,192,921886,1,0,0:0:0:0:
320,192,921961,1,0,0:0:0:0:
192,192,922036,1,0,0:0:0:0:
448,192,922036,1,0,0:0:0:0:
64,192,922111,1,0,0:0:0:0:
192,192,922186,1,0,0:0:0:0:
448,192,922186,1,0,0:0:0:0:
320,192,922261,1,0,0:0:0:0:
448,192,922336,1,0,0:0:0:0:
64,192,922336,1,0,0:0:0:0:
320,192,922411,1,0,0:0:0:0:
192,192,922486,1,0,0:0:0:0:
448,192,922486,1,0,0:0:0:0:
320,192,922561,1,0,0:0:0:0:
448,192,922636,1,0,0:0:0:0:
64,192,922636,1,0,0:0:0:0:
320,192,922711,1,0,0:0:0:0:
192,192,922786,1,0,0:0:0:0:
448,192,922786,1,0,0:0:0:0:
64,192,922861,1,0,0:0:0:0:
320,192,922936,1,0,0:0:0:0:
192,192,922936,1,0,0:0:0:0:
448,192,923086,1,0,0:0:0:0:
64,192,923086,1,0,0:0:0:0:
320,192,923161,1,0,0:0:0:0:
192,192,923236,1,0,0:0:0:0:
448,192,923236,1,0,0:0:0:0:
64,192,923311,1,0,0:0:0:0:
192,192,923386,1,0,0:0:0:0:
448,192,923386,1,0,0:0:0:0:
320,192,923461,1,0,0:0:0:0:
448,192,923536,1,0,0:0:0:0:
64,192,923536,1,0,0:0:0:0:
320,192,923611,1,0,0:0:0:0:
192,192,923686,1,0,0:0:0:0:
64,192,923686,1,0,0:0:0:0:
320,192,923761,1,0,0:0:0:0:
448,192,923836,1,0,0:0:0:0:
192,192,923836,1,0,0:0:0:0:
320,192,923911,1,0,0:0:0:0:
192,192,923986,1,0,0:0:0:0:
448,192,923986,1,0,0:0:0:0:
64,192,924061,1,0,0:0:0:0:
448,192,924136,1,0,0:0:0:0:
192,192,924136,1,0,0:0:0:0:
320,192,924211,1,0,0:0:0:0:
192,192,924286,1,0,0:0:0:0:
64,192,924286,1,0,0:0:0:0:
320,192,924361,1,0,0:0:0:0:
448,192,924436,1,0,0:0:0:0:
192,192,924436,1,0,0:0:0:0:
320,192,924511,1,0,0:0:0:0:
192,192,924586,1,0,0:0:0:0:
448,192,924586,1,0,0:0:0:0:
320,192,924661,1,0,0:0:0:0:
192,192,924736,1,0,0:0:0:0:
448,192,924736,1,0,0:0:0:0:
64,192,924811,1,0,0:0:0:0:
192,192,924886,1,0,0:0:0:0:
448,192,924886,1,0,0:0:0:0:
320,192,924961,1,0,0:0:0:0:
448,192,925036,1,0,0:0:0:0:
64,192,925036,1,0,0:0:0:0:
320,192,925111,1,0,0:0:0:0:
192,192,925186,1,0,0:0:0:0:
448,192,925186,1,0,0:0:0:0:
64,192,925261,1,0,0:0:0:0:
448,192,925336,1,0,0:0:0:0:
320,192,925336,128,0,925936:0:0:0:0:
192,192,925336,1,0,0:0:0:0:
64,192,925411,1,0,0:0:0:0:
192,192,925486,1,0,0:0:0:0:
448,192,925561,1,0,0:0:0:0:
192,192,925636,1,0,0:0:0:0:
448,192,925711,1,0,0:0:0:0:
192,192,925786,1,0,0:0:0:0:
64,192,925861,1,0,0:0:0:0:
448,192,925936,1,0,0:0:0:0:
192,192,925936,128,0,926536:0:0:0:0:
64,192,926011,1,0,0:0:0:0:
320,192,926086,1,0,0:0:0:0:
448,192,926161,1,0,0:0:0:0:
64,192,926236,1,0,0:0:0:0:
320,192,926311,1,0,0:0:0:0:
448,192,926386,1,0,0:0:0:0:
320,192,926461,1,0,0:0:0:0:
448,192,926536,1,0,0:0:0:0:
64,192,926536,128,0,927136:0:0:0:0:
320,192,926611,1,0,0:0:0:0:
192,192,926686,1,0,0:0:0:0:
448,192,926761,1,0,0:0:0:0:
320,192,926836,1,0,0:0:0:0:
192,192,926911,1,0,0:0:0:0:
320,192,926986,1,0,0:0:0:0:
192,192,927061,1,0,0:0:0:0:
448,192,927136,1,0,0:0:0:0:
320,192,927136,128,0,927736:0:0:0:0:
192,192,927211,1,0,0:0:0:0:
64,192,927286,1,0,0:0:0:0:
192,192,927361,1,0,0:0:0:0:
448,192,927436,1,0,0:0:0:0:
64,192,927511,1,0,0:0:0:0:
192,192,927586,1,0,0:0:0:0:
64,192,927661,1,0,0:0:0:0:
448,192,927736,1,0,0:0:0:0:
192,192,927736,128,0,930136:0:0:0:0:
320,192,927886,1,0,0:0:0:0:
320,192,928036,1,0,0:0:0:0:
448,192,928186,1,0,0:0:0:0:
64,192,928336,1,0,0:0:0:0:
64,192,928486,1,0,0:0:0:0:
64,192,928636,1,0,0:0:0:0:
64,192,928786,1,0,0:0:0:0:
448,192,928936,1,0,0:0:0:0:
320,192,928936,1,0,0:0:0:0:
320,192,929086,1,0,0:0:0:0:
320,192,929236,1,0,0:0:0:0:
448,192,929386,1,0,0:0:0:0:
64,192,929536,1,0,0:0:0:0:
64,192,929686,1,0,0:0:0:0:
64,192,929836,1,0,0:0:0:0:
64,192,929986,1,0,0:0:0:0:
448,192,930136,1,0,0:0:0:0:
64,192,930136,128,0,930736:0:0:0:0:
320,192,930211,1,0,0:0:0:0:
192,192,930286,1,0,0:0:0:0:
448,192,930361,1,0,0:0:0:0:
320,192,930436,1,0,0:0:0:0:
192,192,930511,1,0,0:0:0:0:
448,192,930586,1,0,0:0:0:0:
320,192,930661,1,0,0:0:0:0:
448,192,930736,1,0,0:0:0:0:
192,192,930736,128,0,931336:0:0:0:0:
320,192,930811,1,0,0:0:0:0:
64,192,930886,1,0,0:0:0:0:
320,192,930961,1,0,0:0:0:0:
448,192,931036,1,0,0:0:0:0:
64,192,931111,1,0,0:0:0:0:
320,192,931186,1,0,0:0:0:0:
64,192,931261,1,0,0:0:0:0:
448,192,931336,1,0,0:0:0:0:
320,192,931336,128,0,931936:0:0:0:0:
64,192,931411,1,0,0:0:0:0:
192,192,931486,1,0,0:0:0:0:
448,192,931561,1,0,0:0:0:0:
192,192,931636,1,0,0:0:0:0:
64,192,931711,1,0,0:0:0:0:
192,192,931786,1,0,0:0:0:0:
448,192,931861,1,0,0:0:0:0:
64,192,931936,128,0,932536:0:0:0:0:
192,192,931936,1,0,0:0:0:0:
448,192,932011,1,0,0:0:0:0:
320,192,932086,1,0,0:0:0:0:
192,192,932161,1,0,0:0:0:0:
448,192,932236,1,0,0:0:0:0:
320,192,932311,1,0,0:0:0:0:
192,192,932386,1,0,0:0:0:0:
448,192,932461,1,0,0:0:0:0:
320,192,932536,128,0,933736:0:0:0:0:
192,192,932536,1,0,0:0:0:0:
192,192,932686,1,0,0:0:0:0:
192,192,932836,1,0,0:0:0:0:
64,192,932836,1,0,0:0:0:0:
448,192,932986,1,0,0:0:0:0:
64,192,933136,1,0,0:0:0:0:
192,192,933136,1,0,0:0:0:0:
64,192,933286,1,0,0:0:0:0:
64,192,933436,1,0,0:0:0:0:
192,192,933436,1,0,0:0:0:0:
64,192,933586,1,0,0:0:0:0:
448,192,933736,1,0,0:0:0:0:
192,192,933736,128,0,934936:0:0:0:0:
64,192,933736,1,0,0:0:0:0:
320,192,933886,1,0,0:0:0:0:
320,192,934036,1,0,0:0:0:0:
448,192,934036,1,0,0:0:0:0:
64,192,934186,1,0,0:0:0:0:
320,192,934336,1,0,0:0:0:0:
448,192,934336,1,0,0:0:0:0:
64,192,934486,1,0,0:0:0:0:
320,192,934636,1,0,0:0:0:0:
448,192,934636,1,0,0:0:0:0:
64,192,934786,1,0,0:0:0:0:
448,192,934786,1,0,0:0:0:0:
320,192,934861,1,0,0:0:0:0:
448,192,934936,1,0,0:0:0:0:
64,192,934936,1,0,0:0:0:0:
320,192,935086,1,0,0:0:0:0:
192,192,935236,1,0,0:0:0:0:
320,192,935386,1,0,0:0:0:0:
64,192,935536,1,0,0:0:0:0:
192,192,935536,1,0,0:0:0:0:
448,192,935536,1,0,0:0:0:0:
320,192,935686,1,0,0:0:0:0:
192,192,935761,1,0,0:0:0:0:
448,192,935836,1,0,0:0:0:0:
64,192,935836,1,0,0:0:0:0:
320,192,935836,1,0,0:0:0:0:
192,192,935986,1,0,0:0:0:0:
448,192,936136,1,0,0:0:0:0:
64,192,936136,1,0,0:0:0:0:
320,192,936136,1,0,0:0:0:0:
320,192,936286,1,0,0:0:0:0:
192,192,936286,1,0,0:0:0:0:
64,192,936436,1,0,0:0:0:0:
448,192,936436,1,0,0:0:0:0:
192,192,936436,1,0,0:0:0:0:
320,192,936586,1,0,0:0:0:0:
64,192,936736,1,0,0:0:0:0:
320,192,936736,1,0,0:0:0:0:
448,192,936736,1,0,0:0:0:0:
192,192,936811,1,0,0:0:0:0:
320,192,936886,1,0,0:0:0:0:
448,192,936961,1,0,0:0:0:0:
192,192,937036,1,0,0:0:0:0:
320,192,937111,1,0,0:0:0:0:
192,192,937186,1,0,0:0:0:0:
320,192,937261,1,0,0:0:0:0:
448,192,937336,1,0,0:0:0:0:
64,192,937336,1,0,0:0:0:0:
192,192,937336,1,0,0:0:0:0:
320,192,937486,1,0,0:0:0:0:
64,192,937486,1,0,0:0:0:0:
192,192,937636,1,0,0:0:0:0:
320,192,937786,1,0,0:0:0:0:
448,192,937936,1,0,0:0:0:0:
64,192,937936,1,0,0:0:0:0:
192,192,938086,1,0,0:0:0:0:
448,192,938236,1,0,0:0:0:0:
320,192,938236,1,0,0:0:0:0:
192,192,938386,1,0,0:0:0:0:
448,192,938536,1,0,0:0:0:0:
320,192,938536,1,0,0:0:0:0:
64,192,938536,1,0,0:0:0:0:
448,192,938686,1,0,0:0:0:0:
64,192,938686,1,0,0:0:0:0:
192,192,938686,1,0,0:0:0:0:
320,192,938836,1,0,0:0:0:0:
192,192,938836,1,0,0:0:0:0:
448,192,938986,1,0,0:0:0:0:
64,192,939136,1,0,0:0:0:0:
320,192,939136,1,0,0:0:0:0:
192,192,939136,1,0,0:0:0:0:
448,192,939286,1,0,0:0:0:0:
320,192,939436,1,0,0:0:0:0:
64,192,939436,1,0,0:0:0:0:
448,192,939511,1,0,0:0:0:0:
320,192,939586,1,0,0:0:0:0:
448,192,939661,1,0,0:0:0:0:
320,192,939736,1,0,0:0:0:0:
64,192,939736,1,0,0:0:0:0:
192,192,939736,1,0,0:0:0:0:
448,192,939886,1,0,0:0:0:0:
64,192,940036,1,0,0:0:0:0:
448,192,940186,1,0,0:0:0:0:
192,192,940186,1,0,0:0:0:0:
320,192,940336,1,0,0:0:0:0:
64,192,940486,1,0,0:0:0:0:
448,192,940636,1,0,0:0:0:0:
192,192,940636,1,0,0:0:0:0:
64,192,940786,1,0,0:0:0:0:
320,192,940786,1,0,0:0:0:0:
192,192,940936,1,0,0:0:0:0:
448,192,940936,1,0,0:0:0:0:
320,192,941086,1,0,0:0:0:0:
64,192,941086,1,0,0:0:0:0:
448,192,941236,1,0,0:0:0:0:
320,192,941236,1,0,0:0:0:0:
448,192,941386,1,0,0:0:0:0:
192,192,941386,1,0,0:0:0:0:
320,192,941536,1,0,0:0:0:0:
64,192,941536,1,0,0:0:0:0:
448,192,941686,1,0,0:0:0:0:
192,192,941686,1,0,0:0:0:0:
448,192,941836,1,0,0:0:0:0:
64,192,941836,1,0,0:0:0:0:
192,192,941911,1,0,0:0:0:0:
320,192,941986,1,0,0:0:0:0:
64,192,941986,1,0,0:0:0:0:
192,192,942061,1,0,0:0:0:0:
320,192,942136,1,0,0:0:0:0:
64,192,942136,1,0,0:0:0:0:
448,192,942286,1,0,0:0:0:0:
192,192,942436,1,0,0:0:0:0:
64,192,942586,1,0,0:0:0:0:
320,192,942736,1,0,0:0:0:0:
448,192,942736,1,0,0:0:0:0:
192,192,942811,1,0,0:0:0:0:
320,192,942886,1,0,0:0:0:0:
64,192,942886,1,0,0:0:0:0:
448,192,943036,1,0,0:0:0:0:
320,192,943186,1,0,0:0:0:0:
64,192,943186,1,0,0:0:0:0:
192,192,943261,1,0,0:0:0:0:
320,192,943336,1,0,0:0:0:0:
448,192,943336,1,0,0:0:0:0:
64,192,943486,1,0,0:0:0:0:
192,192,943636,1,0,0:0:0:0:
320,192,943786,1,0,0:0:0:0:
192,192,943936,1,0,0:0:0:0:
64,192,943936,1,0,0:0:0:0:
320,192,944011,1,0,0:0:0:0:
448,192,944086,1,0,0:0:0:0:
64,192,944086,1,0,0:0:0:0:
192,192,944161,1,0,0:0:0:0:
320,192,944236,1,0,0:0:0:0:
64,192,944236,1,0,0:0:0:0:
448,192,944311,1,0,0:0:0:0:
192,192,944311,1,0,0:0:0:0:
320,192,944386,1,0,0:0:0:0:
64,192,944386,1,0,0:0:0:0:
448,192,944461,1,0,0:0:0:0:
320,192,944536,1,0,0:0:0:0:
192,192,944536,1,0,0:0:0:0:
64,192,944686,1,0,0:0:0:0:
320,192,944836,1,0,0:0:0:0:
448,192,944986,1,0,0:0:0:0:
192,192,944986,1,0,0:0:0:0:
64,192,945136,1,0,0:0:0:0:
320,192,945286,1,0,0:0:0:0:
192,192,945436,1,0,0:0:0:0:
64,192,945436,1,0,0:0:0:0:
448,192,945586,1,0,0:0:0:0:
192,192,945586,1,0,0:0:0:0:
64,192,945736,1,0,0:0:0:0:
320,192,945736,1,0,0:0:0:0:
448,192,945886,1,0,0:0:0:0:
64,192,946036,1,0,0:0:0:0:
192,192,946036,1,0,0:0:0:0:
320,192,946186,1,0,0:0:0:0:
448,192,946336,1,0,0:0:0:0:
192,192,946336,1,0,0:0:0:0:
320,192,946486,1,0,0:0:0:0:
64,192,946636,1,0,0:0:0:0:
192,192,946636,1,0,0:0:0:0:
320,192,946711,1,0,0:0:0:0:
192,192,946786,1,0,0:0:0:0:
320,192,946861,1,0,0:0:0:0:
448,192,946936,1,0,0:0:0:0:
64,192,946936,1,0,0:0:0:0:
192,192,946936,1,0,0:0:0:0:
320,192,947086,1,0,0:0:0:0:
64,192,947236,1,0,0:0:0:0:
192,192,947386,1,0,0:0:0:0:
448,192,947536,1,0,0:0:0:0:
320,192,947536,1,0,0:0:0:0:
64,192,947536,1,0,0:0:0:0:
320,192,947686,1,0,0:0:0:0:
192,192,947836,1,0,0:0:0:0:
64,192,947986,1,0,0:0:0:0:
448,192,948136,1,0,0:0:0:0:
320,192,948136,1,0,0:0:0:0:
192,192,948136,1,0,0:0:0:0:
448,192,948286,1,0,0:0:0:0:
320,192,948436,1,0,0:0:0:0:
192,192,948586,1,0,0:0:0:0:
448,192,948736,1,0,0:0:0:0:
320,192,948736,1,0,0:0:0:0:
64,192,948736,1,0,0:0:0:0:
192,192,948811,1,0,0:0:0:0:
64,192,948886,1,0,0:0:0:0:
320,192,948886,1,0,0:0:0:0:
192,192,948961,1,0,0:0:0:0:
448,192,949036,1,0,0:0:0:0:
64,192,949036,1,0,0:0:0:0:
320,192,949111,1,0,0:0:0:0:
192,192,949111,1,0,0:0:0:0:
448,192,949186,1,0,0:0:0:0:
64,192,949186,1,0,0:0:0:0:
320,192,949261,1,0,0:0:0:0:
448,192,949336,1,0,0:0:0:0:
64,192,949336,1,0,0:0:0:0:
192,192,949336,1,0,0:0:0:0:
320,192,949411,1,0,0:0:0:0:
448,192,949486,1,0,0:0:0:0:
192,192,949486,1,0,0:0:0:0:
64,192,949561,1,0,0:0:0:0:
320,192,949636,1,0,0:0:0:0:
448,192,949636,1,0,0:0:0:0:
320,192,949786,1,0,0:0:0:0:
448,192,949786,1,0,0:0:0:0:
192,192,949861,1,0,0:0:0:0:
320,192,949936,1,0,0:0:0:0:
64,192,949936,1,0,0:0:0:0:
448,192,949936,1,0,0:0:0:0:
192,192,950011,1,0,0:0:0:0:
320,192,950086,1,0,0:0:0:0:
64,192,950086,1,0,0:0:0:0:
64,192,950236,1,0,0:0:0:0:
448,192,950236,1,0,0:0:0:0:
192,192,950236,1,0,0:0:0:0:
320,192,950311,1,0,0:0:0:0:
64,192,950386,1,0,0:0:0:0:
448,192,950386,1,0,0:0:0:0:
192,192,950386,1,0,0:0:0:0:
320,192,950461,1,0,0:0:0:0:
64,192,950536,1,0,0:0:0:0:
448,192,950536,1,0,0:0:0:0:
192,192,950536,1,0,0:0:0:0:
320,192,950686,1,0,0:0:0:0:
448,192,950686,1,0,0:0:0:0:
64,192,950686,1,0,0:0:0:0:
192,192,950761,1,0,0:0:0:0:
320,192,950836,1,0,0:0:0:0:
448,192,950836,1,0,0:0:0:0:
64,192,950836,1,0,0:0:0:0:
192,192,950911,1,0,0:0:0:0:
320,192,950986,1,0,0:0:0:0:
448,192,950986,1,0,0:0:0:0:
64,192,950986,1,0,0:0:0:0:
192,192,951136,1,0,0:0:0:0:
320,192,951136,1,0,0:0:0:0:
448,192,951286,1,0,0:0:0:0:
64,192,951286,1,0,0:0:0:0:
64,192,951436,1,0,0:0:0:0:
448,192,951436,1,0,0:0:0:0:
192,192,951511,1,0,0:0:0:0:
64,192,951586,1,0,0:0:0:0:
320,192,951586,1,0,0:0:0:0:
192,192,951661,1,0,0:0:0:0:
320,192,951736,1,0,0:0:0:0:
448,192,951736,1,0,0:0:0:0:
64,192,951736,1,0,0:0:0:0:
192,192,951811,1,0,0:0:0:0:
320,192,951886,1,0,0:0:0:0:
448,192,951886,1,0,0:0:0:0:
192,192,952036,1,0,0:0:0:0:
320,192,952186,1,0,0:0:0:0:
64,192,952186,1,0,0:0:0:0:
192,192,952261,1,0,0:0:0:0:
320,192,952336,1,0,0:0:0:0:
448,192,952336,1,0,0:0:0:0:
192,192,952486,1,0,0:0:0:0:
320,192,952636,1,0,0:0:0:0:
448,192,952636,1,0,0:0:0:0:
64,192,952636,1,0,0:0:0:0:
192,192,952711,1,0,0:0:0:0:
320,192,952786,1,0,0:0:0:0:
448,192,952786,1,0,0:0:0:0:
64,192,952786,1,0,0:0:0:0:
64,192,952936,1,0,0:0:0:0:
320,192,952936,1,0,0:0:0:0:
192,192,953011,1,0,0:0:0:0:
320,192,953086,1,0,0:0:0:0:
448,192,953086,1,0,0:0:0:0:
192,192,953161,1,0,0:0:0:0:
64,192,953236,1,0,0:0:0:0:
448,192,953236,1,0,0:0:0:0:
320,192,953311,1,0,0:0:0:0:
192,192,953386,1,0,0:0:0:0:
448,192,953386,1,0,0:0:0:0:
64,192,953461,1,0,0:0:0:0:
320,192,953536,1,0,0:0:0:0:
448,192,953536,1,0,0:0:0:0:
192,192,953611,1,0,0:0:0:0:
64,192,953686,1,0,0:0:0:0:
320,192,953686,1,0,0:0:0:0:
448,192,953761,1,0,0:0:0:0:
64,192,953836,1,0,0:0:0:0:
320,192,953836,1,0,0:0:0:0:
192,192,953911,1,0,0:0:0:0:
320,192,953986,1,0,0:0:0:0:
448,192,953986,1,0,0:0:0:0:
64,192,954136,1,0,0:0:0:0:
192,192,954136,1,0,0:0:0:0:
320,192,954211,1,0,0:0:0:0:
448,192,954211,1,0,0:0:0:0:
64,192,954286,1,0,0:0:0:0:
192,192,954286,1,0,0:0:0:0:
320,192,954361,1,0,0:0:0:0:
448,192,954361,1,0,0:0:0:0:
192,192,954436,1,0,0:0:0:0:
64,192,954436,1,0,0:0:0:0:
320,192,954736,1,0,0:0:0:0:
448,192,954736,1,0,0:0:0:0:
64,192,954811,1,0,0:0:0:0:
192,192,954811,1,0,0:0:0:0:
320,192,954886,1,0,0:0:0:0:
448,192,954886,1,0,0:0:0:0:
64,192,954961,1,0,0:0:0:0:
192,192,954961,1,0,0:0:0:0:
320,192,955036,1,0,0:0:0:0:
448,192,955036,1,0,0:0:0:0:
64,192,955336,1,0,0:0:0:0:
192,192,955336,1,0,0:0:0:0:
320,192,955411,1,0,0:0:0:0:
448,192,955411,1,0,0:0:0:0:
64,192,955486,1,0,0:0:0:0:
192,192,955486,1,0,0:0:0:0:
320,192,955561,1,0,0:0:0:0:
448,192,955561,1,0,0:0:0:0:
64,192,955636,1,0,0:0:0:0:
192,192,955636,1,0,0:0:0:0:
448,192,955936,1,0,0:0:0:0:
320,192,955936,1,0,0:0:0:0:
64,192,956011,1,0,0:0:0:0:
192,192,956011,1,0,0:0:0:0:
320,192,956086,1,0,0:0:0:0:
448,192,956086,1,0,0:0:0:0:
64,192,956161,1,0,0:0:0:0:
192,192,956161,1,0,0:0:0:0:
320,192,956236,1,0,0:0:0:0:
448,192,956236,1,0,0:0:0:0:
64,192,956536,1,0,0:0:0:0:
448,192,956536,1,0,0:0:0:0:
192,192,956536,1,0,0:0:0:0:
320,192,956686,1,0,0:0:0:0:
192,192,956686,1,0,0:0:0:0:
64,192,956836,1,0,0:0:0:0:
448,192,956836,1,0,0:0:0:0:
320,192,956836,1,0,0:0:0:0:
320,192,956986,1,0,0:0:0:0:
192,192,956986,1,0,0:0:0:0:
64,192,957136,1,0,0:0:0:0:
448,192,957136,1,0,0:0:0:0:
192,192,957136,1,0,0:0:0:0:
192,192,957286,1,0,0:0:0:0:
320,192,957286,1,0,0:0:0:0:
448,192,957436,1,0,0:0:0:0:
64,192,957436,1,0,0:0:0:0:
320,192,957436,1,0,0:0:0:0:
192,192,957586,1,0,0:0:0:0:
320,192,957586,1,0,0:0:0:0:
64,192,957736,1,0,0:0:0:0:
448,192,957736,1,0,0:0:0:0:
192,192,957811,1,0,0:0:0:0:
320,192,957886,1,0,0:0:0:0:
448,192,957961,1,0,0:0:0:0:
64,192,958036,1,0,0:0:0:0:
192,192,958111,1,0,0:0:0:0:
320,192,958186,1,0,0:0:0:0:
448,192,958261,1,0,0:0:0:0:
64,192,958336,1,0,0:0:0:0:
192,192,958411,1,0,0:0:0:0:
320,192,958486,1,0,0:0:0:0:
448,192,958561,1,0,0:0:0:0:
64,192,958636,1,0,0:0:0:0:
192,192,958711,1,0,0:0:0:0:
320,192,958786,1,0,0:0:0:0:
448,192,958861,1,0,0:0:0:0:
320,192,958936,1,0,0:0:0:0:
64,192,958936,1,0,0:0:0:0:
192,192,958936,1,0,0:0:0:0:
448,192,959011,1,0,0:0:0:0:
320,192,959086,1,0,0:0:0:0:
192,192,959161,1,0,0:0:0:0:
448,192,959236,1,0,0:0:0:0:
320,192,959236,1,0,0:0:0:0:
64,192,959236,1,0,0:0:0:0:
192,192,959311,1,0,0:0:0:0:
320,192,959386,1,0,0:0:0:0:
448,192,959461,1,0,0:0:0:0:
320,192,959536,1,0,0:0:0:0:
192,192,959536,1,0,0:0:0:0:
64,192,959536,1,0,0:0:0:0:
448,192,959611,1,0,0:0:0:0:
320,192,959686,1,0,0:0:0:0:
192,192,959761,1,0,0:0:0:0:
64,192,959836,1,0,0:0:0:0:
448,192,959836,1,0,0:0:0:0:
320,192,959836,1,0,0:0:0:0:
192,192,959911,1,0,0:0:0:0:
320,192,959986,1,0,0:0:0:0:
448,192,960061,1,0,0:0:0:0:
320,192,960136,1,0,0:0:0:0:
192,192,960136,1,0,0:0:0:0:
64,192,960136,1,0,0:0:0:0:
448,192,960211,1,0,0:0:0:0:
320,192,960286,1,0,0:0:0:0:
192,192,960361,1,0,0:0:0:0:
64,192,960436,1,0,0:0:0:0:
320,192,960436,1,0,0:0:0:0:
192,192,960511,1,0,0:0:0:0:
320,192,960586,1,0,0:0:0:0:
448,192,960661,1,0,0:0:0:0:
320,192,960736,1,0,0:0:0:0:
64,192,960736,1,0,0:0:0:0:
192,192,960811,1,0,0:0:0:0:
320,192,960886,1,0,0:0:0:0:
192,192,960961,1,0,0:0:0:0:
64,192,961036,1,0,0:0:0:0:
320,192,961036,1,0,0:0:0:0:
448,192,961111,1,0,0:0:0:0:
64,192,961186,1,0,0:0:0:0:
192,192,961186,1,0,0:0:0:0:
320,192,961261,1,0,0:0:0:0:
448,192,961336,1,0,0:0:0:0:
192,192,961336,1,0,0:0:0:0:
64,192,961336,1,0,0:0:0:0:
320,192,961411,1,0,0:0:0:0:
192,192,961486,1,0,0:0:0:0:
320,192,961561,1,0,0:0:0:0:
448,192,961636,1,0,0:0:0:0:
192,192,961636,1,0,0:0:0:0:
64,192,961636,1,0,0:0:0:0:
320,192,961711,1,0,0:0:0:0:
448,192,961786,1,0,0:0:0:0:
320,192,961861,1,0,0:0:0:0:
448,192,961936,1,0,0:0:0:0:
64,192,961936,1,0,0:0:0:0:
192,192,961936,1,0,0:0:0:0:
320,192,962011,1,0,0:0:0:0:
192,192,962086,1,0,0:0:0:0:
64,192,962161,1,0,0:0:0:0:
448,192,962236,1,0,0:0:0:0:
192,192,962236,1,0,0:0:0:0:
320,192,962236,1,0,0:0:0:0:
64,192,962311,1,0,0:0:0:0:
192,192,962386,1,0,0:0:0:0:
320,192,962461,1,0,0:0:0:0:
64,192,962536,1,0,0:0:0:0:
192,192,962536,1,0,0:0:0:0:
448,192,962536,1,0,0:0:0:0:
320,192,962611,1,0,0:0:0:0:
192,192,962686,1,0,0:0:0:0:
320,192,962761,1,0,0:0:0:0:
448,192,962836,1,0,0:0:0:0:
64,192,962836,1,0,0:0:0:0:
192,192,962836,1,0,0:0:0:0:
320,192,962911,1,0,0:0:0:0:
448,192,962986,1,0,0:0:0:0:
320,192,963061,1,0,0:0:0:0:
64,192,963136,1,0,0:0:0:0:
192,192,963136,1,0,0:0:0:0:
320,192,963211,1,0,0:0:0:0:
448,192,963211,1,0,0:0:0:0:
64,192,963286,1,0,0:0:0:0:
192,192,963286,1,0,0:0:0:0:
448,192,963361,1,0,0:0:0:0:
320,192,963361,1,0,0:0:0:0:
64,192,963436,1,0,0:0:0:0:
192,192,963473,1,0,0:0:0:0:
320,192,963511,1,0,0:0:0:0:
448,192,963548,1,0,0:0:0:0:
64,192,963586,1,0,0:0:0:0:
192,192,963623,1,0,0:0:0:0:
320,192,963661,1,0,0:0:0:0:
448,192,963698,1,0,0:0:0:0:
64,192,963736,1,0,0:0:0:0:
192,192,963736,1,0,0:0:0:0:
448,192,963811,1,0,0:0:0:0:
320,192,963886,1,0,0:0:0:0:
64,192,963886,1,0,0:0:0:0:
192,192,963961,1,0,0:0:0:0:
320,192,964036,1,0,0:0:0:0:
448,192,964036,1,0,0:0:0:0:
192,192,964111,1,0,0:0:0:0:
448,192,964186,1,0,0:0:0:0:
320,192,964186,1,0,0:0:0:0:
64,192,964186,1,0,0:0:0:0:
192,192,964261,1,0,0:0:0:0:
448,192,964336,1,0,0:0:0:0:
64,192,964336,1,0,0:0:0:0:
320,192,964411,1,0,0:0:0:0:
64,192,964486,1,0,0:0:0:0:
192,192,964486,1,0,0:0:0:0:
320,192,964561,1,0,0:0:0:0:
448,192,964636,1,0,0:0:0:0:
64,192,964636,1,0,0:0:0:0:
192,192,964636,1,0,0:0:0:0:
320,192,964711,1,0,0:0:0:0:
64,192,964786,1,0,0:0:0:0:
448,192,964786,1,0,0:0:0:0:
192,192,964786,1,0,0:0:0:0:
320,192,964861,1,0,0:0:0:0:
448,192,964936,1,0,0:0:0:0:
64,192,964936,1,0,0:0:0:0:
192,192,964936,1,0,0:0:0:0:
320,192,965011,1,0,0:0:0:0:
448,192,965086,1,0,0:0:0:0:
64,192,965086,1,0,0:0:0:0:
192,192,965161,1,0,0:0:0:0:
448,192,965236,1,0,0:0:0:0:
320,192,965236,1,0,0:0:0:0:
64,192,965236,1,0,0:0:0:0:
192,192,965311,1,0,0:0:0:0:
320,192,965386,1,0,0:0:0:0:
448,192,965386,1,0,0:0:0:0:
192,192,965461,1,0,0:0:0:0:
448,192,965536,1,0,0:0:0:0:
320,192,965536,1,0,0:0:0:0:
64,192,965536,1,0,0:0:0:0:
192,192,965611,1,0,0:0:0:0:
320,192,965686,1,0,0:0:0:0:
64,192,965686,1,0,0:0:0:0:
448,192,965761,1,0,0:0:0:0:
320,192,965836,1,0,0:0:0:0:
192,192,965836,1,0,0:0:0:0:
448,192,965911,1,0,0:0:0:0:
64,192,965911,1,0,0:0:0:0:
320,192,965986,1,0,0:0:0:0:
192,192,965986,1,0,0:0:0:0:
448,192,966061,1,0,0:0:0:0:
320,192,966136,1,0,0:0:0:0:
64,192,966136,1,0,0:0:0:0:
192,192,966136,1,0,0:0:0:0:
448,192,966211,1,0,0:0:0:0:
64,192,966286,1,0,0:0:0:0:
320,192,966286,1,0,0:0:0:0:
192,192,966361,1,0,0:0:0:0:
320,192,966436,1,0,0:0:0:0:
448,192,966436,1,0,0:0:0:0:
64,192,966511,1,0,0:0:0:0:
448,192,966586,1,0,0:0:0:0:
192,192,966586,1,0,0:0:0:0:
320,192,966661,1,0,0:0:0:0:
448,192,966736,1,0,0:0:0:0:
192,192,966736,1,0,0:0:0:0:
64,192,966811,1,0,0:0:0:0:
448,192,966886,1,0,0:0:0:0:
192,192,966886,1,0,0:0:0:0:
320,192,966961,1,0,0:0:0:0:
448,192,967036,1,0,0:0:0:0:
192,192,967036,1,0,0:0:0:0:
64,192,967111,1,0,0:0:0:0:
448,192,967186,1,0,0:0:0:0:
192,192,967186,1,0,0:0:0:0:
320,192,967261,1,0,0:0:0:0:
448,192,967336,1,0,0:0:0:0:
64,192,967336,1,0,0:0:0:0:
192,192,967336,1,0,0:0:0:0:
320,192,967411,1,0,0:0:0:0:
448,192,967486,1,0,0:0:0:0:
192,192,967486,1,0,0:0:0:0:
64,192,967561,1,0,0:0:0:0:
448,192,967636,1,0,0:0:0:0:
192,192,967636,1,0,0:0:0:0:
320,192,967711,1,0,0:0:0:0:
448,192,967786,1,0,0:0:0:0:
64,192,967786,1,0,0:0:0:0:
192,192,967861,1,0,0:0:0:0:
448,192,967936,1,0,0:0:0:0:
320,192,967936,1,0,0:0:0:0:
192,192,968011,1,0,0:0:0:0:
64,192,968086,1,0,0:0:0:0:
320,192,968086,1,0,0:0:0:0:
448,192,968161,1,0,0:0:0:0:
192,192,968236,1,0,0:0:0:0:
64,192,968236,1,0,0:0:0:0:
448,192,968311,1,0,0:0:0:0:
320,192,968311,1,0,0:0:0:0:
64,192,968386,1,0,0:0:0:0:
192,192,968386,1,0,0:0:0:0:
320,192,968461,1,0,0:0:0:0:
448,192,968461,1,0,0:0:0:0:
64,192,968536,1,0,0:0:0:0:
192,192,968536,1,0,0:0:0:0:
448,192,968536,1,0,0:0:0:0:
320,192,968611,1,0,0:0:0:0:
448,192,968686,1,0,0:0:0:0:
192,192,968686,1,0,0:0:0:0:
64,192,968761,1,0,0:0:0:0:
448,192,968836,1,0,0:0:0:0:
192,192,968836,1,0,0:0:0:0:
320,192,968911,1,0,0:0:0:0:
448,192,968986,1,0,0:0:0:0:
64,192,968986,1,0,0:0:0:0:
192,192,968986,1,0,0:0:0:0:
320,192,969061,1,0,0:0:0:0:
448,192,969136,1,0,0:0:0:0:
192,192,969136,1,0,0:0:0:0:
64,192,969211,1,0,0:0:0:0:
448,192,969286,1,0,0:0:0:0:
320,192,969286,1,0,0:0:0:0:
192,192,969361,1,0,0:0:0:0:
448,192,969436,1,0,0:0:0:0:
64,192,969436,1,0,0:0:0:0:
320,192,969436,1,0,0:0:0:0:
192,192,969511,1,0,0:0:0:0:
448,192,969586,1,0,0:0:0:0:
64,192,969586,1,0,0:0:0:0:
320,192,969586,1,0,0:0:0:0:
192,192,969661,1,0,0:0:0:0:
448,192,969736,1,0,0:0:0:0:
64,192,969736,1,0,0:0:0:0:
320,192,969736,1,0,0:0:0:0:
192,192,969811,1,0,0:0:0:0:
448,192,969886,1,0,0:0:0:0:
64,192,969886,1,0,0:0:0:0:
320,192,969961,1,0,0:0:0:0:
448,192,970036,1,0,0:0:0:0:
64,192,970036,1,0,0:0:0:0:
192,192,970036,1,0,0:0:0:0:
320,192,970111,1,0,0:0:0:0:
64,192,970186,1,0,0:0:0:0:
192,192,970186,1,0,0:0:0:0:
320,192,970261,1,0,0:0:0:0:
448,192,970336,1,0,0:0:0:0:
64,192,970336,1,0,0:0:0:0:
192,192,970336,1,0,0:0:0:0:
320,192,970411,1,0,0:0:0:0:
448,192,970486,1,0,0:0:0:0:
192,192,970486,1,0,0:0:0:0:
64,192,970561,1,0,0:0:0:0:
448,192,970636,1,0,0:0:0:0:
192,192,970636,1,0,0:0:0:0:
320,192,970711,1,0,0:0:0:0:
64,192,970711,1,0,0:0:0:0:
448,192,970786,1,0,0:0:0:0:
192,192,970786,1,0,0:0:0:0:
320,192,970861,1,0,0:0:0:0:
448,192,970936,1,0,0:0:0:0:
64,192,970936,1,0,0:0:0:0:
192,192,970936,1,0,0:0:0:0:
320,192,971011,1,0,0:0:0:0:
64,192,971086,1,0,0:0:0:0:
192,192,971086,1,0,0:0:0:0:
320,192,971161,1,0,0:0:0:0:
448,192,971236,1,0,0:0:0:0:
64,192,971236,1,0,0:0:0:0:
192,192,971311,1,0,0:0:0:0:
448,192,971386,1,0,0:0:0:0:
320,192,971386,1,0,0:0:0:0:
192,192,971461,1,0,0:0:0:0:
448,192,971536,1,0,0:0:0:0:
64,192,971536,1,0,0:0:0:0:
320,192,971611,1,0,0:0:0:0:
192,192,971686,1,0,0:0:0:0:
64,192,971686,1,0,0:0:0:0:
320,192,971761,1,0,0:0:0:0:
448,192,971836,1,0,0:0:0:0:
192,192,971836,1,0,0:0:0:0:
64,192,971911,1,0,0:0:0:0:
448,192,971986,1,0,0:0:0:0:
192,192,971986,1,0,0:0:0:0:
320,192,972061,1,0,0:0:0:0:
448,192,972136,1,0,0:0:0:0:
192,192,972136,1,0,0:0:0:0:
64,192,972136,1,0,0:0:0:0:
320,192,972211,1,0,0:0:0:0:
448,192,972286,1,0,0:0:0:0:
320,192,972361,1,0,0:0:0:0:
448,192,972436,1,0,0:0:0:0:
192,192,972436,1,0,0:0:0:0:
64,192,972436,1,0,0:0:0:0:
320,192,972511,1,0,0:0:0:0:
448,192,972586,1,0,0:0:0:0:
64,192,972586,1,0,0:0:0:0:
192,192,972661,1,0,0:0:0:0:
448,192,972736,1,0,0:0:0:0:
320,192,972736,1,0,0:0:0:0:
64,192,972736,1,0,0:0:0:0:
192,192,972811,1,0,0:0:0:0:
320,192,972886,1,0,0:0:0:0:
64,192,972886,1,0,0:0:0:0:
192,192,972961,1,0,0:0:0:0:
448,192,973036,1,0,0:0:0:0:
320,192,973036,1,0,0:0:0:0:
64,192,973111,1,0,0:0:0:0:
448,192,973186,1,0,0:0:0:0:
192,192,973186,1,0,0:0:0:0:
320,192,973261,1,0,0:0:0:0:
64,192,973336,1,0,0:0:0:0:
192,192,973336,1,0,0:0:0:0:
448,192,973336,128,0,974161:0:0:0:0:
320,192,973786,128,0,974311:0:0:0:0:
64,192,973936,1,0,0:0:0:0:
192,192,973936,1,0,0:0:0:0:
448,192,974236,128,0,974461:0:0:0:0:
320,192,974386,128,0,974761:0:0:0:0:
64,192,974536,1,0,0:0:0:0:
192,192,974536,1,0,0:0:0:0:
448,192,974536,128,0,975061:0:0:0:0:
320,192,974836,128,0,975361:0:0:0:0:
64,192,975136,1,0,0:0:0:0:
192,192,975136,1,0,0:0:0:0:
448,192,975136,128,0,975736:0:0:0:0:
320,192,975436,128,0,975736:0:0:0:0:
64,192,975736,1,0,0:0:0:0:
192,192,975736,1,0,0:0:0:0:
192,192,975886,1,0,0:0:0:0:
448,192,975886,1,0,0:0:0:0:
64,192,976036,1,0,0:0:0:0:
320,192,976036,1,0,0:0:0:0:
448,192,976186,1,0,0:0:0:0:
192,192,976186,1,0,0:0:0:0:
64,192,976336,1,0,0:0:0:0:
192,192,976336,1,0,0:0:0:0:
448,192,976486,1,0,0:0:0:0:
320,192,976486,1,0,0:0:0:0:
64,192,976636,1,0,0:0:0:0:
192,192,976636,1,0,0:0:0:0:
320,192,976786,1,0,0:0:0:0:
448,192,976786,1,0,0:0:0:0:
448,192,976936,1,0,0:0:0:0:
64,192,976936,1,0,0:0:0:0:
192,192,976936,1,0,0:0:0:0:
192,192,977086,1,0,0:0:0:0:
320,192,977086,1,0,0:0:0:0:
64,192,977236,1,0,0:0:0:0:
448,192,977236,1,0,0:0:0:0:
192,192,977386,1,0,0:0:0:0:
320,192,977386,1,0,0:0:0:0:
64,192,977536,1,0,0:0:0:0:
448,192,977536,1,0,0:0:0:0:
64,192,977686,1,0,0:0:0:0:
320,192,977686,1,0,0:0:0:0:
192,192,977836,1,0,0:0:0:0:
448,192,977836,1,0,0:0:0:0:
64,192,977986,1,0,0:0:0:0:
320,192,977986,1,0,0:0:0:0:
448,192,978136,1,0,0:0:0:0:
64,192,978136,1,0,0:0:0:0:
192,192,978136,1,0,0:0:0:0:
192,192,978286,1,0,0:0:0:0:
320,192,978286,1,0,0:0:0:0:
64,192,978436,1,0,0:0:0:0:
448,192,978436,1,0,0:0:0:0:
192,192,978586,1,0,0:0:0:0:
320,192,978586,1,0,0:0:0:0:
448,192,978736,1,0,0:0:0:0:
64,192,978736,1,0,0:0:0:0:
192,192,978736,1,0,0:0:0:0:
64,192,978886,1,0,0:0:0:0:
320,192,978886,1,0,0:0:0:0:
448,192,979036,1,0,0:0:0:0:
320,192,979036,1,0,0:0:0:0:
192,192,979036,1,0,0:0:0:0:
64,192,979186,1,0,0:0:0:0:
448,192,979186,1,0,0:0:0:0:
64,192,979336,1,0,0:0:0:0:
320,192,979336,1,0,0:0:0:0:
192,192,979336,1,0,0:0:0:0:
448,192,979486,1,0,0:0:0:0:
320,192,979486,1,0,0:0:0:0:
448,192,979636,1,0,0:0:0:0:
64,192,979636,1,0,0:0:0:0:
192,192,979636,1,0,0:0:0:0:
192,192,979786,1,0,0:0:0:0:
320,192,979786,1,0,0:0:0:0:
448,192,979936,1,0,0:0:0:0:
64,192,979936,1,0,0:0:0:0:
320,192,979936,1,0,0:0:0:0:
64,192,980086,1,0,0:0:0:0:
192,192,980086,1,0,0:0:0:0:
448,192,980236,1,0,0:0:0:0:
320,192,980236,1,0,0:0:0:0:
64,192,980236,1,0,0:0:0:0:
192,192,980311,1,0,0:0:0:0:
448,192,980386,1,0,0:0:0:0:
320,192,980386,1,0,0:0:0:0:
192,192,980461,1,0,0:0:0:0:
448,192,980536,1,0,0:0:0:0:
64,192,980536,1,0,0:0:0:0:
320,192,980536,1,0,0:0:0:0:
320,192,980686,1,0,0:0:0:0:
192,192,980686,1,0,0:0:0:0:
64,192,980836,1,0,0:0:0:0:
448,192,980836,1,0,0:0:0:0:
192,192,980986,1,0,0:0:0:0:
320,192,980986,1,0,0:0:0:0:
448,192,981136,1,0,0:0:0:0:
64,192,981136,1,0,0:0:0:0:
320,192,981136,1,0,0:0:0:0:
192,192,981286,1,0,0:0:0:0:
448,192,981286,1,0,0:0:0:0:
320,192,981436,1,0,0:0:0:0:
64,192,981436,1,0,0:0:0:0:
192,192,981436,1,0,0:0:0:0:
320,192,981586,1,0,0:0:0:0:
448,192,981586,1,0,0:0:0:0:
448,192,981736,1,0,0:0:0:0:
64,192,981736,1,0,0:0:0:0:
192,192,981736,1,0,0:0:0:0:
192,192,981886,1,0,0:0:0:0:
320,192,981886,1,0,0:0:0:0:
448,192,982036,1,0,0:0:0:0:
64,192,982036,1,0,0:0:0:0:
320,192,982036,1,0,0:0:0:0:
448,192,982186,1,0,0:0:0:0:
192,192,982186,1,0,0:0:0:0:
192,192,982336,1,0,0:0:0:0:
64,192,982336,1,0,0:0:0:0:
320,192,982336,1,0,0:0:0:0:
64,192,982486,1,0,0:0:0:0:
448,192,982486,1,0,0:0:0:0:
448,192,982636,1,0,0:0:0:0:
192,192,982636,1,0,0:0:0:0:
320,192,982636,1,0,0:0:0:0:
64,192,982786,1,0,0:0:0:0:
192,192,982786,1,0,0:0:0:0:
448,192,982936,1,0,0:0:0:0:
64,192,982936,1,0,0:0:0:0:
320,192,982936,1,0,0:0:0:0:
448,192,983086,1,0,0:0:0:0:
192,192,983086,1,0,0:0:0:0:
64,192,983236,1,0,0:0:0:0:
320,192,983236,1,0,0:0:0:0:
448,192,983386,1,0,0:0:0:0:
192,192,983386,1,0,0:0:0:0:
448,192,983536,1,0,0:0:0:0:
64,192,983536,1,0,0:0:0:0:
320,192,983536,1,0,0:0:0:0:
192,192,983686,1,0,0:0:0:0:
320,192,983686,1,0,0:0:0:0:
448,192,983836,1,0,0:0:0:0:
64,192,983836,1,0,0:0:0:0:
192,192,983836,1,0,0:0:0:0:
320,192,983986,1,0,0:0:0:0:
448,192,983986,1,0,0:0:0:0:
448,192,984136,1,0,0:0:0:0:
64,192,984136,1,0,0:0:0:0:
320,192,984136,1,0,0:0:0:0:
192,192,984211,1,0,0:0:0:0:
448,192,984286,1,0,0:0:0:0:
320,192,984286,1,0,0:0:0:0:
192,192,984361,1,0,0:0:0:0:
448,192,984436,1,0,0:0:0:0:
64,192,984436,1,0,0:0:0:0:
320,192,984436,1,0,0:0:0:0:
192,192,984511,1,0,0:0:0:0:
64,192,984586,1,0,0:0:0:0:
448,192,984586,1,0,0:0:0:0:
320,192,984661,1,0,0:0:0:0:
192,192,984736,1,0,0:0:0:0:
64,192,984736,1,0,0:0:0:0:
448,192,984736,1,0,0:0:0:0:
320,192,984886,1,0,0:0:0:0:
64,192,985036,1,0,0:0:0:0:
192,192,985036,1,0,0:0:0:0:
448,192,985111,1,0,0:0:0:0:
320,192,985111,1,0,0:0:0:0:
64,192,985186,1,0,0:0:0:0:
192,192,985186,1,0,0:0:0:0:
448,192,985261,1,0,0:0:0:0:
320,192,985261,1,0,0:0:0:0:
64,192,985336,1,0,0:0:0:0:
192,192,985336,1,0,0:0:0:0:
64,192,985636,1,0,0:0:0:0:
320,192,985636,1,0,0:0:0:0:
192,192,985786,1,0,0:0:0:0:
320,192,985936,1,0,0:0:0:0:
448,192,985936,1,0,0:0:0:0:
448,192,986236,1,0,0:0:0:0:
320,192,986236,1,0,0:0:0:0:
192,192,986386,1,0,0:0:0:0:
448,192,986536,1,0,0:0:0:0:
64,192,986536,1,0,0:0:0:0:
320,192,986536,1,0,0:0:0:0:
192,192,986686,1,0,0:0:0:0:
448,192,986836,1,0,0:0:0:0:
64,192,986836,1,0,0:0:0:0:
320,192,986986,1,0,0:0:0:0:
64,192,987136,1,0,0:0:0:0:
448,192,987136,1,0,0:0:0:0:
192,192,987136,1,0,0:0:0:0:
320,192,987211,1,0,0:0:0:0:
192,192,987286,1,0,0:0:0:0:
320,192,987361,1,0,0:0:0:0:
448,192,987436,1,0,0:0:0:0:
192,192,987436,1,0,0:0:0:0:
64,192,987436,1,0,0:0:0:0:
320,192,987511,1,0,0:0:0:0:
192,192,987586,1,0,0:0:0:0:
320,192,987661,1,0,0:0:0:0:
64,192,987736,1,0,0:0:0:0:
448,192,987736,1,0,0:0:0:0:
192,192,987736,1,0,0:0:0:0:
64,192,987886,1,0,0:0:0:0:
448,192,987886,1,0,0:0:0:0:
320,192,987961,1,0,0:0:0:0:
192,192,988036,1,0,0:0:0:0:
448,192,988036,1,0,0:0:0:0:
448,192,988186,1,0,0:0:0:0:
64,192,988186,1,0,0:0:0:0:
192,192,988186,1,0,0:0:0:0:
320,192,988261,1,0,0:0:0:0:
64,192,988336,1,0,0:0:0:0:
192,192,988336,1,0,0:0:0:0:
192,192,988486,1,0,0:0:0:0:
320,192,988561,1,0,0:0:0:0:
64,192,988636,1,0,0:0:0:0:
448,192,988636,1,0,0:0:0:0:
64,192,988786,1,0,0:0:0:0:
192,192,988861,1,0,0:0:0:0:
448,192,988936,1,0,0:0:0:0:
320,192,988936,1,0,0:0:0:0:
64,192,989086,1,0,0:0:0:0:
192,192,989161,1,0,0:0:0:0:
448,192,989236,1,0,0:0:0:0:
320,192,989236,1,0,0:0:0:0:
64,192,989236,1,0,0:0:0:0:
448,192,989386,1,0,0:0:0:0:
192,192,989386,1,0,0:0:0:0:
320,192,989461,1,0,0:0:0:0:
64,192,989536,1,0,0:0:0:0:
192,192,989536,1,0,0:0:0:0:
448,192,989536,1,0,0:0:0:0:
448,192,989686,1,0,0:0:0:0:
320,192,989686,1,0,0:0:0:0:
64,192,989686,1,0,0:0:0:0:
192,192,989761,1,0,0:0:0:0:
448,192,989836,1,0,0:0:0:0:
64,192,989836,1,0,0:0:0:0:
320,192,989836,1,0,0:0:0:0:
64,192,989986,1,0,0:0:0:0:
192,192,989986,1,0,0:0:0:0:
448,192,989986,1,0,0:0:0:0:
320,192,990061,1,0,0:0:0:0:
448,192,990136,1,0,0:0:0:0:
64,192,990136,1,0,0:0:0:0:
192,192,990136,1,0,0:0:0:0:
192,192,990286,1,0,0:0:0:0:
320,192,990361,1,0,0:0:0:0:
448,192,990436,1,0,0:0:0:0:
64,192,990436,1,0,0:0:0:0:
320,192,990586,1,0,0:0:0:0:
192,192,990661,1,0,0:0:0:0:
64,192,990736,1,0,0:0:0:0:
320,192,990736,1,0,0:0:0:0:
448,192,990811,1,0,0:0:0:0:
64,192,990886,1,0,0:0:0:0:
320,192,990886,1,0,0:0:0:0:
192,192,990961,1,0,0:0:0:0:
64,192,991036,1,0,0:0:0:0:
448,192,991036,1,0,0:0:0:0:
320,192,991111,1,0,0:0:0:0:
192,192,991186,1,0,0:0:0:0:
64,192,991261,1,0,0:0:0:0:
448,192,991336,1,0,0:0:0:0:
320,192,991411,1,0,0:0:0:0:
192,192,991486,1,0,0:0:0:0:
64,192,991561,1,0,0:0:0:0:
448,192,991636,1,0,0:0:0:0:
320,192,991711,1,0,0:0:0:0:
192,192,991786,1,0,0:0:0:0:
64,192,991861,1,0,0:0:0:0:
192,192,991936,1,0,0:0:0:0:
320,192,992011,1,0,0:0:0:0:
448,192,992086,1,0,0:0:0:0:
64,192,992161,1,0,0:0:0:0:
192,192,992236,1,0,0:0:0:0:
448,192,992236,1,0,0:0:0:0:
320,192,992311,1,0,0:0:0:0:
64,192,992311,1,0,0:0:0:0:
448,192,992386,1,0,0:0:0:0:
192,192,992386,1,0,0:0:0:0:
64,192,992461,1,0,0:0:0:0:
320,192,992461,1,0,0:0:0:0:
448,192,992536,1,0,0:0:0:0:
192,192,992536,1,0,0:0:0:0:
64,192,992686,1,0,0:0:0:0:
320,192,992686,1,0,0:0:0:0:
192,192,992761,1,0,0:0:0:0:
448,192,992836,1,0,0:0:0:0:
320,192,992836,1,0,0:0:0:0:
448,192,992986,1,0,0:0:0:0:
64,192,992986,1,0,0:0:0:0:
192,192,992986,1,0,0:0:0:0:
320,192,993061,1,0,0:0:0:0:
64,192,993136,1,0,0:0:0:0:
192,192,993136,1,0,0:0:0:0:
448,192,993286,1,0,0:0:0:0:
320,192,993361,1,0,0:0:0:0:
192,192,993436,1,0,0:0:0:0:
448,192,993436,1,0,0:0:0:0:
64,192,993586,1,0,0:0:0:0:
192,192,993661,1,0,0:0:0:0:
64,192,993736,1,0,0:0:0:0:
320,192,993736,1,0,0:0:0:0:
448,192,993886,1,0,0:0:0:0:
320,192,993961,1,0,0:0:0:0:
448,192,994036,1,0,0:0:0:0:
64,192,994036,1,0,0:0:0:0:
192,192,994036,1,0,0:0:0:0:
64,192,994186,1,0,0:0:0:0:
320,192,994186,1,0,0:0:0:0:
192,192,994261,1,0,0:0:0:0:
448,192,994336,1,0,0:0:0:0:
64,192,994336,1,0,0:0:0:0:
320,192,994336,1,0,0:0:0:0:
448,192,994486,1,0,0:0:0:0:
320,192,994486,1,0,0:0:0:0:
192,192,994561,1,0,0:0:0:0:
448,192,994636,1,0,0:0:0:0:
64,192,994636,1,0,0:0:0:0:
320,192,994636,1,0,0:0:0:0:
64,192,994786,1,0,0:0:0:0:
192,192,994786,1,0,0:0:0:0:
320,192,994861,1,0,0:0:0:0:
448,192,994936,1,0,0:0:0:0:
64,192,994936,1,0,0:0:0:0:
192,192,994936,1,0,0:0:0:0:
64,192,995086,1,0,0:0:0:0:
192,192,995161,1,0,0:0:0:0:
320,192,995236,1,0,0:0:0:0:
448,192,995386,1,0,0:0:0:0:
320,192,995461,1,0,0:0:0:0:
64,192,995536,1,0,0:0:0:0:
192,192,995536,1,0,0:0:0:0:
320,192,995686,1,0,0:0:0:0:
192,192,995761,1,0,0:0:0:0:
64,192,995836,1,0,0:0:0:0:
192,192,995986,1,0,0:0:0:0:
320,192,996061,1,0,0:0:0:0:
64,192,996136,1,0,0:0:0:0:
448,192,996136,1,0,0:0:0:0:
448,192,996286,1,0,0:0:0:0:
320,192,996361,1,0,0:0:0:0:
192,192,996436,1,0,0:0:0:0:
64,192,996586,1,0,0:0:0:0:
192,192,996661,1,0,0:0:0:0:
448,192,996736,1,0,0:0:0:0:
320,192,996736,1,0,0:0:0:0:
64,192,996886,1,0,0:0:0:0:
192,192,996961,1,0,0:0:0:0:
320,192,997036,1,0,0:0:0:0:
448,192,997111,1,0,0:0:0:0:
64,192,997186,1,0,0:0:0:0:
320,192,997186,1,0,0:0:0:0:
448,192,997261,1,0,0:0:0:0:
192,192,997261,1,0,0:0:0:0:
320,192,997336,1,0,0:0:0:0:
64,192,997336,1,0,0:0:0:0:
192,192,997486,1,0,0:0:0:0:
448,192,997486,1,0,0:0:0:0:
320,192,997636,1,0,0:0:0:0:
448,192,997636,1,0,0:0:0:0:
320,192,997786,1,0,0:0:0:0:
192,192,997786,1,0,0:0:0:0:
64,192,997936,1,0,0:0:0:0:
192,192,997936,1,0,0:0:0:0:
320,192,998086,1,0,0:0:0:0:
448,192,998236,1,0,0:0:0:0:
192,192,998236,1,0,0:0:0:0:
320,192,998386,1,0,0:0:0:0:
192,192,998386,1,0,0:0:0:0:
448,192,998536,1,0,0:0:0:0:
192,192,998536,1,0,0:0:0:0:
64,192,998536,1,0,0:0:0:0:
64,192,998686,1,0,0:0:0:0:
320,192,998686,1,0,0:0:0:0:
320,192,998836,1,0,0:0:0:0:
448,192,998836,1,0,0:0:0:0:
192,192,998986,1,0,0:0:0:0:
448,192,999136,1,0,0:0:0:0:
64,192,999136,1,0,0:0:0:0:
320,192,999136,1,0,0:0:0:0:
192,192,999286,1,0,0:0:0:0:
448,192,999286,1,0,0:0:0:0:
320,192,999436,1,0,0:0:0:0:
64,192,999436,1,0,0:0:0:0:
448,192,999586,1,0,0:0:0:0:
192,192,999586,1,0,0:0:0:0:
320,192,999661,1,0,0:0:0:0:
448,192,999736,1,0,0:0:0:0:
192,192,999736,1,0,0:0:0:0:
64,192,999736,1,0,0:0:0:0:
320,192,999886,1,0,0:0:0:0:
192,192,1000036,1,0,0:0:0:0:
448,192,1000036,1,0,0:0:0:0:
64,192,1000111,1,0,0:0:0:0:
192,192,1000186,1,0,0:0:0:0:
448,192,1000186,1,0,0:0:0:0:
320,192,1000261,1,0,0:0:0:0:
448,192,1000336,1,0,0:0:0:0:
192,192,1000336,1,0,0:0:0:0:
64,192,1000336,1,0,0:0:0:0:
64,192,1000486,1,0,0:0:0:0:
320,192,1000636,1,0,0:0:0:0:
192,192,1000636,1,0,0:0:0:0:
448,192,1000711,1,0,0:0:0:0:
320,192,1000786,1,0,0:0:0:0:
64,192,1000786,1,0,0:0:0:0:
192,192,1000861,1,0,0:0:0:0:
64,192,1000936,1,0,0:0:0:0:
320,192,1000936,1,0,0:0:0:0:
448,192,1000936,1,0,0:0:0:0:
320,192,1001086,1,0,0:0:0:0:
448,192,1001236,1,0,0:0:0:0:
192,192,1001236,1,0,0:0:0:0:
320,192,1001311,1,0,0:0:0:0:
192,192,1001386,1,0,0:0:0:0:
448,192,1001386,1,0,0:0:0:0:
320,192,1001461,1,0,0:0:0:0:
192,192,1001536,1,0,0:0:0:0:
448,192,1001536,1,0,0:0:0:0:
64,192,1001536,1,0,0:0:0:0:
64,192,1001686,1,0,0:0:0:0:
448,192,1001836,1,0,0:0:0:0:
192,192,1001836,1,0,0:0:0:0:
320,192,1001911,1,0,0:0:0:0:
192,192,1001986,1,0,0:0:0:0:
448,192,1001986,1,0,0:0:0:0:
64,192,1002061,1,0,0:0:0:0:
448,192,1002136,1,0,0:0:0:0:
192,192,1002136,1,0,0:0:0:0:
320,192,1002136,1,0,0:0:0:0:
64,192,1002286,1,0,0:0:0:0:
192,192,1002286,1,0,0:0:0:0:
64,192,1002436,1,0,0:0:0:0:
448,192,1002436,1,0,0:0:0:0:
320,192,1002586,1,0,0:0:0:0:
448,192,1002586,1,0,0:0:0:0:
64,192,1002736,1,0,0:0:0:0:
192,192,1002736,1,0,0:0:0:0:
320,192,1002886,1,0,0:0:0:0:
64,192,1003036,1,0,0:0:0:0:
192,192,1003036,1,0,0:0:0:0:
448,192,1003036,1,0,0:0:0:0:
192,192,1003186,1,0,0:0:0:0:
320,192,1003186,1,0,0:0:0:0:
448,192,1003336,1,0,0:0:0:0:
64,192,1003336,1,0,0:0:0:0:
320,192,1003336,1,0,0:0:0:0:
64,192,1003486,1,0,0:0:0:0:
192,192,1003486,1,0,0:0:0:0:
320,192,1003636,1,0,0:0:0:0:
448,192,1003636,1,0,0:0:0:0:
64,192,1003786,1,0,0:0:0:0:
192,192,1003786,1,0,0:0:0:0:
448,192,1003936,1,0,0:0:0:0:
192,192,1003936,1,0,0:0:0:0:
320,192,1003936,1,0,0:0:0:0:
64,192,1004086,1,0,0:0:0:0:
320,192,1004086,1,0,0:0:0:0:
448,192,1004086,1,0,0:0:0:0:
64,192,1004236,1,0,0:0:0:0:
448,192,1004236,1,0,0:0:0:0:
192,192,1004236,1,0,0:0:0:0:
320,192,1004386,1,0,0:0:0:0:
192,192,1004386,1,0,0:0:0:0:
64,192,1004386,1,0,0:0:0:0:
448,192,1004536,1,0,0:0:0:0:
64,192,1004536,1,0,0:0:0:0:
192,192,1004536,1,0,0:0:0:0:
320,192,1004536,1,0,0:0:0:0:
320,192,1004686,1,0,0:0:0:0:
448,192,1004686,1,0,0:0:0:0:
64,192,1004836,1,0,0:0:0:0:
320,192,1004836,1,0,0:0:0:0:
64,192,1004986,1,0,0:0:0:0:
192,192,1004986,1,0,0:0:0:0:
448,192,1005136,1,0,0:0:0:0:
320,192,1005136,1,0,0:0:0:0:
192,192,1005286,1,0,0:0:0:0:
64,192,1005436,1,0,0:0:0:0:
448,192,1005436,1,0,0:0:0:0:
192,192,1005586,1,0,0:0:0:0:
320,192,1005586,1,0,0:0:0:0:
448,192,1005736,1,0,0:0:0:0:
64,192,1005736,1,0,0:0:0:0:
192,192,1005736,1,0,0:0:0:0:
320,192,1005886,1,0,0:0:0:0:
448,192,1006036,1,0,0:0:0:0:
64,192,1006036,1,0,0:0:0:0:
192,192,1006036,1,0,0:0:0:0:
64,192,1006186,1,0,0:0:0:0:
320,192,1006186,1,0,0:0:0:0:
448,192,1006336,1,0,0:0:0:0:
320,192,1006336,1,0,0:0:0:0:
192,192,1006336,1,0,0:0:0:0:
192,192,1006486,1,0,0:0:0:0:
64,192,1006486,1,0,0:0:0:0:
448,192,1006636,1,0,0:0:0:0:
320,192,1006636,1,0,0:0:0:0:
64,192,1006636,1,0,0:0:0:0:
320,192,1006786,1,0,0:0:0:0:
192,192,1006786,1,0,0:0:0:0:
448,192,1006936,1,0,0:0:0:0:
64,192,1006936,1,0,0:0:0:0:
192,192,1006936,1,0,0:0:0:0:
320,192,1007011,1,0,0:0:0:0:
64,192,1007086,1,0,0:0:0:0:
192,192,1007086,1,0,0:0:0:0:
320,192,1007161,1,0,0:0:0:0:
64,192,1007236,1,0,0:0:0:0:
192,192,1007236,1,0,0:0:0:0:
448,192,1007236,1,0,0:0:0:0:
320,192,1007311,1,0,0:0:0:0:
448,192,1007386,1,0,0:0:0:0:
192,192,1007386,1,0,0:0:0:0:
64,192,1007461,1,0,0:0:0:0:
448,192,1007536,1,0,0:0:0:0:
192,192,1007536,1,0,0:0:0:0:
320,192,1007536,1,0,0:0:0:0:
64,192,1007611,1,0,0:0:0:0:
448,192,1007686,1,0,0:0:0:0:
192,192,1007686,1,0,0:0:0:0:
320,192,1007761,1,0,0:0:0:0:
64,192,1007836,1,0,0:0:0:0:
192,192,1007836,1,0,0:0:0:0:
448,192,1007836,1,0,0:0:0:0:
320,192,1007911,1,0,0:0:0:0:
448,192,1007986,1,0,0:0:0:0:
64,192,1007986,1,0,0:0:0:0:
192,192,1008061,1,0,0:0:0:0:
64,192,1008136,1,0,0:0:0:0:
448,192,1008136,1,0,0:0:0:0:
320,192,1008136,1,0,0:0:0:0:
192,192,1008211,1,0,0:0:0:0:
320,192,1008286,1,0,0:0:0:0:
64,192,1008286,1,0,0:0:0:0:
448,192,1008361,1,0,0:0:0:0:
64,192,1008436,1,0,0:0:0:0:
192,192,1008436,1,0,0:0:0:0:
320,192,1008436,1,0,0:0:0:0:
448,192,1008511,1,0,0:0:0:0:
320,192,1008586,1,0,0:0:0:0:
64,192,1008586,1,0,0:0:0:0:
192,192,1008661,1,0,0:0:0:0:
448,192,1008736,1,0,0:0:0:0:
320,192,1008736,1,0,0:0:0:0:
64,192,1008736,1,0,0:0:0:0:
192,192,1008811,1,0,0:0:0:0:
448,192,1008886,1,0,0:0:0:0:
320,192,1008886,1,0,0:0:0:0:
64,192,1008886,1,0,0:0:0:0:
192,192,1008961,1,0,0:0:0:0:
448,192,1009036,1,0,0:0:0:0:
320,192,1009036,1,0,0:0:0:0:
64,192,1009036,1,0,0:0:0:0:
192,192,1009111,1,0,0:0:0:0:
448,192,1009186,1,0,0:0:0:0:
64,192,1009186,1,0,0:0:0:0:
320,192,1009186,1,0,0:0:0:0:
192,192,1009261,1,0,0:0:0:0:
64,192,1009336,1,0,0:0:0:0:
448,192,1009336,1,0,0:0:0:0:
320,192,1009336,1,0,0:0:0:0:
192,192,1009411,1,0,0:0:0:0:
448,192,1009486,1,0,0:0:0:0:
320,192,1009486,1,0,0:0:0:0:
192,192,1009561,1,0,0:0:0:0:
64,192,1009636,1,0,0:0:0:0:
448,192,1009636,1,0,0:0:0:0:
320,192,1009636,1,0,0:0:0:0:
192,192,1009711,1,0,0:0:0:0:
320,192,1009786,1,0,0:0:0:0:
448,192,1009786,1,0,0:0:0:0:
192,192,1009861,1,0,0:0:0:0:
64,192,1009936,1,0,0:0:0:0:
448,192,1009936,1,0,0:0:0:0:
320,192,1009936,1,0,0:0:0:0:
192,192,1010011,1,0,0:0:0:0:
448,192,1010086,1,0,0:0:0:0:
64,192,1010086,1,0,0:0:0:0:
320,192,1010161,1,0,0:0:0:0:
64,192,1010236,1,0,0:0:0:0:
192,192,1010236,1,0,0:0:0:0:
448,192,1010236,1,0,0:0:0:0:
320,192,1010311,5,0,0:0:0:0:
448,192,1010386,1,0,0:0:0:0:
192,192,1010386,1,0,0:0:0:0:
64,192,1010461,1,0,0:0:0:0:
320,192,1010536,1,0,0:0:0:0:
192,192,1010536,1,0,0:0:0:0:
448,192,1010536,1,0,0:0:0:0:
64,192,1010611,1,0,0:0:0:0:
448,192,1010686,1,0,0:0:0:0:
192,192,1010686,1,0,0:0:0:0:
320,192,1010761,1,0,0:0:0:0:
448,192,1010836,5,0,0:0:0:0:
64,192,1010836,1,0,0:0:0:0:
192,192,1010836,1,0,0:0:0:0:
320,192,1010911,1,0,0:0:0:0:
448,192,1010986,1,0,0:0:0:0:
64,192,1010986,1,0,0:0:0:0:
192,192,1010986,1,0,0:0:0:0:
320,192,1011061,1,0,0:0:0:0:
448,192,1011136,1,0,0:0:0:0:
64,192,1011136,1,0,0:0:0:0:
192,192,1011136,1,0,0:0:0:0:
320,192,1011211,1,0,0:0:0:0:
448,192,1011286,1,0,0:0:0:0:
64,192,1011286,1,0,0:0:0:0:
192,192,1011286,1,0,0:0:0:0:
320,192,1011361,1,0,0:0:0:0:
64,192,1011436,1,0,0:0:0:0:
192,192,1011436,1,0,0:0:0:0:
320,192,1011511,1,0,0:0:0:0:
448,192,1011511,1,0,0:0:0:0:
64,192,1011586,1,0,0:0:0:0:
192,192,1011586,1,0,0:0:0:0:
320,192,1011661,1,0,0:0:0:0:
448,192,1011661,1,0,0:0:0:0:
64,192,1011736,1,0,0:0:0:0:
192,192,1011736,1,0,0:0:0:0:
320,192,1011811,1,0,0:0:0:0:
64,192,1011886,1,0,0:0:0:0:
448,192,1011886,1,0,0:0:0:0:
192,192,1011961,1,0,0:0:0:0:
64,192,1012036,1,0,0:0:0:0:
448,192,1012036,1,0,0:0:0:0:
320,192,1012036,1,0,0:0:0:0:
192,192,1012111,1,0,0:0:0:0:
64,192,1012186,1,0,0:0:0:0:
448,192,1012186,1,0,0:0:0:0:
320,192,1012261,1,0,0:0:0:0:
64,192,1012336,1,0,0:0:0:0:
192,192,1012336,1,0,0:0:0:0:
448,192,1012336,1,0,0:0:0:0:
320,192,1012411,1,0,0:0:0:0:
64,192,1012486,1,0,0:0:0:0:
192,192,1012486,1,0,0:0:0:0:
320,192,1012561,1,0,0:0:0:0:
64,192,1012636,1,0,0:0:0:0:
192,192,1012636,1,0,0:0:0:0:
448,192,1012636,1,0,0:0:0:0:
320,192,1012711,1,0,0:0:0:0:
64,192,1012786,1,0,0:0:0:0:
448,192,1012786,1,0,0:0:0:0:
192,192,1012861,1,0,0:0:0:0:
64,192,1012936,1,0,0:0:0:0:
448,192,1012936,1,0,0:0:0:0:
320,192,1012936,1,0,0:0:0:0:
192,192,1013011,1,0,0:0:0:0:
320,192,1013086,1,0,0:0:0:0:
448,192,1013086,1,0,0:0:0:0:
192,192,1013161,1,0,0:0:0:0:
64,192,1013236,1,0,0:0:0:0:
320,192,1013236,1,0,0:0:0:0:
448,192,1013236,1,0,0:0:0:0:
192,192,1013311,1,0,0:0:0:0:
64,192,1013386,1,0,0:0:0:0:
448,192,1013386,1,0,0:0:0:0:
320,192,1013461,1,0,0:0:0:0:
64,192,1013536,1,0,0:0:0:0:
448,192,1013536,1,0,0:0:0:0:
192,192,1013536,1,0,0:0:0:0:
320,192,1013611,1,0,0:0:0:0:
64,192,1013686,1,0,0:0:0:0:
192,192,1013686,1,0,0:0:0:0:
448,192,1013686,1,0,0:0:0:0:
320,192,1013761,1,0,0:0:0:0:
64,192,1013836,1,0,0:0:0:0:
192,192,1013836,1,0,0:0:0:0:
448,192,1013836,1,0,0:0:0:0:
320,192,1013911,1,0,0:0:0:0:
64,192,1013986,1,0,0:0:0:0:
192,192,1013986,1,0,0:0:0:0:
448,192,1013986,1,0,0:0:0:0:
320,192,1014061,1,0,0:0:0:0:
448,192,1014136,1,0,0:0:0:0:
192,192,1014136,1,0,0:0:0:0:
64,192,1014136,1,0,0:0:0:0:
320,192,1014211,1,0,0:0:0:0:
64,192,1014286,1,0,0:0:0:0:
448,192,1014286,1,0,0:0:0:0:
192,192,1014361,1,0,0:0:0:0:
448,192,1014436,1,0,0:0:0:0:
320,192,1014436,1,0,0:0:0:0:
64,192,1014436,1,0,0:0:0:0:
192,192,1014511,1,0,0:0:0:0:
320,192,1014586,1,0,0:0:0:0:
448,192,1014586,1,0,0:0:0:0:
192,192,1014661,1,0,0:0:0:0:
320,192,1014736,1,0,0:0:0:0:
448,192,1014736,1,0,0:0:0:0:
64,192,1014736,1,0,0:0:0:0:
192,192,1014811,1,0,0:0:0:0:
320,192,1014886,1,0,0:0:0:0:
448,192,1014886,1,0,0:0:0:0:
192,192,1014961,1,0,0:0:0:0:
320,192,1015036,1,0,0:0:0:0:
448,192,1015036,1,0,0:0:0:0:
64,192,1015036,1,0,0:0:0:0:
192,192,1015111,1,0,0:0:0:0:
448,192,1015186,1,0,0:0:0:0:
64,192,1015186,1,0,0:0:0:0:
320,192,1015261,1,0,0:0:0:0:
448,192,1015336,1,0,0:0:0:0:
192,192,1015336,1,0,0:0:0:0:
64,192,1015336,1,0,0:0:0:0:
320,192,1015411,1,0,0:0:0:0:
448,192,1015486,1,0,0:0:0:0:
64,192,1015486,1,0,0:0:0:0:
192,192,1015561,1,0,0:0:0:0:
320,192,1015636,1,0,0:0:0:0:
448,192,1015636,1,0,0:0:0:0:
64,192,1015636,1,0,0:0:0:0:
192,192,1015711,1,0,0:0:0:0:
320,192,1015786,1,0,0:0:0:0:
448,192,1015786,1,0,0:0:0:0:
192,192,1015861,1,0,0:0:0:0:
448,192,1015936,1,0,0:0:0:0:
320,192,1015936,1,0,0:0:0:0:
64,192,1015936,1,0,0:0:0:0:
192,192,1016011,1,0,0:0:0:0:
64,192,1016086,1,0,0:0:0:0:
448,192,1016086,1,0,0:0:0:0:
320,192,1016161,1,0,0:0:0:0:
192,192,1016236,1,0,0:0:0:0:
64,192,1016236,1,0,0:0:0:0:
448,192,1016311,1,0,0:0:0:0:
320,192,1016311,1,0,0:0:0:0:
64,192,1016386,1,0,0:0:0:0:
192,192,1016386,1,0,0:0:0:0:
320,192,1016461,1,0,0:0:0:0:
448,192,1016461,1,0,0:0:0:0:
192,192,1016536,1,0,0:0:0:0:
64,192,1016536,1,0,0:0:0:0:
320,192,1016611,1,0,0:0:0:0:
192,192,1016686,1,0,0:0:0:0:
448,192,1016686,1,0,0:0:0:0:
64,192,1016761,1,0,0:0:0:0:
192,192,1016836,1,0,0:0:0:0:
448,192,1016836,1,0,0:0:0:0:
320,192,1016911,1,0,0:0:0:0:
448,192,1016986,1,0,0:0:0:0:
192,192,1016986,1,0,0:0:0:0:
64,192,1017061,1,0,0:0:0:0:
192,192,1017136,1,0,0:0:0:0:
448,192,1017136,1,0,0:0:0:0:
320,192,1017211,1,0,0:0:0:0:
448,192,1017286,1,0,0:0:0:0:
320,192,1017361,1,0,0:0:0:0:
192,192,1017436,1,0,0:0:0:0:
448,192,1017436,1,0,0:0:0:0:
64,192,1017511,1,0,0:0:0:0:
448,192,1017586,1,0,0:0:0:0:
320,192,1017661,1,0,0:0:0:0:
192,192,1017736,1,0,0:0:0:0:
448,192,1017736,1,0,0:0:0:0:
64,192,1017811,1,0,0:0:0:0:
192,192,1017886,1,0,0:0:0:0:
320,192,1017961,1,0,0:0:0:0:
448,192,1018036,1,0,0:0:0:0:
64,192,1018111,1,0,0:0:0:0:
192,192,1018186,1,0,0:0:0:0:
320,192,1018261,1,0,0:0:0:0:
448,192,1018336,1,0,0:0:0:0:
64,192,1018336,1,0,0:0:0:0:
320,192,1018411,1,0,0:0:0:0:
192,192,1018486,1,0,0:0:0:0:
64,192,1018561,1,0,0:0:0:0:
448,192,1018636,1,0,0:0:0:0:
320,192,1018711,1,0,0:0:0:0:
192,192,1018786,1,0,0:0:0:0:
64,192,1018861,1,0,0:0:0:0:
448,192,1018936,1,0,0:0:0:0:
320,192,1018936,1,0,0:0:0:0:
192,192,1018936,1,0,0:0:0:0:
448,192,1019086,1,0,0:0:0:0:
64,192,1019086,1,0,0:0:0:0:
192,192,1019236,1,0,0:0:0:0:
448,192,1019386,1,0,0:0:0:0:
320,192,1019386,1,0,0:0:0:0:
192,192,1019461,1,0,0:0:0:0:
64,192,1019536,1,0,0:0:0:0:
448,192,1019686,1,0,0:0:0:0:
320,192,1019686,1,0,0:0:0:0:
64,192,1019836,1,0,0:0:0:0:
192,192,1019836,1,0,0:0:0:0:
320,192,1019986,1,0,0:0:0:0:
448,192,1020136,1,0,0:0:0:0:
64,192,1020136,1,0,0:0:0:0:
320,192,1020286,1,0,0:0:0:0:
192,192,1020286,1,0,0:0:0:0:
448,192,1020436,1,0,0:0:0:0:
64,192,1020586,1,0,0:0:0:0:
192,192,1020586,1,0,0:0:0:0:
320,192,1020661,1,0,0:0:0:0:
448,192,1020736,1,0,0:0:0:0:
448,192,1020886,1,0,0:0:0:0:
320,192,1020886,1,0,0:0:0:0:
192,192,1021036,1,0,0:0:0:0:
64,192,1021036,1,0,0:0:0:0:
320,192,1021186,1,0,0:0:0:0:
448,192,1021336,1,0,0:0:0:0:
64,192,1021336,1,0,0:0:0:0:
192,192,1021486,1,0,0:0:0:0:
320,192,1021486,1,0,0:0:0:0:
64,192,1021636,1,0,0:0:0:0:
448,192,1021786,1,0,0:0:0:0:
320,192,1021786,1,0,0:0:0:0:
192,192,1021861,1,0,0:0:0:0:
64,192,1021936,1,0,0:0:0:0:
448,192,1022086,1,0,0:0:0:0:
320,192,1022086,1,0,0:0:0:0:
192,192,1022236,1,0,0:0:0:0:
64,192,1022236,1,0,0:0:0:0:
320,192,1022386,1,0,0:0:0:0:
448,192,1022536,1,0,0:0:0:0:
64,192,1022536,1,0,0:0:0:0:
320,192,1022686,1,0,0:0:0:0:
192,192,1022686,1,0,0:0:0:0:
64,192,1022836,1,0,0:0:0:0:
448,192,1022986,1,0,0:0:0:0:
320,192,1022986,1,0,0:0:0:0:
192,192,1023061,1,0,0:0:0:0:
64,192,1023136,1,0,0:0:0:0:
192,192,1023286,1,0,0:0:0:0:
448,192,1023436,1,0,0:0:0:0:
64,192,1023436,1,0,0:0:0:0:
192,192,1023511,1,0,0:0:0:0:
320,192,1023586,1,0,0:0:0:0:
448,192,1023661,1,0,0:0:0:0:
64,192,1023736,128,0,1024186:0:0:0:0:
192,192,1023736,1,0,0:0:0:0:
320,192,1023736,1,0,0:0:0:0:
320,192,1023886,1,0,0:0:0:0:
192,192,1024036,1,0,0:0:0:0:
448,192,1024186,128,0,1024636:0:0:0:0:
320,192,1024186,1,0,0:0:0:0:
192,192,1024336,1,0,0:0:0:0:
320,192,1024486,1,0,0:0:0:0:
64,192,1024636,128,0,1024936:0:0:0:0:
192,192,1024636,1,0,0:0:0:0:
320,192,1024786,1,0,0:0:0:0:
448,192,1024936,128,0,1025386:0:0:0:0:
192,192,1024936,1,0,0:0:0:0:
320,192,1025086,1,0,0:0:0:0:
192,192,1025236,1,0,0:0:0:0:
64,192,1025386,128,0,1025836:0:0:0:0:
320,192,1025386,1,0,0:0:0:0:
192,192,1025536,1,0,0:0:0:0:
320,192,1025686,1,0,0:0:0:0:
192,192,1025761,1,0,0:0:0:0:
448,192,1025836,128,0,1026136:0:0:0:0:
320,192,1025836,1,0,0:0:0:0:
192,192,1025986,1,0,0:0:0:0:
320,192,1026061,1,0,0:0:0:0:
64,192,1026136,128,0,1027336:0:0:0:0:
192,192,1026136,1,0,0:0:0:0:
320,192,1026286,1,0,0:0:0:0:
192,192,1026436,1,0,0:0:0:0:
320,192,1026586,1,0,0:0:0:0:
192,192,1026736,1,0,0:0:0:0:
320,192,1026886,1,0,0:0:0:0:
192,192,1027036,1,0,0:0:0:0:
320,192,1027186,1,0,0:0:0:0:
448,192,1027336,128,0,1028536:0:0:0:0:
192,192,1027336,1,0,0:0:0:0:
320,192,1027486,1,0,0:0:0:0:
192,192,1027636,1,0,0:0:0:0:
320,192,1027786,1,0,0:0:0:0:
192,192,1027936,1,0,0:0:0:0:
320,192,1028086,1,0,0:0:0:0:
192,192,1028161,1,0,0:0:0:0:
320,192,1028236,1,0,0:0:0:0:
192,192,1028386,1,0,0:0:0:0:
320,192,1028461,1,0,0:0:0:0:
192,192,1028536,1,0,0:0:0:0:
64,192,1028536,1,0,0:0:0:0:
320,192,1028686,1,0,0:0:0:0:
64,192,1028686,1,0,0:0:0:0:
448,192,1028836,1,0,0:0:0:0:
192,192,1028836,1,0,0:0:0:0:
448,192,1028986,1,0,0:0:0:0:
320,192,1028986,1,0,0:0:0:0:
192,192,1029136,1,0,0:0:0:0:
320,192,1029286,1,0,0:0:0:0:
64,192,1029286,1,0,0:0:0:0:
448,192,1029436,1,0,0:0:0:0:
192,192,1029436,1,0,0:0:0:0:
192,192,1029586,1,0,0:0:0:0:
64,192,1029586,1,0,0:0:0:0:
448,192,1029736,1,0,0:0:0:0:
320,192,1029736,1,0,0:0:0:0:
448,192,1029886,1,0,0:0:0:0:
64,192,1029886,1,0,0:0:0:0:
192,192,1029886,1,0,0:0:0:0:
448,192,1030186,1,0,0:0:0:0:
64,192,1030186,1,0,0:0:0:0:
192,192,1030186,1,0,0:0:0:0:
448,192,1030486,1,0,0:0:0:0:
64,192,1030486,1,0,0:0:0:0:
192,192,1030486,1,0,0:0:0:0:
64,192,1030786,1,0,0:0:0:0:
192,192,1030786,1,0,0:0:0:0:
448,192,1030936,1,0,0:0:0:0:
192,192,1030936,1,0,0:0:0:0:
320,192,1031086,1,0,0:0:0:0:
64,192,1031086,1,0,0:0:0:0:
448,192,1031236,1,0,0:0:0:0:
192,192,1031236,1,0,0:0:0:0:
448,192,1031386,1,0,0:0:0:0:
64,192,1031386,1,0,0:0:0:0:
192,192,1031536,1,0,0:0:0:0:
320,192,1031686,1,0,0:0:0:0:
64,192,1031686,1,0,0:0:0:0:
448,192,1031836,1,0,0:0:0:0:
192,192,1031836,1,0,0:0:0:0:
320,192,1031986,1,0,0:0:0:0:
64,192,1031986,1,0,0:0:0:0:
448,192,1032136,1,0,0:0:0:0:
192,192,1032136,1,0,0:0:0:0:
448,192,1032286,1,0,0:0:0:0:
64,192,1032286,1,0,0:0:0:0:
320,192,1032286,1,0,0:0:0:0:
192,192,1032436,1,0,0:0:0:0:
448,192,1032586,1,0,0:0:0:0:
64,192,1032586,1,0,0:0:0:0:
320,192,1032586,1,0,0:0:0:0:
192,192,1032736,1,0,0:0:0:0:
448,192,1032886,1,0,0:0:0:0:
320,192,1032886,1,0,0:0:0:0:
64,192,1033036,1,0,0:0:0:0:
192,192,1033111,1,0,0:0:0:0:
448,192,1033186,1,0,0:0:0:0:
320,192,1033186,1,0,0:0:0:0:
64,192,1033261,1,0,0:0:0:0:
448,192,1033336,128,0,1033786:0:0:0:0:
192,192,1033336,1,0,0:0:0:0:
320,192,1033486,1,0,0:0:0:0:
192,192,1033636,1,0,0:0:0:0:
64,192,1033786,128,0,1034236:0:0:0:0:
320,192,1033786,1,0,0:0:0:0:
192,192,1033936,1,0,0:0:0:0:
320,192,1034086,1,0,0:0:0:0:
192,192,1034236,1,0,0:0:0:0:
448,192,1034236,128,0,1034536:0:0:0:0:
320,192,1034386,1,0,0:0:0:0:
64,192,1034536,128,0,1034986:0:0:0:0:
192,192,1034536,1,0,0:0:0:0:
320,192,1034686,1,0,0:0:0:0:
192,192,1034836,1,0,0:0:0:0:
320,192,1034986,1,0,0:0:0:0:
448,192,1034986,128,0,1035436:0:0:0:0:
192,192,1035136,1,0,0:0:0:0:
320,192,1035286,1,0,0:0:0:0:
192,192,1035361,1,0,0:0:0:0:
64,192,1035436,128,0,1035736:0:0:0:0:
320,192,1035436,1,0,0:0:0:0:
192,192,1035586,1,0,0:0:0:0:
448,192,1035736,128,0,1036186:0:0:0:0:
320,192,1035736,1,0,0:0:0:0:
192,192,1035886,1,0,0:0:0:0:
320,192,1036036,1,0,0:0:0:0:
64,192,1036186,128,0,1036636:0:0:0:0:
192,192,1036186,1,0,0:0:0:0:
320,192,1036336,1,0,0:0:0:0:
192,192,1036486,1,0,0:0:0:0:
448,192,1036636,128,0,1036936:0:0:0:0:
320,192,1036636,1,0,0:0:0:0:
192,192,1036786,1,0,0:0:0:0:
64,192,1036936,128,0,1038136:0:0:0:0:
320,192,1036936,1,0,0:0:0:0:
192,192,1037086,1,0,0:0:0:0:
320,192,1037236,1,0,0:0:0:0:
192,192,1037386,1,0,0:0:0:0:
320,192,1037536,1,0,0:0:0:0:
448,192,1037686,1,0,0:0:0:0:
320,192,1037761,1,0,0:0:0:0:
448,192,1037836,1,0,0:0:0:0:
320,192,1037911,1,0,0:0:0:0:
448,192,1037986,1,0,0:0:0:0:
320,192,1038061,1,0,0:0:0:0:
448,192,1038136,1,0,0:0:0:0:
192,192,1038136,1,0,0:0:0:0:
192,192,1038586,1,0,0:0:0:0:
64,192,1038586,1,0,0:0:0:0:
448,192,1038586,1,0,0:0:0:0:
64,192,1039036,1,0,0:0:0:0:
448,192,1039036,1,0,0:0:0:0:
192,192,1039036,1,0,0:0:0:0:
64,192,1039486,1,0,0:0:0:0:
192,192,1039486,1,0,0:0:0:0:
448,192,1039486,1,0,0:0:0:0:
64,192,1039786,1,0,0:0:0:0:
192,192,1039786,1,0,0:0:0:0:
448,192,1039786,1,0,0:0:0:0:
192,192,1039936,1,0,0:0:0:0:
320,192,1039936,1,0,0:0:0:0:
320,192,1040086,1,0,0:0:0:0:
64,192,1040086,1,0,0:0:0:0:
448,192,1040086,1,0,0:0:0:0:
192,192,1040236,1,0,0:0:0:0:
64,192,1040236,1,0,0:0:0:0:
448,192,1040236,1,0,0:0:0:0:
64,192,1040536,1,0,0:0:0:0:
192,192,1040536,1,0,0:0:0:0:
448,192,1040536,1,0,0:0:0:0:
64,192,1040986,1,0,0:0:0:0:
448,192,1040986,1,0,0:0:0:0:
192,192,1040986,1,0,0:0:0:0:
64,192,1041286,1,0,0:0:0:0:
320,192,1041286,1,0,0:0:0:0:
448,192,1041286,1,0,0:0:0:0:
192,192,1041436,1,0,0:0:0:0:
64,192,1041436,1,0,0:0:0:0:
448,192,1041436,1,0,0:0:0:0:
64,192,1041736,1,0,0:0:0:0:
192,192,1041736,1,0,0:0:0:0:
320,192,1041736,1,0,0:0:0:0:
448,192,1041736,1,0,0:0:0:0:
64,192,1042186,128,0,1042336:0:0:0:0:
192,192,1042261,128,0,1042411:0:0:0:0:
320,192,1042336,128,0,1042486:0:0:0:0:
448,192,1042411,128,0,1042561:0:0:0:0:
64,192,1042411,128,0,1042561:0:0:0:0:
192,192,1042486,128,0,1042636:0:0:0:0:
320,192,1042561,128,0,1042711:0:0:0:0:
448,192,1042636,128,0,1042786:0:0:0:0:
64,192,1042636,128,0,1042786:0:0:0:0:
192,192,1042711,128,0,1042861:0:0:0:0:
320,192,1042786,128,0,1042936:0:0:0:0:
448,192,1042861,128,0,1042936:0:0:0:0:
64,192,1042936,1,0,0:0:0:0:
192,192,1042936,128,0,1043386:0:0:0:0:
448,192,1043086,1,0,0:0:0:0:
64,192,1043236,1,0,0:0:0:0:
448,192,1043386,1,0,0:0:0:0:
320,192,1043386,128,0,1043836:0:0:0:0:
64,192,1043536,1,0,0:0:0:0:
448,192,1043686,1,0,0:0:0:0:
64,192,1043836,1,0,0:0:0:0:
192,192,1043836,128,0,1044136:0:0:0:0:
448,192,1043986,1,0,0:0:0:0:
64,192,1044136,1,0,0:0:0:0:
320,192,1044136,128,0,1044586:0:0:0:0:
448,192,1044286,1,0,0:0:0:0:
64,192,1044436,1,0,0:0:0:0:
448,192,1044586,1,0,0:0:0:0:
192,192,1044586,128,0,1045036:0:0:0:0:
64,192,1044736,1,0,0:0:0:0:
64,192,1044886,1,0,0:0:0:0:
448,192,1044961,1,0,0:0:0:0:
64,192,1045036,1,0,0:0:0:0:
320,192,1045036,128,0,1045336:0:0:0:0:
448,192,1045186,1,0,0:0:0:0:
64,192,1045336,1,0,0:0:0:0:
192,192,1045336,128,0,1045786:0:0:0:0:
448,192,1045486,1,0,0:0:0:0:
64,192,1045636,1,0,0:0:0:0:
448,192,1045786,1,0,0:0:0:0:
320,192,1045786,128,0,1046236:0:0:0:0:
64,192,1045936,1,0,0:0:0:0:
192,192,1046086,1,0,0:0:0:0:
64,192,1046236,1,0,0:0:0:0:
448,192,1046236,128,0,1046536:0:0:0:0:
192,192,1046386,1,0,0:0:0:0:
64,192,1046536,1,0,0:0:0:0:
192,192,1046536,1,0,0:0:0:0:
320,192,1046611,1,0,0:0:0:0:
448,192,1046611,1,0,0:0:0:0:
64,192,1046686,1,0,0:0:0:0:
192,192,1046686,1,0,0:0:0:0:
320,192,1046761,1,0,0:0:0:0:
448,192,1046761,1,0,0:0:0:0:
64,192,1046836,1,0,0:0:0:0:
192,192,1046836,1,0,0:0:0:0:
320,192,1046911,1,0,0:0:0:0:
448,192,1046911,1,0,0:0:0:0:
64,192,1046986,1,0,0:0:0:0:
192,192,1046986,1,0,0:0:0:0:
320,192,1047061,1,0,0:0:0:0:
448,192,1047061,1,0,0:0:0:0:
64,192,1047136,1,0,0:0:0:0:
192,192,1047136,1,0,0:0:0:0:
320,192,1047211,1,0,0:0:0:0:
448,192,1047211,1,0,0:0:0:0:
64,192,1047286,1,0,0:0:0:0:
192,192,1047286,1,0,0:0:0:0:
320,192,1047361,1,0,0:0:0:0:
448,192,1047361,1,0,0:0:0:0:
64,192,1047436,1,0,0:0:0:0:
192,192,1047511,1,0,0:0:0:0:
320,192,1047586,1,0,0:0:0:0:
448,192,1047661,1,0,0:0:0:0:
64,192,1047736,1,0,0:0:0:0:
192,192,1047886,1,0,0:0:0:0:
320,192,1048036,1,0,0:0:0:0:
320,192,1048336,1,0,0:0:0:0:
192,192,1048636,1,0,0:0:0:0:
64,192,1048786,1,0,0:0:0:0:
320,192,1048936,1,0,0:0:0:0:
448,192,1049086,1,0,0:0:0:0:
192,192,1049236,1,0,0:0:0:0:
192,192,1049386,1,0,0:0:0:0:
192,192,1049536,1,0,0:0:0:0:
448,192,1049836,1,0,0:0:0:0:
448,192,1049986,1,0,0:0:0:0:
448,192,1050136,1,0,0:0:0:0:
192,192,1050436,1,0,0:0:0:0:
192,192,1050586,1,0,0:0:0:0:
192,192,1050736,1,0,0:0:0:0:
192,192,1051036,1,0,0:0:0:0:
64,192,1051186,1,0,0:0:0:0:
320,192,1051336,1,0,0:0:0:0:
448,192,1051486,1,0,0:0:0:0:
192,192,1051636,1,0,0:0:0:0:
192,192,1051786,1,0,0:0:0:0:
192,192,1051936,1,0,0:0:0:0:
448,192,1052236,1,0,0:0:0:0:
448,192,1052386,1,0,0:0:0:0:
448,192,1052536,1,0,0:0:0:0:
192,192,1052836,1,0,0:0:0:0:
320,192,1053136,1,0,0:0:0:0:
320,192,1053436,1,0,0:0:0:0:
448,192,1053586,1,0,0:0:0:0:
192,192,1053736,1,0,0:0:0:0:
64,192,1053886,1,0,0:0:0:0:
320,192,1054036,1,0,0:0:0:0:
320,192,1054186,1,0,0:0:0:0:
320,192,1054336,1,0,0:0:0:0:
64,192,1054636,1,0,0:0:0:0:
64,192,1054786,1,0,0:0:0:0:
64,192,1054936,1,0,0:0:0:0:
320,192,1055236,1,0,0:0:0:0:
320,192,1055386,1,0,0:0:0:0:
320,192,1055536,1,0,0:0:0:0:
320,192,1055836,1,0,0:0:0:0:
448,192,1055986,1,0,0:0:0:0:
192,192,1056136,1,0,0:0:0:0:
64,192,1056286,1,0,0:0:0:0:
320,192,1056436,1,0,0:0:0:0:
320,192,1056586,1,0,0:0:0:0:
320,192,1056736,1,0,0:0:0:0:
64,192,1057036,1,0,0:0:0:0:
64,192,1057186,1,0,0:0:0:0:
64,192,1057336,1,0,0:0:0:0:
320,192,1057636,1,0,0:0:0:0:
