osu file format v14

[General]
AudioFilename: medley.mp3
AudioLeadIn: 2000
PreviewTime: 580353
Countdown: 0
SampleSet: None
StackLeniency: 0.7
Mode: 3
LetterboxInBreaks: 0
SpecialStyle: 0
WidescreenStoryboard: 1

[Editor]
Bookmarks: 96674,199621,320884,408893,412093,487521,573235,580253,672073,704073,761673,787273,898706,1047336,1058436,1094446,1110446,1154446,1227446,1233106
DistanceSpacing: 1.5
BeatDivisor: 8
GridSize: 4
TimelineZoom: 1.2

[Metadata]
Title:THE MEDLEY OF POKEMON RGBY+GSC -3PBs-
TitleUnicode:THE MEDLEY OF POKéMON RGBY+GSC -3PBs-
Artist:hapi
ArtistUnicode:hapi⇒
Creator:pikechu
Version:The 3rd Part
Source:Pokémon
Tags:remix red green blue gold silver crystal vocaloid master ntd03 golden sun pikachu raichu pichu nintendo gamefreak gb gba hapinano
BeatmapID:1911718
BeatmapSetID:908046

[Difficulty]
HPDrainRate:8
CircleSize:4
OverallDifficulty:8
ApproachRate:9
SliderMultiplier:1.6
SliderTickRate:1

[Events]
//Background and Video events
0,0,"background.jpg",0,0
//Break Periods
//Storyboard Layer 0 (Background)
//Storyboard Layer 1 (Fail)
//Storyboard Layer 2 (Pass)
//Storyboard Layer 3 (Foreground)
//Storyboard Sound Samples

[TimingPoints]
1406,315.789473684211,4,2,1,40,1,0
7721,-100,4,2,1,40,0,0
7800,-100,4,2,3,40,0,0
12774,-133.333333333333,4,2,2,40,0,0
12853,-80,4,2,2,40,0,0
12932,-100,4,2,2,40,0,0
13090,-133.333333333333,4,2,2,40,0,0
13169,-80,4,2,2,40,0,0
13248,-100,4,2,2,40,0,0
13406,-133.333333333333,4,2,2,40,0,0
13485,-80,4,2,2,40,0,0
13564,-100,4,2,2,40,0,0
13721,-133.333333333333,4,2,2,40,0,0
13800,-80,4,2,2,40,0,0
13879,-100,4,2,2,40,0,0
14037,-133.333333333333,4,2,2,40,0,0
14116,-80,4,2,2,40,0,0
14195,-100,4,2,2,40,0,0
14353,-133.333333333333,4,2,2,40,0,0
14432,-80,4,2,2,40,0,0
14511,-100,4,2,2,40,0,0
14669,-133.333333333333,4,2,2,40,0,0
14748,-80,4,2,2,40,0,0
14827,-133.333333333333,4,2,2,40,0,0
14906,-80,4,2,2,40,0,0
14984,-133.333333333333,4,2,2,40,0,0
15063,-80,4,2,2,40,0,0
15142,-100,4,2,2,40,0,0
15300,-133.333333333333,4,2,2,40,0,0
15379,-80,4,2,2,40,0,0
15458,-100,4,2,2,40,0,0
15616,-133.333333333333,4,2,2,40,0,0
15695,-80,4,2,2,40,0,0
15774,-100,4,2,2,40,0,0
15932,-133.333333333333,4,2,2,40,0,0
16011,-80,4,2,2,40,0,0
16090,-100,4,2,2,40,0,0
16248,-133.333333333333,4,2,2,40,0,0
16327,-80,4,2,2,40,0,0
16406,-100,4,2,2,40,0,0
16563,-133.333333333333,4,2,2,40,0,0
16642,-80,4,2,2,40,0,0
16721,-100,4,2,2,40,0,0
16879,-133.333333333333,4,2,2,40,0,0
16958,-80,4,2,2,40,0,0
17037,-133.333333333333,4,2,2,40,0,0
17116,-80,4,2,2,40,0,0
17194,-133.333333333333,4,2,2,40,0,0
17273,-80,4,2,2,40,0,0
17352,-100,4,2,2,40,0,0
17511,-133.333333333333,4,2,2,40,0,0
17590,-80,4,2,2,40,0,0
17669,-100,4,2,2,40,0,0
17827,-133.333333333333,4,2,2,40,0,0
17906,-80,4,2,2,40,0,0
17985,-100,4,2,2,40,0,0
18142,-133.333333333333,4,2,2,40,0,0
18221,-80,4,2,2,40,0,0
18300,-100,4,2,2,40,0,0
18458,-133.333333333333,4,2,2,40,0,0
18537,-80,4,2,2,40,0,0
18616,-100,4,2,2,40,0,0
18774,-133.333333333333,4,2,2,40,0,0
18853,-80,4,2,2,40,0,0
18932,-100,4,2,2,40,0,0
19090,-133.333333333333,4,2,2,40,0,0
19169,-80,4,2,2,40,0,0
19248,-100,4,2,2,40,0,0
19406,-133.333333333333,4,2,2,40,0,0
19485,-80,4,2,2,40,0,0
19564,-100,4,2,2,40,0,0
19721,-133.333333333333,4,2,2,40,0,0
19800,-80,4,2,2,40,0,0
19879,-133.333333333333,4,2,2,40,0,0
19958,-80,4,2,2,40,0,0
20036,-133.333333333333,4,2,2,40,0,0
20115,-80,4,2,2,40,0,0
20194,-100,4,2,2,40,0,0
20353,-133.333333333333,4,2,2,40,0,0
20432,-80,4,2,2,40,0,0
20511,-100,4,2,2,40,0,0
20669,-133.333333333333,4,2,2,40,0,0
20748,-80,4,2,2,40,0,0
20827,-100,4,2,2,40,0,0
20984,-133.333333333333,4,2,2,40,0,0
21063,-80,4,2,2,40,0,0
21142,-100,4,2,2,40,0,0
21300,-133.333333333333,4,2,2,40,0,0
21379,-80,4,2,2,40,0,0
21458,-100,4,2,2,40,0,0
21616,-133.333333333333,4,2,2,40,0,0
21695,-80,4,2,2,40,0,0
21774,-100,4,2,2,40,0,0
21932,-133.333333333333,4,2,2,40,0,0
22011,-80,4,2,2,40,0,0
22090,-133.333333333333,4,2,2,40,0,0
22169,-80,4,2,2,40,0,0
22247,-133.333333333333,4,2,2,40,0,0
22326,-80,4,2,2,40,0,0
22405,-100,4,2,2,40,0,0
22563,-133.333333333333,4,2,2,40,0,0
22642,-80,4,2,2,40,0,0
22721,-100,4,2,2,40,0,0
22879,-133.333333333333,4,2,2,40,0,0
22958,-80,4,2,2,40,0,0
23037,-100,4,2,2,40,0,0
23195,-133.333333333333,4,2,2,40,0,0
23274,-80,4,2,2,40,0,0
23353,-100,4,2,2,40,0,0
23511,-133.333333333333,4,2,2,40,0,0
23590,-80,4,2,2,40,0,0
23669,-100,4,2,2,40,0,0
25090,-133.333333333333,4,2,2,40,0,0
25169,-80,4,2,2,40,0,0
25248,-100,4,2,2,40,0,0
25405,-100,4,2,3,40,0,0
25484,-100,4,2,1,40,0,0
30458,-100,4,2,1,40,0,0
35511,-100,4,2,1,40,0,0
37406,-100,4,2,2,40,0,0
37721,-100,4,2,1,40,0,0
39616,-100,4,2,2,40,0,0
40011,-100,4,2,1,40,0,0
42458,-100,4,2,2,40,0,0
42853,-100,4,2,1,40,0,0
44669,-100,4,2,2,40,0,0
45063,-100,4,2,1,40,0,0
47511,-100,4,2,2,40,0,0
47906,-100,4,2,1,40,0,0
49721,-100,4,2,2,40,0,0
50116,-100,4,2,1,40,0,0
52563,-100,4,2,2,40,0,0
52958,-100,4,2,1,40,0,0
55090,-100,4,2,2,40,0,0
55800,-100,4,2,1,40,0,0
57616,-100,4,2,2,40,0,0
57932,-100,4,2,1,40,0,0
59511,-100,4,2,2,40,0,0
60537,-100,4,2,1,40,0,0
61406,-100,4,2,2,40,0,0
61563,-100,4,2,1,40,0,0
63932,-100,4,2,2,40,0,0
64090,-100,4,2,1,40,0,0
65195,-100,4,2,2,40,0,0
65353,-100,4,2,1,40,0,0
65511,-100,4,2,2,40,0,0
65827,-100,4,2,2,40,0,0
69616,-100,4,2,1,40,0,0
70879,-100,4,2,2,40,0,0
75932,-100,4,2,1,40,0,0
77827,-100,4,2,2,40,0,0
78221,-100,4,2,1,40,0,0
80195,-100,4,2,2,40,0,0
80511,-100,4,2,1,40,0,0
82879,-100,4,2,2,40,0,0
83195,-100,4,2,1,40,0,0
84774,-100,4,2,2,40,0,0
86037,-100,4,2,1,40,0,0
90300,-100,4,2,2,40,0,0
90616,-100,4,2,1,40,0,0
92984,-100,4,2,2,40,0,0
93300,-100,4,2,1,40,0,0
94879,-100,4,2,2,40,0,0
95984,-83.3333333333333,4,2,2,40,0,0
96063,-133.333333333333,4,2,2,40,0,0
96142,-83.3333333333333,4,2,2,40,0,0
96221,-133.333333333333,4,2,2,40,0,0
96300,-83.3333333333333,4,2,2,40,0,0
96379,-133.333333333333,4,2,2,40,0,0
96458,-83.3333333333333,4,2,2,40,0,0
96537,-133.333333333333,4,2,2,40,0,0
96616,-83.3333333333333,4,2,2,40,0,0
96695,-133.333333333333,4,2,2,40,0,0
96774,-100,4,2,2,40,0,0
106090,-133.333333333333,4,2,2,40,0,0
106169,-76.9230769230769,4,2,2,40,0,0
106248,-133.333333333333,4,2,2,40,0,0
106406,-76.9230769230769,4,2,2,40,0,0
106563,-133.333333333333,4,2,2,40,0,0
106721,-76.9230769230769,4,2,2,40,0,0
106879,-100,4,2,2,40,0,0
107195,-100,4,2,1,40,0,0
107511,-100,4,2,3,40,0,0
107590,-100,4,2,1,40,0,0
117300,-100,4,2,2,40,0,0
117616,-100,4,2,1,40,0,0
119511,-100,4,2,2,40,0,0
119906,-100,4,2,1,40,0,0
121879,-100,4,2,2,40,0,0
122195,-100,4,2,1,40,0,0
124563,-100,4,2,2,40,0,0
124958,-100,4,2,1,40,0,0
126142,-100,4,2,2,40,0,0
127721,-100,4,2,1,40,0,0
129616,-100,4,2,2,40,0,0
130011,-100,4,2,1,40,0,0
131827,-100,4,2,2,40,0,0
132221,-100,4,2,1,40,0,0
134669,-100,4,2,2,40,0,0
135063,-100,4,2,1,40,0,0
136563,-100,4,2,2,40,0,0
137827,-100,4,2,3,40,0,0
137984,-100,4,2,1,40,0,0
139721,-100,4,2,2,40,0,0
140037,-100,4,2,1,40,0,0
141932,-100,4,2,2,40,0,0
142327,-100,4,2,1,40,0,0
144774,-100,4,2,2,40,0,0
145090,-100,4,2,1,40,0,0
146827,-100,4,2,2,40,0,0
147616,-100,4,2,1,40,0,0
149827,-100,4,2,2,40,0,0
150221,-100,4,2,1,40,0,0
152353,-100,4,2,2,40,0,0
152827,-100,4,2,1,40,0,0
158037,-100,4,2,3,40,0,0
158116,-100,4,2,1,40,0,0
159932,-100,4,2,2,40,0,0
160406,-100,4,2,1,40,0,0
162142,-100,4,2,2,40,0,0
162537,-100,4,2,1,40,0,0
164984,-100,4,2,2,40,0,0
165300,-100,4,2,1,40,0,0
166879,-100,4,2,2,40,0,0
168063,-100,4,2,1,40,0,0
170037,-100,4,2,2,40,0,0
170353,-100,4,2,1,40,0,0
172248,-100,4,2,2,40,0,0
172642,-100,4,2,1,40,0,0
175090,-100,4,2,2,40,0,0
175406,-100,4,2,1,40,0,0
176984,-100,4,2,2,40,0,0
177300,-100,4,2,1,40,0,0
177379,-100,4,2,2,40,0,0
177616,-100,4,2,2,40,0,0
177932,-100,4,2,1,40,0,0
178011,-100,4,2,2,40,0,0
178090,-100,4,2,1,40,0,0
178248,-100,4,2,3,40,0,0
178327,-100,4,2,1,40,0,0
180142,-100,4,2,2,40,0,0
180300,-100,4,2,1,40,0,0
182511,-100,4,2,2,40,0,0
182827,-100,4,2,2,40,0,0
183142,-100,4,2,1,40,0,0
185195,-100,4,2,2,40,0,0
185590,-100,4,2,1,40,0,0
187090,-100,4,2,2,40,0,0
188353,-100,4,2,1,40,0,0
188432,-100,4,2,2,40,0,0
189616,-100,4,2,1,40,0,0
189695,-100,4,2,2,40,0,0
190879,-100,4,2,1,40,0,0
190958,-100,4,2,2,40,0,0
192142,-100,4,2,1,40,0,0
192221,-100,4,2,2,40,0,0
193406,-100,4,2,1,40,0,0
193484,-100,4,2,2,40,0,0
194669,-100,4,2,1,40,0,0
194748,-100,4,2,2,40,0,0
195932,-100,4,2,1,40,0,0
196011,-100,4,2,2,40,0,0
197195,-100,4,2,1,40,0,0
197274,-100,4,2,2,40,0,0
198616,-100,4,2,1,40,0,0
198774,-100,4,2,2,40,0,0
198932,-100,4,2,1,40,0,0
199090,-100,4,2,2,40,0,0
199721,-100,4,2,1,40,0,0
200669,-100,4,2,1,40,0,0
200984,-100,4,2,3,40,0,0
201063,-100,4,2,1,40,0,0
202879,-100,4,2,2,40,0,0
203195,-100,4,2,1,40,0,0
205090,-100,4,2,2,40,0,0
205563,-100,4,2,1,40,0,0
207932,-100,4,2,2,40,0,0
208248,-100,4,2,1,40,0,0
208721,-100,4,2,2,40,0,0
208879,-100,4,2,1,40,0,0
209037,-100,4,2,2,40,0,0
209511,-100,4,2,1,40,0,0
209669,-100,4,2,2,40,0,0
209827,-100,4,2,1,40,0,0
209984,-100,4,2,2,40,0,0
211090,-100,4,2,1,40,0,0
212984,-100,4,2,2,40,0,0
213300,-100,4,2,1,40,0,0
215195,-100,4,2,2,40,0,0
215669,-100,4,2,1,40,0,0
218037,-100,4,2,2,40,0,0
218353,-100,4,2,1,40,0,0
218669,-100,4,2,2,40,0,0
218984,-100,4,2,1,40,0,0
219142,-100,4,2,2,40,0,0
219616,-100,4,2,1,40,0,0
219774,-100,4,2,2,40,0,0
220721,-100,4,2,2,40,0,0
221195,-100,4,2,1,40,0,0
223090,-100,4,2,2,40,0,0
223406,-100,4,2,1,40,0,0
225300,-100,4,2,2,40,0,0
225932,-100,4,2,1,40,0,0
228142,-100,4,2,2,40,0,0
228458,-100,4,2,1,40,0,0
230037,-100,4,2,2,40,0,0
231300,-100,4,2,1,40,0,0
233195,-100,4,2,2,40,0,0
233511,-100,4,2,1,40,0,0
235563,-100,4,2,2,40,0,0
235958,-100,4,2,1,40,0,0
238248,-100,4,2,2,40,0,0
238563,-100,4,2,1,40,0,0
240300,-100,4,2,2,40,0,0
240458,-100,4,2,1,40,0,0
240616,-100,4,2,2,40,0,0
241090,-100,4,2,1,40,0,0
241248,-100,4,2,2,40,0,0
241406,-263.157894736842,4,2,1,40,0,0
241445,-100,4,2,1,40,0,0
241484,-263.157894736842,4,2,1,40,0,0
241523,-100,4,2,1,40,0,0
241563,-263.157894736842,4,2,1,40,0,0
241602,-100,4,2,1,40,0,0
241642,-263.157894736842,4,2,1,40,0,0
241681,-100,4,2,1,40,0,0
241721,-10000,4,2,1,40,0,0
241879,-100,4,2,1,40,0,0
242037,-10000,4,2,1,40,0,0
242195,-100,4,2,1,40,0,0
242669,-263.157894736842,4,2,1,40,0,0
242708,-100,4,2,1,40,0,0
242747,-263.157894736842,4,2,1,40,0,0
242786,-100,4,2,1,40,0,0
242826,-263.157894736842,4,2,1,40,0,0
242865,-100,4,2,1,40,0,0
242905,-263.157894736842,4,2,1,40,0,0
242944,-100,4,2,1,40,0,0
242984,-10000,4,2,1,40,0,0
243142,-100,4,2,1,40,0,0
243300,-10000,4,2,1,40,0,0
243458,-100,4,2,1,40,0,0
244090,-100,4,2,2,40,0,0
244248,-100,4,2,1,40,0,0
244563,-100,4,2,2,40,0,0
244721,-100,4,2,1,40,0,0
244958,-100,4,2,2,40,0,0
245195,-100,4,2,1,40,0,0
248353,-100,4,2,2,40,0,0
248590,-100,4,2,1,40,0,0
250484,-100,4,2,2,40,0,0
251037,-100,4,2,1,40,0,0
251984,-100,4,2,2,40,0,0
252458,-100,4,2,1,40,0,0
252616,-100,4,2,2,40,0,0
252774,-100,4,2,1,40,0,0
252932,-100,4,2,2,40,0,0
253090,-100,4,2,1,40,0,0
253248,-100,4,2,2,40,0,0
253721,-100,4,2,1,40,0,0
253879,-100,4,2,2,40,0,0
254037,-100,4,2,1,40,0,0
255458,-100,4,2,2,40,0,0
256248,-100,4,2,1,40,0,0
256327,-100,4,2,2,40,0,0
256563,-100,4,2,1,40,0,0
258458,-100,4,2,2,40,0,0
258695,-100,4,2,1,40,0,0
260669,-100,4,2,2,40,0,0
261063,-100,4,2,1,40,0,0
263511,-100,4,2,2,40,0,0
263827,-100,4,2,1,40,0,0
265642,-100,4,2,1,40,0,0
265721,-100,4,2,1,40,0,0
265958,-100,4,2,1,40,0,0
266037,-100,4,2,1,40,0,0
266353,-100,4,2,2,40,0,0
266669,-100,4,2,1,40,0,0
268563,-100,4,2,2,40,0,0
268879,-100,4,2,1,40,0,0
270932,-100,4,2,2,40,0,0
271248,-100,4,2,1,40,0,0
273616,-100,4,2,2,40,0,0
273932,-100,4,2,1,40,0,0
275511,-100,4,2,2,40,0,0
276142,-100,4,2,1,40,0,0
278669,-100,4,2,2,40,0,0
278984,-100,4,2,1,40,0,0
280879,-100,4,2,2,40,0,0
281511,-100,4,2,1,40,0,0
283721,-100,4,2,2,40,0,0
284116,-100,4,2,1,40,0,0
285774,-100,4,2,2,40,0,0
286327,-100,4,2,2,40,0,0
286406,-100,4,2,2,40,0,0
286879,-100,4,2,1,40,0,0
286958,-100,4,2,2,40,0,0
287195,-100,4,2,1,40,0,0
287274,-100,4,2,2,40,0,0
287511,-100,4,2,1,40,0,0
287590,-100,4,2,2,40,0,0
287827,-100,4,2,1,40,0,0
287906,-100,4,2,2,40,0,0
288142,-100,4,2,1,40,0,0
290037,-100,4,2,2,40,0,0
290353,-100,4,2,2,40,0,0
290511,-100,4,2,2,40,0,0
290669,-100,4,2,1,40,0,0
292248,-100,4,2,2,40,0,0
292642,-100,4,2,2,40,0,0
292879,-100,4,2,1,40,0,0
293037,-100,4,2,1,40,0,0
293353,-100,4,2,1,40,0,0
294537,-100,4,2,1,40,0,0
294616,-100,4,2,1,40,0,0
295090,-100,4,2,2,40,0,0
295563,-100,4,2,1,40,0,0
297142,-100,4,2,2,40,0,0
297616,-100,4,2,1,40,0,0
297774,-100,4,2,2,40,0,0
298248,-100,4,2,1,40,0,0
298484,-100,4,2,1,40,0,0
298563,-100,4,2,1,40,0,0
299037,-100,4,2,1,40,0,0
299116,-100,4,2,1,40,0,0
299195,-100,4,2,1,40,0,0
299590,-100,4,2,2,40,0,0
300774,-100,4,2,1,40,0,0
302669,-100,4,2,2,40,0,0
303300,-100,4,2,1,40,0,0
307721,-100,4,2,2,40,0,0
308116,-100,4,2,1,40,0,0
310090,-100,4,2,2,40,0,0
310563,-100,4,2,1,40,0,0
310721,-100,4,2,2,40,0,0
310879,-100,4,2,1,40,0,0
312774,-100,4,2,2,40,0,0
313011,-100,4,2,1,40,0,0
315142,-100,4,2,2,40,0,0
315537,-100,4,2,1,40,0,0
317827,-100,4,2,2,40,0,0
318063,-100,4,2,1,40,0,0
320195,-100,4,2,2,40,0,0
320906,-100,4,2,2,40,0,0
320984,-100,4,2,1,40,0,0
331090,-100,4,2,1,40,0,0
332984,-100,4,2,2,40,0,0
333300,-100,4,2,1,40,0,0
335353,-100,4,2,2,40,0,0
335827,-100,4,2,1,40,0,0
338037,-100,4,2,2,40,0,0
338353,-100,4,2,1,40,0,0
340879,-100,4,2,2,40,0,0
341116,-100,4,2,1,40,0,0
343090,-100,4,2,2,40,0,0
343406,-100,4,2,1,40,0,0
345458,-100,4,2,2,40,0,0
345774,-100,4,2,1,40,0,0
348142,-100,4,2,2,40,0,0
348458,-100,4,2,1,40,0,0
350037,-100,4,2,2,40,0,0
351300,-100,4,2,1,40,0,0
353195,-100,4,2,2,40,0,0
353511,-100,4,2,1,40,0,0
355563,-100,4,2,2,40,0,0
355879,-100,4,2,1,40,0,0
358248,-100,4,2,2,40,0,0
358563,-100,4,2,1,40,0,0
360142,-100,4,2,2,40,0,0
361406,-100,4,2,1,40,0,0
363300,-100,4,2,2,40,0,0
363774,-100,4,2,1,40,0,0
365669,-100,4,2,2,40,0,0
365984,-100,4,2,1,40,0,0
368353,-100,4,2,2,40,0,0
368748,-100,4,2,1,40,0,0
370721,-100,4,2,2,40,0,0
371037,-100,4,2,1,40,0,0
372616,-100,4,2,1,40,0,0
372853,-100,4,2,1,40,0,0
374037,-100,4,2,1,40,0,0
374984,-100,4,2,2,40,0,0
375300,-100,4,2,1,40,0,0
375932,-100,4,2,2,40,0,0
376090,-100,4,2,1,40,0,0
376406,-100,4,2,2,40,0,0
376563,-100,4,2,1,40,0,0
376721,-100,4,2,2,40,0,0
376800,-100,4,2,1,40,0,0
377037,-100,4,2,2,40,0,0
377353,-100,4,2,1,40,0,0
378458,-100,4,2,2,40,0,0
378616,-100,4,2,1,40,0,0
379721,-100,4,2,2,40,0,0
379879,-100,4,2,1,40,0,0
380511,-100,4,2,2,40,0,0
382879,-100,4,2,1,40,0,0
384774,-100,4,2,2,40,0,0
385011,-100,4,2,1,40,0,0
387142,-100,4,2,2,40,0,0
387379,-100,4,2,1,40,0,0
389827,-100,4,2,2,40,0,0
390142,-100,4,2,1,40,0,0
392827,-100,4,2,2,40,0,0
392984,-100,4,2,1,40,0,0
394879,-100,4,2,2,40,0,0
395195,-100,4,2,1,40,0,0
397248,-100,4,2,2,40,0,0
397484,-100,4,2,1,40,0,0
399300,327.868852459016,4,2,1,40,1,0
399300,-96.1538461538461,4,2,1,40,0,0
399955,-96.1538461538461,4,2,2,40,0,0
400283,-96.1538461538461,4,2,1,40,0,0
401922,342.857142857143,4,2,1,40,1,0
401922,-91.743119266055,4,2,1,40,0,0
402607,-91.743119266055,4,2,2,40,0,0
402950,-91.743119266055,4,2,1,40,0,0
403293,346.820809248555,4,2,1,40,1,0
403293,-90.9090909090909,4,2,1,40,0,0
406075,363.636363636364,4,2,1,40,1,0
406075,-86.9565217391304,4,2,1,40,0,0
407533,368.098159509202,4,2,1,40,1,0
407533,-85.4700854700855,4,2,1,40,0,0
408993,400,4,2,1,40,1,0
408993,-78.7401574803149,4,2,1,40,0,0
412193,428.571428571429,4,2,1,40,1,0
412193,-73.5294117647059,4,2,1,40,0,0
417764,-73.5294117647059,4,2,1,40,0,0
419050,-73.5294117647059,4,2,1,40,0,0
443050,-73.5294117647059,4,2,2,35,0,0
443907,-73.5294117647059,4,2,2,45,0,0
444764,-73.5294117647059,4,2,2,55,0,0
445621,-73.5294117647059,4,2,2,65,0,0
446264,-73.5294117647059,4,2,1,67,0,0
456228,-73.5294117647059,4,2,1,67,0,0
456443,-73.5294117647059,4,2,1,67,0,0
461264,-73.5294117647059,4,2,1,67,0,0
461478,-73.5294117647059,4,2,1,67,0,0
464693,-73.5294117647059,4,2,1,67,0,0
464907,-73.5294117647059,4,2,1,67,0,0
476478,-73.5294117647059,4,2,2,67,0,0
476907,-73.5294117647059,4,2,1,67,0,0
479907,-73.5294117647059,4,2,2,67,0,0
480335,-73.5294117647059,4,2,1,67,0,0
481621,-73.5294117647059,4,2,2,67,0,0
482050,-73.5294117647059,4,2,1,67,0,0
483550,-73.5294117647059,4,2,1,67,0,0
483764,-73.5294117647059,4,2,1,67,0,0
484193,-73.5294117647059,4,2,2,67,0,0
484300,-73.5294117647059,4,2,2,67,0,0
485050,-73.5294117647059,4,2,2,67,0,0
485907,-73.5294117647059,4,2,2,67,0,0
486335,-73.5294117647059,4,2,2,67,0,0
486764,-73.5294117647059,4,2,2,67,0,0
487193,-73.5294117647059,4,2,2,67,0,0
487621,-73.5294117647059,4,2,2,67,0,0
487728,-73.5294117647059,4,2,1,67,0,0
492764,-73.5294117647059,4,2,2,55,0,0
493621,-73.5294117647059,4,2,1,45,0,0
493907,-73.5294117647059,4,2,2,45,0,0
494050,-73.5294117647059,4,2,1,45,0,0
494335,-73.5294117647059,4,2,2,45,0,0
494478,-73.5294117647059,4,2,1,55,0,0
494621,-73.5294117647059,4,2,2,55,0,0
504764,-73.5294117647059,4,2,1,55,0,0
509907,-73.5294117647059,4,2,1,55,0,0
516621,-73.5294117647059,4,2,1,45,0,0
516764,-73.5294117647059,4,2,1,55,0,0
528764,-73.5294117647059,4,2,1,35,0,0
528907,-73.5294117647059,4,2,2,35,0,0
529621,-73.5294117647059,4,2,2,45,0,0
530478,-73.5294117647059,4,2,2,55,0,0
530907,-73.5294117647059,4,2,2,60,0,0
531335,-73.5294117647059,4,2,2,65,0,0
532193,-73.5294117647059,4,2,1,65,0,0
557907,-73.5294117647059,4,2,1,55,0,0
558014,-73.5294117647059,4,2,2,55,0,0
558335,-73.5294117647059,4,2,2,60,0,0
558764,-73.5294117647059,4,2,2,65,0,0
573335,-73.5294117647059,4,2,3,20,0,0
573550,-133.333333333333,4,2,3,20,0,0
580353,444.444444444444,4,2,1,20,1,0
580353,-71.4285714285714,4,2,1,20,0,0
594907,333.333333333333,4,2,1,20,1,0
594907,-94.3396226415094,4,2,1,20,0,0
609407,-133.333333333333,4,2,1,20,0,0
609490,-92.5925925925926,4,2,1,20,0,0
609576,317.460317460317,4,2,1,80,1,0
611322,-138.888888888889,4,2,1,80,0,0
611401,-98.0392156862745,4,2,1,80,0,0
611484,285.714285714286,4,2,1,80,1,0
611484,-111.111111111111,4,2,1,80,0,0
611626,-142.857142857143,4,2,1,80,0,0
611698,-106.382978723404,4,2,1,80,0,0
613555,-142.857142857143,4,2,1,80,0,0
613626,-106.382978723404,4,2,1,80,0,0
613698,250,4,2,1,80,1,0
613698,-126.582278481013,4,2,1,80,0,0
613823,-181.818181818182,4,2,1,80,0,0
613885,-117.647058823529,4,2,1,80,0,0
614073,-181.818181818182,4,2,1,80,0,0
614135,-117.647058823529,4,2,1,80,0,0
615323,-181.818181818182,4,2,1,80,0,0
615385,-117.647058823529,4,2,1,80,0,0
615416,226.415094339623,4,2,1,80,1,0
615416,-138.888888888889,4,2,1,80,0,0
615642,-200,4,2,1,80,0,0
615699,-125,4,2,1,80,0,0
615755,-200,4,2,1,80,0,0
615812,-125,4,2,1,80,0,0
615982,-200,4,2,1,80,0,0
616038,-125,4,2,1,80,0,0
616095,218.181818181818,4,2,1,80,1,0
616095,-144.927536231884,4,2,1,80,0,0
616422,-217.391304347826,4,2,1,80,0,0
616476,-126.582278481013,4,2,1,80,0,0
616544,214.285714285714,4,2,1,80,1,0
616544,-147.058823529412,4,2,1,80,0,0
616865,-222.222222222222,4,2,1,80,0,0
616919,-121.951219512195,4,2,1,80,0,0
616959,206.896551724138,4,2,1,80,1,0
616959,-151.515151515152,4,2,1,80,0,0
617269,-232.558139534884,4,2,1,80,0,0
617321,-121.951219512195,4,2,1,80,0,0
617683,-232.558139534884,4,2,1,80,0,0
617734,-121.951219512195,4,2,1,80,0,0
617773,400,4,2,1,80,1,0
617773,-78.7401574803149,4,2,1,80,0,0
630173,-78.7401574803149,4,2,2,80,0,0
630573,-78.7401574803149,4,2,1,80,0,0
636173,-78.7401574803149,4,2,2,80,0,0
636573,-78.7401574803149,4,2,1,80,0,0
641973,-78.7401574803149,4,2,2,80,0,0
643373,-78.7401574803149,4,2,1,70,0,0
643573,-78.7401574803149,4,2,1,30,0,0
643773,-78.7401574803149,4,2,1,40,0,0
643973,-78.7401574803149,4,2,1,30,0,0
644173,-78.7401574803149,4,2,1,40,0,0
645173,-78.7401574803149,4,2,1,30,0,0
645373,-78.7401574803149,4,2,1,40,0,0
645573,-78.7401574803149,4,2,1,30,0,0
645773,-78.7401574803149,4,2,1,70,0,0
645873,-78.7401574803149,4,2,1,40,0,0
646073,-78.7401574803149,4,2,2,70,0,0
646173,-78.7401574803149,4,2,1,30,0,0
646573,-78.7401574803149,4,2,1,31,0,0
652773,-78.7401574803149,4,2,2,31,0,0
652973,-78.7401574803149,4,2,1,31,0,0
657973,-78.7401574803149,4,2,1,30,0,0
658173,-78.7401574803149,4,2,1,40,0,0
658373,-78.7401574803149,4,2,1,30,0,0
658573,-78.7401574803149,4,2,1,40,0,0
658673,-78.7401574803149,4,2,1,50,0,0
658773,-78.7401574803149,4,2,1,60,0,0
658873,-78.7401574803149,4,2,1,30,0,0
659373,-66.6666666666667,4,2,1,30,0,0
659473,-133.333333333333,4,2,1,30,0,0
659573,-66.6666666666667,4,2,1,30,0,0
659673,-133.333333333333,4,2,1,30,0,0
659773,-66.6666666666667,4,2,1,30,0,0
659873,-133.333333333333,4,2,1,30,0,0
659973,-66.6666666666667,4,2,1,30,0,0
660073,-133.333333333333,4,2,1,30,0,0
660173,-78.7401574803149,4,2,1,30,0,0
660573,-133.333333333333,4,2,1,30,0,0
660973,-117.647058823529,4,2,1,30,0,0
661373,-105.263157894737,4,2,1,30,0,0
661773,-95.2380952380952,4,2,1,30,0,0
661973,-86.9565217391304,4,2,1,30,0,0
662173,-80,4,2,1,30,0,0
662373,-78.7401574803149,4,2,1,30,0,0
662573,-117.647058823529,4,2,1,30,0,0
662973,-105.263157894737,4,2,1,30,0,0
663173,-95.2380952380952,4,2,1,30,0,0
663373,-86.9565217391304,4,2,1,30,0,0
663773,-133.333333333333,4,2,1,30,0,0
664173,-105.263157894737,4,2,1,30,0,0
664573,-86.9565217391304,4,2,1,30,0,0
664973,-66.6666666666667,4,2,1,30,0,0
665073,-133.333333333333,4,2,1,30,0,0
665173,-66.6666666666667,4,2,1,30,0,0
665273,-133.333333333333,4,2,1,30,0,0
665373,-66.6666666666667,4,2,1,30,0,0
665473,-133.333333333333,4,2,1,30,0,0
665573,-66.6666666666667,4,2,1,30,0,0
665673,-133.333333333333,4,2,1,30,0,0
665773,-10000,4,2,1,30,0,0
665973,-33.3333333333333,4,2,1,30,0,0
666073,-78.7401574803149,4,2,1,30,0,0
666173,-10000,4,2,1,30,0,0
666398,-33.3333333333333,4,2,1,30,0,0
666473,-78.7401574803149,4,2,1,30,0,0
666573,-10000,4,2,1,30,0,0
666823,-33.3333333333333,4,2,1,30,0,0
666873,-78.7401574803149,4,2,1,30,0,0
666973,-10000,4,2,1,30,0,0
667248,-33.3333333333333,4,2,1,30,0,0
667273,-78.7401574803149,4,2,1,30,0,0
667373,-10000,4,2,1,30,0,0
667623,-33.3333333333333,4,2,1,30,0,0
667673,-78.7401574803149,4,2,1,30,0,0
667773,-10000,4,2,1,30,0,0
667973,-33.3333333333333,4,2,1,30,0,0
668073,-78.7401574803149,4,2,1,30,0,0
668173,-10000,4,2,1,30,0,0
668398,-33.3333333333333,4,2,1,30,0,0
668473,-78.7401574803149,4,2,1,30,0,0
668573,-10000,4,2,1,30,0,0
668823,-33.3333333333333,4,2,1,30,0,0
668873,-78.7401574803149,4,2,1,30,0,0
668973,-100,4,2,1,30,0,0
669173,-66.6666666666667,4,2,1,30,0,0
669273,-78.7401574803149,4,2,1,30,0,0
669373,-100,4,2,1,30,0,0
669573,-66.6666666666667,4,2,1,30,0,0
669673,-78.7401574803149,4,2,1,30,0,0
669773,-100,4,2,1,30,0,0
669973,-66.6666666666667,4,2,1,30,0,0
670073,-78.7401574803149,4,2,1,30,0,0
670173,-100,4,2,1,30,0,0
670373,-66.6666666666667,4,2,1,30,0,0
670473,-78.7401574803149,4,2,1,30,0,0
670573,-100,4,2,1,30,0,0
670773,-66.6666666666667,4,2,1,30,0,0
670873,-78.7401574803149,4,2,1,30,0,0
670973,-100,4,2,1,30,0,0
671173,-66.6666666666667,4,2,1,30,0,0
671273,-78.7401574803149,4,2,1,30,0,0
671373,-100,4,2,1,30,0,0
671573,-66.6666666666667,4,2,1,30,0,0
671673,-78.7401574803149,4,2,1,30,0,0
671773,-100,4,2,1,30,0,0
671973,-66.6666666666667,4,2,1,30,0,0
672073,-78.7401574803149,4,2,1,30,0,0
678573,-78.7401574803149,4,2,1,30,0,0
678673,-78.7401574803149,4,2,1,30,0,0
684973,-78.7401574803149,4,2,1,30,0,0
685073,-78.7401574803149,4,2,1,30,0,0
691373,-78.7401574803149,4,2,1,30,0,0
691473,-78.7401574803149,4,2,1,30,0,0
704173,-78.7401574803149,4,2,1,30,0,0
704973,-50,4,2,1,30,0,0
705373,-100,4,2,1,30,0,0
705573,-78.7401574803149,4,2,1,30,0,0
706573,-50,4,2,1,30,0,0
706973,-100,4,2,1,30,0,0
707173,-78.7401574803149,4,2,1,30,0,0
707773,-78.7401574803149,4,2,2,30,0,0
707873,-78.7401574803149,4,2,1,30,0,0
708173,-50,4,2,1,30,0,0
708573,-100,4,2,1,30,0,0
708773,-78.7401574803149,4,2,1,30,0,0
708973,-100,4,2,1,30,0,0
710473,-78.7401574803149,4,2,1,30,0,0
710573,-78.7401574803149,4,2,1,30,0,0
711373,-50,4,2,1,30,0,0
711773,-100,4,2,1,30,0,0
711973,-78.7401574803149,4,2,1,30,0,0
712973,-50,4,2,1,30,0,0
713373,-100,4,2,1,30,0,0
713573,-78.7401574803149,4,2,1,30,0,0
714573,-50,4,2,1,30,0,0
714973,-100,4,2,1,30,0,0
715173,-78.7401574803149,4,2,1,30,0,0
715373,-100,4,2,1,30,0,0
716873,-78.7401574803149,4,2,1,30,0,0
716973,-78.7401574803149,4,2,1,30,0,0
723173,-78.7401574803149,4,2,2,30,0,0
723373,-78.7401574803149,4,2,1,30,0,0
728973,-78.7401574803149,4,2,2,30,0,0
729373,-78.7401574803149,4,2,1,30,0,0
729573,-78.7401574803149,4,2,2,30,0,0
729773,-78.7401574803149,4,2,1,30,0,0
735173,-78.7401574803149,4,2,2,30,0,0
736173,-78.7401574803149,4,2,1,30,0,1
741773,-78.7401574803149,4,2,2,30,0,1
742173,-78.7401574803149,4,2,1,30,0,1
748173,-78.7401574803149,4,2,2,30,0,1
748573,-78.7401574803149,4,2,1,30,0,1
748773,-78.7401574803149,4,2,2,30,0,0
748973,-78.7401574803149,4,2,1,30,0,1
754573,-78.7401574803149,4,2,2,30,0,1
754973,-78.7401574803149,4,2,1,30,0,1
755173,-78.7401574803149,4,2,2,30,0,1
755373,-78.7401574803149,4,2,1,30,0,1
760973,-78.7401574803149,4,2,2,30,0,1
761373,-78.7401574803149,4,2,1,30,0,1
761573,-78.7401574803149,4,2,2,30,0,1
763373,-78.7401574803149,4,2,1,30,0,0
768973,-78.7401574803149,4,2,2,30,0,0
769473,-78.7401574803149,4,2,1,30,0,0
775373,-78.7401574803149,4,2,2,30,0,0
828973,387.096774193548,4,2,1,30,1,0
828973,-81.3008130081301,4,2,1,30,0,0
830521,375,4,2,1,30,1,0
830521,-84.0336134453781,4,2,1,30,0,0
832021,359.281437125748,4,2,1,30,1,0
832021,-87.719298245614,4,2,1,30,0,0
834807,333.333333333333,4,2,1,30,1,0
834807,-94.3396226415094,4,2,1,30,0,0
845474,-94.3396226415094,4,2,1,30,0,0
849474,-94.3396226415094,4,2,1,30,0,0
850140,-94.3396226415094,4,2,1,30,0,0
850474,-94.3396226415094,4,2,1,30,0,0
850807,-94.3396226415094,4,2,1,30,0,1
869474,-94.3396226415094,4,2,1,30,0,1
870807,-94.3396226415094,4,2,1,30,0,1
872140,-94.3396226415094,4,2,1,50,0,0
877474,-94.3396226415094,4,2,1,70,0,0
879807,-94.3396226415094,4,2,1,5,0,0
880140,-94.3396226415094,4,2,1,31,0,0
882140,-94.3396226415094,4,2,1,31,0,0
882474,-94.3396226415094,4,2,2,31,0,0
882807,-94.3396226415094,4,2,1,31,0,0
885140,-94.3396226415094,4,2,1,5,0,0
885474,-94.3396226415094,4,2,1,70,0,0
887140,-94.3396226415094,4,2,1,20,0,0
887474,-94.3396226415094,4,2,1,70,0,0
887807,-94.3396226415094,4,2,2,70,0,0
888140,-94.3396226415094,4,2,1,37,0,1
890696,-94.3396226415094,4,2,2,37,0,1
890807,-94.3396226415094,4,2,1,37,0,1
893140,-94.3396226415094,4,2,2,37,0,1
893473,-94.3396226415094,4,2,1,37,0,1
898807,333.333333333333,4,2,1,37,1,0
898807,-94.3396226415094,4,2,1,37,0,0
899473,324.324324324324,4,2,1,37,1,0
899473,-97.0873786407767,4,2,1,37,0,0
900121,307.692307692308,4,2,1,37,1,0
900121,-103.092783505155,4,2,1,37,0,0
900736,300,4,2,1,37,1,0
900736,-105.263157894737,4,2,1,37,0,0
901336,300,4,2,1,37,1,0
901336,-105.263157894737,4,2,1,37,0,0
901786,-105.263157894737,4,2,1,50,0,0
906136,-105.263157894737,4,2,1,70,0,0
910936,-105.263157894737,4,2,1,80,0,1
913111,-105.263157894737,4,2,2,40,0,1
913186,-105.263157894737,4,2,2,50,0,1
913261,-105.263157894737,4,2,2,60,0,1
913336,-105.263157894737,4,2,1,80,0,1
917911,-105.263157894737,4,2,2,40,0,1
917986,-105.263157894737,4,2,2,50,0,1
918061,-105.263157894737,4,2,2,60,0,1
918136,-105.263157894737,4,2,1,80,0,1
920311,-105.263157894737,4,2,2,40,0,1
920386,-105.263157894737,4,2,2,50,0,1
920461,-105.263157894737,4,2,2,60,0,1
920536,-105.263157894737,4,2,1,80,0,1
925261,-105.263157894737,4,2,1,40,0,0
934936,-105.263157894737,4,2,1,40,0,0
937036,-105.263157894737,4,2,2,40,0,0
937261,-105.263157894737,4,2,2,40,0,0
937336,-105.263157894737,4,2,1,40,0,0
939436,-105.263157894737,4,2,2,40,0,0
939736,-105.263157894737,4,2,1,40,0,1
941986,-105.263157894737,4,2,2,40,0,1
942136,-105.263157894737,4,2,1,40,0,1
944311,-105.263157894737,4,2,2,40,0,1
944386,-105.263157894737,4,2,2,40,0,1
944461,-105.263157894737,4,2,2,40,0,1
944536,-105.263157894737,4,2,1,40,0,1
946711,-105.263157894737,4,2,2,40,0,1
946936,-105.263157894737,4,2,1,40,0,1
949111,-105.263157894737,4,2,2,40,0,1
949186,-105.263157894737,4,2,2,40,0,1
949261,-105.263157894737,4,2,2,40,0,1
949336,-105.263157894737,4,2,1,40,0,1
951586,-105.263157894737,4,2,2,40,0,1
951736,-105.263157894737,4,2,1,40,0,1
954211,-105.263157894737,4,2,2,40,0,1
954736,-105.263157894737,4,2,1,40,0,1
954811,-105.263157894737,4,2,2,40,0,1
955336,-105.263157894737,4,2,1,40,0,1
955411,-105.263157894737,4,2,2,40,0,1
955636,-105.263157894737,4,2,1,50,0,1
955786,-105.263157894737,4,2,1,5,0,1
955936,-105.263157894737,4,2,1,31,0,1
956011,-105.263157894737,4,2,2,31,0,1
956536,-105.263157894737,4,2,1,31,0,1
958936,-105.263157894737,4,2,1,31,0,0
963736,-105.263157894737,4,2,1,31,0,1
968236,-105.263157894737,4,2,2,31,0,1
968536,-105.263157894737,4,2,1,31,0,1
972136,-105.263157894737,4,2,2,31,0,1
973036,-105.263157894737,4,2,2,31,0,1
975736,-105.263157894737,4,2,1,31,0,1
977686,-105.263157894737,4,2,2,31,0,1
977836,-105.263157894737,4,2,1,31,0,1
984361,-105.263157894737,4,2,2,31,0,1
984436,-105.263157894737,4,2,1,31,0,1
984511,-105.263157894737,4,2,2,31,0,1
984736,-105.263157894737,4,2,1,31,0,1
984811,-105.263157894737,4,2,2,32,0,1
985036,-105.263157894737,4,2,1,32,0,1
985111,-105.263157894737,4,2,2,32,0,1
985186,-105.263157894737,4,2,1,32,0,1
985261,-105.263157894737,4,2,2,32,0,1
986536,-105.263157894737,4,2,1,32,0,0
987736,-105.263157894737,4,2,1,32,0,1
989686,-105.263157894737,4,2,2,32,0,1
989836,-105.263157894737,4,2,1,32,0,1
992236,-105.263157894737,4,2,2,32,0,1
992536,-105.263157894737,4,2,1,32,0,1
997036,-105.263157894737,4,2,2,32,0,1
997336,-105.263157894737,4,2,1,32,0,1
1001836,-105.263157894737,4,2,2,32,0,1
1002136,-105.263157894737,4,2,1,32,0,1
1004086,-105.263157894737,4,2,2,32,0,1
1004236,-105.263157894737,4,2,2,32,0,1
1004536,-105.263157894737,4,2,1,32,0,1
1006636,-105.263157894737,4,2,2,32,0,1
1006936,-105.263157894737,4,2,1,32,0,1
1008886,-105.263157894737,4,2,2,32,0,1
1009336,-105.263157894737,4,2,1,32,0,1
1011436,-105.263157894737,4,2,2,32,0,1
1011736,-105.263157894737,4,2,1,32,0,1
1015336,-105.263157894737,4,2,1,32,0,1
1016236,-105.263157894737,4,2,2,32,0,1
1018936,-105.263157894737,4,2,1,32,0,1
1023436,-105.263157894737,4,2,2,32,0,1
1023736,-105.263157894737,4,2,1,32,0,1
1025686,-105.263157894737,4,2,2,32,0,1
1025836,-105.263157894737,4,2,1,32,0,1
1025986,-105.263157894737,4,2,2,32,0,1
1026136,-105.263157894737,4,2,1,32,0,1
1028236,-105.263157894737,4,2,2,32,0,1
1028386,-105.263157894737,4,2,1,32,0,1
1029886,-66.6666666666667,4,2,1,32,0,1
1030036,-133.333333333333,4,2,1,32,0,1
1030111,-105.263157894737,4,2,1,32,0,1
1030186,-66.6666666666667,4,2,1,32,0,1
1030336,-133.333333333333,4,2,1,32,0,1
1030411,-105.263157894737,4,2,1,32,0,1
1030486,-66.6666666666667,4,2,1,32,0,1
1030636,-133.333333333333,4,2,1,32,0,1
1030711,-105.263157894737,4,2,1,32,0,1
1030786,-105.263157894737,4,2,3,32,0,1
1030936,-105.263157894737,4,2,1,32,0,1
1032286,-133.333333333333,4,2,1,32,0,1
1032436,-66.6666666666667,4,2,1,32,0,1
1032511,-105.263157894737,4,2,1,32,0,1
1032586,-133.333333333333,4,2,1,32,0,1
1032736,-66.6666666666667,4,2,1,32,0,1
1032811,-105.263157894737,4,2,1,32,0,1
1032886,-133.333333333333,4,2,1,32,0,1
1033036,-66.6666666666667,4,2,1,32,0,1
1033111,-105.263157894737,4,2,1,32,0,1
1034086,-105.263157894737,4,2,2,32,0,1
1034236,-105.263157894737,4,2,1,32,0,1
1035286,-105.263157894737,4,2,2,32,0,1
1035436,-105.263157894737,4,2,1,32,0,1
1036486,-105.263157894737,4,2,2,32,0,1
1036636,-105.263157894737,4,2,1,32,0,1
1038136,-55.5555555555556,4,2,1,32,0,0
1038286,-153.846153846154,4,2,1,32,0,0
1038436,-105.263157894737,4,2,1,32,0,0
1038586,-55.5555555555556,4,2,1,32,0,0
1038736,-153.846153846154,4,2,1,32,0,0
1038886,-105.263157894737,4,2,1,32,0,0
1039036,-55.5555555555556,4,2,1,32,0,0
1039186,-153.846153846154,4,2,1,32,0,0
1039336,-105.263157894737,4,2,1,32,0,0
1039486,-55.5555555555556,4,2,1,32,0,0
1039561,-153.846153846154,4,2,1,32,0,0
1039636,-105.263157894737,4,2,1,32,0,0
1039786,-100,4,2,1,32,0,0
1039861,-105.263157894737,4,2,1,32,0,0
1039936,-100,4,2,1,32,0,0
1040011,-105.263157894737,4,2,1,32,0,0
1040086,-100,4,2,1,32,0,0
1040161,-105.263157894737,4,2,1,32,0,0
1040236,-55.5555555555556,4,2,1,32,0,0
1040311,-153.846153846154,4,2,1,32,0,0
1040386,-105.263157894737,4,2,1,32,0,0
1040536,-55.5555555555556,4,2,1,32,0,0
1040686,-153.846153846154,4,2,1,32,0,0
1040836,-105.263157894737,4,2,1,32,0,0
1040986,-55.5555555555556,4,2,1,32,0,0
1041061,-153.846153846154,4,2,1,32,0,0
1041136,-105.263157894737,4,2,1,32,0,0
1041286,-100,4,2,1,32,0,0
1041361,-105.263157894737,4,2,1,32,0,0
1041436,-55.5555555555556,4,2,1,32,0,0
1041511,-153.846153846154,4,2,1,32,0,0
1041586,-105.263157894737,4,2,1,32,0,0
1041736,-55.5555555555556,4,2,1,32,0,0
1041886,-153.846153846154,4,2,1,32,0,0
1041961,-105.263157894737,4,2,1,32,0,0
1042936,-105.263157894737,4,2,1,32,0,1
1044961,-105.263157894737,4,2,2,32,0,1
1045186,-105.263157894737,4,2,1,32,0,1
1046536,-105.263157894737,4,2,2,32,0,1
1047436,-105.263157894737,4,2,2,32,0,1
1047736,-105.263157894737,4,2,1,32,0,0
1048636,-105.263157894737,4,2,1,32,0,0
1058536,500,4,3,1,32,1,0
1058536,-63.2911392405063,4,3,1,32,0,0
1061536,-63.2911392405063,4,3,1,32,0,0
1062536,-63.2911392405063,4,3,1,32,0,0
1078536,-63.2911392405063,4,2,3,32,0,0
1086546,500,4,2,1,32,1,0
1086546,-63.2911392405063,4,2,1,32,0,0
1094546,-63.2911392405063,4,2,1,32,0,0
1098046,-63.2911392405063,4,2,2,32,0,0
1110546,250,4,1,2,32,1,1
1110546,-126.582278481013,4,1,2,32,0,1
1110608,-126.582278481013,4,1,1,32,0,1
1112546,-126.582278481013,4,1,2,32,0,1
1112608,-126.582278481013,4,1,1,32,0,1
1114546,-126.582278481013,4,1,2,32,0,1
1114608,-126.582278481013,4,1,1,32,0,1
1116546,-126.582278481013,4,1,2,32,0,1
1116608,-126.582278481013,4,1,1,32,0,1
1122546,-126.582278481013,4,1,2,32,0,1
1122608,-126.582278481013,4,1,1,32,0,1
1124546,-126.582278481013,4,1,2,32,0,1
1124608,-126.582278481013,4,1,1,32,0,1
1126546,-126.582278481013,4,1,2,32,0,1
1126608,-126.582278481013,4,1,1,32,0,1
1128546,-126.582278481013,4,1,2,32,0,1
1128608,-126.582278481013,4,1,1,32,0,1
1130546,-126.582278481013,4,1,2,32,0,1
1132046,-126.582278481013,4,1,1,32,0,1
1132296,-126.582278481013,4,1,1,32,0,1
1132421,-126.582278481013,4,1,1,32,0,0
1132546,-126.582278481013,4,1,2,32,0,1
1132608,-126.582278481013,4,1,1,32,0,1
1134546,-126.582278481013,4,1,2,32,0,1
1134608,-126.582278481013,4,1,1,32,0,1
1136546,-126.582278481013,4,1,2,32,0,1
1136608,-126.582278481013,4,1,1,32,0,1
1138546,-126.582278481013,4,1,2,32,0,1
1138608,-126.582278481013,4,1,1,32,0,1
1139546,-126.582278481013,4,1,1,32,0,1
1140546,-126.582278481013,4,1,1,32,0,0
1150546,-126.582278481013,4,1,1,32,0,0
1154546,-126.582278481013,4,1,2,32,0,1
1154608,-126.582278481013,4,1,1,32,0,1
1156546,-126.582278481013,4,1,2,32,0,1
1156608,-126.582278481013,4,1,1,32,0,1
1158546,-126.582278481013,4,1,2,32,0,1
1158608,-126.582278481013,4,1,1,32,0,1
1160546,-126.582278481013,4,1,2,32,0,1
1160608,-126.582278481013,4,1,1,32,0,1
1168546,-126.582278481013,4,1,2,32,0,1
1168608,-126.582278481013,4,1,1,32,0,1
1170546,-126.582278481013,4,1,2,32,0,1
1170608,-126.582278481013,4,1,1,32,0,1
1172546,-126.582278481013,4,1,2,32,0,1
1172608,-126.582278481013,4,1,1,32,0,1
1174546,-126.582278481013,4,1,2,32,0,1
1174608,-126.582278481013,4,1,1,32,0,1
1176421,-126.582278481013,4,1,1,32,0,0
1176546,-126.582278481013,4,1,2,32,0,1
1176608,-126.582278481013,4,1,1,32,0,1
1177671,-126.582278481013,4,1,1,32,0,1
1178171,-126.582278481013,4,1,1,32,0,1
1178546,-126.582278481013,4,1,2,32,0,1
1178608,-126.582278481013,4,1,1,32,0,1
1179671,-126.582278481013,4,1,1,32,0,1
1180171,-126.582278481013,4,1,1,32,0,1
1180546,-126.582278481013,4,1,2,32,0,1
1180608,-126.582278481013,4,1,1,32,0,1
1181671,-126.582278481013,4,1,1,32,0,1
1182171,-126.582278481013,4,1,1,32,0,1
1182546,-126.582278481013,4,1,1,32,0,1
1182671,-126.582278481013,4,1,1,32,0,1
1183171,-126.582278481013,4,1,1,32,0,1
1183546,-126.582278481013,4,1,2,32,0,1
1183608,-126.582278481013,4,1,1,32,0,1
1185546,-126.582278481013,4,1,2,32,0,1
1185608,-126.582278481013,4,1,1,32,0,1
1187546,-126.582278481013,4,1,2,32,0,1
1187608,-126.582278481013,4,1,1,32,0,1
1189546,-126.582278481013,4,1,2,32,0,1
1189608,-126.582278481013,4,1,1,32,0,1
1191546,-126.582278481013,4,1,2,32,0,1
1191608,-126.582278481013,4,1,1,32,0,1
1193546,-126.582278481013,4,1,2,32,0,1
1193608,-126.582278481013,4,1,1,32,0,1
1205546,-126.582278481013,4,1,2,32,0,1
1205608,-126.582278481013,4,1,1,32,0,1
1207546,-126.582278481013,4,1,2,32,0,1
1207608,-126.582278481013,4,1,1,32,0,1
1209546,-126.582278481013,4,1,2,32,0,1
1209608,-126.582278481013,4,1,1,32,0,1
1211546,-126.582278481013,4,1,2,32,0,1
1211608,-126.582278481013,4,1,1,32,0,1
1213546,-126.582278481013,4,1,2,32,0,1
1213608,-126.582278481013,4,1,1,32,0,1
1215546,-126.582278481013,4,1,2,32,0,1
1215608,-126.582278481013,4,1,1,32,0,1
1219546,-126.582278481013,4,1,2,32,0,1
1219608,-126.582278481013,4,1,1,32,0,1
1221546,-126.582278481013,4,1,2,32,0,1
1221608,-126.582278481013,4,1,1,32,0,1
1227483,-126.582278481013,4,1,1,32,0,0
1227546,-126.582278481013,4,1,1,32,0,1
1227608,-126.582278481013,4,2,1,32,0,0
1228046,-126.582278481013,4,2,1,70,0,0
1228358,-126.582278481013,4,2,1,60,0,0
1228608,-126.582278481013,4,2,1,50,0,0
1228921,-126.582278481013,4,2,1,40,0,0
1229233,-126.582278481013,4,2,1,30,0,0
1229546,-126.582278481013,4,2,1,20,0,0
1229858,-126.582278481013,4,2,1,10,0,0
1230046,-126.582278481013,4,2,1,5,0,0
1233206,666.666666666667,4,2,1,50,1,0
1233206,-47.6190476190476,4,2,1,50,0,0
1297206,-47.6190476190476,4,2,1,50,0,0
1299872,333.333333333333,4,2,1,51,1,0
1299872,-95.2380952380952,4,2,1,51,0,0
1350633,-95.2380952380952,4,2,1,51,0,1
1383967,-95.2380952380952,4,2,1,51,0,0
1395867,342.857142857143,4,2,1,51,1,0
1401352,352.941176470588,4,2,1,51,1,0
1405587,363.636363636364,4,2,1,51,1,0
1414314,375,4,2,1,51,1,0
1415814,387.096774193548,4,2,1,51,1,0
1417362,400,4,2,1,51,1,0
1418962,428.571428571429,4,2,1,51,1,0
1420676,461.538461538462,4,2,1,51,1,0
1422522,480,4,2,1,51,1,0
1424442,521.739130434783,4,2,1,51,1,0
1426525,545.454545454546,4,2,1,51,1,0
1426525,-58.1395348837209,4,2,1,51,0,0
1430888,600,4,2,1,51,1,0
1430888,-52.6315789473684,4,2,1,51,0,0
1433288,333.333333333333,4,2,1,51,1,0
1433288,-95.2380952380952,4,2,1,51,0,0

[HitObjects]
320,192,580353,128,0,581019:0:0:0:0:
448,192,581241,128,0,581908:0:0:0:0:
320,192,581464,128,0,581908:0:0:0:0:
192,192,582130,128,0,582797:0:0:0:0:
64,192,583019,128,0,583686:0:0:0:0:
192,192,583241,128,0,583686:0:0:0:0:
320,192,583908,128,0,584575:0:0:0:0:
64,192,584797,128,0,585686:0:0:0:0:
448,192,585241,128,0,586130:0:0:0:0:
192,192,585686,128,0,587464:0:0:0:0:
320,192,588353,128,0,589019:0:0:0:0:
448,192,589241,128,0,589908:0:0:0:0:
320,192,589464,128,0,589908:0:0:0:0:
192,192,590130,128,0,590797:0:0:0:0:
64,192,591019,128,0,591686:0:0:0:0:
192,192,591241,128,0,591686:0:0:0:0:
320,192,591908,128,0,592575:0:0:0:0:
64,192,592797,128,0,593686:0:0:0:0:
448,192,593241,128,0,594130:0:0:0:0:
192,192,593686,128,0,594575:0:0:0:0:
320,192,594241,128,0,594353:0:0:0:0:
448,192,594353,128,0,594464:0:0:0:0:
448,192,594575,128,0,594797:0:0:0:0:
64,192,594575,128,0,594797:0:0:0:0:
320,192,594797,128,0,595490:0:0:0:0:
192,192,594907,128,0,595073:0:0:0:0:
64,192,595073,128,0,595157:0:0:0:0:
64,192,595240,128,0,595407:0:0:0:0:
192,192,595490,128,0,596073:0:0:0:0:
320,192,595573,128,0,595740:0:0:0:0:
448,192,595740,128,0,595823:0:0:0:0:
448,192,595907,128,0,596073:0:0:0:0:
192,192,596240,128,0,596407:0:0:0:0:
320,192,596323,128,0,596573:0:0:0:0:
64,192,596407,128,0,596490:0:0:0:0:
64,192,596573,128,0,596740:0:0:0:0:
192,192,596573,128,0,597240:0:0:0:0:
320,192,596907,128,0,597073:0:0:0:0:
448,192,597073,128,0,597157:0:0:0:0:
448,192,597240,128,0,597407:0:0:0:0:
320,192,597240,128,0,598157:0:0:0:0:
192,192,597573,128,0,597740:0:0:0:0:
64,192,597740,128,0,597823:0:0:0:0:
64,192,597907,128,0,598073:0:0:0:0:
192,192,598157,128,0,598573:0:0:0:0:
320,192,598240,128,0,598407:0:0:0:0:
448,192,598407,128,0,598490:0:0:0:0:
448,192,598573,128,0,598740:0:0:0:0:
64,192,598573,128,0,598907:0:0:0:0:
192,192,598907,128,0,599073:0:0:0:0:
448,192,598990,128,0,599573:0:0:0:0:
64,192,599073,128,0,599157:0:0:0:0:
64,192,599240,128,0,599407:0:0:0:0:
320,192,599573,128,0,599740:0:0:0:0:
448,192,599740,128,0,599823:0:0:0:0:
448,192,599907,128,0,600073:0:0:0:0:
192,192,600240,128,0,600407:0:0:0:0:
64,192,600407,128,0,600490:0:0:0:0:
64,192,600573,128,0,600740:0:0:0:0:
320,192,600907,128,0,601073:0:0:0:0:
448,192,601073,128,0,601157:0:0:0:0:
448,192,601240,128,0,601407:0:0:0:0:
192,192,601573,128,0,601740:0:0:0:0:
64,192,601740,128,0,601823:0:0:0:0:
64,192,601907,128,0,602073:0:0:0:0:
320,192,602240,128,0,602407:0:0:0:0:
192,192,602407,128,0,602490:0:0:0:0:
192,192,602573,128,0,602740:0:0:0:0:
192,192,602907,128,0,603073:0:0:0:0:
64,192,603073,128,0,603157:0:0:0:0:
64,192,603240,128,0,603407:0:0:0:0:
320,192,603573,128,0,603740:0:0:0:0:
192,192,603740,128,0,603823:0:0:0:0:
192,192,603907,128,0,604073:0:0:0:0:
64,192,604240,128,0,604407:0:0:0:0:
320,192,604407,128,0,604490:0:0:0:0:
320,192,604573,128,0,604740:0:0:0:0:
448,192,604907,128,0,605073:0:0:0:0:
192,192,605073,128,0,605157:0:0:0:0:
192,192,605240,128,0,605407:0:0:0:0:
64,192,605573,128,0,605740:0:0:0:0:
320,192,605740,128,0,605823:0:0:0:0:
320,192,605907,128,0,606073:0:0:0:0:
448,192,606240,128,0,606407:0:0:0:0:
192,192,606407,128,0,606490:0:0:0:0:
192,192,606573,128,0,606740:0:0:0:0:
64,192,606907,128,0,607073:0:0:0:0:
320,192,607073,128,0,607157:0:0:0:0:
320,192,607240,128,0,607407:0:0:0:0:
448,192,607573,128,0,607740:0:0:0:0:
192,192,607740,128,0,607823:0:0:0:0:
192,192,607907,128,0,608073:0:0:0:0:
64,192,608240,128,0,608407:0:0:0:0:
320,192,608407,128,0,608490:0:0:0:0:
320,192,608573,128,0,608740:0:0:0:0:
448,192,608907,128,0,609073:0:0:0:0:
192,192,609073,128,0,609157:0:0:0:0:
192,192,609240,128,0,609407:0:0:0:0:
448,192,609573,1,0,0:0:0:0:
192,192,609573,1,0,0:0:0:0:
64,192,609576,128,0,609734:0:0:0:0:
320,192,609734,128,0,609814:0:0:0:0:
320,192,609893,128,0,610052:0:0:0:0:
64,192,610210,128,0,610369:0:0:0:0:
448,192,610369,128,0,610449:0:0:0:0:
448,192,610528,128,0,610687:0:0:0:0:
320,192,610845,128,0,611004:0:0:0:0:
64,192,611004,128,0,611083:0:0:0:0:
64,192,611163,128,0,611322:0:0:0:0:
192,192,611484,1,0,0:0:0:0:
448,192,611484,1,0,0:0:0:0:
320,192,611484,128,0,611626:0:0:0:0:
192,192,611626,128,0,611698:0:0:0:0:
64,192,611769,1,0,0:0:0:0:
320,192,611769,1,0,0:0:0:0:
192,192,611769,128,0,611912:0:0:0:0:
192,192,612055,1,0,0:0:0:0:
448,192,612055,1,0,0:0:0:0:
64,192,612055,128,0,612198:0:0:0:0:
320,192,612198,128,0,612269:0:0:0:0:
320,192,612341,128,0,612484:0:0:0:0:
448,192,612626,128,0,612769:0:0:0:0:
320,192,612769,128,0,612841:0:0:0:0:
320,192,612912,128,0,613055:0:0:0:0:
64,192,613198,128,0,613341:0:0:0:0:
192,192,613341,128,0,613412:0:0:0:0:
192,192,613484,128,0,613626:0:0:0:0:
64,192,613698,1,0,0:0:0:0:
448,192,613698,1,0,0:0:0:0:
320,192,613698,128,0,613823:0:0:0:0:
448,192,613823,128,0,613885:0:0:0:0:
192,192,613948,1,0,0:0:0:0:
320,192,613948,1,0,0:0:0:0:
448,192,613948,128,0,614073:0:0:0:0:
448,192,614198,1,0,0:0:0:0:
64,192,614198,1,0,0:0:0:0:
192,192,614198,128,0,614323:0:0:0:0:
320,192,614323,128,0,614385:0:0:0:0:
320,192,614448,128,0,614573:0:0:0:0:
192,192,614698,128,0,614823:0:0:0:0:
64,192,614823,128,0,614885:0:0:0:0:
64,192,614948,128,0,615073:0:0:0:0:
320,192,615073,128,0,615198:0:0:0:0:
192,192,615198,128,0,615260:0:0:0:0:
192,192,615323,128,0,615416:0:0:0:0:
320,192,615416,1,0,0:0:0:0:
448,192,615416,1,0,0:0:0:0:
64,192,615642,1,0,0:0:0:0:
192,192,615642,1,0,0:0:0:0:
320,192,615642,128,0,615755:0:0:0:0:
64,192,615755,128,0,615812:0:0:0:0:
320,192,615868,1,0,0:0:0:0:
448,192,615868,1,0,0:0:0:0:
64,192,615868,128,0,615982:0:0:0:0:
64,192,616095,1,0,0:0:0:0:
192,192,616095,1,0,0:0:0:0:
448,192,616095,128,0,616204:0:0:0:0:
192,192,616204,128,0,616258:0:0:0:0:
192,192,616313,128,0,616422:0:0:0:0:
64,192,616544,128,0,616651:0:0:0:0:
320,192,616544,1,0,0:0:0:0:
448,192,616544,1,0,0:0:0:0:
320,192,616651,128,0,616704:0:0:0:0:
320,192,616758,128,0,616865:0:0:0:0:
64,192,616959,1,0,0:0:0:0:
192,192,616959,1,0,0:0:0:0:
448,192,616959,128,0,617062:0:0:0:0:
192,192,617062,128,0,617114:0:0:0:0:
192,192,617165,128,0,617269:0:0:0:0:
320,192,617372,1,0,0:0:0:0:
448,192,617372,1,0,0:0:0:0:
64,192,617372,128,0,617476:0:0:0:0:
320,192,617476,128,0,617527:0:0:0:0:
320,192,617579,128,0,617683:0:0:0:0:
64,192,617773,1,0,0:0:0:0:
192,192,617773,1,0,0:0:0:0:
448,192,617773,128,0,617873:0:0:0:0:
320,192,617873,128,0,617973:0:0:0:0:
64,192,617873,1,0,0:0:0:0:
192,192,617973,128,0,618073:0:0:0:0:
448,192,617973,1,0,0:0:0:0:
320,192,618073,1,0,0:0:0:0:
64,192,618173,128,0,618273:0:0:0:0:
192,192,618173,1,0,0:0:0:0:
448,192,618173,1,0,0:0:0:0:
192,192,618273,128,0,618373:0:0:0:0:
320,192,618273,1,0,0:0:0:0:
320,192,618373,128,0,618473:0:0:0:0:
448,192,618373,1,0,0:0:0:0:
64,192,618473,1,0,0:0:0:0:
448,192,618573,128,0,618673:0:0:0:0:
192,192,618573,1,0,0:0:0:0:
320,192,618573,1,0,0:0:0:0:
320,192,618673,128,0,618773:0:0:0:0:
64,192,618673,1,0,0:0:0:0:
192,192,618773,128,0,618873:0:0:0:0:
448,192,618773,1,0,0:0:0:0:
320,192,618873,1,0,0:0:0:0:
64,192,618973,128,0,619073:0:0:0:0:
448,192,618973,1,0,0:0:0:0:
192,192,618973,1,0,0:0:0:0:
192,192,619073,128,0,619173:0:0:0:0:
320,192,619073,1,0,0:0:0:0:
320,192,619173,128,0,619273:0:0:0:0:
448,192,619173,1,0,0:0:0:0:
64,192,619273,1,0,0:0:0:0:
448,192,619373,128,0,619473:0:0:0:0:
192,192,619373,1,0,0:0:0:0:
320,192,619373,1,0,0:0:0:0:
320,192,619473,128,0,619573:0:0:0:0:
64,192,619473,1,0,0:0:0:0:
192,192,619573,128,0,619673:0:0:0:0:
448,192,619573,1,0,0:0:0:0:
320,192,619673,1,0,0:0:0:0:
64,192,619773,128,0,619873:0:0:0:0:
448,192,619773,1,0,0:0:0:0:
192,192,619773,1,0,0:0:0:0:
192,192,619873,128,0,619973:0:0:0:0:
320,192,619873,1,0,0:0:0:0:
320,192,619973,128,0,620073:0:0:0:0:
448,192,619973,1,0,0:0:0:0:
192,192,620073,1,0,0:0:0:0:
448,192,620173,128,0,620273:0:0:0:0:
320,192,620173,1,0,0:0:0:0:
64,192,620173,1,0,0:0:0:0:
320,192,620273,128,0,620373:0:0:0:0:
192,192,620273,1,0,0:0:0:0:
192,192,620373,128,0,620473:0:0:0:0:
64,192,620373,1,0,0:0:0:0:
320,192,620473,1,0,0:0:0:0:
64,192,620573,128,0,620673:0:0:0:0:
448,192,620573,1,0,0:0:0:0:
192,192,620573,1,0,0:0:0:0:
192,192,620673,128,0,620773:0:0:0:0:
320,192,620673,1,0,0:0:0:0:
320,192,620773,128,0,620873:0:0:0:0:
448,192,620773,1,0,0:0:0:0:
64,192,620873,1,0,0:0:0:0:
448,192,620973,128,0,621073:0:0:0:0:
192,192,620973,1,0,0:0:0:0:
320,192,620973,1,0,0:0:0:0:
320,192,621073,128,0,621173:0:0:0:0:
64,192,621073,1,0,0:0:0:0:
192,192,621173,128,0,621273:0:0:0:0:
448,192,621173,1,0,0:0:0:0:
320,192,621273,1,0,0:0:0:0:
64,192,621373,128,0,621473:0:0:0:0:
448,192,621373,1,0,0:0:0:0:
192,192,621373,1,0,0:0:0:0:
192,192,621473,128,0,621573:0:0:0:0:
320,192,621473,1,0,0:0:0:0:
320,192,621573,128,0,621673:0:0:0:0:
448,192,621573,1,0,0:0:0:0:
64,192,621673,1,0,0:0:0:0:
448,192,621773,128,0,621873:0:0:0:0:
192,192,621773,1,0,0:0:0:0:
320,192,621773,1,0,0:0:0:0:
320,192,621873,128,0,621973:0:0:0:0:
64,192,621873,1,0,0:0:0:0:
192,192,621973,128,0,622073:0:0:0:0:
448,192,621973,1,0,0:0:0:0:
320,192,622073,1,0,0:0:0:0:
64,192,622173,128,0,622273:0:0:0:0:
448,192,622173,1,0,0:0:0:0:
192,192,622173,1,0,0:0:0:0:
192,192,622273,128,0,622373:0:0:0:0:
320,192,622273,1,0,0:0:0:0:
320,192,622373,128,0,622473:0:0:0:0:
448,192,622373,1,0,0:0:0:0:
192,192,622473,1,0,0:0:0:0:
448,192,622573,128,0,622673:0:0:0:0:
64,192,622573,1,0,0:0:0:0:
320,192,622573,1,0,0:0:0:0:
320,192,622673,128,0,622773:0:0:0:0:
192,192,622673,1,0,0:0:0:0:
192,192,622773,128,0,622873:0:0:0:0:
64,192,622773,1,0,0:0:0:0:
448,192,622873,1,0,0:0:0:0:
448,192,622973,128,0,623073:0:0:0:0:
320,192,622973,1,0,0:0:0:0:
64,192,622973,1,0,0:0:0:0:
320,192,623073,128,0,623173:0:0:0:0:
192,192,623073,1,0,0:0:0:0:
192,192,623173,128,0,623273:0:0:0:0:
448,192,623173,1,0,0:0:0:0:
64,192,623273,1,0,0:0:0:0:
448,192,623373,128,0,623473:0:0:0:0:
192,192,623373,1,0,0:0:0:0:
320,192,623373,1,0,0:0:0:0:
320,192,623473,128,0,623573:0:0:0:0:
64,192,623473,1,0,0:0:0:0:
192,192,623573,128,0,623673:0:0:0:0:
448,192,623573,1,0,0:0:0:0:
64,192,623673,1,0,0:0:0:0:
448,192,623773,128,0,623873:0:0:0:0:
192,192,623773,1,0,0:0:0:0:
320,192,623773,1,0,0:0:0:0:
320,192,623873,128,0,623973:0:0:0:0:
64,192,623873,1,0,0:0:0:0:
192,192,623973,128,0,624073:0:0:0:0:
448,192,623973,1,0,0:0:0:0:
320,192,624073,1,0,0:0:0:0:
448,192,624173,1,0,0:0:0:0:
64,192,624173,128,0,624573:0:0:0:0:
192,192,624173,1,0,0:0:0:0:
320,192,624273,1,0,0:0:0:0:
192,192,624373,1,0,0:0:0:0:
448,192,624473,1,0,0:0:0:0:
320,192,624573,1,0,0:0:0:0:
192,192,624573,1,0,0:0:0:0:
448,192,624673,1,0,0:0:0:0:
192,192,624773,128,0,625173:0:0:0:0:
64,192,624773,1,0,0:0:0:0:
320,192,624873,1,0,0:0:0:0:
448,192,624973,1,0,0:0:0:0:
64,192,624973,1,0,0:0:0:0:
320,192,625073,1,0,0:0:0:0:
448,192,625173,1,0,0:0:0:0:
192,192,625273,1,0,0:0:0:0:
64,192,625373,128,0,625773:0:0:0:0:
320,192,625373,1,0,0:0:0:0:
448,192,625373,1,0,0:0:0:0:
192,192,625473,1,0,0:0:0:0:
192,192,625573,128,0,625773:0:0:0:0:
448,192,625573,1,0,0:0:0:0:
320,192,625673,1,0,0:0:0:0:
320,192,625773,128,0,626173:0:0:0:0:
448,192,625773,1,0,0:0:0:0:
64,192,625873,1,0,0:0:0:0:
448,192,625973,128,0,626173:0:0:0:0:
192,192,625973,1,0,0:0:0:0:
64,192,626073,1,0,0:0:0:0:
192,192,626173,128,0,626573:0:0:0:0:
64,192,626173,1,0,0:0:0:0:
320,192,626273,1,0,0:0:0:0:
64,192,626373,128,0,626573:0:0:0:0:
448,192,626373,1,0,0:0:0:0:
320,192,626473,1,0,0:0:0:0:
448,192,626573,1,0,0:0:0:0:
320,192,626573,1,0,0:0:0:0:
64,192,626673,1,0,0:0:0:0:
192,192,626773,1,0,0:0:0:0:
448,192,626873,1,0,0:0:0:0:
64,192,626973,128,0,627373:0:0:0:0:
320,192,626973,1,0,0:0:0:0:
192,192,626973,1,0,0:0:0:0:
448,192,627073,1,0,0:0:0:0:
192,192,627173,128,0,627373:0:0:0:0:
320,192,627173,1,0,0:0:0:0:
448,192,627273,1,0,0:0:0:0:
320,192,627373,128,0,627773:0:0:0:0:
448,192,627373,1,0,0:0:0:0:
64,192,627473,1,0,0:0:0:0:
448,192,627573,128,0,627773:0:0:0:0:
192,192,627573,1,0,0:0:0:0:
64,192,627673,1,0,0:0:0:0:
192,192,627773,128,0,628173:0:0:0:0:
64,192,627773,1,0,0:0:0:0:
320,192,627873,1,0,0:0:0:0:
64,192,627973,128,0,628173:0:0:0:0:
448,192,627973,1,0,0:0:0:0:
320,192,628073,1,0,0:0:0:0:
448,192,628173,1,0,0:0:0:0:
320,192,628173,1,0,0:0:0:0:
64,192,628273,1,0,0:0:0:0:
448,192,628373,1,0,0:0:0:0:
192,192,628473,1,0,0:0:0:0:
448,192,628573,128,0,628773:0:0:0:0:
320,192,628573,1,0,0:0:0:0:
64,192,628573,1,0,0:0:0:0:
192,192,628673,1,0,0:0:0:0:
320,192,628773,128,0,628973:0:0:0:0:
64,192,628773,1,0,0:0:0:0:
192,192,628873,1,0,0:0:0:0:
192,192,628973,128,0,629373:0:0:0:0:
64,192,628973,1,0,0:0:0:0:
448,192,628973,1,0,0:0:0:0:
320,192,629073,1,0,0:0:0:0:
448,192,629173,1,0,0:0:0:0:
320,192,629273,1,0,0:0:0:0:
448,192,629373,1,0,0:0:0:0:
64,192,629373,1,0,0:0:0:0:
320,192,629473,1,0,0:0:0:0:
448,192,629573,128,0,629973:0:0:0:0:
192,192,629573,1,0,0:0:0:0:
64,192,629673,1,0,0:0:0:0:
320,192,629773,1,0,0:0:0:0:
192,192,629773,1,0,0:0:0:0:
64,192,629873,1,0,0:0:0:0:
192,192,629973,1,0,0:0:0:0:
320,192,630073,1,0,0:0:0:0:
192,192,630173,1,0,0:0:0:0:
448,192,630173,1,0,0:0:0:0:
64,192,630273,1,0,0:0:0:0:
192,192,630373,1,0,0:0:0:0:
448,192,630373,1,0,0:0:0:0:
320,192,630473,1,0,0:0:0:0:
64,192,630573,1,0,0:0:0:0:
192,192,630573,1,0,0:0:0:0:
448,192,630573,128,0,630973:0:0:0:0:
320,192,630673,1,0,0:0:0:0:
64,192,630773,1,0,0:0:0:0:
192,192,630873,1,0,0:0:0:0:
64,192,630973,1,0,0:0:0:0:
320,192,630973,1,0,0:0:0:0:
192,192,631073,1,0,0:0:0:0:
320,192,631173,128,0,631573:0:0:0:0:
448,192,631173,1,0,0:0:0:0:
192,192,631273,1,0,0:0:0:0:
64,192,631373,1,0,0:0:0:0:
448,192,631373,1,0,0:0:0:0:
192,192,631473,1,0,0:0:0:0:
64,192,631573,1,0,0:0:0:0:
320,192,631673,1,0,0:0:0:0:
448,192,631773,128,0,632173:0:0:0:0:
192,192,631773,1,0,0:0:0:0:
64,192,631773,1,0,0:0:0:0:
320,192,631873,1,0,0:0:0:0:
320,192,631973,128,0,632173:0:0:0:0:
64,192,631973,1,0,0:0:0:0:
192,192,632073,1,0,0:0:0:0:
192,192,632173,128,0,632573:0:0:0:0:
64,192,632173,1,0,0:0:0:0:
320,192,632273,1,0,0:0:0:0:
64,192,632373,128,0,632573:0:0:0:0:
448,192,632373,1,0,0:0:0:0:
320,192,632473,1,0,0:0:0:0:
320,192,632573,128,0,632973:0:0:0:0:
448,192,632573,1,0,0:0:0:0:
192,192,632673,1,0,0:0:0:0:
448,192,632773,128,0,632973:0:0:0:0:
64,192,632773,1,0,0:0:0:0:
192,192,632873,1,0,0:0:0:0:
64,192,632973,1,0,0:0:0:0:
192,192,632973,1,0,0:0:0:0:
320,192,633073,1,0,0:0:0:0:
64,192,633173,1,0,0:0:0:0:
192,192,633273,1,0,0:0:0:0:
64,192,633373,128,0,633773:0:0:0:0:
320,192,633373,1,0,0:0:0:0:
448,192,633373,1,0,0:0:0:0:
192,192,633473,1,0,0:0:0:0:
192,192,633573,128,0,633773:0:0:0:0:
320,192,633573,1,0,0:0:0:0:
448,192,633673,1,0,0:0:0:0:
320,192,633773,128,0,634173:0:0:0:0:
448,192,633773,1,0,0:0:0:0:
192,192,633873,1,0,0:0:0:0:
448,192,633973,128,0,634173:0:0:0:0:
64,192,633973,1,0,0:0:0:0:
192,192,634073,1,0,0:0:0:0:
192,192,634173,128,0,634573:0:0:0:0:
64,192,634173,1,0,0:0:0:0:
320,192,634273,1,0,0:0:0:0:
64,192,634373,128,0,634573:0:0:0:0:
448,192,634373,1,0,0:0:0:0:
320,192,634473,1,0,0:0:0:0:
448,192,634573,1,0,0:0:0:0:
320,192,634573,1,0,0:0:0:0:
64,192,634673,1,0,0:0:0:0:
192,192,634773,1,0,0:0:0:0:
448,192,634873,1,0,0:0:0:0:
64,192,634973,128,0,635173:0:0:0:0:
320,192,634973,1,0,0:0:0:0:
192,192,634973,1,0,0:0:0:0:
448,192,635073,1,0,0:0:0:0:
192,192,635173,128,0,635373:0:0:0:0:
320,192,635173,1,0,0:0:0:0:
448,192,635273,1,0,0:0:0:0:
320,192,635373,128,0,635773:0:0:0:0:
64,192,635373,1,0,0:0:0:0:
448,192,635373,1,0,0:0:0:0:
192,192,635473,1,0,0:0:0:0:
64,192,635573,1,0,0:0:0:0:
448,192,635673,1,0,0:0:0:0:
192,192,635773,1,0,0:0:0:0:
64,192,635773,1,0,0:0:0:0:
448,192,635873,1,0,0:0:0:0:
448,192,635973,128,0,636373:0:0:0:0:
320,192,635973,1,0,0:0:0:0:
192,192,636073,1,0,0:0:0:0:
64,192,636173,1,0,0:0:0:0:
320,192,636173,1,0,0:0:0:0:
192,192,636273,1,0,0:0:0:0:
64,192,636373,1,0,0:0:0:0:
320,192,636373,1,0,0:0:0:0:
192,192,636473,1,0,0:0:0:0:
192,192,636573,128,0,636773:0:0:0:0:
320,192,636573,1,0,0:0:0:0:
448,192,636573,1,0,0:0:0:0:
64,192,636673,1,0,0:0:0:0:
448,192,636773,1,0,0:0:0:0:
320,192,636873,1,0,0:0:0:0:
448,192,636973,1,0,0:0:0:0:
64,192,636973,128,0,637373:0:0:0:0:
192,192,636973,1,0,0:0:0:0:
320,192,637073,1,0,0:0:0:0:
448,192,637173,1,0,0:0:0:0:
320,192,637273,1,0,0:0:0:0:
448,192,637373,1,0,0:0:0:0:
192,192,637373,1,0,0:0:0:0:
320,192,637473,1,0,0:0:0:0:
192,192,637573,128,0,637973:0:0:0:0:
64,192,637573,1,0,0:0:0:0:
320,192,637673,1,0,0:0:0:0:
448,192,637773,1,0,0:0:0:0:
64,192,637773,1,0,0:0:0:0:
320,192,637873,1,0,0:0:0:0:
448,192,637973,1,0,0:0:0:0:
320,192,638073,1,0,0:0:0:0:
64,192,638173,128,0,638573:0:0:0:0:
192,192,638173,1,0,0:0:0:0:
448,192,638173,1,0,0:0:0:0:
320,192,638273,1,0,0:0:0:0:
192,192,638373,128,0,638573:0:0:0:0:
448,192,638373,1,0,0:0:0:0:
320,192,638473,1,0,0:0:0:0:
320,192,638573,128,0,638973:0:0:0:0:
448,192,638573,1,0,0:0:0:0:
192,192,638673,1,0,0:0:0:0:
448,192,638773,128,0,638973:0:0:0:0:
64,192,638773,1,0,0:0:0:0:
192,192,638873,1,0,0:0:0:0:
192,192,638973,128,0,639373:0:0:0:0:
64,192,638973,1,0,0:0:0:0:
320,192,639073,1,0,0:0:0:0:
64,192,639173,128,0,639373:0:0:0:0:
448,192,639173,1,0,0:0:0:0:
320,192,639273,1,0,0:0:0:0:
448,192,639373,1,0,0:0:0:0:
320,192,639373,1,0,0:0:0:0:
64,192,639473,1,0,0:0:0:0:
192,192,639573,1,0,0:0:0:0:
320,192,639673,1,0,0:0:0:0:
64,192,639773,128,0,640173:0:0:0:0:
448,192,639773,1,0,0:0:0:0:
192,192,639773,1,0,0:0:0:0:
320,192,639873,1,0,0:0:0:0:
192,192,639973,128,0,640173:0:0:0:0:
448,192,639973,1,0,0:0:0:0:
320,192,640073,1,0,0:0:0:0:
320,192,640173,128,0,640573:0:0:0:0:
448,192,640173,1,0,0:0:0:0:
192,192,640273,1,0,0:0:0:0:
448,192,640373,128,0,640573:0:0:0:0:
64,192,640373,1,0,0:0:0:0:
192,192,640473,1,0,0:0:0:0:
192,192,640573,128,0,640973:0:0:0:0:
64,192,640573,1,0,0:0:0:0:
320,192,640673,1,0,0:0:0:0:
64,192,640773,128,0,640973:0:0:0:0:
448,192,640773,1,0,0:0:0:0:
320,192,640873,1,0,0:0:0:0:
448,192,640973,1,0,0:0:0:0:
320,192,640973,1,0,0:0:0:0:
64,192,641073,1,0,0:0:0:0:
320,192,641173,1,0,0:0:0:0:
192,192,641273,1,0,0:0:0:0:
448,192,641373,128,0,641573:0:0:0:0:
320,192,641373,1,0,0:0:0:0:
64,192,641373,1,0,0:0:0:0:
192,192,641473,1,0,0:0:0:0:
320,192,641573,128,0,641773:0:0:0:0:
64,192,641573,1,0,0:0:0:0:
192,192,641673,1,0,0:0:0:0:
192,192,641773,1,0,0:0:0:0:
64,192,641773,1,0,0:0:0:0:
448,192,641773,1,0,0:0:0:0:
320,192,641873,1,0,0:0:0:0:
64,192,641973,1,0,0:0:0:0:
192,192,641973,1,0,0:0:0:0:
448,192,641973,1,0,0:0:0:0:
320,192,642073,1,0,0:0:0:0:
64,192,642173,1,0,0:0:0:0:
192,192,642173,1,0,0:0:0:0:
448,192,642173,1,0,0:0:0:0:
320,192,642273,1,0,0:0:0:0:
64,192,642373,1,0,0:0:0:0:
192,192,642373,1,0,0:0:0:0:
448,192,642373,1,0,0:0:0:0:
192,192,642473,1,0,0:0:0:0:
320,192,642573,1,0,0:0:0:0:
448,192,642573,1,0,0:0:0:0:
64,192,642573,1,0,0:0:0:0:
192,192,642673,1,0,0:0:0:0:
320,192,642773,1,0,0:0:0:0:
448,192,642773,1,0,0:0:0:0:
64,192,642773,1,0,0:0:0:0:
192,192,642873,1,0,0:0:0:0:
320,192,642973,1,0,0:0:0:0:
448,192,642973,1,0,0:0:0:0:
64,192,642973,1,0,0:0:0:0:
192,192,643073,1,0,0:0:0:0:
320,192,643173,1,0,0:0:0:0:
448,192,643173,1,0,0:0:0:0:
64,192,643173,1,0,0:0:0:0:
64,192,643373,1,0,0:0:0:0:
320,192,643373,1,0,0:0:0:0:
192,192,643373,1,0,0:0:0:0:
448,192,643373,1,0,0:0:0:0:
64,192,643573,1,0,0:0:0:0:
448,192,643573,1,0,0:0:0:0:
192,192,643623,1,0,0:0:0:0:
320,192,643673,1,0,0:0:0:0:
448,192,643723,1,0,0:0:0:0:
192,192,643773,1,0,0:0:0:0:
64,192,643773,1,0,0:0:0:0:
64,192,643973,1,0,0:0:0:0:
448,192,643973,1,0,0:0:0:0:
192,192,644023,1,0,0:0:0:0:
320,192,644073,1,0,0:0:0:0:
448,192,644123,1,0,0:0:0:0:
64,192,644173,1,0,0:0:0:0:
192,192,644173,1,0,0:0:0:0:
320,192,644173,1,0,0:0:0:0:
64,192,644273,1,0,0:0:0:0:
192,192,644273,1,0,0:0:0:0:
320,192,644273,1,0,0:0:0:0:
448,192,644273,1,0,0:0:0:0:
64,192,644473,1,0,0:0:0:0:
448,192,644473,1,0,0:0:0:0:
320,192,644473,1,0,0:0:0:0:
192,192,644573,1,0,0:0:0:0:
448,192,644573,1,0,0:0:0:0:
64,192,644673,1,0,0:0:0:0:
192,192,644673,1,0,0:0:0:0:
320,192,644673,1,0,0:0:0:0:
448,192,644773,1,0,0:0:0:0:
192,192,644773,1,0,0:0:0:0:
64,192,644773,1,0,0:0:0:0:
64,192,644873,1,0,0:0:0:0:
320,192,644873,1,0,0:0:0:0:
448,192,644873,1,0,0:0:0:0:
192,192,644973,1,0,0:0:0:0:
448,192,644973,1,0,0:0:0:0:
320,192,644973,1,0,0:0:0:0:
64,192,645173,1,0,0:0:0:0:
192,192,645223,1,0,0:0:0:0:
320,192,645273,1,0,0:0:0:0:
448,192,645323,1,0,0:0:0:0:
64,192,645373,1,0,0:0:0:0:
192,192,645373,1,0,0:0:0:0:
320,192,645373,1,0,0:0:0:0:
64,192,645573,1,0,0:0:0:0:
192,192,645623,1,0,0:0:0:0:
320,192,645673,1,0,0:0:0:0:
448,192,645723,1,0,0:0:0:0:
64,192,645773,1,0,0:0:0:0:
192,192,645773,1,0,0:0:0:0:
448,192,645873,1,0,0:0:0:0:
320,192,645873,1,0,0:0:0:0:
192,192,645873,1,0,0:0:0:0:
320,192,645973,1,0,0:0:0:0:
448,192,645973,1,0,0:0:0:0:
320,192,646073,1,0,0:0:0:0:
448,192,646073,1,0,0:0:0:0:
192,192,646073,1,0,0:0:0:0:
64,192,646173,5,0,0:0:0:0:
448,192,646173,1,0,0:0:0:0:
192,192,646223,1,0,0:0:0:0:
320,192,646273,1,0,0:0:0:0:
448,192,646323,1,0,0:0:0:0:
64,192,646373,1,0,0:0:0:0:
192,192,646423,1,0,0:0:0:0:
320,192,646473,1,0,0:0:0:0:
448,192,646523,1,0,0:0:0:0:
64,192,646573,128,0,648173:0:0:0:0:
192,192,646573,1,0,0:0:0:0:
320,192,646573,1,0,0:0:0:0:
320,192,646673,1,0,0:0:0:0:
448,192,646773,1,0,0:0:0:0:
320,192,646873,1,0,0:0:0:0:
448,192,646973,1,0,0:0:0:0:
192,192,646973,1,0,0:0:0:0:
320,192,647073,1,0,0:0:0:0:
448,192,647173,1,0,0:0:0:0:
320,192,647273,1,0,0:0:0:0:
448,192,647373,1,0,0:0:0:0:
192,192,647373,1,0,0:0:0:0:
320,192,647473,1,0,0:0:0:0:
448,192,647573,1,0,0:0:0:0:
320,192,647673,1,0,0:0:0:0:
448,192,647773,1,0,0:0:0:0:
192,192,647773,1,0,0:0:0:0:
320,192,647873,1,0,0:0:0:0:
448,192,647973,1,0,0:0:0:0:
320,192,648073,1,0,0:0:0:0:
192,192,648173,128,0,649773:0:0:0:0:
320,192,648173,1,0,0:0:0:0:
448,192,648173,1,0,0:0:0:0:
64,192,648273,1,0,0:0:0:0:
320,192,648373,1,0,0:0:0:0:
64,192,648473,1,0,0:0:0:0:
320,192,648573,1,0,0:0:0:0:
448,192,648573,1,0,0:0:0:0:
64,192,648673,1,0,0:0:0:0:
320,192,648773,1,0,0:0:0:0:
448,192,648873,1,0,0:0:0:0:
320,192,648973,1,0,0:0:0:0:
64,192,648973,1,0,0:0:0:0:
448,192,649073,1,0,0:0:0:0:
320,192,649173,1,0,0:0:0:0:
64,192,649273,1,0,0:0:0:0:
320,192,649373,1,0,0:0:0:0:
448,192,649373,1,0,0:0:0:0:
64,192,649473,1,0,0:0:0:0:
320,192,649573,1,0,0:0:0:0:
448,192,649673,1,0,0:0:0:0:
64,192,649773,128,0,651373:0:0:0:0:
448,192,649773,1,0,0:0:0:0:
320,192,649773,1,0,0:0:0:0:
320,192,649873,1,0,0:0:0:0:
192,192,649973,1,0,0:0:0:0:
320,192,650073,1,0,0:0:0:0:
448,192,650173,1,0,0:0:0:0:
192,192,650173,1,0,0:0:0:0:
320,192,650273,1,0,0:0:0:0:
448,192,650373,1,0,0:0:0:0:
320,192,650473,1,0,0:0:0:0:
448,192,650573,1,0,0:0:0:0:
192,192,650573,1,0,0:0:0:0:
320,192,650673,1,0,0:0:0:0:
448,192,650773,1,0,0:0:0:0:
320,192,650873,1,0,0:0:0:0:
448,192,650973,1,0,0:0:0:0:
192,192,650973,1,0,0:0:0:0:
320,192,651073,1,0,0:0:0:0:
448,192,651173,1,0,0:0:0:0:
320,192,651273,1,0,0:0:0:0:
192,192,651373,128,0,652973:0:0:0:0:
320,192,651373,1,0,0:0:0:0:
448,192,651373,1,0,0:0:0:0:
64,192,651473,1,0,0:0:0:0:
448,192,651573,1,0,0:0:0:0:
64,192,651673,1,0,0:0:0:0:
320,192,651773,1,0,0:0:0:0:
448,192,651773,1,0,0:0:0:0:
64,192,651873,1,0,0:0:0:0:
320,192,651973,1,0,0:0:0:0:
448,192,652073,1,0,0:0:0:0:
320,192,652173,1,0,0:0:0:0:
64,192,652173,1,0,0:0:0:0:
448,192,652273,1,0,0:0:0:0:
320,192,652373,1,0,0:0:0:0:
64,192,652473,1,0,0:0:0:0:
320,192,652573,1,0,0:0:0:0:
448,192,652573,1,0,0:0:0:0:
64,192,652673,1,0,0:0:0:0:
320,192,652773,1,0,0:0:0:0:
448,192,652773,1,0,0:0:0:0:
64,192,652873,1,0,0:0:0:0:
320,192,652973,128,0,654573:0:0:0:0:
64,192,652973,1,0,0:0:0:0:
448,192,652973,1,0,0:0:0:0:
192,192,653073,1,0,0:0:0:0:
448,192,653173,1,0,0:0:0:0:
192,192,653273,1,0,0:0:0:0:
64,192,653373,1,0,0:0:0:0:
448,192,653373,1,0,0:0:0:0:
192,192,653473,1,0,0:0:0:0:
64,192,653573,1,0,0:0:0:0:
448,192,653573,1,0,0:0:0:0:
192,192,653673,1,0,0:0:0:0:
64,192,653773,1,0,0:0:0:0:
448,192,653773,1,0,0:0:0:0:
192,192,653873,1,0,0:0:0:0:
64,192,653973,1,0,0:0:0:0:
192,192,654073,1,0,0:0:0:0:
64,192,654173,1,0,0:0:0:0:
448,192,654173,1,0,0:0:0:0:
192,192,654273,1,0,0:0:0:0:
64,192,654373,1,0,0:0:0:0:
192,192,654473,1,0,0:0:0:0:
448,192,654573,128,0,656173:0:0:0:0:
192,192,654573,1,0,0:0:0:0:
64,192,654573,1,0,0:0:0:0:
320,192,654673,1,0,0:0:0:0:
192,192,654773,1,0,0:0:0:0:
64,192,654873,1,0,0:0:0:0:
192,192,654973,1,0,0:0:0:0:
320,192,654973,1,0,0:0:0:0:
64,192,655073,1,0,0:0:0:0:
192,192,655173,1,0,0:0:0:0:
320,192,655273,1,0,0:0:0:0:
192,192,655373,1,0,0:0:0:0:
64,192,655373,1,0,0:0:0:0:
320,192,655473,1,0,0:0:0:0:
192,192,655573,1,0,0:0:0:0:
64,192,655673,1,0,0:0:0:0:
192,192,655773,1,0,0:0:0:0:
320,192,655773,1,0,0:0:0:0:
64,192,655873,1,0,0:0:0:0:
192,192,655973,1,0,0:0:0:0:
320,192,656073,1,0,0:0:0:0:
320,192,656173,128,0,656973:0:0:0:0:
192,192,656173,1,0,0:0:0:0:
64,192,656173,1,0,0:0:0:0:
448,192,656273,1,0,0:0:0:0:
192,192,656373,1,0,0:0:0:0:
64,192,656473,1,0,0:0:0:0:
192,192,656573,1,0,0:0:0:0:
448,192,656573,1,0,0:0:0:0:
64,192,656673,1,0,0:0:0:0:
192,192,656773,1,0,0:0:0:0:
448,192,656873,1,0,0:0:0:0:
64,192,656973,128,0,657773:0:0:0:0:
192,192,656973,1,0,0:0:0:0:
448,192,656973,1,0,0:0:0:0:
320,192,657073,1,0,0:0:0:0:
448,192,657173,1,0,0:0:0:0:
320,192,657273,1,0,0:0:0:0:
192,192,657373,1,0,0:0:0:0:
448,192,657373,1,0,0:0:0:0:
320,192,657473,1,0,0:0:0:0:
192,192,657573,1,0,0:0:0:0:
320,192,657673,1,0,0:0:0:0:
448,192,657773,128,0,658973:0:0:0:0:
320,192,657773,1,0,0:0:0:0:
192,192,657773,1,0,0:0:0:0:
64,192,657873,1,0,0:0:0:0:
192,192,657973,1,0,0:0:0:0:
320,192,658073,1,0,0:0:0:0:
64,192,658173,1,0,0:0:0:0:
192,192,658173,1,0,0:0:0:0:
320,192,658273,1,0,0:0:0:0:
64,192,658373,1,0,0:0:0:0:
192,192,658473,1,0,0:0:0:0:
320,192,658573,1,0,0:0:0:0:
64,192,658573,1,0,0:0:0:0:
320,192,658673,1,0,0:0:0:0:
64,192,658673,1,0,0:0:0:0:
192,192,658773,1,0,0:0:0:0:
64,192,658873,1,0,0:0:0:0:
320,192,658873,1,0,0:0:0:0:
192,192,658973,128,0,659373:0:0:0:0:
64,192,658973,1,0,0:0:0:0:
320,192,658973,1,0,0:0:0:0:
320,192,659073,1,0,0:0:0:0:
448,192,659073,1,0,0:0:0:0:
320,192,659173,1,0,0:0:0:0:
448,192,659173,1,0,0:0:0:0:
320,192,659273,1,0,0:0:0:0:
448,192,659273,1,0,0:0:0:0:
64,192,659373,128,0,659773:0:0:0:0:
320,192,659373,1,0,0:0:0:0:
448,192,659373,1,0,0:0:0:0:
448,192,659573,128,0,660173:0:0:0:0:
320,192,659773,128,0,660173:0:0:0:0:
192,192,659973,128,0,660173:0:0:0:0:
64,192,660173,128,0,660573:0:0:0:0:
448,192,660573,128,0,661773:0:0:0:0:
320,192,660973,128,0,661773:0:0:0:0:
192,192,661373,128,0,661773:0:0:0:0:
64,192,661773,128,0,662373:0:0:0:0:
192,192,661973,128,0,662573:0:0:0:0:
320,192,662173,128,0,662573:0:0:0:0:
448,192,662373,128,0,662573:0:0:0:0:
64,192,662573,128,0,662973:0:0:0:0:
320,192,662973,128,0,663373:0:0:0:0:
192,192,663173,128,0,663773:0:0:0:0:
64,192,663373,128,0,663773:0:0:0:0:
320,192,663573,128,0,663773:0:0:0:0:
448,192,663773,128,0,664573:0:0:0:0:
320,192,664173,128,0,664973:0:0:0:0:
192,192,664573,128,0,664973:0:0:0:0:
64,192,664973,128,0,665173:0:0:0:0:
192,192,665173,128,0,665373:0:0:0:0:
320,192,665373,128,0,665573:0:0:0:0:
448,192,665573,128,0,665773:0:0:0:0:
64,192,665773,1,0,0:0:0:0:
192,192,665773,1,0,0:0:0:0:
320,192,665773,1,0,0:0:0:0:
192,192,666173,1,0,0:0:0:0:
320,192,666173,1,0,0:0:0:0:
448,192,666173,1,0,0:0:0:0:
64,192,666573,1,0,0:0:0:0:
192,192,666573,1,0,0:0:0:0:
448,192,666573,1,0,0:0:0:0:
64,192,666973,1,0,0:0:0:0:
320,192,666973,1,0,0:0:0:0:
448,192,666973,1,0,0:0:0:0:
320,192,667373,1,0,0:0:0:0:
192,192,667373,1,0,0:0:0:0:
64,192,667373,1,0,0:0:0:0:
320,192,667773,1,0,0:0:0:0:
448,192,667773,1,0,0:0:0:0:
192,192,667773,1,0,0:0:0:0:
448,192,668173,1,0,0:0:0:0:
192,192,668173,1,0,0:0:0:0:
64,192,668173,1,0,0:0:0:0:
64,192,668573,1,0,0:0:0:0:
320,192,668573,1,0,0:0:0:0:
448,192,668573,1,0,0:0:0:0:
64,192,668973,1,0,0:0:0:0:
192,192,668973,1,0,0:0:0:0:
320,192,668973,1,0,0:0:0:0:
320,192,669173,1,0,0:0:0:0:
448,192,669173,1,0,0:0:0:0:
64,192,669373,1,0,0:0:0:0:
192,192,669373,1,0,0:0:0:0:
448,192,669373,1,0,0:0:0:0:
320,192,669473,1,0,0:0:0:0:
448,192,669473,1,0,0:0:0:0:
64,192,669573,1,0,0:0:0:0:
192,192,669573,1,0,0:0:0:0:
192,192,669773,1,0,0:0:0:0:
448,192,669773,1,0,0:0:0:0:
320,192,669773,1,0,0:0:0:0:
64,192,669973,1,0,0:0:0:0:
192,192,669973,1,0,0:0:0:0:
320,192,670073,1,0,0:0:0:0:
448,192,670073,1,0,0:0:0:0:
64,192,670173,1,0,0:0:0:0:
192,192,670173,1,0,0:0:0:0:
320,192,670173,1,0,0:0:0:0:
320,192,670373,1,0,0:0:0:0:
448,192,670373,1,0,0:0:0:0:
64,192,670473,1,0,0:0:0:0:
192,192,670473,1,0,0:0:0:0:
192,192,670573,1,0,0:0:0:0:
320,192,670573,1,0,0:0:0:0:
448,192,670573,1,0,0:0:0:0:
64,192,670773,1,0,0:0:0:0:
448,192,670773,1,0,0:0:0:0:
192,192,670873,1,0,0:0:0:0:
320,192,670873,1,0,0:0:0:0:
64,192,670973,1,0,0:0:0:0:
320,192,670973,1,0,0:0:0:0:
448,192,670973,1,0,0:0:0:0:
192,192,671173,1,0,0:0:0:0:
448,192,671173,1,0,0:0:0:0:
320,192,671273,1,0,0:0:0:0:
448,192,671273,1,0,0:0:0:0:
64,192,671373,1,0,0:0:0:0:
192,192,671373,1,0,0:0:0:0:
320,192,671373,1,0,0:0:0:0:
192,192,671473,1,0,0:0:0:0:
448,192,671473,1,0,0:0:0:0:
64,192,671573,1,0,0:0:0:0:
320,192,671573,1,0,0:0:0:0:
448,192,671673,1,0,0:0:0:0:
192,192,671673,1,0,0:0:0:0:
64,192,671773,1,0,0:0:0:0:
192,192,671773,1,0,0:0:0:0:
448,192,671773,1,0,0:0:0:0:
320,192,671873,1,0,0:0:0:0:
64,192,671873,1,0,0:0:0:0:
448,192,671973,1,0,0:0:0:0:
320,192,671973,1,0,0:0:0:0:
192,192,672073,1,0,0:0:0:0:
448,192,672073,1,0,0:0:0:0:
320,192,672173,1,0,0:0:0:0:
64,192,672173,1,0,0:0:0:0:
192,192,672173,1,0,0:0:0:0:
448,192,672373,1,0,0:0:0:0:
64,192,672373,1,0,0:0:0:0:
320,192,672373,1,0,0:0:0:0:
448,192,672573,1,0,0:0:0:0:
192,192,672573,1,0,0:0:0:0:
64,192,672773,1,0,0:0:0:0:
320,192,672873,1,0,0:0:0:0:
64,192,672973,1,0,0:0:0:0:
448,192,673073,1,0,0:0:0:0:
192,192,673173,1,0,0:0:0:0:
448,192,673273,1,0,0:0:0:0:
64,192,673373,1,0,0:0:0:0:
320,192,673473,1,0,0:0:0:0:
64,192,673573,1,0,0:0:0:0:
448,192,673673,1,0,0:0:0:0:
192,192,673773,1,0,0:0:0:0:
448,192,673873,1,0,0:0:0:0:
320,192,673973,1,0,0:0:0:0:
64,192,673973,1,0,0:0:0:0:
64,192,674173,1,0,0:0:0:0:
320,192,674273,1,0,0:0:0:0:
448,192,674373,1,0,0:0:0:0:
192,192,674373,1,0,0:0:0:0:
320,192,674473,1,0,0:0:0:0:
448,192,674573,1,0,0:0:0:0:
64,192,674573,1,0,0:0:0:0:
64,192,674773,1,0,0:0:0:0:
448,192,674973,1,0,0:0:0:0:
192,192,674973,1,0,0:0:0:0:
448,192,675173,1,0,0:0:0:0:
64,192,675173,1,0,0:0:0:0:
192,192,675373,1,0,0:0:0:0:
64,192,675373,1,0,0:0:0:0:
320,192,675373,1,0,0:0:0:0:
448,192,675573,1,0,0:0:0:0:
320,192,675573,1,0,0:0:0:0:
192,192,675573,1,0,0:0:0:0:
320,192,675773,1,0,0:0:0:0:
64,192,675773,1,0,0:0:0:0:
448,192,675973,1,0,0:0:0:0:
64,192,675973,1,0,0:0:0:0:
192,192,676073,1,0,0:0:0:0:
448,192,676173,1,0,0:0:0:0:
448,192,676373,1,0,0:0:0:0:
192,192,676373,1,0,0:0:0:0:
64,192,676573,1,0,0:0:0:0:
320,192,676573,1,0,0:0:0:0:
192,192,676673,1,0,0:0:0:0:
448,192,676773,1,0,0:0:0:0:
64,192,676773,1,0,0:0:0:0:
192,192,676973,1,0,0:0:0:0:
448,192,677073,1,0,0:0:0:0:
64,192,677173,1,0,0:0:0:0:
320,192,677273,1,0,0:0:0:0:
64,192,677373,1,0,0:0:0:0:
448,192,677473,1,0,0:0:0:0:
192,192,677573,1,0,0:0:0:0:
320,192,677673,1,0,0:0:0:0:
64,192,677773,1,0,0:0:0:0:
448,192,677873,1,0,0:0:0:0:
192,192,677973,1,0,0:0:0:0:
448,192,678073,1,0,0:0:0:0:
320,192,678173,1,0,0:0:0:0:
64,192,678173,1,0,0:0:0:0:
448,192,678273,1,0,0:0:0:0:
192,192,678373,1,0,0:0:0:0:
64,192,678373,1,0,0:0:0:0:
320,192,678473,1,0,0:0:0:0:
448,192,678573,1,0,0:0:0:0:
64,192,678573,1,0,0:0:0:0:
192,192,678573,1,0,0:0:0:0:
320,192,678673,1,0,0:0:0:0:
448,192,678773,1,0,0:0:0:0:
64,192,678773,1,0,0:0:0:0:
192,192,678773,1,0,0:0:0:0:
320,192,678873,1,0,0:0:0:0:
64,192,678973,1,0,0:0:0:0:
448,192,678973,1,0,0:0:0:0:
192,192,679173,1,0,0:0:0:0:
448,192,679273,1,0,0:0:0:0:
64,192,679373,1,0,0:0:0:0:
320,192,679373,1,0,0:0:0:0:
448,192,679473,1,0,0:0:0:0:
192,192,679573,1,0,0:0:0:0:
448,192,679673,1,0,0:0:0:0:
64,192,679773,1,0,0:0:0:0:
192,192,679773,1,0,0:0:0:0:
320,192,679873,1,0,0:0:0:0:
64,192,679973,1,0,0:0:0:0:
448,192,680073,1,0,0:0:0:0:
64,192,680173,1,0,0:0:0:0:
320,192,680173,1,0,0:0:0:0:
192,192,680273,1,0,0:0:0:0:
448,192,680373,1,0,0:0:0:0:
320,192,680373,1,0,0:0:0:0:
64,192,680573,1,0,0:0:0:0:
448,192,680573,1,0,0:0:0:0:
192,192,680673,1,0,0:0:0:0:
448,192,680773,1,0,0:0:0:0:
64,192,680773,1,0,0:0:0:0:
320,192,680873,1,0,0:0:0:0:
448,192,680973,1,0,0:0:0:0:
64,192,680973,1,0,0:0:0:0:
192,192,680973,1,0,0:0:0:0:
320,192,681073,1,0,0:0:0:0:
64,192,681173,1,0,0:0:0:0:
448,192,681373,1,0,0:0:0:0:
192,192,681373,1,0,0:0:0:0:
320,192,681373,1,0,0:0:0:0:
448,192,681573,1,0,0:0:0:0:
64,192,681573,1,0,0:0:0:0:
448,192,681773,1,0,0:0:0:0:
64,192,681773,1,0,0:0:0:0:
320,192,681773,1,0,0:0:0:0:
448,192,681973,1,0,0:0:0:0:
320,192,681973,1,0,0:0:0:0:
192,192,681973,1,0,0:0:0:0:
192,192,682173,1,0,0:0:0:0:
64,192,682173,1,0,0:0:0:0:
320,192,682173,1,0,0:0:0:0:
448,192,682373,1,0,0:0:0:0:
64,192,682373,1,0,0:0:0:0:
320,192,682473,1,0,0:0:0:0:
448,192,682573,1,0,0:0:0:0:
64,192,682573,1,0,0:0:0:0:
448,192,682773,1,0,0:0:0:0:
64,192,682773,1,0,0:0:0:0:
192,192,682873,1,0,0:0:0:0:
448,192,682973,1,0,0:0:0:0:
64,192,682973,1,0,0:0:0:0:
320,192,682973,1,0,0:0:0:0:
192,192,683073,1,0,0:0:0:0:
448,192,683173,1,0,0:0:0:0:
64,192,683173,1,0,0:0:0:0:
64,192,683373,1,0,0:0:0:0:
320,192,683373,1,0,0:0:0:0:
448,192,683473,1,0,0:0:0:0:
192,192,683573,1,0,0:0:0:0:
448,192,683673,1,0,0:0:0:0:
64,192,683773,1,0,0:0:0:0:
320,192,683773,1,0,0:0:0:0:
448,192,683873,1,0,0:0:0:0:
64,192,683973,1,0,0:0:0:0:
320,192,684073,1,0,0:0:0:0:
64,192,684173,1,0,0:0:0:0:
448,192,684173,1,0,0:0:0:0:
320,192,684273,1,0,0:0:0:0:
448,192,684373,1,0,0:0:0:0:
192,192,684473,1,0,0:0:0:0:
320,192,684573,1,0,0:0:0:0:
448,192,684573,1,0,0:0:0:0:
64,192,684573,1,0,0:0:0:0:
192,192,684673,1,0,0:0:0:0:
448,192,684773,1,0,0:0:0:0:
64,192,684773,1,0,0:0:0:0:
320,192,684873,1,0,0:0:0:0:
448,192,684973,1,0,0:0:0:0:
64,192,684973,1,0,0:0:0:0:
192,192,684973,1,0,0:0:0:0:
320,192,685073,1,0,0:0:0:0:
448,192,685173,1,0,0:0:0:0:
64,192,685173,1,0,0:0:0:0:
192,192,685173,1,0,0:0:0:0:
320,192,685273,1,0,0:0:0:0:
448,192,685373,1,0,0:0:0:0:
64,192,685373,1,0,0:0:0:0:
448,192,685573,1,0,0:0:0:0:
320,192,685673,1,0,0:0:0:0:
64,192,685773,1,0,0:0:0:0:
448,192,685773,1,0,0:0:0:0:
192,192,685873,1,0,0:0:0:0:
64,192,685973,1,0,0:0:0:0:
320,192,686073,1,0,0:0:0:0:
64,192,686173,1,0,0:0:0:0:
448,192,686173,1,0,0:0:0:0:
192,192,686273,1,0,0:0:0:0:
448,192,686373,1,0,0:0:0:0:
320,192,686473,1,0,0:0:0:0:
64,192,686573,1,0,0:0:0:0:
448,192,686573,1,0,0:0:0:0:
192,192,686673,1,0,0:0:0:0:
64,192,686773,1,0,0:0:0:0:
448,192,686773,1,0,0:0:0:0:
64,192,686973,1,0,0:0:0:0:
448,192,686973,1,0,0:0:0:0:
192,192,687073,1,0,0:0:0:0:
448,192,687173,1,0,0:0:0:0:
64,192,687173,1,0,0:0:0:0:
320,192,687273,1,0,0:0:0:0:
448,192,687373,1,0,0:0:0:0:
64,192,687373,1,0,0:0:0:0:
192,192,687373,1,0,0:0:0:0:
320,192,687473,1,0,0:0:0:0:
64,192,687573,1,0,0:0:0:0:
448,192,687773,1,0,0:0:0:0:
64,192,687773,1,0,0:0:0:0:
320,192,687773,1,0,0:0:0:0:
320,192,687973,1,0,0:0:0:0:
192,192,687973,1,0,0:0:0:0:
448,192,688173,1,0,0:0:0:0:
64,192,688173,1,0,0:0:0:0:
320,192,688173,1,0,0:0:0:0:
448,192,688373,1,0,0:0:0:0:
192,192,688373,1,0,0:0:0:0:
320,192,688373,1,0,0:0:0:0:
448,192,688573,1,0,0:0:0:0:
64,192,688573,1,0,0:0:0:0:
192,192,688573,1,0,0:0:0:0:
448,192,688773,1,0,0:0:0:0:
64,192,688773,1,0,0:0:0:0:
192,192,688873,1,0,0:0:0:0:
64,192,688973,1,0,0:0:0:0:
448,192,688973,1,0,0:0:0:0:
448,192,689173,1,0,0:0:0:0:
64,192,689173,1,0,0:0:0:0:
320,192,689273,1,0,0:0:0:0:
448,192,689373,1,0,0:0:0:0:
64,192,689373,1,0,0:0:0:0:
192,192,689373,1,0,0:0:0:0:
320,192,689473,1,0,0:0:0:0:
448,192,689573,1,0,0:0:0:0:
64,192,689573,1,0,0:0:0:0:
64,192,689773,1,0,0:0:0:0:
320,192,689773,1,0,0:0:0:0:
448,192,689873,1,0,0:0:0:0:
192,192,689973,1,0,0:0:0:0:
448,192,690073,1,0,0:0:0:0:
64,192,690173,1,0,0:0:0:0:
320,192,690173,1,0,0:0:0:0:
448,192,690273,1,0,0:0:0:0:
192,192,690373,1,0,0:0:0:0:
448,192,690473,1,0,0:0:0:0:
64,192,690573,1,0,0:0:0:0:
192,192,690573,1,0,0:0:0:0:
448,192,690673,1,0,0:0:0:0:
64,192,690773,1,0,0:0:0:0:
320,192,690873,1,0,0:0:0:0:
64,192,690973,1,0,0:0:0:0:
448,192,690973,1,0,0:0:0:0:
192,192,690973,1,0,0:0:0:0:
320,192,691073,1,0,0:0:0:0:
448,192,691173,1,0,0:0:0:0:
64,192,691173,1,0,0:0:0:0:
192,192,691273,1,0,0:0:0:0:
448,192,691373,1,0,0:0:0:0:
64,192,691373,1,0,0:0:0:0:
320,192,691373,1,0,0:0:0:0:
192,192,691473,1,0,0:0:0:0:
448,192,691573,1,0,0:0:0:0:
64,192,691573,1,0,0:0:0:0:
320,192,691573,1,0,0:0:0:0:
192,192,691673,1,0,0:0:0:0:
64,192,691773,1,0,0:0:0:0:
448,192,691773,1,0,0:0:0:0:
448,192,691973,1,0,0:0:0:0:
192,192,692073,1,0,0:0:0:0:
64,192,692173,1,0,0:0:0:0:
320,192,692173,1,0,0:0:0:0:
448,192,692273,1,0,0:0:0:0:
64,192,692373,1,0,0:0:0:0:
320,192,692473,1,0,0:0:0:0:
64,192,692573,1,0,0:0:0:0:
448,192,692573,1,0,0:0:0:0:
192,192,692673,1,0,0:0:0:0:
448,192,692773,1,0,0:0:0:0:
320,192,692873,1,0,0:0:0:0:
64,192,692973,1,0,0:0:0:0:
448,192,692973,1,0,0:0:0:0:
192,192,692973,1,0,0:0:0:0:
320,192,693073,1,0,0:0:0:0:
448,192,693173,1,0,0:0:0:0:
64,192,693173,1,0,0:0:0:0:
192,192,693373,1,0,0:0:0:0:
320,192,693373,1,0,0:0:0:0:
448,192,693473,1,0,0:0:0:0:
192,192,693573,1,0,0:0:0:0:
64,192,693573,1,0,0:0:0:0:
448,192,693673,1,0,0:0:0:0:
320,192,693773,1,0,0:0:0:0:
64,192,693773,1,0,0:0:0:0:
192,192,693773,1,0,0:0:0:0:
448,192,693873,1,0,0:0:0:0:
192,192,693973,1,0,0:0:0:0:
448,192,694173,1,0,0:0:0:0:
64,192,694173,1,0,0:0:0:0:
320,192,694173,1,0,0:0:0:0:
320,192,694373,1,0,0:0:0:0:
192,192,694373,1,0,0:0:0:0:
448,192,694573,1,0,0:0:0:0:
64,192,694573,1,0,0:0:0:0:
320,192,694573,1,0,0:0:0:0:
192,192,694773,1,0,0:0:0:0:
64,192,694773,1,0,0:0:0:0:
320,192,694773,1,0,0:0:0:0:
448,192,694973,1,0,0:0:0:0:
192,192,694973,1,0,0:0:0:0:
320,192,694973,1,0,0:0:0:0:
320,192,695173,1,0,0:0:0:0:
64,192,695173,1,0,0:0:0:0:
448,192,695273,1,0,0:0:0:0:
64,192,695373,1,0,0:0:0:0:
192,192,695373,1,0,0:0:0:0:
448,192,695573,1,0,0:0:0:0:
64,192,695573,1,0,0:0:0:0:
192,192,695673,1,0,0:0:0:0:
448,192,695773,1,0,0:0:0:0:
64,192,695773,1,0,0:0:0:0:
320,192,695773,1,0,0:0:0:0:
192,192,695873,1,0,0:0:0:0:
448,192,695973,1,0,0:0:0:0:
64,192,695973,1,0,0:0:0:0:
64,192,696173,1,0,0:0:0:0:
448,192,696173,1,0,0:0:0:0:
320,192,696273,1,0,0:0:0:0:
64,192,696373,1,0,0:0:0:0:
448,192,696473,1,0,0:0:0:0:
64,192,696573,1,0,0:0:0:0:
192,192,696573,1,0,0:0:0:0:
448,192,696673,1,0,0:0:0:0:
192,192,696773,1,0,0:0:0:0:
448,192,696873,1,0,0:0:0:0:
64,192,696973,1,0,0:0:0:0:
192,192,697073,1,0,0:0:0:0:
448,192,697173,1,0,0:0:0:0:
64,192,697173,1,0,0:0:0:0:
320,192,697273,1,0,0:0:0:0:
448,192,697373,1,0,0:0:0:0:
64,192,697373,1,0,0:0:0:0:
192,192,697373,1,0,0:0:0:0:
320,192,697473,1,0,0:0:0:0:
192,192,697573,1,0,0:0:0:0:
64,192,697573,1,0,0:0:0:0:
320,192,697673,1,0,0:0:0:0:
448,192,697773,1,0,0:0:0:0:
64,192,697773,1,0,0:0:0:0:
192,192,697773,1,0,0:0:0:0:
320,192,697873,1,0,0:0:0:0:
64,192,697973,1,0,0:0:0:0:
448,192,698173,1,0,0:0:0:0:
192,192,698173,1,0,0:0:0:0:
320,192,698173,1,0,0:0:0:0:
192,192,698373,1,0,0:0:0:0:
448,192,698573,1,0,0:0:0:0:
64,192,698573,1,0,0:0:0:0:
320,192,698573,1,0,0:0:0:0:
320,192,698773,1,0,0:0:0:0:
192,192,698973,1,0,0:0:0:0:
64,192,698973,1,0,0:0:0:0:
320,192,698973,1,0,0:0:0:0:
448,192,699173,1,0,0:0:0:0:
192,192,699273,1,0,0:0:0:0:
64,192,699373,1,0,0:0:0:0:
320,192,699373,1,0,0:0:0:0:
448,192,699373,1,0,0:0:0:0:
192,192,699573,1,0,0:0:0:0:
448,192,699773,1,0,0:0:0:0:
64,192,699773,1,0,0:0:0:0:
320,192,699773,1,0,0:0:0:0:
192,192,699873,1,0,0:0:0:0:
448,192,699973,1,0,0:0:0:0:
64,192,700173,1,0,0:0:0:0:
320,192,700273,1,0,0:0:0:0:
192,192,700473,1,0,0:0:0:0:
64,192,700573,1,0,0:0:0:0:
448,192,700573,1,0,0:0:0:0:
320,192,700673,1,0,0:0:0:0:
320,192,700873,1,0,0:0:0:0:
192,192,700973,1,0,0:0:0:0:
64,192,700973,1,0,0:0:0:0:
448,192,700973,1,0,0:0:0:0:
320,192,701073,1,0,0:0:0:0:
192,192,701273,1,0,0:0:0:0:
448,192,701373,1,0,0:0:0:0:
64,192,701373,1,0,0:0:0:0:
320,192,701373,1,0,0:0:0:0:
192,192,701673,1,0,0:0:0:0:
448,192,701773,1,0,0:0:0:0:
64,192,701773,1,0,0:0:0:0:
320,192,701773,1,0,0:0:0:0:
192,192,701873,1,0,0:0:0:0:
448,192,701973,1,0,0:0:0:0:
320,192,702073,1,0,0:0:0:0:
64,192,702173,1,0,0:0:0:0:
448,192,702173,1,0,0:0:0:0:
192,192,702373,1,0,0:0:0:0:
448,192,702573,1,0,0:0:0:0:
64,192,702573,1,0,0:0:0:0:
320,192,702573,1,0,0:0:0:0:
192,192,702573,1,0,0:0:0:0:
320,192,702773,1,0,0:0:0:0:
448,192,702973,1,0,0:0:0:0:
64,192,702973,1,0,0:0:0:0:
192,192,702973,1,0,0:0:0:0:
320,192,703173,1,0,0:0:0:0:
448,192,703373,1,0,0:0:0:0:
64,192,703373,1,0,0:0:0:0:
320,192,703373,1,0,0:0:0:0:
448,192,703473,1,0,0:0:0:0:
192,192,703473,1,0,0:0:0:0:
64,192,703573,1,0,0:0:0:0:
448,192,703673,5,0,0:0:0:0:
192,192,703673,1,0,0:0:0:0:
320,192,703773,1,0,0:0:0:0:
64,192,703773,1,0,0:0:0:0:
192,192,703773,1,0,0:0:0:0:
448,192,703873,1,0,0:0:0:0:
320,192,703873,1,0,0:0:0:0:
64,192,703973,1,0,0:0:0:0:
192,192,703973,1,0,0:0:0:0:
448,192,704073,1,0,0:0:0:0:
320,192,704073,1,0,0:0:0:0:
448,192,704173,5,0,0:0:0:0:
64,192,704173,1,0,0:0:0:0:
192,192,704173,1,0,0:0:0:0:
448,192,704373,1,0,0:0:0:0:
64,192,704373,1,0,0:0:0:0:
320,192,704373,1,0,0:0:0:0:
448,192,704573,1,0,0:0:0:0:
192,192,704573,1,0,0:0:0:0:
64,192,704573,1,0,0:0:0:0:
64,192,704773,1,0,0:0:0:0:
320,192,704773,1,0,0:0:0:0:
192,192,704773,1,0,0:0:0:0:
320,192,704973,128,0,705373:0:0:0:0:
64,192,704973,128,0,705373:0:0:0:0:
192,192,704973,128,0,705373:0:0:0:0:
448,192,704973,128,0,705373:0:0:0:0:
192,192,705773,1,0,0:0:0:0:
320,192,705773,1,0,0:0:0:0:
448,192,705773,1,0,0:0:0:0:
320,192,705973,1,0,0:0:0:0:
64,192,705973,1,0,0:0:0:0:
448,192,705973,1,0,0:0:0:0:
64,192,706173,1,0,0:0:0:0:
192,192,706173,1,0,0:0:0:0:
448,192,706173,1,0,0:0:0:0:
192,192,706373,1,0,0:0:0:0:
320,192,706373,1,0,0:0:0:0:
64,192,706373,1,0,0:0:0:0:
192,192,706573,128,0,706973:0:0:0:0:
448,192,706573,128,0,706973:0:0:0:0:
320,192,706573,128,0,706973:0:0:0:0:
64,192,706573,128,0,706973:0:0:0:0:
448,192,707373,1,0,0:0:0:0:
320,192,707373,1,0,0:0:0:0:
192,192,707373,1,0,0:0:0:0:
448,192,707573,1,0,0:0:0:0:
64,192,707573,1,0,0:0:0:0:
320,192,707573,1,0,0:0:0:0:
448,192,707773,1,0,0:0:0:0:
192,192,707773,1,0,0:0:0:0:
64,192,707773,1,0,0:0:0:0:
64,192,707973,1,0,0:0:0:0:
320,192,707973,1,0,0:0:0:0:
192,192,707973,1,0,0:0:0:0:
320,192,708173,128,0,708573:0:0:0:0:
64,192,708173,128,0,708573:0:0:0:0:
192,192,708173,128,0,708573:0:0:0:0:
448,192,708173,128,0,708573:0:0:0:0:
320,192,708973,128,0,709273:0:0:0:0:
64,192,708973,128,0,709373:0:0:0:0:
448,192,708973,128,0,709273:0:0:0:0:
448,192,709373,128,0,709673:0:0:0:0:
320,192,709373,128,0,709673:0:0:0:0:
192,192,709373,128,0,709773:0:0:0:0:
448,192,709773,128,0,709873:0:0:0:0:
320,192,709773,128,0,709873:0:0:0:0:
64,192,709773,128,0,709973:0:0:0:0:
320,192,709973,128,0,710073:0:0:0:0:
448,192,709973,128,0,710073:0:0:0:0:
192,192,709973,128,0,710173:0:0:0:0:
320,192,710173,128,0,710273:0:0:0:0:
64,192,710173,128,0,710373:0:0:0:0:
448,192,710173,128,0,710273:0:0:0:0:
448,192,710373,128,0,710573:0:0:0:0:
320,192,710373,128,0,710473:0:0:0:0:
192,192,710373,128,0,710473:0:0:0:0:
320,192,710573,1,0,0:0:0:0:
192,192,710573,1,0,0:0:0:0:
64,192,710573,1,0,0:0:0:0:
320,192,710773,1,0,0:0:0:0:
448,192,710773,1,0,0:0:0:0:
64,192,710773,1,0,0:0:0:0:
64,192,710973,1,0,0:0:0:0:
192,192,710973,1,0,0:0:0:0:
448,192,710973,1,0,0:0:0:0:
320,192,711173,1,0,0:0:0:0:
192,192,711173,1,0,0:0:0:0:
64,192,711173,1,0,0:0:0:0:
64,192,711373,128,0,711773:0:0:0:0:
192,192,711373,128,0,711773:0:0:0:0:
320,192,711373,128,0,711773:0:0:0:0:
448,192,711373,128,0,711773:0:0:0:0:
448,192,712173,1,0,0:0:0:0:
320,192,712173,1,0,0:0:0:0:
192,192,712173,1,0,0:0:0:0:
448,192,712373,1,0,0:0:0:0:
64,192,712373,1,0,0:0:0:0:
320,192,712373,1,0,0:0:0:0:
448,192,712573,1,0,0:0:0:0:
192,192,712573,1,0,0:0:0:0:
64,192,712573,1,0,0:0:0:0:
64,192,712773,1,0,0:0:0:0:
320,192,712773,1,0,0:0:0:0:
192,192,712773,1,0,0:0:0:0:
320,192,712973,128,0,713373:0:0:0:0:
64,192,712973,128,0,713373:0:0:0:0:
192,192,712973,128,0,713373:0:0:0:0:
448,192,712973,128,0,713373:0:0:0:0:
192,192,713773,1,0,0:0:0:0:
320,192,713773,1,0,0:0:0:0:
448,192,713773,1,0,0:0:0:0:
320,192,713973,1,0,0:0:0:0:
64,192,713973,1,0,0:0:0:0:
448,192,713973,1,0,0:0:0:0:
64,192,714173,1,0,0:0:0:0:
192,192,714173,1,0,0:0:0:0:
448,192,714173,1,0,0:0:0:0:
192,192,714373,1,0,0:0:0:0:
320,192,714373,1,0,0:0:0:0:
64,192,714373,1,0,0:0:0:0:
192,192,714573,128,0,714973:0:0:0:0:
448,192,714573,128,0,714973:0:0:0:0:
320,192,714573,128,0,714973:0:0:0:0:
64,192,714573,128,0,714973:0:0:0:0:
64,192,715373,128,0,715673:0:0:0:0:
192,192,715373,128,0,715673:0:0:0:0:
448,192,715373,128,0,715773:0:0:0:0:
64,192,715773,128,0,716073:0:0:0:0:
192,192,715773,128,0,716073:0:0:0:0:
320,192,715773,128,0,716173:0:0:0:0:
64,192,716173,128,0,716273:0:0:0:0:
192,192,716173,128,0,716273:0:0:0:0:
448,192,716173,128,0,716373:0:0:0:0:
192,192,716373,128,0,716473:0:0:0:0:
64,192,716373,128,0,716473:0:0:0:0:
320,192,716373,128,0,716573:0:0:0:0:
192,192,716573,128,0,716673:0:0:0:0:
448,192,716573,128,0,716773:0:0:0:0:
64,192,716573,128,0,716673:0:0:0:0:
192,192,716773,128,0,716873:0:0:0:0:
64,192,716773,128,0,716873:0:0:0:0:
320,192,716773,128,0,716973:0:0:0:0:
448,192,716973,128,0,717373:0:0:0:0:
64,192,716973,1,0,0:0:0:0:
192,192,716973,128,0,717173:0:0:0:0:
320,192,717173,1,0,0:0:0:0:
64,192,717373,128,0,717773:0:0:0:0:
192,192,717373,1,0,0:0:0:0:
320,192,717373,128,0,717573:0:0:0:0:
448,192,717573,1,0,0:0:0:0:
192,192,717773,128,0,717973:0:0:0:0:
448,192,717773,128,0,717873:0:0:0:0:
320,192,717773,1,0,0:0:0:0:
448,192,717973,128,0,718373:0:0:0:0:
64,192,717973,1,0,0:0:0:0:
320,192,717973,128,0,718073:0:0:0:0:
320,192,718173,128,0,718573:0:0:0:0:
64,192,718173,1,0,0:0:0:0:
192,192,718173,128,0,718273:0:0:0:0:
192,192,718373,128,0,718573:0:0:0:0:
64,192,718373,128,0,718473:0:0:0:0:
448,192,718573,128,0,718973:0:0:0:0:
64,192,718573,128,0,718773:0:0:0:0:
320,192,718773,1,0,0:0:0:0:
320,192,718973,128,0,719373:0:0:0:0:
64,192,718973,1,0,0:0:0:0:
192,192,718973,128,0,719173:0:0:0:0:
448,192,719173,1,0,0:0:0:0:
64,192,719373,128,0,720173:0:0:0:0:
192,192,719373,1,0,0:0:0:0:
448,192,719373,128,0,719473:0:0:0:0:
320,192,719573,128,0,719673:0:0:0:0:
448,192,719573,1,0,0:0:0:0:
192,192,719773,128,0,719873:0:0:0:0:
320,192,719773,1,0,0:0:0:0:
320,192,719973,128,0,720073:0:0:0:0:
448,192,719973,1,0,0:0:0:0:
192,192,720173,128,0,720573:0:0:0:0:
320,192,720173,1,0,0:0:0:0:
448,192,720173,128,0,720373:0:0:0:0:
64,192,720373,1,0,0:0:0:0:
320,192,720573,128,0,720973:0:0:0:0:
448,192,720573,1,0,0:0:0:0:
64,192,720573,128,0,720773:0:0:0:0:
192,192,720773,1,0,0:0:0:0:
448,192,720973,1,0,0:0:0:0:
192,192,720973,128,0,721173:0:0:0:0:
64,192,720973,128,0,721173:0:0:0:0:
448,192,721173,128,0,721573:0:0:0:0:
320,192,721173,1,0,0:0:0:0:
64,192,721373,1,0,0:0:0:0:
320,192,721373,128,0,721573:0:0:0:0:
192,192,721373,128,0,721573:0:0:0:0:
64,192,721573,128,0,721773:0:0:0:0:
320,192,721773,128,0,722573:0:0:0:0:
448,192,721773,1,0,0:0:0:0:
192,192,721773,128,0,721873:0:0:0:0:
448,192,721973,128,0,722073:0:0:0:0:
64,192,721973,1,0,0:0:0:0:
192,192,722173,128,0,722273:0:0:0:0:
448,192,722173,1,0,0:0:0:0:
64,192,722373,128,0,722473:0:0:0:0:
192,192,722373,1,0,0:0:0:0:
448,192,722573,128,0,722973:0:0:0:0:
64,192,722573,1,0,0:0:0:0:
192,192,722573,128,0,722773:0:0:0:0:
320,192,722773,1,0,0:0:0:0:
320,192,722973,128,0,723373:0:0:0:0:
64,192,722973,128,0,723173:0:0:0:0:
192,192,722973,1,0,0:0:0:0:
448,192,723173,1,0,0:0:0:0:
448,192,723373,128,0,723773:0:0:0:0:
64,192,723373,1,0,0:0:0:0:
192,192,723373,128,0,723573:0:0:0:0:
320,192,723573,1,0,0:0:0:0:
64,192,723773,128,0,724173:0:0:0:0:
192,192,723773,1,0,0:0:0:0:
320,192,723773,128,0,723973:0:0:0:0:
448,192,723973,1,0,0:0:0:0:
320,192,724173,1,0,0:0:0:0:
448,192,724173,128,0,724273:0:0:0:0:
448,192,724373,128,0,724773:0:0:0:0:
320,192,724373,128,0,724473:0:0:0:0:
192,192,724373,1,0,0:0:0:0:
192,192,724573,128,0,724673:0:0:0:0:
64,192,724573,1,0,0:0:0:0:
320,192,724573,128,0,724773:0:0:0:0:
192,192,724773,128,0,724973:0:0:0:0:
64,192,724773,128,0,724873:0:0:0:0:
448,192,724973,128,0,725373:0:0:0:0:
64,192,724973,1,0,0:0:0:0:
320,192,724973,128,0,725173:0:0:0:0:
192,192,725173,1,0,0:0:0:0:
320,192,725373,128,0,725773:0:0:0:0:
192,192,725373,128,0,725573:0:0:0:0:
64,192,725373,1,0,0:0:0:0:
448,192,725573,1,0,0:0:0:0:
64,192,725773,128,0,726573:0:0:0:0:
192,192,725773,1,0,0:0:0:0:
448,192,725773,128,0,725873:0:0:0:0:
320,192,725973,128,0,726073:0:0:0:0:
448,192,725973,1,0,0:0:0:0:
320,192,726173,1,0,0:0:0:0:
192,192,726173,128,0,726273:0:0:0:0:
448,192,726373,1,0,0:0:0:0:
320,192,726373,128,0,726473:0:0:0:0:
192,192,726573,128,0,726973:0:0:0:0:
320,192,726573,1,0,0:0:0:0:
448,192,726573,128,0,726773:0:0:0:0:
64,192,726773,1,0,0:0:0:0:
320,192,726973,128,0,727373:0:0:0:0:
448,192,726973,1,0,0:0:0:0:
64,192,726973,128,0,727173:0:0:0:0:
448,192,727173,1,0,0:0:0:0:
64,192,727373,1,0,0:0:0:0:
192,192,727373,128,0,727573:0:0:0:0:
448,192,727373,128,0,727573:0:0:0:0:
320,192,727573,128,0,727973:0:0:0:0:
64,192,727573,1,0,0:0:0:0:
192,192,727773,128,0,728173:0:0:0:0:
64,192,727773,1,0,0:0:0:0:
448,192,727773,128,0,727973:0:0:0:0:
64,192,727973,128,0,728173:0:0:0:0:
320,192,728173,128,0,728973:0:0:0:0:
448,192,728173,128,0,728273:0:0:0:0:
64,192,728373,1,0,0:0:0:0:
192,192,728373,128,0,728473:0:0:0:0:
64,192,728573,128,0,728673:0:0:0:0:
448,192,728573,1,0,0:0:0:0:
448,192,728773,1,0,0:0:0:0:
192,192,728773,128,0,728873:0:0:0:0:
448,192,728973,128,0,729373:0:0:0:0:
64,192,728973,128,0,729173:0:0:0:0:
192,192,728973,1,0,0:0:0:0:
320,192,729173,1,0,0:0:0:0:
320,192,729373,128,0,729773:0:0:0:0:
64,192,729373,1,0,0:0:0:0:
192,192,729373,128,0,729573:0:0:0:0:
448,192,729573,1,0,0:0:0:0:
448,192,729773,128,0,730173:0:0:0:0:
192,192,729773,1,0,0:0:0:0:
64,192,729773,1,0,0:0:0:0:
64,192,729973,1,0,0:0:0:0:
192,192,730073,1,0,0:0:0:0:
64,192,730173,128,0,730773:0:0:0:0:
320,192,730173,1,0,0:0:0:0:
192,192,730373,128,0,730773:0:0:0:0:
448,192,730373,1,0,0:0:0:0:
320,192,730473,1,0,0:0:0:0:
448,192,730573,1,0,0:0:0:0:
448,192,730773,128,0,731373:0:0:0:0:
320,192,730773,1,0,0:0:0:0:
192,192,730873,1,0,0:0:0:0:
320,192,730973,128,0,731373:0:0:0:0:
64,192,730973,1,0,0:0:0:0:
192,192,731173,128,0,731373:0:0:0:0:
64,192,731173,1,0,0:0:0:0:
64,192,731373,128,0,731573:0:0:0:0:
192,192,731573,1,0,0:0:0:0:
320,192,731673,1,0,0:0:0:0:
448,192,731773,1,0,0:0:0:0:
64,192,731973,128,0,732773:0:0:0:0:
192,192,731973,1,0,0:0:0:0:
320,192,732073,1,0,0:0:0:0:
448,192,732173,1,0,0:0:0:0:
192,192,732373,128,0,732773:0:0:0:0:
448,192,732373,1,0,0:0:0:0:
320,192,732473,1,0,0:0:0:0:
320,192,732573,128,0,732773:0:0:0:0:
448,192,732573,1,0,0:0:0:0:
448,192,732773,128,0,733173:0:0:0:0:
320,192,732973,128,0,733373:0:0:0:0:
64,192,732973,1,0,0:0:0:0:
192,192,733173,1,0,0:0:0:0:
64,192,733273,1,0,0:0:0:0:
192,192,733373,128,0,733773:0:0:0:0:
448,192,733373,1,0,0:0:0:0:
64,192,733573,128,0,733773:0:0:0:0:
320,192,733573,1,0,0:0:0:0:
448,192,733673,1,0,0:0:0:0:
320,192,733773,1,0,0:0:0:0:
448,192,733973,128,0,734373:0:0:0:0:
192,192,733973,1,0,0:0:0:0:
64,192,734073,1,0,0:0:0:0:
320,192,734173,128,0,734573:0:0:0:0:
192,192,734173,1,0,0:0:0:0:
64,192,734373,1,0,0:0:0:0:
192,192,734473,1,0,0:0:0:0:
64,192,734573,128,0,734773:0:0:0:0:
448,192,734573,1,0,0:0:0:0:
320,192,734773,1,0,0:0:0:0:
192,192,734873,1,0,0:0:0:0:
320,192,734973,1,0,0:0:0:0:
64,192,735173,128,0,735873:0:0:0:0:
320,192,735173,1,0,0:0:0:0:
192,192,735273,128,0,735873:0:0:0:0:
448,192,735273,1,0,0:0:0:0:
448,192,735373,128,0,735473:0:0:0:0:
320,192,735373,128,0,735473:0:0:0:0:
320,192,735573,128,0,735673:0:0:0:0:
448,192,735573,128,0,735673:0:0:0:0:
320,192,735773,128,0,736073:0:0:0:0:
448,192,735773,128,0,736073:0:0:0:0:
192,192,735973,128,0,736073:0:0:0:0:
64,192,735973,128,0,736073:0:0:0:0:
192,192,736173,128,0,736273:0:0:0:0:
320,192,736173,128,0,736673:0:0:0:0:
64,192,736173,128,0,736473:0:0:0:0:
448,192,736173,128,0,736873:0:0:0:0:
192,192,736373,128,0,736473:0:0:0:0:
64,192,736573,128,0,736873:0:0:0:0:
192,192,736573,128,0,736873:0:0:0:0:
320,192,736773,128,0,737073:0:0:0:0:
64,192,736973,128,0,737273:0:0:0:0:
192,192,736973,128,0,737073:0:0:0:0:
448,192,736973,128,0,737673:0:0:0:0:
192,192,737173,128,0,737473:0:0:0:0:
320,192,737173,128,0,737273:0:0:0:0:
64,192,737373,128,0,737673:0:0:0:0:
320,192,737373,128,0,737673:0:0:0:0:
192,192,737573,128,0,737873:0:0:0:0:
320,192,737773,128,0,737873:0:0:0:0:
448,192,737773,128,0,738073:0:0:0:0:
64,192,737773,128,0,738073:0:0:0:0:
192,192,737973,128,0,738073:0:0:0:0:
320,192,737973,128,0,738273:0:0:0:0:
448,192,738173,128,0,738273:0:0:0:0:
192,192,738173,128,0,738473:0:0:0:0:
64,192,738173,128,0,738473:0:0:0:0:
320,192,738373,128,0,738673:0:0:0:0:
448,192,738373,128,0,738673:0:0:0:0:
192,192,738573,128,0,738873:0:0:0:0:
64,192,738573,128,0,738873:0:0:0:0:
320,192,738773,128,0,739073:0:0:0:0:
448,192,738773,128,0,738873:0:0:0:0:
448,192,738973,128,0,739273:0:0:0:0:
192,192,738973,128,0,739273:0:0:0:0:
64,192,738973,128,0,739273:0:0:0:0:
320,192,739173,128,0,739473:0:0:0:0:
64,192,739373,128,0,739673:0:0:0:0:
192,192,739373,128,0,739673:0:0:0:0:
448,192,739373,128,0,740873:0:0:0:0:
320,192,739573,128,0,740073:0:0:0:0:
64,192,739773,128,0,740073:0:0:0:0:
192,192,739773,128,0,739873:0:0:0:0:
192,192,739973,128,0,740473:0:0:0:0:
64,192,740173,128,0,740473:0:0:0:0:
320,192,740173,128,0,740273:0:0:0:0:
320,192,740373,128,0,740673:0:0:0:0:
192,192,740573,128,0,740873:0:0:0:0:
64,192,740573,128,0,740873:0:0:0:0:
320,192,740773,128,0,740873:0:0:0:0:
448,192,740973,128,0,741273:0:0:0:0:
192,192,740973,128,0,741073:0:0:0:0:
64,192,740973,128,0,742473:0:0:0:0:
320,192,740973,128,0,741273:0:0:0:0:
192,192,741173,128,0,741473:0:0:0:0:
448,192,741373,128,0,741673:0:0:0:0:
320,192,741373,128,0,741673:0:0:0:0:
192,192,741573,128,0,742473:0:0:0:0:
320,192,741773,128,0,741873:0:0:0:0:
448,192,741773,128,0,741873:0:0:0:0:
320,192,741973,128,0,742073:0:0:0:0:
448,192,741973,128,0,742073:0:0:0:0:
320,192,742173,128,0,742273:0:0:0:0:
448,192,742173,128,0,742273:0:0:0:0:
320,192,742373,128,0,742473:0:0:0:0:
448,192,742373,128,0,742473:0:0:0:0:
64,192,742573,128,0,743273:0:0:0:0:
320,192,742573,128,0,742673:0:0:0:0:
448,192,742573,128,0,742873:0:0:0:0:
192,192,742573,128,0,743073:0:0:0:0:
320,192,742773,128,0,742873:0:0:0:0:
448,192,742973,128,0,743273:0:0:0:0:
320,192,742973,128,0,743273:0:0:0:0:
192,192,743173,128,0,743473:0:0:0:0:
64,192,743373,128,0,743673:0:0:0:0:
320,192,743373,128,0,743673:0:0:0:0:
448,192,743373,128,0,744073:0:0:0:0:
192,192,743573,128,0,744073:0:0:0:0:
64,192,743773,128,0,744073:0:0:0:0:
320,192,743773,128,0,743873:0:0:0:0:
320,192,743973,128,0,744273:0:0:0:0:
448,192,744173,128,0,744473:0:0:0:0:
192,192,744173,128,0,744273:0:0:0:0:
64,192,744173,128,0,744473:0:0:0:0:
320,192,744373,128,0,744473:0:0:0:0:
192,192,744373,128,0,744673:0:0:0:0:
64,192,744573,128,0,744873:0:0:0:0:
320,192,744573,128,0,745073:0:0:0:0:
448,192,744573,128,0,744673:0:0:0:0:
448,192,744773,128,0,745073:0:0:0:0:
192,192,744773,128,0,744873:0:0:0:0:
192,192,744973,128,0,745273:0:0:0:0:
64,192,744973,128,0,745273:0:0:0:0:
448,192,745173,128,0,745273:0:0:0:0:
320,192,745173,128,0,745473:0:0:0:0:
448,192,745373,128,0,745673:0:0:0:0:
192,192,745373,128,0,745673:0:0:0:0:
64,192,745373,128,0,745673:0:0:0:0:
320,192,745573,128,0,746273:0:0:0:0:
448,192,745773,128,0,746873:0:0:0:0:
192,192,745773,128,0,745873:0:0:0:0:
64,192,745773,128,0,746073:0:0:0:0:
192,192,745973,128,0,746073:0:0:0:0:
64,192,746173,128,0,746473:0:0:0:0:
192,192,746173,128,0,746473:0:0:0:0:
320,192,746373,128,0,746673:0:0:0:0:
192,192,746573,128,0,746873:0:0:0:0:
64,192,746573,128,0,746873:0:0:0:0:
320,192,746773,128,0,747073:0:0:0:0:
192,192,746973,128,0,747073:0:0:0:0:
64,192,746973,128,0,747273:0:0:0:0:
448,192,746973,128,0,747273:0:0:0:0:
320,192,747173,128,0,747273:0:0:0:0:
192,192,747173,128,0,747473:0:0:0:0:
64,192,747373,128,0,747673:0:0:0:0:
320,192,747373,128,0,748973:0:0:0:0:
448,192,747373,128,0,748973:0:0:0:0:
192,192,747573,128,0,747673:0:0:0:0:
192,192,747773,128,0,748073:0:0:0:0:
64,192,747773,128,0,747873:0:0:0:0:
64,192,747973,128,0,748073:0:0:0:0:
192,192,748173,128,0,748273:0:0:0:0:
64,192,748173,128,0,748273:0:0:0:0:
64,192,748373,128,0,748473:0:0:0:0:
192,192,748373,128,0,748473:0:0:0:0:
192,192,748573,128,0,748673:0:0:0:0:
64,192,748573,128,0,748673:0:0:0:0:
64,192,748773,128,0,748873:0:0:0:0:
192,192,748773,128,0,748873:0:0:0:0:
64,192,748973,128,0,749273:0:0:0:0:
192,192,748973,128,0,749273:0:0:0:0:
320,192,749173,128,0,749473:0:0:0:0:
448,192,749173,128,0,749273:0:0:0:0:
448,192,749373,128,0,749673:0:0:0:0:
192,192,749373,128,0,749673:0:0:0:0:
64,192,749373,128,0,749473:0:0:0:0:
320,192,749573,128,0,749673:0:0:0:0:
64,192,749573,128,0,749873:0:0:0:0:
192,192,749773,128,0,750073:0:0:0:0:
320,192,749773,128,0,750073:0:0:0:0:
448,192,749773,128,0,750073:0:0:0:0:
64,192,749973,128,0,750273:0:0:0:0:
192,192,750173,128,0,750473:0:0:0:0:
320,192,750173,128,0,750473:0:0:0:0:
448,192,750173,128,0,750273:0:0:0:0:
64,192,750373,128,0,750473:0:0:0:0:
448,192,750373,128,0,750673:0:0:0:0:
320,192,750573,128,0,750673:0:0:0:0:
192,192,750573,128,0,750873:0:0:0:0:
64,192,750573,128,0,750873:0:0:0:0:
320,192,750773,128,0,751073:0:0:0:0:
448,192,750773,128,0,750873:0:0:0:0:
448,192,750973,128,0,751273:0:0:0:0:
192,192,750973,128,0,751273:0:0:0:0:
64,192,750973,128,0,751073:0:0:0:0:
320,192,751173,128,0,751273:0:0:0:0:
64,192,751173,128,0,751473:0:0:0:0:
192,192,751373,128,0,751673:0:0:0:0:
448,192,751373,128,0,751673:0:0:0:0:
320,192,751373,128,0,751873:0:0:0:0:
64,192,751573,128,0,751673:0:0:0:0:
64,192,751773,128,0,752073:0:0:0:0:
192,192,751773,128,0,752073:0:0:0:0:
448,192,751773,128,0,751873:0:0:0:0:
448,192,751973,128,0,752073:0:0:0:0:
320,192,751973,128,0,752273:0:0:0:0:
64,192,752173,128,0,752473:0:0:0:0:
192,192,752173,128,0,752473:0:0:0:0:
448,192,752173,128,0,752873:0:0:0:0:
320,192,752373,128,0,752673:0:0:0:0:
64,192,752573,128,0,752873:0:0:0:0:
192,192,752573,128,0,752873:0:0:0:0:
320,192,752773,128,0,753073:0:0:0:0:
448,192,752973,128,0,753673:0:0:0:0:
192,192,752973,128,0,753273:0:0:0:0:
64,192,752973,128,0,753273:0:0:0:0:
320,192,753173,128,0,753673:0:0:0:0:
64,192,753373,128,0,753673:0:0:0:0:
192,192,753373,128,0,753473:0:0:0:0:
192,192,753573,128,0,753873:0:0:0:0:
320,192,753773,128,0,753873:0:0:0:0:
448,192,753773,128,0,754073:0:0:0:0:
64,192,753773,128,0,754073:0:0:0:0:
320,192,753973,128,0,754073:0:0:0:0:
192,192,753973,128,0,754273:0:0:0:0:
64,192,754173,128,0,754273:0:0:0:0:
320,192,754173,128,0,754473:0:0:0:0:
448,192,754173,128,0,754473:0:0:0:0:
192,192,754373,128,0,754473:0:0:0:0:
64,192,754373,128,0,754473:0:0:0:0:
192,192,754573,128,0,755273:0:0:0:0:
64,192,754573,128,0,755273:0:0:0:0:
320,192,754573,128,0,754673:0:0:0:0:
448,192,754573,128,0,754673:0:0:0:0:
320,192,754773,128,0,754873:0:0:0:0:
448,192,754773,128,0,754873:0:0:0:0:
448,192,754973,128,0,755073:0:0:0:0:
320,192,754973,128,0,755073:0:0:0:0:
320,192,755173,128,0,755273:0:0:0:0:
448,192,755173,128,0,755273:0:0:0:0:
320,192,755373,128,0,755473:0:0:0:0:
448,192,755373,128,0,755673:0:0:0:0:
64,192,755373,128,0,755673:0:0:0:0:
192,192,755373,128,0,755673:0:0:0:0:
320,192,755573,128,0,755873:0:0:0:0:
448,192,755773,128,0,755873:0:0:0:0:
192,192,755773,128,0,756073:0:0:0:0:
64,192,755773,128,0,756073:0:0:0:0:
320,192,755973,128,0,756273:0:0:0:0:
448,192,755973,128,0,756073:0:0:0:0:
448,192,756173,128,0,756473:0:0:0:0:
192,192,756173,128,0,756473:0:0:0:0:
64,192,756173,128,0,756473:0:0:0:0:
320,192,756373,128,0,756673:0:0:0:0:
448,192,756573,128,0,756873:0:0:0:0:
192,192,756573,128,0,756673:0:0:0:0:
64,192,756573,128,0,756673:0:0:0:0:
320,192,756773,128,0,757073:0:0:0:0:
192,192,756773,128,0,756873:0:0:0:0:
64,192,756773,128,0,756873:0:0:0:0:
64,192,756973,128,0,757073:0:0:0:0:
192,192,756973,128,0,757273:0:0:0:0:
448,192,756973,128,0,757273:0:0:0:0:
64,192,757173,128,0,757473:0:0:0:0:
320,192,757173,128,0,757273:0:0:0:0:
448,192,757373,128,0,757473:0:0:0:0:
320,192,757373,128,0,757873:0:0:0:0:
192,192,757373,128,0,757673:0:0:0:0:
64,192,757573,128,0,757673:0:0:0:0:
448,192,757573,128,0,757673:0:0:0:0:
448,192,757773,128,0,758073:0:0:0:0:
192,192,757773,128,0,758073:0:0:0:0:
64,192,757773,128,0,758073:0:0:0:0:
320,192,757973,128,0,758273:0:0:0:0:
448,192,758173,128,0,758273:0:0:0:0:
192,192,758173,128,0,758473:0:0:0:0:
64,192,758173,128,0,758473:0:0:0:0:
448,192,758373,128,0,758473:0:0:0:0:
320,192,758373,128,0,758673:0:0:0:0:
64,192,758573,128,0,758873:0:0:0:0:
192,192,758573,128,0,758873:0:0:0:0:
448,192,758573,128,0,758873:0:0:0:0:
320,192,758773,128,0,759273:0:0:0:0:
448,192,758973,128,0,759273:0:0:0:0:
192,192,758973,128,0,759073:0:0:0:0:
64,192,758973,128,0,759073:0:0:0:0:
64,192,759173,128,0,759473:0:0:0:0:
192,192,759173,128,0,759273:0:0:0:0:
192,192,759373,128,0,759673:0:0:0:0:
320,192,759373,128,0,759473:0:0:0:0:
448,192,759373,128,0,759673:0:0:0:0:
320,192,759573,128,0,759873:0:0:0:0:
64,192,759573,128,0,759673:0:0:0:0:
64,192,759773,128,0,760073:0:0:0:0:
192,192,759773,128,0,760073:0:0:0:0:
448,192,759773,128,0,759873:0:0:0:0:
448,192,759973,128,0,760073:0:0:0:0:
320,192,759973,128,0,760273:0:0:0:0:
192,192,760173,128,0,760473:0:0:0:0:
64,192,760173,128,0,760473:0:0:0:0:
448,192,760173,128,0,760873:0:0:0:0:
320,192,760373,128,0,760673:0:0:0:0:
192,192,760573,128,0,760873:0:0:0:0:
64,192,760573,128,0,760873:0:0:0:0:
320,192,760773,128,0,760873:0:0:0:0:
320,192,760973,1,0,0:0:0:0:
448,192,760973,1,0,0:0:0:0:
192,192,760973,128,0,761173:0:0:0:0:
64,192,760973,1,0,0:0:0:0:
64,192,761173,1,0,0:0:0:0:
448,192,761173,1,0,0:0:0:0:
320,192,761173,128,0,761373:0:0:0:0:
192,192,761373,1,0,0:0:0:0:
64,192,761373,1,0,0:0:0:0:
448,192,761373,128,0,761573:0:0:0:0:
192,192,761573,1,0,0:0:0:0:
64,192,761573,1,0,0:0:0:0:
320,192,761573,128,0,761773:0:0:0:0:
64,192,761773,128,0,762573:0:0:0:0:
192,192,761773,1,0,0:0:0:0:
448,192,761773,1,0,0:0:0:0:
320,192,761973,1,0,0:0:0:0:
448,192,762173,1,0,0:0:0:0:
192,192,762173,1,0,0:0:0:0:
320,192,762273,1,0,0:0:0:0:
192,192,762373,1,0,0:0:0:0:
320,192,762473,1,0,0:0:0:0:
448,192,762573,128,0,763373:0:0:0:0:
192,192,762573,1,0,0:0:0:0:
320,192,762773,1,0,0:0:0:0:
64,192,762773,1,0,0:0:0:0:
64,192,762973,1,0,0:0:0:0:
320,192,762973,1,0,0:0:0:0:
192,192,763073,1,0,0:0:0:0:
320,192,763173,1,0,0:0:0:0:
192,192,763273,1,0,0:0:0:0:
64,192,763373,1,0,0:0:0:0:
192,192,763373,128,0,763773:0:0:0:0:
320,192,763373,128,0,763473:0:0:0:0:
64,192,763473,128,0,763573:0:0:0:0:
448,192,763573,128,0,763673:0:0:0:0:
320,192,763673,128,0,763773:0:0:0:0:
448,192,763773,128,0,764173:0:0:0:0:
64,192,763773,128,0,763873:0:0:0:0:
192,192,763873,128,0,763973:0:0:0:0:
320,192,763973,128,0,764073:0:0:0:0:
192,192,764073,128,0,764173:0:0:0:0:
320,192,764173,128,0,764573:0:0:0:0:
64,192,764173,128,0,764273:0:0:0:0:
192,192,764273,128,0,764373:0:0:0:0:
448,192,764373,128,0,764473:0:0:0:0:
192,192,764473,128,0,764573:0:0:0:0:
64,192,764573,128,0,764973:0:0:0:0:
448,192,764573,128,0,764673:0:0:0:0:
320,192,764673,128,0,764773:0:0:0:0:
192,192,764773,128,0,764873:0:0:0:0:
448,192,764873,128,0,764973:0:0:0:0:
320,192,764973,128,0,765373:0:0:0:0:
192,192,764973,128,0,765073:0:0:0:0:
64,192,765073,128,0,765173:0:0:0:0:
192,192,765173,128,0,765273:0:0:0:0:
448,192,765273,128,0,765373:0:0:0:0:
192,192,765373,128,0,765773:0:0:0:0:
64,192,765373,128,0,765473:0:0:0:0:
448,192,765473,128,0,765573:0:0:0:0:
320,192,765573,128,0,765673:0:0:0:0:
64,192,765673,128,0,765773:0:0:0:0:
448,192,765773,128,0,766173:0:0:0:0:
320,192,765773,128,0,765873:0:0:0:0:
64,192,765873,128,0,765973:0:0:0:0:
192,192,765973,128,0,766073:0:0:0:0:
320,192,766073,128,0,766173:0:0:0:0:
64,192,766173,128,0,766573:0:0:0:0:
192,192,766173,128,0,766273:0:0:0:0:
320,192,766273,128,0,766373:0:0:0:0:
448,192,766373,128,0,766473:0:0:0:0:
320,192,766473,128,0,766573:0:0:0:0:
192,192,766573,128,0,766973:0:0:0:0:
448,192,766573,128,0,766673:0:0:0:0:
64,192,766673,128,0,766773:0:0:0:0:
320,192,766773,128,0,766873:0:0:0:0:
448,192,766873,128,0,766973:0:0:0:0:
320,192,766973,128,0,767373:0:0:0:0:
64,192,766973,128,0,767073:0:0:0:0:
192,192,767073,128,0,767173:0:0:0:0:
448,192,767173,128,0,767273:0:0:0:0:
192,192,767273,128,0,767373:0:0:0:0:
64,192,767373,128,0,767773:0:0:0:0:
448,192,767373,128,0,767473:0:0:0:0:
320,192,767473,128,0,767573:0:0:0:0:
192,192,767573,128,0,767673:0:0:0:0:
320,192,767673,128,0,767773:0:0:0:0:
448,192,767773,128,0,768173:0:0:0:0:
192,192,767773,128,0,767873:0:0:0:0:
64,192,767873,128,0,767973:0:0:0:0:
320,192,767973,128,0,768073:0:0:0:0:
192,192,768073,128,0,768173:0:0:0:0:
320,192,768173,128,0,768573:0:0:0:0:
64,192,768173,128,0,768273:0:0:0:0:
192,192,768273,128,0,768373:0:0:0:0:
448,192,768373,128,0,768473:0:0:0:0:
64,192,768473,128,0,768573:0:0:0:0:
192,192,768573,128,0,768973:0:0:0:0:
448,192,768573,128,0,768673:0:0:0:0:
320,192,768673,128,0,768773:0:0:0:0:
64,192,768773,128,0,768873:0:0:0:0:
320,192,768873,128,0,768973:0:0:0:0:
448,192,768973,128,0,769373:0:0:0:0:
64,192,768973,128,0,769073:0:0:0:0:
320,192,769073,128,0,769173:0:0:0:0:
192,192,769173,128,0,769273:0:0:0:0:
64,192,769173,128,0,769273:0:0:0:0:
320,192,769273,128,0,769373:0:0:0:0:
64,192,769373,128,0,769773:0:0:0:0:
192,192,769373,128,0,769473:0:0:0:0:
320,192,769473,128,0,769573:0:0:0:0:
448,192,769573,128,0,769673:0:0:0:0:
192,192,769573,128,0,769673:0:0:0:0:
320,192,769673,128,0,769773:0:0:0:0:
448,192,769773,128,0,769873:0:0:0:0:
192,192,769773,1,0,0:0:0:0:
64,192,769873,128,0,769973:0:0:0:0:
192,192,769873,1,0,0:0:0:0:
192,192,769973,128,0,770073:0:0:0:0:
320,192,769973,1,0,0:0:0:0:
320,192,770073,128,0,770173:0:0:0:0:
448,192,770073,1,0,0:0:0:0:
448,192,770173,128,0,770273:0:0:0:0:
64,192,770173,1,0,0:0:0:0:
192,192,770173,1,0,0:0:0:0:
320,192,770273,128,0,770373:0:0:0:0:
64,192,770273,1,0,0:0:0:0:
192,192,770373,128,0,770473:0:0:0:0:
448,192,770373,1,0,0:0:0:0:
64,192,770473,128,0,770573:0:0:0:0:
320,192,770473,1,0,0:0:0:0:
448,192,770573,128,0,770673:0:0:0:0:
320,192,770573,1,0,0:0:0:0:
192,192,770573,1,0,0:0:0:0:
64,192,770673,128,0,770773:0:0:0:0:
192,192,770673,1,0,0:0:0:0:
192,192,770773,128,0,770873:0:0:0:0:
320,192,770773,1,0,0:0:0:0:
320,192,770873,128,0,770973:0:0:0:0:
448,192,770873,1,0,0:0:0:0:
448,192,770973,128,0,771073:0:0:0:0:
64,192,770973,1,0,0:0:0:0:
192,192,770973,1,0,0:0:0:0:
320,192,771073,128,0,771173:0:0:0:0:
64,192,771073,1,0,0:0:0:0:
192,192,771173,128,0,771273:0:0:0:0:
448,192,771173,1,0,0:0:0:0:
64,192,771273,128,0,771373:0:0:0:0:
320,192,771273,1,0,0:0:0:0:
448,192,771373,128,0,771473:0:0:0:0:
320,192,771373,1,0,0:0:0:0:
192,192,771373,1,0,0:0:0:0:
64,192,771473,128,0,771573:0:0:0:0:
192,192,771473,1,0,0:0:0:0:
192,192,771573,128,0,771673:0:0:0:0:
320,192,771573,1,0,0:0:0:0:
320,192,771673,128,0,771773:0:0:0:0:
448,192,771673,1,0,0:0:0:0:
448,192,771773,128,0,771873:0:0:0:0:
64,192,771773,1,0,0:0:0:0:
192,192,771773,1,0,0:0:0:0:
320,192,771873,128,0,771973:0:0:0:0:
192,192,771873,1,0,0:0:0:0:
192,192,771973,128,0,772073:0:0:0:0:
448,192,771973,1,0,0:0:0:0:
64,192,772073,128,0,772173:0:0:0:0:
320,192,772073,1,0,0:0:0:0:
448,192,772173,128,0,772273:0:0:0:0:
320,192,772173,1,0,0:0:0:0:
192,192,772173,1,0,0:0:0:0:
64,192,772273,128,0,772373:0:0:0:0:
192,192,772273,1,0,0:0:0:0:
192,192,772373,128,0,772473:0:0:0:0:
320,192,772373,1,0,0:0:0:0:
320,192,772473,128,0,772573:0:0:0:0:
448,192,772473,1,0,0:0:0:0:
448,192,772573,128,0,772673:0:0:0:0:
64,192,772573,1,0,0:0:0:0:
192,192,772573,1,0,0:0:0:0:
320,192,772673,128,0,772773:0:0:0:0:
64,192,772673,1,0,0:0:0:0:
192,192,772773,128,0,772873:0:0:0:0:
448,192,772773,1,0,0:0:0:0:
64,192,772873,128,0,772973:0:0:0:0:
320,192,772873,1,0,0:0:0:0:
448,192,772973,128,0,773073:0:0:0:0:
320,192,772973,1,0,0:0:0:0:
192,192,772973,1,0,0:0:0:0:
64,192,773073,128,0,773173:0:0:0:0:
192,192,773073,1,0,0:0:0:0:
192,192,773173,128,0,773273:0:0:0:0:
320,192,773173,1,0,0:0:0:0:
320,192,773273,128,0,773373:0:0:0:0:
448,192,773273,1,0,0:0:0:0:
448,192,773373,128,0,773473:0:0:0:0:
64,192,773373,1,0,0:0:0:0:
192,192,773373,1,0,0:0:0:0:
320,192,773473,128,0,773573:0:0:0:0:
64,192,773473,1,0,0:0:0:0:
192,192,773573,128,0,773673:0:0:0:0:
448,192,773573,1,0,0:0:0:0:
64,192,773673,128,0,773773:0:0:0:0:
320,192,773673,1,0,0:0:0:0:
448,192,773773,128,0,773873:0:0:0:0:
320,192,773773,1,0,0:0:0:0:
192,192,773773,1,0,0:0:0:0:
64,192,773873,128,0,773973:0:0:0:0:
192,192,773873,1,0,0:0:0:0:
192,192,773973,128,0,774073:0:0:0:0:
320,192,773973,1,0,0:0:0:0:
320,192,774073,128,0,774173:0:0:0:0:
448,192,774073,1,0,0:0:0:0:
448,192,774173,128,0,774273:0:0:0:0:
64,192,774173,1,0,0:0:0:0:
192,192,774173,1,0,0:0:0:0:
320,192,774273,128,0,774373:0:0:0:0:
64,192,774273,1,0,0:0:0:0:
192,192,774373,128,0,774473:0:0:0:0:
448,192,774373,1,0,0:0:0:0:
64,192,774473,128,0,774573:0:0:0:0:
320,192,774473,1,0,0:0:0:0:
448,192,774573,128,0,774673:0:0:0:0:
320,192,774573,1,0,0:0:0:0:
192,192,774573,1,0,0:0:0:0:
64,192,774673,128,0,774773:0:0:0:0:
192,192,774673,1,0,0:0:0:0:
192,192,774773,128,0,774873:0:0:0:0:
320,192,774773,1,0,0:0:0:0:
320,192,774873,128,0,774973:0:0:0:0:
448,192,774873,1,0,0:0:0:0:
448,192,774973,128,0,775073:0:0:0:0:
64,192,774973,1,0,0:0:0:0:
192,192,774973,1,0,0:0:0:0:
320,192,775073,128,0,775173:0:0:0:0:
64,192,775073,1,0,0:0:0:0:
192,192,775173,128,0,775273:0:0:0:0:
448,192,775173,1,0,0:0:0:0:
64,192,775273,128,0,775373:0:0:0:0:
320,192,775273,1,0,0:0:0:0:
448,192,775373,128,0,775473:0:0:0:0:
320,192,775373,1,0,0:0:0:0:
192,192,775373,1,0,0:0:0:0:
64,192,775473,128,0,775573:0:0:0:0:
192,192,775473,1,0,0:0:0:0:
192,192,775573,128,0,775673:0:0:0:0:
320,192,775573,1,0,0:0:0:0:
320,192,775673,128,0,775773:0:0:0:0:
448,192,775673,1,0,0:0:0:0:
448,192,775773,128,0,775873:0:0:0:0:
192,192,775773,1,0,0:0:0:0:
64,192,775773,1,0,0:0:0:0:
320,192,775873,128,0,775973:0:0:0:0:
192,192,775873,1,0,0:0:0:0:
192,192,775973,128,0,776073:0:0:0:0:
64,192,775973,1,0,0:0:0:0:
64,192,776073,128,0,776173:0:0:0:0:
320,192,776073,1,0,0:0:0:0:
192,192,776173,1,0,0:0:0:0:
320,192,776173,128,0,776373:0:0:0:0:
448,192,776173,128,0,777373:0:0:0:0:
192,192,776373,128,0,776573:0:0:0:0:
64,192,776373,128,0,776473:0:0:0:0:
64,192,776573,128,0,776773:0:0:0:0:
320,192,776573,128,0,776673:0:0:0:0:
192,192,776773,128,0,776973:0:0:0:0:
320,192,776773,128,0,776873:0:0:0:0:
320,192,776973,128,0,777173:0:0:0:0:
64,192,776973,128,0,777073:0:0:0:0:
192,192,777173,128,0,777373:0:0:0:0:
64,192,777173,128,0,777273:0:0:0:0:
320,192,777373,128,0,777473:0:0:0:0:
64,192,777373,128,0,777573:0:0:0:0:
448,192,777473,128,0,777573:0:0:0:0:
320,192,777573,128,0,777773:0:0:0:0:
192,192,777573,128,0,777773:0:0:0:0:
64,192,777773,128,0,777873:0:0:0:0:
448,192,777773,128,0,778973:0:0:0:0:
192,192,777973,128,0,778173:0:0:0:0:
320,192,777973,128,0,778073:0:0:0:0:
64,192,778173,128,0,778373:0:0:0:0:
320,192,778173,128,0,778273:0:0:0:0:
192,192,778373,128,0,778573:0:0:0:0:
320,192,778373,128,0,778473:0:0:0:0:
320,192,778573,128,0,778773:0:0:0:0:
64,192,778573,128,0,778673:0:0:0:0:
192,192,778773,128,0,778873:0:0:0:0:
64,192,778773,128,0,778873:0:0:0:0:
192,192,778973,128,0,779173:0:0:0:0:
320,192,778973,128,0,779073:0:0:0:0:
64,192,778973,128,0,779173:0:0:0:0:
320,192,779173,128,0,779373:0:0:0:0:
448,192,779173,128,0,779273:0:0:0:0:
448,192,779373,128,0,780573:0:0:0:0:
192,192,779373,128,0,779473:0:0:0:0:
192,192,779573,128,0,779773:0:0:0:0:
64,192,779573,128,0,779673:0:0:0:0:
64,192,779773,128,0,779973:0:0:0:0:
320,192,779773,128,0,779873:0:0:0:0:
192,192,779973,128,0,780173:0:0:0:0:
320,192,779973,128,0,780073:0:0:0:0:
320,192,780173,128,0,780373:0:0:0:0:
64,192,780173,128,0,780273:0:0:0:0:
192,192,780373,128,0,780573:0:0:0:0:
64,192,780373,128,0,780473:0:0:0:0:
64,192,780573,128,0,780673:0:0:0:0:
320,192,780573,128,0,780773:0:0:0:0:
192,192,780673,128,0,780773:0:0:0:0:
64,192,780773,128,0,780973:0:0:0:0:
448,192,780773,128,0,780873:0:0:0:0:
448,192,780973,128,0,781173:0:0:0:0:
320,192,780973,128,0,781073:0:0:0:0:
192,192,780973,128,0,781073:0:0:0:0:
64,192,781173,1,0,0:0:0:0:
192,192,781223,1,0,0:0:0:0:
320,192,781273,1,0,0:0:0:0:
448,192,781323,1,0,0:0:0:0:
64,192,781373,1,0,0:0:0:0:
192,192,781373,1,0,0:0:0:0:
64,192,781573,1,0,0:0:0:0:
192,192,781623,1,0,0:0:0:0:
320,192,781673,1,0,0:0:0:0:
448,192,781723,1,0,0:0:0:0:
192,192,781773,1,0,0:0:0:0:
64,192,781773,1,0,0:0:0:0:
448,192,781873,1,0,0:0:0:0:
320,192,781873,1,0,0:0:0:0:
192,192,781973,128,0,782073:0:0:0:0:
320,192,782073,1,0,0:0:0:0:
448,192,782073,1,0,0:0:0:0:
320,192,782173,1,0,0:0:0:0:
64,192,782173,1,0,0:0:0:0:
192,192,782273,1,0,0:0:0:0:
448,192,782273,1,0,0:0:0:0:
64,192,782373,128,0,782573:0:0:0:0:
320,192,782573,1,0,0:0:0:0:
448,192,782573,1,0,0:0:0:0:
64,192,782773,1,0,0:0:0:0:
192,192,782823,1,0,0:0:0:0:
320,192,782873,1,0,0:0:0:0:
448,192,782923,1,0,0:0:0:0:
64,192,782973,1,0,0:0:0:0:
192,192,782973,1,0,0:0:0:0:
64,192,783173,1,0,0:0:0:0:
192,192,783223,1,0,0:0:0:0:
320,192,783273,1,0,0:0:0:0:
448,192,783323,1,0,0:0:0:0:
192,192,783373,1,0,0:0:0:0:
64,192,783373,1,0,0:0:0:0:
448,192,783473,1,0,0:0:0:0:
320,192,783473,1,0,0:0:0:0:
320,192,783573,128,0,783773:0:0:0:0:
448,192,783573,1,0,0:0:0:0:
192,192,783673,1,0,0:0:0:0:
64,192,783673,1,0,0:0:0:0:
64,192,783773,1,0,0:0:0:0:
192,192,783823,1,0,0:0:0:0:
320,192,783873,1,0,0:0:0:0:
448,192,783923,1,0,0:0:0:0:
64,192,783973,1,0,0:0:0:0:
192,192,784023,1,0,0:0:0:0:
320,192,784073,1,0,0:0:0:0:
448,192,784123,1,0,0:0:0:0:
320,192,784173,128,0,784273:0:0:0:0:
64,192,784173,1,0,0:0:0:0:
192,192,784173,1,0,0:0:0:0:
448,192,784273,128,0,784373:0:0:0:0:
64,192,784373,128,0,784473:0:0:0:0:
192,192,784373,1,0,0:0:0:0:
192,192,784473,128,0,784573:0:0:0:0:
448,192,784573,128,0,784673:0:0:0:0:
320,192,784573,1,0,0:0:0:0:
320,192,784673,128,0,784773:0:0:0:0:
64,192,784773,128,0,784873:0:0:0:0:
448,192,784773,1,0,0:0:0:0:
192,192,784873,128,0,784973:0:0:0:0:
448,192,784973,128,0,785073:0:0:0:0:
320,192,784973,1,0,0:0:0:0:
64,192,784973,1,0,0:0:0:0:
320,192,785073,128,0,785173:0:0:0:0:
64,192,785173,128,0,785273:0:0:0:0:
192,192,785173,1,0,0:0:0:0:
192,192,785273,128,0,785373:0:0:0:0:
448,192,785373,128,0,785473:0:0:0:0:
320,192,785373,1,0,0:0:0:0:
320,192,785473,128,0,785573:0:0:0:0:
64,192,785573,128,0,785673:0:0:0:0:
448,192,785573,1,0,0:0:0:0:
192,192,785673,128,0,785773:0:0:0:0:
448,192,785773,128,0,785873:0:0:0:0:
320,192,785773,1,0,0:0:0:0:
64,192,785773,1,0,0:0:0:0:
320,192,785873,128,0,785973:0:0:0:0:
64,192,785973,128,0,786073:0:0:0:0:
192,192,785973,1,0,0:0:0:0:
192,192,786073,128,0,786173:0:0:0:0:
448,192,786173,128,0,786273:0:0:0:0:
320,192,786173,1,0,0:0:0:0:
320,192,786273,128,0,786373:0:0:0:0:
64,192,786373,128,0,786473:0:0:0:0:
448,192,786373,1,0,0:0:0:0:
192,192,786473,128,0,786573:0:0:0:0:
448,192,786573,128,0,786673:0:0:0:0:
320,192,786573,1,0,0:0:0:0:
64,192,786573,1,0,0:0:0:0:
320,192,786673,128,0,786773:0:0:0:0:
64,192,786773,128,0,786873:0:0:0:0:
192,192,786773,1,0,0:0:0:0:
192,192,786873,128,0,786973:0:0:0:0:
448,192,786973,128,0,787073:0:0:0:0:
320,192,786973,1,0,0:0:0:0:
320,192,787073,128,0,787173:0:0:0:0:
64,192,787173,128,0,787273:0:0:0:0:
192,192,787173,1,0,0:0:0:0:
192,192,787273,128,0,787373:0:0:0:0:
448,192,787373,1,0,0:0:0:0:
64,192,787373,1,0,0:0:0:0:
320,192,787373,1,0,0:0:0:0:
