osu file format v14

[General]
AudioFilename: medley.mp3
AudioLeadIn: 2000
PreviewTime: 412193
Countdown: 0
SampleSet: Soft
StackLeniency: 0.7
Mode: 3
LetterboxInBreaks: 0
SpecialStyle: 0
WidescreenStoryboard: 1

[Editor]
Bookmarks: 96674,199621,320884,408893,412093,487521,573235,580253,672073,704073,761673,787273,898706,1047336,1058436,1094446,1110446,1154446,1227446,1233106
DistanceSpacing: 1.5
BeatDivisor: 4
GridSize: 4
TimelineZoom: 1.4

[Metadata]
Title:THE MEDLEY OF POKEMON RGBY+GSC -3PBs-
TitleUnicode:THE MEDLEY OF POKéMON RGBY+GSC -3PBs-
Artist:hapi
ArtistUnicode:hapi⇒
Creator:pikechu
Version:The 2nd Part
Source:Pokémon
Tags:remix red green blue gold silver crystal vocaloid master ntd03 golden sun pikachu raichu pichu nintendo gamefreak gb gba hapinano
BeatmapID:1906290
BeatmapSetID:908046

[Difficulty]
HPDrainRate:8
CircleSize:4
OverallDifficulty:8
ApproachRate:9
SliderMultiplier:1.6
SliderTickRate:1

[Events]
//Background and Video events
0,0,"background.jpg",0,0
//Break Periods
//Storyboard Layer 0 (Background)
//Storyboard Layer 1 (Fail)
//Storyboard Layer 2 (Pass)
//Storyboard Layer 3 (Foreground)
//Storyboard Sound Samples

[TimingPoints]
1406,315.789473684211,4,2,1,40,1,0
7721,-100,4,2,1,40,0,0
7800,-100,4,2,3,40,0,0
12774,-133.333333333333,4,2,2,40,0,0
12853,-80,4,2,2,40,0,0
12932,-100,4,2,2,40,0,0
13090,-133.333333333333,4,2,2,40,0,0
13169,-80,4,2,2,40,0,0
13248,-100,4,2,2,40,0,0
13406,-133.333333333333,4,2,2,40,0,0
13485,-80,4,2,2,40,0,0
13564,-100,4,2,2,40,0,0
13721,-133.333333333333,4,2,2,40,0,0
13800,-80,4,2,2,40,0,0
13879,-100,4,2,2,40,0,0
14037,-133.333333333333,4,2,2,40,0,0
14116,-80,4,2,2,40,0,0
14195,-100,4,2,2,40,0,0
14353,-133.333333333333,4,2,2,40,0,0
14432,-80,4,2,2,40,0,0
14511,-100,4,2,2,40,0,0
14669,-133.333333333333,4,2,2,40,0,0
14748,-80,4,2,2,40,0,0
14827,-133.333333333333,4,2,2,40,0,0
14906,-80,4,2,2,40,0,0
14984,-133.333333333333,4,2,2,40,0,0
15063,-80,4,2,2,40,0,0
15142,-100,4,2,2,40,0,0
15300,-133.333333333333,4,2,2,40,0,0
15379,-80,4,2,2,40,0,0
15458,-100,4,2,2,40,0,0
15616,-133.333333333333,4,2,2,40,0,0
15695,-80,4,2,2,40,0,0
15774,-100,4,2,2,40,0,0
15932,-133.333333333333,4,2,2,40,0,0
16011,-80,4,2,2,40,0,0
16090,-100,4,2,2,40,0,0
16248,-133.333333333333,4,2,2,40,0,0
16327,-80,4,2,2,40,0,0
16406,-100,4,2,2,40,0,0
16563,-133.333333333333,4,2,2,40,0,0
16642,-80,4,2,2,40,0,0
16721,-100,4,2,2,40,0,0
16879,-133.333333333333,4,2,2,40,0,0
16958,-80,4,2,2,40,0,0
17037,-133.333333333333,4,2,2,40,0,0
17116,-80,4,2,2,40,0,0
17194,-133.333333333333,4,2,2,40,0,0
17273,-80,4,2,2,40,0,0
17352,-100,4,2,2,40,0,0
17511,-133.333333333333,4,2,2,40,0,0
17590,-80,4,2,2,40,0,0
17669,-100,4,2,2,40,0,0
17827,-133.333333333333,4,2,2,40,0,0
17906,-80,4,2,2,40,0,0
17985,-100,4,2,2,40,0,0
18142,-133.333333333333,4,2,2,40,0,0
18221,-80,4,2,2,40,0,0
18300,-100,4,2,2,40,0,0
18458,-133.333333333333,4,2,2,40,0,0
18537,-80,4,2,2,40,0,0
18616,-100,4,2,2,40,0,0
18774,-133.333333333333,4,2,2,40,0,0
18853,-80,4,2,2,40,0,0
18932,-100,4,2,2,40,0,0
19090,-133.333333333333,4,2,2,40,0,0
19169,-80,4,2,2,40,0,0
19248,-100,4,2,2,40,0,0
19406,-133.333333333333,4,2,2,40,0,0
19485,-80,4,2,2,40,0,0
19564,-100,4,2,2,40,0,0
19721,-133.333333333333,4,2,2,40,0,0
19800,-80,4,2,2,40,0,0
19879,-133.333333333333,4,2,2,40,0,0
19958,-80,4,2,2,40,0,0
20036,-133.333333333333,4,2,2,40,0,0
20115,-80,4,2,2,40,0,0
20194,-100,4,2,2,40,0,0
20353,-133.333333333333,4,2,2,40,0,0
20432,-80,4,2,2,40,0,0
20511,-100,4,2,2,40,0,0
20669,-133.333333333333,4,2,2,40,0,0
20748,-80,4,2,2,40,0,0
20827,-100,4,2,2,40,0,0
20984,-133.333333333333,4,2,2,40,0,0
21063,-80,4,2,2,40,0,0
21142,-100,4,2,2,40,0,0
21300,-133.333333333333,4,2,2,40,0,0
21379,-80,4,2,2,40,0,0
21458,-100,4,2,2,40,0,0
21616,-133.333333333333,4,2,2,40,0,0
21695,-80,4,2,2,40,0,0
21774,-100,4,2,2,40,0,0
21932,-133.333333333333,4,2,2,40,0,0
22011,-80,4,2,2,40,0,0
22090,-133.333333333333,4,2,2,40,0,0
22169,-80,4,2,2,40,0,0
22247,-133.333333333333,4,2,2,40,0,0
22326,-80,4,2,2,40,0,0
22405,-100,4,2,2,40,0,0
22563,-133.333333333333,4,2,2,40,0,0
22642,-80,4,2,2,40,0,0
22721,-100,4,2,2,40,0,0
22879,-133.333333333333,4,2,2,40,0,0
22958,-80,4,2,2,40,0,0
23037,-100,4,2,2,40,0,0
23195,-133.333333333333,4,2,2,40,0,0
23274,-80,4,2,2,40,0,0
23353,-100,4,2,2,40,0,0
23511,-133.333333333333,4,2,2,40,0,0
23590,-80,4,2,2,40,0,0
23669,-100,4,2,2,40,0,0
25090,-133.333333333333,4,2,2,40,0,0
25169,-80,4,2,2,40,0,0
25248,-100,4,2,2,40,0,0
25405,-100,4,2,3,40,0,0
25484,-100,4,2,1,40,0,0
30458,-100,4,2,1,40,0,0
35511,-100,4,2,1,40,0,0
37406,-100,4,2,2,40,0,0
37721,-100,4,2,1,40,0,0
39616,-100,4,2,2,40,0,0
40011,-100,4,2,1,40,0,0
42458,-100,4,2,2,40,0,0
42853,-100,4,2,1,40,0,0
44669,-100,4,2,2,40,0,0
45063,-100,4,2,1,40,0,0
47511,-100,4,2,2,40,0,0
47906,-100,4,2,1,40,0,0
49721,-100,4,2,2,40,0,0
50116,-100,4,2,1,40,0,0
52563,-100,4,2,2,40,0,0
52958,-100,4,2,1,40,0,0
55090,-100,4,2,2,40,0,0
55800,-100,4,2,1,40,0,0
57616,-100,4,2,2,40,0,0
57932,-100,4,2,1,40,0,0
59511,-100,4,2,2,40,0,0
60537,-100,4,2,1,40,0,0
61406,-100,4,2,2,40,0,0
61563,-100,4,2,1,40,0,0
63932,-100,4,2,2,40,0,0
64090,-100,4,2,1,40,0,0
65195,-100,4,2,2,40,0,0
65353,-100,4,2,1,40,0,0
65511,-100,4,2,2,40,0,0
65827,-100,4,2,2,40,0,0
69616,-100,4,2,1,40,0,0
70879,-100,4,2,2,40,0,0
75932,-100,4,2,1,40,0,0
77827,-100,4,2,2,40,0,0
78221,-100,4,2,1,40,0,0
80195,-100,4,2,2,40,0,0
80511,-100,4,2,1,40,0,0
82879,-100,4,2,2,40,0,0
83195,-100,4,2,1,40,0,0
84774,-100,4,2,2,40,0,0
86037,-100,4,2,1,40,0,0
90300,-100,4,2,2,40,0,0
90616,-100,4,2,1,40,0,0
92984,-100,4,2,2,40,0,0
93300,-100,4,2,1,40,0,0
94879,-100,4,2,2,40,0,0
95984,-83.3333333333333,4,2,2,40,0,0
96063,-133.333333333333,4,2,2,40,0,0
96142,-83.3333333333333,4,2,2,40,0,0
96221,-133.333333333333,4,2,2,40,0,0
96300,-83.3333333333333,4,2,2,40,0,0
96379,-133.333333333333,4,2,2,40,0,0
96458,-83.3333333333333,4,2,2,40,0,0
96537,-133.333333333333,4,2,2,40,0,0
96616,-83.3333333333333,4,2,2,40,0,0
96695,-133.333333333333,4,2,2,40,0,0
96774,-100,4,2,2,40,0,0
106090,-133.333333333333,4,2,2,40,0,0
106169,-76.9230769230769,4,2,2,40,0,0
106248,-133.333333333333,4,2,2,40,0,0
106406,-76.9230769230769,4,2,2,40,0,0
106563,-133.333333333333,4,2,2,40,0,0
106721,-76.9230769230769,4,2,2,40,0,0
106879,-100,4,2,2,40,0,0
107195,-100,4,2,1,40,0,0
107511,-100,4,2,3,40,0,0
107590,-100,4,2,1,40,0,0
117300,-100,4,2,2,40,0,0
117616,-100,4,2,1,40,0,0
119511,-100,4,2,2,40,0,0
119906,-100,4,2,1,40,0,0
121879,-100,4,2,2,40,0,0
122195,-100,4,2,1,40,0,0
124563,-100,4,2,2,40,0,0
124958,-100,4,2,1,40,0,0
126142,-100,4,2,2,40,0,0
127721,-100,4,2,1,40,0,0
129616,-100,4,2,2,40,0,0
130011,-100,4,2,1,40,0,0
131827,-100,4,2,2,40,0,0
132221,-100,4,2,1,40,0,0
134669,-100,4,2,2,40,0,0
135063,-100,4,2,1,40,0,0
136563,-100,4,2,2,40,0,0
137827,-100,4,2,3,40,0,0
137984,-100,4,2,1,40,0,0
139721,-100,4,2,2,40,0,0
140037,-100,4,2,1,40,0,0
141932,-100,4,2,2,40,0,0
142327,-100,4,2,1,40,0,0
144774,-100,4,2,2,40,0,0
145090,-100,4,2,1,40,0,0
146827,-100,4,2,2,40,0,0
147616,-100,4,2,1,40,0,0
149827,-100,4,2,2,40,0,0
150221,-100,4,2,1,40,0,0
152353,-100,4,2,2,40,0,0
152827,-100,4,2,1,40,0,0
158037,-100,4,2,3,40,0,0
158116,-100,4,2,1,40,0,0
159932,-100,4,2,2,40,0,0
160406,-100,4,2,1,40,0,0
162142,-100,4,2,2,40,0,0
162537,-100,4,2,1,40,0,0
164984,-100,4,2,2,40,0,0
165300,-100,4,2,1,40,0,0
166879,-100,4,2,2,40,0,0
168063,-100,4,2,1,40,0,0
170037,-100,4,2,2,40,0,0
170353,-100,4,2,1,40,0,0
172248,-100,4,2,2,40,0,0
172642,-100,4,2,1,40,0,0
175090,-100,4,2,2,40,0,0
175406,-100,4,2,1,40,0,0
176984,-100,4,2,2,40,0,0
177300,-100,4,2,1,40,0,0
177379,-100,4,2,2,40,0,0
177616,-100,4,2,2,40,0,0
177932,-100,4,2,1,40,0,0
178011,-100,4,2,2,40,0,0
178090,-100,4,2,1,40,0,0
178248,-100,4,2,3,40,0,0
178327,-100,4,2,1,40,0,0
180142,-100,4,2,2,40,0,0
180300,-100,4,2,1,40,0,0
182511,-100,4,2,2,40,0,0
182827,-100,4,2,2,40,0,0
183142,-100,4,2,1,40,0,0
185195,-100,4,2,2,40,0,0
185590,-100,4,2,1,40,0,0
187090,-100,4,2,2,40,0,0
188353,-100,4,2,1,40,0,0
188432,-100,4,2,2,40,0,0
189616,-100,4,2,1,40,0,0
189695,-100,4,2,2,40,0,0
190879,-100,4,2,1,40,0,0
190958,-100,4,2,2,40,0,0
192142,-100,4,2,1,40,0,0
192221,-100,4,2,2,40,0,0
193406,-100,4,2,1,40,0,0
193484,-100,4,2,2,40,0,0
194669,-100,4,2,1,40,0,0
194748,-100,4,2,2,40,0,0
195932,-100,4,2,1,40,0,0
196011,-100,4,2,2,40,0,0
197195,-100,4,2,1,40,0,0
197274,-100,4,2,2,40,0,0
198616,-100,4,2,1,40,0,0
198774,-100,4,2,2,40,0,0
198932,-100,4,2,1,40,0,0
199090,-100,4,2,2,40,0,0
199721,-100,4,2,1,40,0,0
200669,-100,4,2,1,40,0,0
200984,-100,4,2,3,40,0,0
201063,-100,4,2,1,40,0,0
202879,-100,4,2,2,40,0,0
203195,-100,4,2,1,40,0,0
205090,-100,4,2,2,40,0,0
205563,-100,4,2,1,40,0,0
207932,-100,4,2,2,40,0,0
208248,-100,4,2,1,40,0,0
208721,-100,4,2,2,40,0,0
208879,-100,4,2,1,40,0,0
209037,-100,4,2,2,40,0,0
209511,-100,4,2,1,40,0,0
209669,-100,4,2,2,40,0,0
209827,-100,4,2,1,40,0,0
209984,-100,4,2,2,40,0,0
211090,-100,4,2,1,40,0,0
212984,-100,4,2,2,40,0,0
213300,-100,4,2,1,40,0,0
215195,-100,4,2,2,40,0,0
215669,-100,4,2,1,40,0,0
218037,-100,4,2,2,40,0,0
218353,-100,4,2,1,40,0,0
218669,-100,4,2,2,40,0,0
218984,-100,4,2,1,40,0,0
219142,-100,4,2,2,40,0,0
219616,-100,4,2,1,40,0,0
219774,-100,4,2,2,40,0,0
220721,-100,4,2,2,40,0,0
221195,-100,4,2,1,40,0,0
223090,-100,4,2,2,40,0,0
223406,-100,4,2,1,40,0,0
225300,-100,4,2,2,40,0,0
225932,-100,4,2,1,40,0,0
228142,-100,4,2,2,40,0,0
228458,-100,4,2,1,40,0,0
230037,-100,4,2,2,40,0,0
231300,-100,4,2,1,40,0,0
233195,-100,4,2,2,40,0,0
233511,-100,4,2,1,40,0,0
235563,-100,4,2,2,40,0,0
235958,-100,4,2,1,40,0,0
238248,-100,4,2,2,40,0,0
238563,-100,4,2,1,40,0,0
240300,-100,4,2,2,40,0,0
240458,-100,4,2,1,40,0,0
240616,-100,4,2,2,40,0,0
241090,-100,4,2,1,40,0,0
241248,-100,4,2,2,40,0,0
241406,-263.157894736842,4,2,1,40,0,0
241445,-100,4,2,1,40,0,0
241484,-263.157894736842,4,2,1,40,0,0
241523,-100,4,2,1,40,0,0
241563,-263.157894736842,4,2,1,40,0,0
241602,-100,4,2,1,40,0,0
241642,-263.157894736842,4,2,1,40,0,0
241681,-100,4,2,1,40,0,0
241721,-10000,4,2,1,40,0,0
241879,-100,4,2,1,40,0,0
242037,-10000,4,2,1,40,0,0
242195,-100,4,2,1,40,0,0
242669,-263.157894736842,4,2,1,40,0,0
242708,-100,4,2,1,40,0,0
242747,-263.157894736842,4,2,1,40,0,0
242786,-100,4,2,1,40,0,0
242826,-263.157894736842,4,2,1,40,0,0
242865,-100,4,2,1,40,0,0
242905,-263.157894736842,4,2,1,40,0,0
242944,-100,4,2,1,40,0,0
242984,-10000,4,2,1,40,0,0
243142,-100,4,2,1,40,0,0
243300,-10000,4,2,1,40,0,0
243458,-100,4,2,1,40,0,0
244090,-100,4,2,2,40,0,0
244248,-100,4,2,1,40,0,0
244563,-100,4,2,2,40,0,0
244721,-100,4,2,1,40,0,0
244958,-100,4,2,2,40,0,0
245195,-100,4,2,1,40,0,0
248353,-100,4,2,2,40,0,0
248590,-100,4,2,1,40,0,0
250484,-100,4,2,2,40,0,0
251037,-100,4,2,1,40,0,0
251984,-100,4,2,2,40,0,0
252458,-100,4,2,1,40,0,0
252616,-100,4,2,2,40,0,0
252774,-100,4,2,1,40,0,0
252932,-100,4,2,2,40,0,0
253090,-100,4,2,1,40,0,0
253248,-100,4,2,2,40,0,0
253721,-100,4,2,1,40,0,0
253879,-100,4,2,2,40,0,0
254037,-100,4,2,1,40,0,0
255458,-100,4,2,2,40,0,0
256248,-100,4,2,1,40,0,0
256327,-100,4,2,2,40,0,0
256563,-100,4,2,1,40,0,0
258458,-100,4,2,2,40,0,0
258695,-100,4,2,1,40,0,0
260669,-100,4,2,2,40,0,0
261063,-100,4,2,1,40,0,0
263511,-100,4,2,2,40,0,0
263827,-100,4,2,1,40,0,0
265642,-100,4,2,1,40,0,0
265721,-100,4,2,1,40,0,0
265958,-100,4,2,1,40,0,0
266037,-100,4,2,1,40,0,0
266353,-100,4,2,2,40,0,0
266669,-100,4,2,1,40,0,0
268563,-100,4,2,2,40,0,0
268879,-100,4,2,1,40,0,0
270932,-100,4,2,2,40,0,0
271248,-100,4,2,1,40,0,0
273616,-100,4,2,2,40,0,0
273932,-100,4,2,1,40,0,0
275511,-100,4,2,2,40,0,0
276142,-100,4,2,1,40,0,0
278669,-100,4,2,2,40,0,0
278984,-100,4,2,1,40,0,0
280879,-100,4,2,2,40,0,0
281511,-100,4,2,1,40,0,0
283721,-100,4,2,2,40,0,0
284116,-100,4,2,1,40,0,0
285774,-100,4,2,2,40,0,0
286327,-100,4,2,2,40,0,0
286406,-100,4,2,2,40,0,0
286879,-100,4,2,1,40,0,0
286958,-100,4,2,2,40,0,0
287195,-100,4,2,1,40,0,0
287274,-100,4,2,2,40,0,0
287511,-100,4,2,1,40,0,0
287590,-100,4,2,2,40,0,0
287827,-100,4,2,1,40,0,0
287906,-100,4,2,2,40,0,0
288142,-100,4,2,1,40,0,0
290037,-100,4,2,2,40,0,0
290353,-100,4,2,2,40,0,0
290511,-100,4,2,2,40,0,0
290669,-100,4,2,1,40,0,0
292248,-100,4,2,2,40,0,0
292642,-100,4,2,2,40,0,0
292879,-100,4,2,1,40,0,0
293037,-100,4,2,1,40,0,0
293353,-100,4,2,1,40,0,0
294537,-100,4,2,1,40,0,0
294616,-100,4,2,1,40,0,0
295090,-100,4,2,2,40,0,0
295563,-100,4,2,1,40,0,0
297142,-100,4,2,2,40,0,0
297616,-100,4,2,1,40,0,0
297774,-100,4,2,2,40,0,0
298248,-100,4,2,1,40,0,0
298484,-100,4,2,1,40,0,0
298563,-100,4,2,1,40,0,0
299037,-100,4,2,1,40,0,0
299116,-100,4,2,1,40,0,0
299195,-100,4,2,1,40,0,0
299590,-100,4,2,2,40,0,0
300774,-100,4,2,1,40,0,0
302669,-100,4,2,2,40,0,0
303300,-100,4,2,1,40,0,0
307721,-100,4,2,2,40,0,0
308116,-100,4,2,1,40,0,0
310090,-100,4,2,2,40,0,0
310563,-100,4,2,1,40,0,0
310721,-100,4,2,2,40,0,0
310879,-100,4,2,1,40,0,0
312774,-100,4,2,2,40,0,0
313011,-100,4,2,1,40,0,0
315142,-100,4,2,2,40,0,0
315537,-100,4,2,1,40,0,0
317827,-100,4,2,2,40,0,0
318063,-100,4,2,1,40,0,0
320195,-100,4,2,2,40,0,0
320906,-100,4,2,2,40,0,0
320984,-100,4,2,1,40,0,0
331090,-100,4,2,1,40,0,0
332984,-100,4,2,2,40,0,0
333300,-100,4,2,1,40,0,0
335353,-100,4,2,2,40,0,0
335827,-100,4,2,1,40,0,0
338037,-100,4,2,2,40,0,0
338353,-100,4,2,1,40,0,0
340879,-100,4,2,2,40,0,0
341116,-100,4,2,1,40,0,0
343090,-100,4,2,2,40,0,0
343406,-100,4,2,1,40,0,0
345458,-100,4,2,2,40,0,0
345774,-100,4,2,1,40,0,0
348142,-100,4,2,2,40,0,0
348458,-100,4,2,1,40,0,0
350037,-100,4,2,2,40,0,0
351300,-100,4,2,1,40,0,0
353195,-100,4,2,2,40,0,0
353511,-100,4,2,1,40,0,0
355563,-100,4,2,2,40,0,0
355879,-100,4,2,1,40,0,0
358248,-100,4,2,2,40,0,0
358563,-100,4,2,1,40,0,0
360142,-100,4,2,2,40,0,0
361406,-100,4,2,1,40,0,0
363300,-100,4,2,2,40,0,0
363774,-100,4,2,1,40,0,0
365669,-100,4,2,2,40,0,0
365984,-100,4,2,1,40,0,0
368353,-100,4,2,2,40,0,0
368748,-100,4,2,1,40,0,0
370721,-100,4,2,2,40,0,0
371037,-100,4,2,1,40,0,0
372616,-100,4,2,1,40,0,0
372853,-100,4,2,1,40,0,0
374037,-100,4,2,1,40,0,0
374984,-100,4,2,2,40,0,0
375300,-100,4,2,1,40,0,0
375932,-100,4,2,2,40,0,0
376090,-100,4,2,1,40,0,0
376406,-100,4,2,2,40,0,0
376563,-100,4,2,1,40,0,0
376721,-100,4,2,2,40,0,0
376800,-100,4,2,1,40,0,0
377037,-100,4,2,2,40,0,0
377353,-100,4,2,1,40,0,0
378458,-100,4,2,2,40,0,0
378616,-100,4,2,1,40,0,0
379721,-100,4,2,2,40,0,0
379879,-100,4,2,1,40,0,0
380511,-100,4,2,2,40,0,0
382879,-100,4,2,1,40,0,0
384774,-100,4,2,2,40,0,0
385011,-100,4,2,1,40,0,0
387142,-100,4,2,2,40,0,0
387379,-100,4,2,1,40,0,0
389827,-100,4,2,2,40,0,0
390142,-100,4,2,1,40,0,0
392827,-100,4,2,2,40,0,0
392984,-100,4,2,1,40,0,0
394879,-100,4,2,2,40,0,0
395195,-100,4,2,1,40,0,0
397248,-100,4,2,2,40,0,0
397484,-100,4,2,1,40,0,0
399300,327.868852459016,4,2,1,40,1,0
399300,-96.1538461538461,4,2,1,40,0,0
399955,-96.1538461538461,4,2,2,40,0,0
400283,-96.1538461538461,4,2,1,40,0,0
401922,342.857142857143,4,2,1,40,1,0
401922,-91.743119266055,4,2,1,40,0,0
402607,-91.743119266055,4,2,2,40,0,0
402950,-91.743119266055,4,2,1,40,0,0
403293,346.820809248555,4,2,1,40,1,0
403293,-90.9090909090909,4,2,1,40,0,0
406075,363.636363636364,4,2,1,40,1,0
406075,-86.9565217391304,4,2,1,40,0,0
407533,368.098159509202,4,2,1,40,1,0
407533,-85.4700854700855,4,2,1,40,0,0
408993,400,4,2,1,40,1,0
408993,-78.7401574803149,4,2,1,40,0,0
412193,428.571428571429,4,2,1,40,1,0
412193,-73.5294117647059,4,2,1,40,0,0
417764,-73.5294117647059,4,2,1,40,0,0
419050,-73.5294117647059,4,2,1,40,0,0
443050,-73.5294117647059,4,2,2,35,0,0
443907,-73.5294117647059,4,2,2,45,0,0
444764,-73.5294117647059,4,2,2,55,0,0
445621,-73.5294117647059,4,2,2,65,0,0
446264,-73.5294117647059,4,2,1,67,0,0
456228,-73.5294117647059,4,2,1,67,0,0
456443,-73.5294117647059,4,2,1,67,0,0
461264,-73.5294117647059,4,2,1,67,0,0
461478,-73.5294117647059,4,2,1,67,0,0
464693,-73.5294117647059,4,2,1,67,0,0
464907,-73.5294117647059,4,2,1,67,0,0
476478,-73.5294117647059,4,2,2,67,0,0
476907,-73.5294117647059,4,2,1,67,0,0
479907,-73.5294117647059,4,2,2,67,0,0
480335,-73.5294117647059,4,2,1,67,0,0
481621,-73.5294117647059,4,2,2,67,0,0
482050,-73.5294117647059,4,2,1,67,0,0
483550,-73.5294117647059,4,2,1,67,0,0
483764,-73.5294117647059,4,2,1,67,0,0
484193,-73.5294117647059,4,2,2,67,0,0
484300,-73.5294117647059,4,2,2,67,0,0
485050,-73.5294117647059,4,2,2,67,0,0
485907,-73.5294117647059,4,2,2,67,0,0
486335,-73.5294117647059,4,2,2,67,0,0
486764,-73.5294117647059,4,2,2,67,0,0
487193,-73.5294117647059,4,2,2,67,0,0
487621,-73.5294117647059,4,2,2,67,0,0
487728,-73.5294117647059,4,2,1,67,0,0
492764,-73.5294117647059,4,2,2,55,0,0
493621,-73.5294117647059,4,2,1,45,0,0
493907,-73.5294117647059,4,2,2,45,0,0
494050,-73.5294117647059,4,2,1,45,0,0
494335,-73.5294117647059,4,2,2,45,0,0
494478,-73.5294117647059,4,2,1,55,0,0
494621,-73.5294117647059,4,2,2,55,0,0
504764,-73.5294117647059,4,2,1,55,0,0
509907,-73.5294117647059,4,2,1,55,0,0
516621,-73.5294117647059,4,2,1,45,0,0
516764,-73.5294117647059,4,2,1,55,0,0
528764,-73.5294117647059,4,2,1,35,0,0
528907,-73.5294117647059,4,2,2,35,0,0
529621,-73.5294117647059,4,2,2,45,0,0
530478,-73.5294117647059,4,2,2,55,0,0
530907,-73.5294117647059,4,2,2,60,0,0
531335,-73.5294117647059,4,2,2,65,0,0
532193,-73.5294117647059,4,2,1,65,0,0
557907,-73.5294117647059,4,2,1,55,0,0
558014,-73.5294117647059,4,2,2,55,0,0
558335,-73.5294117647059,4,2,2,60,0,0
558764,-73.5294117647059,4,2,2,65,0,0
573335,-73.5294117647059,4,2,3,20,0,0
573550,-133.333333333333,4,2,3,20,0,0
580353,444.444444444444,4,2,1,20,1,0
580353,-71.4285714285714,4,2,1,20,0,0
594907,333.333333333333,4,2,1,20,1,0
594907,-94.3396226415094,4,2,1,20,0,0
609407,-133.333333333333,4,2,1,20,0,0
609490,-92.5925925925926,4,2,1,20,0,0
609576,317.460317460317,4,2,1,80,1,0
611322,-138.888888888889,4,2,1,80,0,0
611401,-98.0392156862745,4,2,1,80,0,0
611484,285.714285714286,4,2,1,80,1,0
611484,-111.111111111111,4,2,1,80,0,0
611626,-142.857142857143,4,2,1,80,0,0
611698,-106.382978723404,4,2,1,80,0,0
613555,-142.857142857143,4,2,1,80,0,0
613626,-106.382978723404,4,2,1,80,0,0
613698,250,4,2,1,80,1,0
613698,-126.582278481013,4,2,1,80,0,0
613823,-181.818181818182,4,2,1,80,0,0
613885,-117.647058823529,4,2,1,80,0,0
614073,-181.818181818182,4,2,1,80,0,0
614135,-117.647058823529,4,2,1,80,0,0
615323,-181.818181818182,4,2,1,80,0,0
615385,-117.647058823529,4,2,1,80,0,0
615416,226.415094339623,4,2,1,80,1,0
615416,-138.888888888889,4,2,1,80,0,0
615642,-200,4,2,1,80,0,0
615699,-125,4,2,1,80,0,0
615755,-200,4,2,1,80,0,0
615812,-125,4,2,1,80,0,0
615982,-200,4,2,1,80,0,0
616038,-125,4,2,1,80,0,0
616095,218.181818181818,4,2,1,80,1,0
616095,-144.927536231884,4,2,1,80,0,0
616422,-217.391304347826,4,2,1,80,0,0
616476,-126.582278481013,4,2,1,80,0,0
616544,214.285714285714,4,2,1,80,1,0
616544,-147.058823529412,4,2,1,80,0,0
616865,-222.222222222222,4,2,1,80,0,0
616919,-121.951219512195,4,2,1,80,0,0
616959,206.896551724138,4,2,1,80,1,0
616959,-151.515151515152,4,2,1,80,0,0
617269,-232.558139534884,4,2,1,80,0,0
617321,-121.951219512195,4,2,1,80,0,0
617683,-232.558139534884,4,2,1,80,0,0
617734,-121.951219512195,4,2,1,80,0,0
617773,400,4,2,1,80,1,0
617773,-78.7401574803149,4,2,1,80,0,0
630173,-78.7401574803149,4,2,2,80,0,0
630573,-78.7401574803149,4,2,1,80,0,0
636173,-78.7401574803149,4,2,2,80,0,0
636573,-78.7401574803149,4,2,1,80,0,0
641973,-78.7401574803149,4,2,2,80,0,0
643373,-78.7401574803149,4,2,1,70,0,0
643573,-78.7401574803149,4,2,1,30,0,0
643773,-78.7401574803149,4,2,1,40,0,0
643973,-78.7401574803149,4,2,1,30,0,0
644173,-78.7401574803149,4,2,1,40,0,0
645173,-78.7401574803149,4,2,1,30,0,0
645373,-78.7401574803149,4,2,1,40,0,0
645573,-78.7401574803149,4,2,1,30,0,0
645773,-78.7401574803149,4,2,1,70,0,0
645873,-78.7401574803149,4,2,1,40,0,0
646073,-78.7401574803149,4,2,2,70,0,0
646173,-78.7401574803149,4,2,1,30,0,0
646573,-78.7401574803149,4,2,1,31,0,0
652773,-78.7401574803149,4,2,2,31,0,0
652973,-78.7401574803149,4,2,1,31,0,0
657973,-78.7401574803149,4,2,1,30,0,0
658173,-78.7401574803149,4,2,1,40,0,0
658373,-78.7401574803149,4,2,1,30,0,0
658573,-78.7401574803149,4,2,1,40,0,0
658673,-78.7401574803149,4,2,1,50,0,0
658773,-78.7401574803149,4,2,1,60,0,0
658873,-78.7401574803149,4,2,1,30,0,0
659373,-66.6666666666667,4,2,1,30,0,0
659473,-133.333333333333,4,2,1,30,0,0
659573,-66.6666666666667,4,2,1,30,0,0
659673,-133.333333333333,4,2,1,30,0,0
659773,-66.6666666666667,4,2,1,30,0,0
659873,-133.333333333333,4,2,1,30,0,0
659973,-66.6666666666667,4,2,1,30,0,0
660073,-133.333333333333,4,2,1,30,0,0
660173,-78.7401574803149,4,2,1,30,0,0
660573,-133.333333333333,4,2,1,30,0,0
660973,-117.647058823529,4,2,1,30,0,0
661373,-105.263157894737,4,2,1,30,0,0
661773,-95.2380952380952,4,2,1,30,0,0
661973,-86.9565217391304,4,2,1,30,0,0
662173,-80,4,2,1,30,0,0
662373,-78.7401574803149,4,2,1,30,0,0
662573,-117.647058823529,4,2,1,30,0,0
662973,-105.263157894737,4,2,1,30,0,0
663173,-95.2380952380952,4,2,1,30,0,0
663373,-86.9565217391304,4,2,1,30,0,0
663773,-133.333333333333,4,2,1,30,0,0
664173,-105.263157894737,4,2,1,30,0,0
664573,-86.9565217391304,4,2,1,30,0,0
664973,-66.6666666666667,4,2,1,30,0,0
665073,-133.333333333333,4,2,1,30,0,0
665173,-66.6666666666667,4,2,1,30,0,0
665273,-133.333333333333,4,2,1,30,0,0
665373,-66.6666666666667,4,2,1,30,0,0
665473,-133.333333333333,4,2,1,30,0,0
665573,-66.6666666666667,4,2,1,30,0,0
665673,-133.333333333333,4,2,1,30,0,0
665773,-10000,4,2,1,30,0,0
665973,-33.3333333333333,4,2,1,30,0,0
666073,-78.7401574803149,4,2,1,30,0,0
666173,-10000,4,2,1,30,0,0
666398,-33.3333333333333,4,2,1,30,0,0
666473,-78.7401574803149,4,2,1,30,0,0
666573,-10000,4,2,1,30,0,0
666823,-33.3333333333333,4,2,1,30,0,0
666873,-78.7401574803149,4,2,1,30,0,0
666973,-10000,4,2,1,30,0,0
667248,-33.3333333333333,4,2,1,30,0,0
667273,-78.7401574803149,4,2,1,30,0,0
667373,-10000,4,2,1,30,0,0
667623,-33.3333333333333,4,2,1,30,0,0
667673,-78.7401574803149,4,2,1,30,0,0
667773,-10000,4,2,1,30,0,0
667973,-33.3333333333333,4,2,1,30,0,0
668073,-78.7401574803149,4,2,1,30,0,0
668173,-10000,4,2,1,30,0,0
668398,-33.3333333333333,4,2,1,30,0,0
668473,-78.7401574803149,4,2,1,30,0,0
668573,-10000,4,2,1,30,0,0
668823,-33.3333333333333,4,2,1,30,0,0
668873,-78.7401574803149,4,2,1,30,0,0
668973,-100,4,2,1,30,0,0
669173,-66.6666666666667,4,2,1,30,0,0
669273,-78.7401574803149,4,2,1,30,0,0
669373,-100,4,2,1,30,0,0
669573,-66.6666666666667,4,2,1,30,0,0
669673,-78.7401574803149,4,2,1,30,0,0
669773,-100,4,2,1,30,0,0
669973,-66.6666666666667,4,2,1,30,0,0
670073,-78.7401574803149,4,2,1,30,0,0
670173,-100,4,2,1,30,0,0
670373,-66.6666666666667,4,2,1,30,0,0
670473,-78.7401574803149,4,2,1,30,0,0
670573,-100,4,2,1,30,0,0
670773,-66.6666666666667,4,2,1,30,0,0
670873,-78.7401574803149,4,2,1,30,0,0
670973,-100,4,2,1,30,0,0
671173,-66.6666666666667,4,2,1,30,0,0
671273,-78.7401574803149,4,2,1,30,0,0
671373,-100,4,2,1,30,0,0
671573,-66.6666666666667,4,2,1,30,0,0
671673,-78.7401574803149,4,2,1,30,0,0
671773,-100,4,2,1,30,0,0
671973,-66.6666666666667,4,2,1,30,0,0
672073,-78.7401574803149,4,2,1,30,0,0
678573,-78.7401574803149,4,2,1,30,0,0
678673,-78.7401574803149,4,2,1,30,0,0
684973,-78.7401574803149,4,2,1,30,0,0
685073,-78.7401574803149,4,2,1,30,0,0
691373,-78.7401574803149,4,2,1,30,0,0
691473,-78.7401574803149,4,2,1,30,0,0
704173,-78.7401574803149,4,2,1,30,0,0
704973,-50,4,2,1,30,0,0
705373,-100,4,2,1,30,0,0
705573,-78.7401574803149,4,2,1,30,0,0
706573,-50,4,2,1,30,0,0
706973,-100,4,2,1,30,0,0
707173,-78.7401574803149,4,2,1,30,0,0
707773,-78.7401574803149,4,2,2,30,0,0
707873,-78.7401574803149,4,2,1,30,0,0
708173,-50,4,2,1,30,0,0
708573,-100,4,2,1,30,0,0
708773,-78.7401574803149,4,2,1,30,0,0
708973,-100,4,2,1,30,0,0
710473,-78.7401574803149,4,2,1,30,0,0
710573,-78.7401574803149,4,2,1,30,0,0
711373,-50,4,2,1,30,0,0
711773,-100,4,2,1,30,0,0
711973,-78.7401574803149,4,2,1,30,0,0
712973,-50,4,2,1,30,0,0
713373,-100,4,2,1,30,0,0
713573,-78.7401574803149,4,2,1,30,0,0
714573,-50,4,2,1,30,0,0
714973,-100,4,2,1,30,0,0
715173,-78.7401574803149,4,2,1,30,0,0
715373,-100,4,2,1,30,0,0
716873,-78.7401574803149,4,2,1,30,0,0
716973,-78.7401574803149,4,2,1,30,0,0
723173,-78.7401574803149,4,2,2,30,0,0
723373,-78.7401574803149,4,2,1,30,0,0
728973,-78.7401574803149,4,2,2,30,0,0
729373,-78.7401574803149,4,2,1,30,0,0
729573,-78.7401574803149,4,2,2,30,0,0
729773,-78.7401574803149,4,2,1,30,0,0
735173,-78.7401574803149,4,2,2,30,0,0
736173,-78.7401574803149,4,2,1,30,0,1
741773,-78.7401574803149,4,2,2,30,0,1
742173,-78.7401574803149,4,2,1,30,0,1
748173,-78.7401574803149,4,2,2,30,0,1
748573,-78.7401574803149,4,2,1,30,0,1
748773,-78.7401574803149,4,2,2,30,0,0
748973,-78.7401574803149,4,2,1,30,0,1
754573,-78.7401574803149,4,2,2,30,0,1
754973,-78.7401574803149,4,2,1,30,0,1
755173,-78.7401574803149,4,2,2,30,0,1
755373,-78.7401574803149,4,2,1,30,0,1
760973,-78.7401574803149,4,2,2,30,0,1
761373,-78.7401574803149,4,2,1,30,0,1
761573,-78.7401574803149,4,2,2,30,0,1
763373,-78.7401574803149,4,2,1,30,0,0
768973,-78.7401574803149,4,2,2,30,0,0
769473,-78.7401574803149,4,2,1,30,0,0
775373,-78.7401574803149,4,2,2,30,0,0
828973,387.096774193548,4,2,1,30,1,0
828973,-81.3008130081301,4,2,1,30,0,0
830521,375,4,2,1,30,1,0
830521,-84.0336134453781,4,2,1,30,0,0
832021,359.281437125748,4,2,1,30,1,0
832021,-87.719298245614,4,2,1,30,0,0
834807,333.333333333333,4,2,1,30,1,0
834807,-94.3396226415094,4,2,1,30,0,0
845474,-94.3396226415094,4,2,1,30,0,0
849474,-94.3396226415094,4,2,1,30,0,0
850140,-94.3396226415094,4,2,1,30,0,0
850474,-94.3396226415094,4,2,1,30,0,0
850807,-94.3396226415094,4,2,1,30,0,1
869474,-94.3396226415094,4,2,1,30,0,1
870807,-94.3396226415094,4,2,1,30,0,1
872140,-94.3396226415094,4,2,1,50,0,0
877474,-94.3396226415094,4,2,1,70,0,0
879807,-94.3396226415094,4,2,1,5,0,0
880140,-94.3396226415094,4,2,1,31,0,0
882140,-94.3396226415094,4,2,1,31,0,0
882474,-94.3396226415094,4,2,2,31,0,0
882807,-94.3396226415094,4,2,1,31,0,0
885140,-94.3396226415094,4,2,1,5,0,0
885474,-94.3396226415094,4,2,1,70,0,0
887140,-94.3396226415094,4,2,1,20,0,0
887474,-94.3396226415094,4,2,1,70,0,0
887807,-94.3396226415094,4,2,2,70,0,0
888140,-94.3396226415094,4,2,1,37,0,1
890696,-94.3396226415094,4,2,2,37,0,1
890807,-94.3396226415094,4,2,1,37,0,1
893140,-94.3396226415094,4,2,2,37,0,1
893473,-94.3396226415094,4,2,1,37,0,1
898807,333.333333333333,4,2,1,37,1,0
898807,-94.3396226415094,4,2,1,37,0,0
899473,324.324324324324,4,2,1,37,1,0
899473,-97.0873786407767,4,2,1,37,0,0
900121,307.692307692308,4,2,1,37,1,0
900121,-103.092783505155,4,2,1,37,0,0
900736,300,4,2,1,37,1,0
900736,-105.263157894737,4,2,1,37,0,0
901336,300,4,2,1,37,1,0
901336,-105.263157894737,4,2,1,37,0,0
901786,-105.263157894737,4,2,1,50,0,0
906136,-105.263157894737,4,2,1,70,0,0
910936,-105.263157894737,4,2,1,80,0,1
913111,-105.263157894737,4,2,2,40,0,1
913186,-105.263157894737,4,2,2,50,0,1
913261,-105.263157894737,4,2,2,60,0,1
913336,-105.263157894737,4,2,1,80,0,1
917911,-105.263157894737,4,2,2,40,0,1
917986,-105.263157894737,4,2,2,50,0,1
918061,-105.263157894737,4,2,2,60,0,1
918136,-105.263157894737,4,2,1,80,0,1
920311,-105.263157894737,4,2,2,40,0,1
920386,-105.263157894737,4,2,2,50,0,1
920461,-105.263157894737,4,2,2,60,0,1
920536,-105.263157894737,4,2,1,80,0,1
925261,-105.263157894737,4,2,1,40,0,0
934936,-105.263157894737,4,2,1,40,0,0
937036,-105.263157894737,4,2,2,40,0,0
937261,-105.263157894737,4,2,2,40,0,0
937336,-105.263157894737,4,2,1,40,0,0
939436,-105.263157894737,4,2,2,40,0,0
939736,-105.263157894737,4,2,1,40,0,1
941986,-105.263157894737,4,2,2,40,0,1
942136,-105.263157894737,4,2,1,40,0,1
944311,-105.263157894737,4,2,2,40,0,1
944386,-105.263157894737,4,2,2,40,0,1
944461,-105.263157894737,4,2,2,40,0,1
944536,-105.263157894737,4,2,1,40,0,1
946711,-105.263157894737,4,2,2,40,0,1
946936,-105.263157894737,4,2,1,40,0,1
949111,-105.263157894737,4,2,2,40,0,1
949186,-105.263157894737,4,2,2,40,0,1
949261,-105.263157894737,4,2,2,40,0,1
949336,-105.263157894737,4,2,1,40,0,1
951586,-105.263157894737,4,2,2,40,0,1
951736,-105.263157894737,4,2,1,40,0,1
954211,-105.263157894737,4,2,2,40,0,1
954736,-105.263157894737,4,2,1,40,0,1
954811,-105.263157894737,4,2,2,40,0,1
955336,-105.263157894737,4,2,1,40,0,1
955411,-105.263157894737,4,2,2,40,0,1
955636,-105.263157894737,4,2,1,50,0,1
955786,-105.263157894737,4,2,1,5,0,1
955936,-105.263157894737,4,2,1,31,0,1
956011,-105.263157894737,4,2,2,31,0,1
956536,-105.263157894737,4,2,1,31,0,1
958936,-105.263157894737,4,2,1,31,0,0
963736,-105.263157894737,4,2,1,31,0,1
968236,-105.263157894737,4,2,2,31,0,1
968536,-105.263157894737,4,2,1,31,0,1
972136,-105.263157894737,4,2,2,31,0,1
973036,-105.263157894737,4,2,2,31,0,1
975736,-105.263157894737,4,2,1,31,0,1
977686,-105.263157894737,4,2,2,31,0,1
977836,-105.263157894737,4,2,1,31,0,1
984361,-105.263157894737,4,2,2,31,0,1
984436,-105.263157894737,4,2,1,31,0,1
984511,-105.263157894737,4,2,2,31,0,1
984736,-105.263157894737,4,2,1,31,0,1
984811,-105.263157894737,4,2,2,32,0,1
985036,-105.263157894737,4,2,1,32,0,1
985111,-105.263157894737,4,2,2,32,0,1
985186,-105.263157894737,4,2,1,32,0,1
985261,-105.263157894737,4,2,2,32,0,1
986536,-105.263157894737,4,2,1,32,0,0
987736,-105.263157894737,4,2,1,32,0,1
989686,-105.263157894737,4,2,2,32,0,1
989836,-105.263157894737,4,2,1,32,0,1
992236,-105.263157894737,4,2,2,32,0,1
992536,-105.263157894737,4,2,1,32,0,1
997036,-105.263157894737,4,2,2,32,0,1
997336,-105.263157894737,4,2,1,32,0,1
1001836,-105.263157894737,4,2,2,32,0,1
1002136,-105.263157894737,4,2,1,32,0,1
1004086,-105.263157894737,4,2,2,32,0,1
1004236,-105.263157894737,4,2,2,32,0,1
1004536,-105.263157894737,4,2,1,32,0,1
1006636,-105.263157894737,4,2,2,32,0,1
1006936,-105.263157894737,4,2,1,32,0,1
1008886,-105.263157894737,4,2,2,32,0,1
1009336,-105.263157894737,4,2,1,32,0,1
1011436,-105.263157894737,4,2,2,32,0,1
1011736,-105.263157894737,4,2,1,32,0,1
1015336,-105.263157894737,4,2,1,32,0,1
1016236,-105.263157894737,4,2,2,32,0,1
1018936,-105.263157894737,4,2,1,32,0,1
1023436,-105.263157894737,4,2,2,32,0,1
1023736,-105.263157894737,4,2,1,32,0,1
1025686,-105.263157894737,4,2,2,32,0,1
1025836,-105.263157894737,4,2,1,32,0,1
1025986,-105.263157894737,4,2,2,32,0,1
1026136,-105.263157894737,4,2,1,32,0,1
1028236,-105.263157894737,4,2,2,32,0,1
1028386,-105.263157894737,4,2,1,32,0,1
1029886,-66.6666666666667,4,2,1,32,0,1
1030036,-133.333333333333,4,2,1,32,0,1
1030111,-105.263157894737,4,2,1,32,0,1
1030186,-66.6666666666667,4,2,1,32,0,1
1030336,-133.333333333333,4,2,1,32,0,1
1030411,-105.263157894737,4,2,1,32,0,1
1030486,-66.6666666666667,4,2,1,32,0,1
1030636,-133.333333333333,4,2,1,32,0,1
1030711,-105.263157894737,4,2,1,32,0,1
1030786,-105.263157894737,4,2,3,32,0,1
1030936,-105.263157894737,4,2,1,32,0,1
1032286,-133.333333333333,4,2,1,32,0,1
1032436,-66.6666666666667,4,2,1,32,0,1
1032511,-105.263157894737,4,2,1,32,0,1
1032586,-133.333333333333,4,2,1,32,0,1
1032736,-66.6666666666667,4,2,1,32,0,1
1032811,-105.263157894737,4,2,1,32,0,1
1032886,-133.333333333333,4,2,1,32,0,1
1033036,-66.6666666666667,4,2,1,32,0,1
1033111,-105.263157894737,4,2,1,32,0,1
1034086,-105.263157894737,4,2,2,32,0,1
1034236,-105.263157894737,4,2,1,32,0,1
1035286,-105.263157894737,4,2,2,32,0,1
1035436,-105.263157894737,4,2,1,32,0,1
1036486,-105.263157894737,4,2,2,32,0,1
1036636,-105.263157894737,4,2,1,32,0,1
1038136,-55.5555555555556,4,2,1,32,0,0
1038286,-153.846153846154,4,2,1,32,0,0
1038436,-105.263157894737,4,2,1,32,0,0
1038586,-55.5555555555556,4,2,1,32,0,0
1038736,-153.846153846154,4,2,1,32,0,0
1038886,-105.263157894737,4,2,1,32,0,0
1039036,-55.5555555555556,4,2,1,32,0,0
1039186,-153.846153846154,4,2,1,32,0,0
1039336,-105.263157894737,4,2,1,32,0,0
1039486,-55.5555555555556,4,2,1,32,0,0
1039561,-153.846153846154,4,2,1,32,0,0
1039636,-105.263157894737,4,2,1,32,0,0
1039786,-100,4,2,1,32,0,0
1039861,-105.263157894737,4,2,1,32,0,0
1039936,-100,4,2,1,32,0,0
1040011,-105.263157894737,4,2,1,32,0,0
1040086,-100,4,2,1,32,0,0
1040161,-105.263157894737,4,2,1,32,0,0
1040236,-55.5555555555556,4,2,1,32,0,0
1040311,-153.846153846154,4,2,1,32,0,0
1040386,-105.263157894737,4,2,1,32,0,0
1040536,-55.5555555555556,4,2,1,32,0,0
1040686,-153.846153846154,4,2,1,32,0,0
1040836,-105.263157894737,4,2,1,32,0,0
1040986,-55.5555555555556,4,2,1,32,0,0
1041061,-153.846153846154,4,2,1,32,0,0
1041136,-105.263157894737,4,2,1,32,0,0
1041286,-100,4,2,1,32,0,0
1041361,-105.263157894737,4,2,1,32,0,0
1041436,-55.5555555555556,4,2,1,32,0,0
1041511,-153.846153846154,4,2,1,32,0,0
1041586,-105.263157894737,4,2,1,32,0,0
1041736,-55.5555555555556,4,2,1,32,0,0
1041886,-153.846153846154,4,2,1,32,0,0
1041961,-105.263157894737,4,2,1,32,0,0
1042936,-105.263157894737,4,2,1,32,0,1
1044961,-105.263157894737,4,2,2,32,0,1
1045186,-105.263157894737,4,2,1,32,0,1
1046536,-105.263157894737,4,2,2,32,0,1
1047436,-105.263157894737,4,2,2,32,0,1
1047736,-105.263157894737,4,2,1,32,0,0
1048636,-105.263157894737,4,2,1,32,0,0
1058536,500,4,3,1,32,1,0
1058536,-63.2911392405063,4,3,1,32,0,0
1061536,-63.2911392405063,4,3,1,32,0,0
1062536,-63.2911392405063,4,3,1,32,0,0
1078536,-63.2911392405063,4,2,3,32,0,0
1086546,500,4,2,1,32,1,0
1086546,-63.2911392405063,4,2,1,32,0,0
1094546,-63.2911392405063,4,2,1,32,0,0
1098046,-63.2911392405063,4,2,2,32,0,0
1110546,250,4,1,2,32,1,1
1110546,-126.582278481013,4,1,2,32,0,1
1110608,-126.582278481013,4,1,1,32,0,1
1112546,-126.582278481013,4,1,2,32,0,1
1112608,-126.582278481013,4,1,1,32,0,1
1114546,-126.582278481013,4,1,2,32,0,1
1114608,-126.582278481013,4,1,1,32,0,1
1116546,-126.582278481013,4,1,2,32,0,1
1116608,-126.582278481013,4,1,1,32,0,1
1122546,-126.582278481013,4,1,2,32,0,1
1122608,-126.582278481013,4,1,1,32,0,1
1124546,-126.582278481013,4,1,2,32,0,1
1124608,-126.582278481013,4,1,1,32,0,1
1126546,-126.582278481013,4,1,2,32,0,1
1126608,-126.582278481013,4,1,1,32,0,1
1128546,-126.582278481013,4,1,2,32,0,1
1128608,-126.582278481013,4,1,1,32,0,1
1130546,-126.582278481013,4,1,2,32,0,1
1132046,-126.582278481013,4,1,1,32,0,1
1132296,-126.582278481013,4,1,1,32,0,1
1132421,-126.582278481013,4,1,1,32,0,0
1132546,-126.582278481013,4,1,2,32,0,1
1132608,-126.582278481013,4,1,1,32,0,1
1134546,-126.582278481013,4,1,2,32,0,1
1134608,-126.582278481013,4,1,1,32,0,1
1136546,-126.582278481013,4,1,2,32,0,1
1136608,-126.582278481013,4,1,1,32,0,1
1138546,-126.582278481013,4,1,2,32,0,1
1138608,-126.582278481013,4,1,1,32,0,1
1139546,-126.582278481013,4,1,1,32,0,1
1140546,-126.582278481013,4,1,1,32,0,0
1150546,-126.582278481013,4,1,1,32,0,0
1154546,-126.582278481013,4,1,2,32,0,1
1154608,-126.582278481013,4,1,1,32,0,1
1156546,-126.582278481013,4,1,2,32,0,1
1156608,-126.582278481013,4,1,1,32,0,1
1158546,-126.582278481013,4,1,2,32,0,1
1158608,-126.582278481013,4,1,1,32,0,1
1160546,-126.582278481013,4,1,2,32,0,1
1160608,-126.582278481013,4,1,1,32,0,1
1168546,-126.582278481013,4,1,2,32,0,1
1168608,-126.582278481013,4,1,1,32,0,1
1170546,-126.582278481013,4,1,2,32,0,1
1170608,-126.582278481013,4,1,1,32,0,1
1172546,-126.582278481013,4,1,2,32,0,1
1172608,-126.582278481013,4,1,1,32,0,1
1174546,-126.582278481013,4,1,2,32,0,1
1174608,-126.582278481013,4,1,1,32,0,1
1176421,-126.582278481013,4,1,1,32,0,0
1176546,-126.582278481013,4,1,2,32,0,1
1176608,-126.582278481013,4,1,1,32,0,1
1177671,-126.582278481013,4,1,1,32,0,1
1178171,-126.582278481013,4,1,1,32,0,1
1178546,-126.582278481013,4,1,2,32,0,1
1178608,-126.582278481013,4,1,1,32,0,1
1179671,-126.582278481013,4,1,1,32,0,1
1180171,-126.582278481013,4,1,1,32,0,1
1180546,-126.582278481013,4,1,2,32,0,1
1180608,-126.582278481013,4,1,1,32,0,1
1181671,-126.582278481013,4,1,1,32,0,1
1182171,-126.582278481013,4,1,1,32,0,1
1182546,-126.582278481013,4,1,1,32,0,1
1182671,-126.582278481013,4,1,1,32,0,1
1183171,-126.582278481013,4,1,1,32,0,1
1183546,-126.582278481013,4,1,2,32,0,1
1183608,-126.582278481013,4,1,1,32,0,1
1185546,-126.582278481013,4,1,2,32,0,1
1185608,-126.582278481013,4,1,1,32,0,1
1187546,-126.582278481013,4,1,2,32,0,1
1187608,-126.582278481013,4,1,1,32,0,1
1189546,-126.582278481013,4,1,2,32,0,1
1189608,-126.582278481013,4,1,1,32,0,1
1191546,-126.582278481013,4,1,2,32,0,1
1191608,-126.582278481013,4,1,1,32,0,1
1193546,-126.582278481013,4,1,2,32,0,1
1193608,-126.582278481013,4,1,1,32,0,1
1205546,-126.582278481013,4,1,2,32,0,1
1205608,-126.582278481013,4,1,1,32,0,1
1207546,-126.582278481013,4,1,2,32,0,1
1207608,-126.582278481013,4,1,1,32,0,1
1209546,-126.582278481013,4,1,2,32,0,1
1209608,-126.582278481013,4,1,1,32,0,1
1211546,-126.582278481013,4,1,2,32,0,1
1211608,-126.582278481013,4,1,1,32,0,1
1213546,-126.582278481013,4,1,2,32,0,1
1213608,-126.582278481013,4,1,1,32,0,1
1215546,-126.582278481013,4,1,2,32,0,1
1215608,-126.582278481013,4,1,1,32,0,1
1219546,-126.582278481013,4,1,2,32,0,1
1219608,-126.582278481013,4,1,1,32,0,1
1221546,-126.582278481013,4,1,2,32,0,1
1221608,-126.582278481013,4,1,1,32,0,1
1227483,-126.582278481013,4,1,1,32,0,0
1227546,-126.582278481013,4,1,1,32,0,1
1227608,-126.582278481013,4,2,1,32,0,0
1228046,-126.582278481013,4,2,1,70,0,0
1228358,-126.582278481013,4,2,1,60,0,0
1228608,-126.582278481013,4,2,1,50,0,0
1228921,-126.582278481013,4,2,1,40,0,0
1229233,-126.582278481013,4,2,1,30,0,0
1229546,-126.582278481013,4,2,1,20,0,0
1229858,-126.582278481013,4,2,1,10,0,0
1230046,-126.582278481013,4,2,1,5,0,0
1233206,666.666666666667,4,2,1,50,1,0
1233206,-47.6190476190476,4,2,1,50,0,0
1297206,-47.6190476190476,4,2,1,50,0,0
1299872,333.333333333333,4,2,1,51,1,0
1299872,-95.2380952380952,4,2,1,51,0,0
1350633,-95.2380952380952,4,2,1,51,0,1
1383967,-95.2380952380952,4,2,1,51,0,0
1395867,342.857142857143,4,2,1,51,1,0
1401352,352.941176470588,4,2,1,51,1,0
1405587,363.636363636364,4,2,1,51,1,0
1414314,375,4,2,1,51,1,0
1415814,387.096774193548,4,2,1,51,1,0
1417362,400,4,2,1,51,1,0
1418962,428.571428571429,4,2,1,51,1,0
1420676,461.538461538462,4,2,1,51,1,0
1422522,480,4,2,1,51,1,0
1424442,521.739130434783,4,2,1,51,1,0
1426525,545.454545454546,4,2,1,51,1,0
1426525,-58.1395348837209,4,2,1,51,0,0
1430888,600,4,2,1,51,1,0
1430888,-52.6315789473684,4,2,1,51,0,0
1433288,333.333333333333,4,2,1,51,1,0
1433288,-95.2380952380952,4,2,1,51,0,0

[HitObjects]
192,192,412193,5,0,0:0:0:0:
448,192,412193,1,0,0:0:0:0:
320,192,412300,1,0,0:0:0:0:
64,192,412407,1,0,0:0:0:0:
192,192,412407,1,0,0:0:0:0:
320,192,412514,1,0,0:0:0:0:
64,192,412621,1,0,0:0:0:0:
448,192,412621,1,0,0:0:0:0:
192,192,412728,1,0,0:0:0:0:
64,192,412835,1,0,0:0:0:0:
320,192,412835,1,0,0:0:0:0:
448,192,412943,1,0,0:0:0:0:
64,192,413050,1,0,0:0:0:0:
320,192,413050,1,0,0:0:0:0:
192,192,413157,1,0,0:0:0:0:
448,192,413264,1,0,0:0:0:0:
320,192,413264,1,0,0:0:0:0:
192,192,413371,1,0,0:0:0:0:
64,192,413478,1,0,0:0:0:0:
320,192,413478,1,0,0:0:0:0:
448,192,413585,1,0,0:0:0:0:
64,192,413693,1,0,0:0:0:0:
320,192,413693,1,0,0:0:0:0:
192,192,413800,1,0,0:0:0:0:
64,192,413907,1,0,0:0:0:0:
448,192,413907,1,0,0:0:0:0:
320,192,414014,1,0,0:0:0:0:
64,192,414121,1,0,0:0:0:0:
192,192,414121,1,0,0:0:0:0:
320,192,414228,1,0,0:0:0:0:
64,192,414335,1,0,0:0:0:0:
448,192,414335,1,0,0:0:0:0:
192,192,414443,1,0,0:0:0:0:
64,192,414550,1,0,0:0:0:0:
320,192,414550,1,0,0:0:0:0:
448,192,414657,1,0,0:0:0:0:
64,192,414764,1,0,0:0:0:0:
320,192,414764,1,0,0:0:0:0:
192,192,414871,1,0,0:0:0:0:
448,192,414978,1,0,0:0:0:0:
320,192,414978,1,0,0:0:0:0:
192,192,415085,1,0,0:0:0:0:
64,192,415193,1,0,0:0:0:0:
320,192,415193,1,0,0:0:0:0:
448,192,415300,1,0,0:0:0:0:
64,192,415407,1,0,0:0:0:0:
320,192,415407,1,0,0:0:0:0:
192,192,415514,1,0,0:0:0:0:
64,192,415621,1,0,0:0:0:0:
320,192,415621,1,0,0:0:0:0:
192,192,415728,1,0,0:0:0:0:
320,192,415835,1,0,0:0:0:0:
448,192,415835,1,0,0:0:0:0:
192,192,415943,1,0,0:0:0:0:
64,192,416050,1,0,0:0:0:0:
448,192,416050,1,0,0:0:0:0:
320,192,416157,1,0,0:0:0:0:
192,192,416264,1,0,0:0:0:0:
448,192,416264,1,0,0:0:0:0:
64,192,416371,1,0,0:0:0:0:
192,192,416478,1,0,0:0:0:0:
448,192,416478,1,0,0:0:0:0:
320,192,416585,1,0,0:0:0:0:
192,192,416693,1,0,0:0:0:0:
64,192,416693,1,0,0:0:0:0:
320,192,416800,1,0,0:0:0:0:
192,192,416907,1,0,0:0:0:0:
448,192,416907,1,0,0:0:0:0:
64,192,417014,1,0,0:0:0:0:
192,192,417121,1,0,0:0:0:0:
448,192,417121,1,0,0:0:0:0:
320,192,417228,1,0,0:0:0:0:
64,192,417335,1,0,0:0:0:0:
448,192,417335,1,0,0:0:0:0:
192,192,417443,1,0,0:0:0:0:
320,192,417550,1,0,0:0:0:0:
448,192,417657,1,0,0:0:0:0:
320,192,417764,1,0,0:0:0:0:
64,192,417764,1,0,0:0:0:0:
192,192,417871,1,0,0:0:0:0:
320,192,417978,1,0,0:0:0:0:
64,192,417978,1,0,0:0:0:0:
448,192,418085,1,0,0:0:0:0:
192,192,418193,1,0,0:0:0:0:
320,192,418300,1,0,0:0:0:0:
448,192,418407,1,0,0:0:0:0:
64,192,418407,1,0,0:0:0:0:
192,192,418514,1,0,0:0:0:0:
320,192,418621,1,0,0:0:0:0:
64,192,418621,1,0,0:0:0:0:
192,192,418728,1,0,0:0:0:0:
448,192,418835,1,0,0:0:0:0:
320,192,418835,1,0,0:0:0:0:
192,192,418943,1,0,0:0:0:0:
64,192,419050,1,0,0:0:0:0:
320,192,419050,128,0,419264:0:0:0:0:
448,192,419050,1,0,0:0:0:0:
64,192,419264,128,0,419478:0:0:0:0:
192,192,419264,1,0,0:0:0:0:
192,192,419478,128,0,419693:0:0:0:0:
320,192,419478,1,0,0:0:0:0:
320,192,419693,128,0,420121:0:0:0:0:
448,192,419693,1,0,0:0:0:0:
64,192,419907,1,0,0:0:0:0:
192,192,420121,128,0,420550:0:0:0:0:
448,192,420121,1,0,0:0:0:0:
64,192,420335,1,0,0:0:0:0:
320,192,420550,128,0,420764:0:0:0:0:
448,192,420550,1,0,0:0:0:0:
448,192,420764,128,0,421300:0:0:0:0:
64,192,420764,1,0,0:0:0:0:
192,192,420764,128,0,420871:0:0:0:0:
192,192,420978,128,0,421085:0:0:0:0:
320,192,420978,1,0,0:0:0:0:
64,192,421193,1,0,0:0:0:0:
192,192,421193,128,0,421300:0:0:0:0:
448,192,421407,128,0,421514:0:0:0:0:
320,192,421407,128,0,421514:0:0:0:0:
64,192,421407,1,0,0:0:0:0:
192,192,421621,1,0,0:0:0:0:
192,192,421835,128,0,422264:0:0:0:0:
448,192,421835,1,0,0:0:0:0:
320,192,422050,1,0,0:0:0:0:
448,192,422264,128,0,422478:0:0:0:0:
64,192,422264,1,0,0:0:0:0:
64,192,422478,128,0,424193:0:0:0:0:
192,192,422478,128,0,423014:0:0:0:0:
320,192,422478,1,0,0:0:0:0:
448,192,422693,1,0,0:0:0:0:
320,192,422693,128,0,422800:0:0:0:0:
448,192,422907,128,0,423014:0:0:0:0:
320,192,422907,128,0,423228:0:0:0:0:
448,192,423121,128,0,423443:0:0:0:0:
192,192,423121,128,0,423228:0:0:0:0:
320,192,423335,128,0,423657:0:0:0:0:
192,192,423335,128,0,423443:0:0:0:0:
192,192,423550,128,0,423871:0:0:0:0:
448,192,423550,128,0,423657:0:0:0:0:
320,192,423764,128,0,424300:0:0:0:0:
448,192,423764,128,0,423871:0:0:0:0:
448,192,423978,128,0,424514:0:0:0:0:
192,192,423978,128,0,424300:0:0:0:0:
192,192,424407,128,0,424728:0:0:0:0:
320,192,424407,128,0,424514:0:0:0:0:
320,192,424621,128,0,424728:0:0:0:0:
448,192,424621,128,0,425371:0:0:0:0:
192,192,424835,128,0,424943:0:0:0:0:
320,192,424835,128,0,425157:0:0:0:0:
192,192,425050,128,0,425478:0:0:0:0:
320,192,425264,128,0,425478:0:0:0:0:
64,192,425478,128,0,425693:0:0:0:0:
448,192,425478,1,0,0:0:0:0:
192,192,425693,128,0,425907:0:0:0:0:
320,192,425693,1,0,0:0:0:0:
448,192,425907,128,0,426764:0:0:0:0:
64,192,425907,1,0,0:0:0:0:
192,192,426121,1,0,0:0:0:0:
320,192,426335,1,0,0:0:0:0:
192,192,426550,1,0,0:0:0:0:
64,192,426764,1,0,0:0:0:0:
448,192,426978,128,0,427193:0:0:0:0:
192,192,426978,1,0,0:0:0:0:
320,192,427193,128,0,427407:0:0:0:0:
64,192,427193,1,0,0:0:0:0:
64,192,427407,128,0,427621:0:0:0:0:
448,192,427407,1,0,0:0:0:0:
192,192,427621,128,0,428264:0:0:0:0:
320,192,427621,1,0,0:0:0:0:
448,192,427835,1,0,0:0:0:0:
64,192,428050,1,0,0:0:0:0:
320,192,428264,128,0,428478:0:0:0:0:
448,192,428264,1,0,0:0:0:0:
192,192,428478,1,0,0:0:0:0:
320,192,428693,128,0,429121:0:0:0:0:
64,192,428693,1,0,0:0:0:0:
192,192,428907,1,0,0:0:0:0:
192,192,429121,128,0,429335:0:0:0:0:
448,192,429121,1,0,0:0:0:0:
448,192,429335,128,0,430193:0:0:0:0:
64,192,429335,1,0,0:0:0:0:
192,192,429550,1,0,0:0:0:0:
320,192,429764,1,0,0:0:0:0:
64,192,429978,1,0,0:0:0:0:
192,192,430193,1,0,0:0:0:0:
320,192,430407,1,0,0:0:0:0:
64,192,430621,1,0,0:0:0:0:
448,192,430835,128,0,431050:0:0:0:0:
192,192,430835,1,0,0:0:0:0:
192,192,431050,128,0,431264:0:0:0:0:
320,192,431050,1,0,0:0:0:0:
64,192,431264,128,0,431478:0:0:0:0:
448,192,431264,1,0,0:0:0:0:
320,192,431478,1,0,0:0:0:0:
448,192,431693,128,0,432335:0:0:0:0:
192,192,431693,1,0,0:0:0:0:
64,192,431693,1,0,0:0:0:0:
320,192,431746,1,0,0:0:0:0:
64,192,431907,1,0,0:0:0:0:
192,192,431907,1,0,0:0:0:0:
64,192,432121,1,0,0:0:0:0:
320,192,432121,1,0,0:0:0:0:
192,192,432228,1,0,0:0:0:0:
192,192,432335,128,0,432550:0:0:0:0:
320,192,432335,1,0,0:0:0:0:
64,192,432335,1,0,0:0:0:0:
448,192,432443,1,0,0:0:0:0:
64,192,432550,128,0,432764:0:0:0:0:
320,192,432550,1,0,0:0:0:0:
448,192,432764,128,0,432978:0:0:0:0:
320,192,432764,1,0,0:0:0:0:
192,192,432764,1,0,0:0:0:0:
320,192,432978,128,0,433193:0:0:0:0:
64,192,432978,1,0,0:0:0:0:
192,192,433085,1,0,0:0:0:0:
192,192,433193,128,0,433300:0:0:0:0:
448,192,433193,1,0,0:0:0:0:
64,192,433193,1,0,0:0:0:0:
448,192,433407,128,0,433621:0:0:0:0:
320,192,433407,1,0,0:0:0:0:
64,192,433407,1,0,0:0:0:0:
192,192,433621,1,0,0:0:0:0:
320,192,433621,1,0,0:0:0:0:
320,192,433835,128,0,434050:0:0:0:0:
64,192,433835,1,0,0:0:0:0:
448,192,433835,1,0,0:0:0:0:
192,192,433943,1,0,0:0:0:0:
64,192,434050,1,0,0:0:0:0:
448,192,434050,1,0,0:0:0:0:
320,192,434157,1,0,0:0:0:0:
192,192,434264,128,0,434478:0:0:0:0:
448,192,434264,1,0,0:0:0:0:
64,192,434264,1,0,0:0:0:0:
448,192,434478,128,0,434693:0:0:0:0:
64,192,434478,1,0,0:0:0:0:
320,192,434585,1,0,0:0:0:0:
192,192,434693,128,0,434800:0:0:0:0:
64,192,434693,1,0,0:0:0:0:
320,192,434800,1,0,0:0:0:0:
448,192,434907,128,0,435014:0:0:0:0:
64,192,434907,1,0,0:0:0:0:
192,192,434907,1,0,0:0:0:0:
320,192,435014,1,0,0:0:0:0:
320,192,435121,128,0,435550:0:0:0:0:
192,192,435121,1,0,0:0:0:0:
64,192,435121,1,0,0:0:0:0:
64,192,435335,1,0,0:0:0:0:
448,192,435335,1,0,0:0:0:0:
192,192,435443,128,0,435550:0:0:0:0:
448,192,435550,1,0,0:0:0:0:
64,192,435550,128,0,435657:0:0:0:0:
448,192,435764,1,0,0:0:0:0:
64,192,435978,1,0,0:0:0:0:
320,192,435978,128,0,436085:0:0:0:0:
448,192,436193,128,0,436407:0:0:0:0:
192,192,436193,1,0,0:0:0:0:
320,192,436407,128,0,436621:0:0:0:0:
64,192,436407,1,0,0:0:0:0:
64,192,436621,128,0,436728:0:0:0:0:
192,192,436621,1,0,0:0:0:0:
448,192,436621,1,0,0:0:0:0:
192,192,436835,128,0,437050:0:0:0:0:
448,192,436835,1,0,0:0:0:0:
320,192,436835,1,0,0:0:0:0:
320,192,437050,1,0,0:0:0:0:
64,192,437050,1,0,0:0:0:0:
320,192,437264,128,0,437478:0:0:0:0:
64,192,437264,1,0,0:0:0:0:
192,192,437478,1,0,0:0:0:0:
448,192,437478,1,0,0:0:0:0:
192,192,437693,128,0,437800:0:0:0:0:
448,192,437693,1,0,0:0:0:0:
192,192,437907,128,0,438121:0:0:0:0:
320,192,437907,1,0,0:0:0:0:
64,192,437907,1,0,0:0:0:0:
448,192,438121,128,0,438228:0:0:0:0:
64,192,438121,1,0,0:0:0:0:
320,192,438121,1,0,0:0:0:0:
320,192,438335,128,0,438443:0:0:0:0:
192,192,438335,1,0,0:0:0:0:
64,192,438335,1,0,0:0:0:0:
64,192,438550,128,0,438764:0:0:0:0:
448,192,438550,1,0,0:0:0:0:
192,192,438550,1,0,0:0:0:0:
320,192,438764,1,0,0:0:0:0:
448,192,438764,1,0,0:0:0:0:
192,192,438978,128,0,439193:0:0:0:0:
448,192,438978,1,0,0:0:0:0:
320,192,438978,1,0,0:0:0:0:
64,192,439193,1,0,0:0:0:0:
64,192,439407,128,0,439621:0:0:0:0:
192,192,439407,1,0,0:0:0:0:
448,192,439407,1,0,0:0:0:0:
448,192,439621,128,0,439835:0:0:0:0:
320,192,439621,1,0,0:0:0:0:
192,192,439621,1,0,0:0:0:0:
320,192,439835,128,0,440050:0:0:0:0:
192,192,439835,1,0,0:0:0:0:
64,192,439835,1,0,0:0:0:0:
192,192,440050,128,0,440264:0:0:0:0:
64,192,440050,1,0,0:0:0:0:
448,192,440050,1,0,0:0:0:0:
448,192,440264,128,0,440478:0:0:0:0:
320,192,440264,1,0,0:0:0:0:
64,192,440264,1,0,0:0:0:0:
192,192,440478,1,0,0:0:0:0:
320,192,440693,128,0,440907:0:0:0:0:
64,192,440693,1,0,0:0:0:0:
192,192,440693,1,0,0:0:0:0:
448,192,440907,1,0,0:0:0:0:
64,192,441121,128,0,441335:0:0:0:0:
320,192,441121,1,0,0:0:0:0:
448,192,441121,1,0,0:0:0:0:
448,192,441335,128,0,441550:0:0:0:0:
192,192,441335,1,0,0:0:0:0:
320,192,441335,1,0,0:0:0:0:
320,192,441550,128,0,441764:0:0:0:0:
64,192,441550,1,0,0:0:0:0:
192,192,441550,1,0,0:0:0:0:
192,192,441764,128,0,441978:0:0:0:0:
448,192,441764,1,0,0:0:0:0:
64,192,441764,1,0,0:0:0:0:
448,192,441978,128,0,442193:0:0:0:0:
320,192,441978,1,0,0:0:0:0:
64,192,441978,1,0,0:0:0:0:
64,192,442193,1,0,0:0:0:0:
192,192,442407,128,0,442621:0:0:0:0:
448,192,442407,1,0,0:0:0:0:
320,192,442407,1,0,0:0:0:0:
320,192,442621,1,0,0:0:0:0:
448,192,442728,1,0,0:0:0:0:
64,192,442835,128,0,443050:0:0:0:0:
192,192,442835,1,0,0:0:0:0:
320,192,442835,1,0,0:0:0:0:
448,192,443050,128,0,444335:0:0:0:0:
320,192,443050,1,0,0:0:0:0:
192,192,443157,1,0,0:0:0:0:
320,192,443264,1,0,0:0:0:0:
192,192,443371,1,0,0:0:0:0:
320,192,443478,1,0,0:0:0:0:
192,192,443585,1,0,0:0:0:0:
320,192,443693,1,0,0:0:0:0:
192,192,443800,1,0,0:0:0:0:
64,192,443907,1,0,0:0:0:0:
192,192,444014,1,0,0:0:0:0:
64,192,444121,1,0,0:0:0:0:
192,192,444228,1,0,0:0:0:0:
320,192,444335,128,0,444764:0:0:0:0:
64,192,444335,1,0,0:0:0:0:
192,192,444443,1,0,0:0:0:0:
64,192,444550,1,0,0:0:0:0:
192,192,444657,1,0,0:0:0:0:
192,192,444764,128,0,446050:0:0:0:0:
64,192,444764,1,0,0:0:0:0:
320,192,444871,1,0,0:0:0:0:
64,192,444978,1,0,0:0:0:0:
320,192,445085,1,0,0:0:0:0:
64,192,445193,1,0,0:0:0:0:
320,192,445300,1,0,0:0:0:0:
64,192,445407,1,0,0:0:0:0:
320,192,445514,1,0,0:0:0:0:
448,192,445621,1,0,0:0:0:0:
320,192,445728,5,0,0:0:0:0:
448,192,445835,1,0,0:0:0:0:
320,192,445943,1,0,0:0:0:0:
448,192,446050,1,0,0:0:0:0:
320,192,446157,1,0,0:0:0:0:
64,192,446264,128,0,446800:0:0:0:0:
448,192,446264,1,0,0:0:0:0:
192,192,446371,128,0,446693:0:0:0:0:
320,192,446478,128,0,446585:0:0:0:0:
448,192,446478,1,0,0:0:0:0:
320,192,446693,128,0,447014:0:0:0:0:
192,192,446800,128,0,447121:0:0:0:0:
64,192,446907,128,0,447228:0:0:0:0:
448,192,446907,1,0,0:0:0:0:
320,192,447121,128,0,447550:0:0:0:0:
192,192,447228,128,0,447550:0:0:0:0:
64,192,447335,128,0,447443:0:0:0:0:
448,192,447335,1,0,0:0:0:0:
64,192,447550,128,0,448085:0:0:0:0:
192,192,447764,128,0,448193:0:0:0:0:
320,192,447764,128,0,447871:0:0:0:0:
448,192,447764,1,0,0:0:0:0:
320,192,447978,128,0,448193:0:0:0:0:
448,192,447978,128,0,448085:0:0:0:0:
448,192,448193,128,0,448407:0:0:0:0:
64,192,448193,128,0,448514:0:0:0:0:
192,192,448300,128,0,448621:0:0:0:0:
320,192,448407,128,0,448728:0:0:0:0:
448,192,448514,128,0,448835:0:0:0:0:
64,192,448621,128,0,448943:0:0:0:0:
192,192,448728,128,0,448943:0:0:0:0:
320,192,448835,128,0,449050:0:0:0:0:
448,192,448943,128,0,449050:0:0:0:0:
64,192,449050,128,0,449157:0:0:0:0:
192,192,449050,128,0,449157:0:0:0:0:
64,192,449264,128,0,449371:0:0:0:0:
192,192,449264,128,0,449371:0:0:0:0:
64,192,449478,128,0,449800:0:0:0:0:
192,192,449478,128,0,449693:0:0:0:0:
320,192,449478,128,0,449585:0:0:0:0:
448,192,449478,128,0,449907:0:0:0:0:
320,192,449693,128,0,450014:0:0:0:0:
192,192,449800,128,0,450121:0:0:0:0:
64,192,449907,128,0,450228:0:0:0:0:
320,192,450121,128,0,450335:0:0:0:0:
448,192,450121,128,0,450228:0:0:0:0:
192,192,450228,128,0,450443:0:0:0:0:
64,192,450335,128,0,450550:0:0:0:0:
448,192,450335,128,0,450443:0:0:0:0:
320,192,450443,128,0,450657:0:0:0:0:
192,192,450550,128,0,450764:0:0:0:0:
64,192,450657,128,0,450764:0:0:0:0:
448,192,450764,128,0,450871:0:0:0:0:
320,192,450764,128,0,450871:0:0:0:0:
64,192,450978,128,0,451085:0:0:0:0:
448,192,450978,128,0,451085:0:0:0:0:
320,192,451193,128,0,451407:0:0:0:0:
64,192,451193,1,0,0:0:0:0:
192,192,451407,128,0,451514:0:0:0:0:
448,192,451407,128,0,451621:0:0:0:0:
192,192,451621,128,0,451835:0:0:0:0:
320,192,451621,128,0,452050:0:0:0:0:
64,192,451621,1,0,0:0:0:0:
64,192,452050,128,0,452264:0:0:0:0:
448,192,452050,128,0,452478:0:0:0:0:
192,192,452050,1,0,0:0:0:0:
64,192,452478,128,0,452585:0:0:0:0:
192,192,452478,128,0,452585:0:0:0:0:
320,192,452478,1,0,0:0:0:0:
64,192,452693,128,0,452800:0:0:0:0:
192,192,452693,128,0,452800:0:0:0:0:
448,192,452907,128,0,453014:0:0:0:0:
192,192,452907,128,0,453014:0:0:0:0:
320,192,452907,1,0,0:0:0:0:
320,192,453121,128,0,453228:0:0:0:0:
64,192,453121,128,0,453228:0:0:0:0:
448,192,453228,128,0,453335:0:0:0:0:
192,192,453228,128,0,453335:0:0:0:0:
320,192,453335,128,0,453764:0:0:0:0:
64,192,453335,1,0,0:0:0:0:
448,192,453443,128,0,453550:0:0:0:0:
192,192,453550,128,0,453657:0:0:0:0:
64,192,453657,128,0,453764:0:0:0:0:
192,192,453764,128,0,453871:0:0:0:0:
448,192,453764,1,0,0:0:0:0:
320,192,453978,128,0,454085:0:0:0:0:
448,192,454085,128,0,454193:0:0:0:0:
64,192,454085,128,0,454193:0:0:0:0:
192,192,454193,128,0,454300:0:0:0:0:
320,192,454193,1,0,0:0:0:0:
448,192,454300,128,0,454407:0:0:0:0:
64,192,454407,128,0,454514:0:0:0:0:
320,192,454407,128,0,454514:0:0:0:0:
192,192,454514,128,0,454621:0:0:0:0:
448,192,454621,128,0,454728:0:0:0:0:
64,192,454621,128,0,454835:0:0:0:0:
320,192,454621,1,0,0:0:0:0:
192,192,454728,128,0,454835:0:0:0:0:
320,192,454835,128,0,454943:0:0:0:0:
448,192,454835,128,0,454943:0:0:0:0:
64,192,455050,128,0,455157:0:0:0:0:
320,192,455050,128,0,455478:0:0:0:0:
192,192,455050,128,0,455264:0:0:0:0:
448,192,455050,1,0,0:0:0:0:
192,192,455478,128,0,455907:0:0:0:0:
64,192,455478,128,0,455693:0:0:0:0:
448,192,455478,128,0,455585:0:0:0:0:
448,192,455907,128,0,456121:0:0:0:0:
320,192,455907,128,0,456014:0:0:0:0:
64,192,455907,1,0,0:0:0:0:
64,192,456121,1,0,0:0:0:0:
192,192,456175,1,0,0:0:0:0:
320,192,456228,1,0,0:0:0:0:
448,192,456282,1,0,0:0:0:0:
320,192,456335,1,0,0:0:0:0:
64,192,456550,128,0,456657:0:0:0:0:
192,192,456657,128,0,456764:0:0:0:0:
448,192,456764,128,0,457193:0:0:0:0:
320,192,456764,1,0,0:0:0:0:
320,192,456978,128,0,457621:0:0:0:0:
192,192,457193,128,0,457621:0:0:0:0:
64,192,457193,1,0,0:0:0:0:
448,192,457407,128,0,457621:0:0:0:0:
64,192,457621,128,0,457943:0:0:0:0:
192,192,457728,128,0,458050:0:0:0:0:
320,192,457835,128,0,458157:0:0:0:0:
448,192,457943,128,0,458264:0:0:0:0:
64,192,458050,128,0,458693:0:0:0:0:
192,192,458157,128,0,458264:0:0:0:0:
320,192,458264,128,0,458478:0:0:0:0:
192,192,458371,128,0,458585:0:0:0:0:
448,192,458478,128,0,458800:0:0:0:0:
320,192,458585,128,0,458907:0:0:0:0:
192,192,458693,128,0,459014:0:0:0:0:
64,192,458800,128,0,459121:0:0:0:0:
448,192,458907,128,0,459228:0:0:0:0:
320,192,459014,128,0,459443:0:0:0:0:
192,192,459121,128,0,459657:0:0:0:0:
64,192,459228,128,0,459871:0:0:0:0:
448,192,459335,1,0,0:0:0:0:
320,192,459550,1,0,0:0:0:0:
192,192,459764,1,0,0:0:0:0:
448,192,460193,1,0,0:0:0:0:
64,192,460407,128,0,460835:0:0:0:0:
192,192,460514,128,0,460835:0:0:0:0:
320,192,460621,128,0,460835:0:0:0:0:
448,192,460621,1,0,0:0:0:0:
448,192,460835,128,0,461050:0:0:0:0:
64,192,461050,128,0,461478:0:0:0:0:
192,192,461050,1,0,0:0:0:0:
448,192,461264,128,0,461478:0:0:0:0:
320,192,461371,128,0,461478:0:0:0:0:
192,192,461478,1,0,0:0:0:0:
448,192,461693,128,0,461907:0:0:0:0:
320,192,461907,128,0,462335:0:0:0:0:
64,192,461907,1,0,0:0:0:0:
192,192,462121,128,0,462978:0:0:0:0:
448,192,462335,128,0,462978:0:0:0:0:
64,192,462335,1,0,0:0:0:0:
320,192,462550,128,0,462978:0:0:0:0:
64,192,462764,1,0,0:0:0:0:
64,192,462978,128,0,463407:0:0:0:0:
192,192,463193,1,0,0:0:0:0:
320,192,463407,128,0,463621:0:0:0:0:
448,192,463621,1,0,0:0:0:0:
64,192,463835,128,0,464050:0:0:0:0:
192,192,463943,128,0,464050:0:0:0:0:
320,192,464050,1,0,0:0:0:0:
448,192,464050,1,0,0:0:0:0:
448,192,464264,128,0,464478:0:0:0:0:
64,192,464478,128,0,464693:0:0:0:0:
192,192,464478,1,0,0:0:0:0:
448,192,464693,1,0,0:0:0:0:
320,192,464746,1,0,0:0:0:0:
192,192,464800,1,0,0:0:0:0:
64,192,464907,128,0,465121:0:0:0:0:
448,192,464907,1,0,0:0:0:0:
192,192,465121,128,0,465335:0:0:0:0:
448,192,465335,128,0,465550:0:0:0:0:
320,192,465335,1,0,0:0:0:0:
320,192,465550,128,0,465764:0:0:0:0:
448,192,465764,128,0,465978:0:0:0:0:
64,192,465764,1,0,0:0:0:0:
64,192,465978,128,0,466407:0:0:0:0:
320,192,466193,1,0,0:0:0:0:
448,192,466407,128,0,466835:0:0:0:0:
192,192,466621,1,0,0:0:0:0:
192,192,466835,128,0,466943:0:0:0:0:
320,192,466943,128,0,467050:0:0:0:0:
448,192,467050,128,0,467371:0:0:0:0:
64,192,467050,1,0,0:0:0:0:
320,192,467157,128,0,467585:0:0:0:0:
192,192,467264,128,0,467693:0:0:0:0:
64,192,467371,128,0,467800:0:0:0:0:
448,192,467478,128,0,467800:0:0:0:0:
320,192,467693,128,0,468121:0:0:0:0:
192,192,467800,128,0,468228:0:0:0:0:
64,192,467907,128,0,468550:0:0:0:0:
448,192,467907,1,0,0:0:0:0:
192,192,468335,1,0,0:0:0:0:
192,192,468550,128,0,468657:0:0:0:0:
320,192,468657,128,0,468764:0:0:0:0:
448,192,468764,128,0,469085:0:0:0:0:
64,192,468764,1,0,0:0:0:0:
320,192,468871,128,0,469300:0:0:0:0:
192,192,468978,128,0,469407:0:0:0:0:
64,192,469085,128,0,469514:0:0:0:0:
448,192,469193,128,0,469514:0:0:0:0:
320,192,469407,128,0,469835:0:0:0:0:
192,192,469514,128,0,469943:0:0:0:0:
64,192,469621,128,0,470264:0:0:0:0:
448,192,469621,1,0,0:0:0:0:
192,192,470050,1,0,0:0:0:0:
192,192,470264,128,0,470371:0:0:0:0:
64,192,470371,128,0,470478:0:0:0:0:
448,192,470478,128,0,471764:0:0:0:0:
192,192,470478,1,0,0:0:0:0:
320,192,470478,128,0,470585:0:0:0:0:
192,192,470585,128,0,470693:0:0:0:0:
64,192,470693,128,0,470800:0:0:0:0:
192,192,470800,128,0,470907:0:0:0:0:
320,192,470907,1,0,0:0:0:0:
64,192,470907,128,0,471014:0:0:0:0:
192,192,471014,128,0,471121:0:0:0:0:
320,192,471121,128,0,471228:0:0:0:0:
64,192,471228,128,0,471335:0:0:0:0:
192,192,471335,1,0,0:0:0:0:
320,192,471335,128,0,471443:0:0:0:0:
192,192,471443,128,0,471550:0:0:0:0:
64,192,471550,128,0,471657:0:0:0:0:
192,192,471657,128,0,471764:0:0:0:0:
320,192,471764,1,0,0:0:0:0:
64,192,471764,128,0,471871:0:0:0:0:
448,192,471871,128,0,471978:0:0:0:0:
320,192,471978,128,0,472085:0:0:0:0:
192,192,472085,128,0,472193:0:0:0:0:
64,192,472193,128,0,472835:0:0:0:0:
448,192,472193,1,0,0:0:0:0:
320,192,472193,128,0,472621:0:0:0:0:
448,192,472621,1,0,0:0:0:0:
192,192,472835,128,0,472943:0:0:0:0:
320,192,472835,1,0,0:0:0:0:
320,192,472943,128,0,473050:0:0:0:0:
448,192,472943,1,0,0:0:0:0:
448,192,473050,128,0,473478:0:0:0:0:
64,192,473050,1,0,0:0:0:0:
192,192,473050,1,0,0:0:0:0:
64,192,473264,1,0,0:0:0:0:
64,192,473478,1,0,0:0:0:0:
64,192,473693,128,0,474228:0:0:0:0:
320,192,473693,1,0,0:0:0:0:
192,192,473800,128,0,474121:0:0:0:0:
320,192,473907,128,0,474014:0:0:0:0:
448,192,473907,1,0,0:0:0:0:
320,192,474121,128,0,474443:0:0:0:0:
192,192,474228,128,0,474550:0:0:0:0:
64,192,474335,128,0,474657:0:0:0:0:
448,192,474335,1,0,0:0:0:0:
320,192,474550,128,0,474978:0:0:0:0:
192,192,474657,128,0,474978:0:0:0:0:
64,192,474764,128,0,474871:0:0:0:0:
448,192,474764,1,0,0:0:0:0:
64,192,474978,128,0,475514:0:0:0:0:
192,192,475193,128,0,475621:0:0:0:0:
320,192,475193,128,0,475300:0:0:0:0:
448,192,475193,1,0,0:0:0:0:
320,192,475407,128,0,475621:0:0:0:0:
448,192,475407,128,0,475514:0:0:0:0:
448,192,475621,128,0,475835:0:0:0:0:
64,192,475621,128,0,475943:0:0:0:0:
192,192,475728,128,0,476050:0:0:0:0:
320,192,475835,128,0,476157:0:0:0:0:
448,192,475943,128,0,476264:0:0:0:0:
64,192,476050,128,0,476371:0:0:0:0:
192,192,476157,128,0,476371:0:0:0:0:
320,192,476264,128,0,476478:0:0:0:0:
448,192,476371,128,0,476478:0:0:0:0:
64,192,476478,128,0,476585:0:0:0:0:
192,192,476478,128,0,476585:0:0:0:0:
64,192,476693,128,0,476800:0:0:0:0:
192,192,476693,128,0,476800:0:0:0:0:
64,192,476907,128,0,477228:0:0:0:0:
192,192,476907,128,0,477121:0:0:0:0:
320,192,476907,128,0,477014:0:0:0:0:
448,192,476907,128,0,477335:0:0:0:0:
320,192,477121,128,0,477443:0:0:0:0:
192,192,477228,128,0,477550:0:0:0:0:
64,192,477335,128,0,477657:0:0:0:0:
320,192,477550,128,0,477871:0:0:0:0:
448,192,477550,128,0,477764:0:0:0:0:
192,192,477657,128,0,477978:0:0:0:0:
64,192,477764,128,0,478085:0:0:0:0:
448,192,477871,128,0,478085:0:0:0:0:
320,192,477978,128,0,478085:0:0:0:0:
192,192,478085,128,0,478193:0:0:0:0:
448,192,478193,128,0,478300:0:0:0:0:
320,192,478193,128,0,478300:0:0:0:0:
64,192,478193,1,0,0:0:0:0:
64,192,478407,128,0,478514:0:0:0:0:
448,192,478407,128,0,478514:0:0:0:0:
320,192,478621,128,0,478835:0:0:0:0:
64,192,478621,1,0,0:0:0:0:
192,192,478835,128,0,478943:0:0:0:0:
448,192,478835,128,0,479050:0:0:0:0:
192,192,479050,128,0,479264:0:0:0:0:
320,192,479050,128,0,479478:0:0:0:0:
64,192,479050,1,0,0:0:0:0:
64,192,479478,128,0,479693:0:0:0:0:
448,192,479478,128,0,479907:0:0:0:0:
192,192,479478,1,0,0:0:0:0:
64,192,479907,128,0,480014:0:0:0:0:
192,192,479907,128,0,480014:0:0:0:0:
320,192,479907,1,0,0:0:0:0:
64,192,480121,128,0,480228:0:0:0:0:
192,192,480121,128,0,480228:0:0:0:0:
448,192,480335,128,0,480443:0:0:0:0:
192,192,480335,128,0,480443:0:0:0:0:
320,192,480335,1,0,0:0:0:0:
320,192,480550,128,0,480657:0:0:0:0:
64,192,480550,128,0,480657:0:0:0:0:
448,192,480657,128,0,480764:0:0:0:0:
192,192,480657,128,0,480764:0:0:0:0:
320,192,480764,128,0,481193:0:0:0:0:
64,192,480764,1,0,0:0:0:0:
448,192,480871,128,0,480978:0:0:0:0:
192,192,480978,128,0,481085:0:0:0:0:
64,192,481085,128,0,481193:0:0:0:0:
192,192,481193,128,0,481300:0:0:0:0:
448,192,481193,1,0,0:0:0:0:
320,192,481407,128,0,481514:0:0:0:0:
448,192,481514,128,0,481621:0:0:0:0:
64,192,481514,128,0,481621:0:0:0:0:
192,192,481621,128,0,481728:0:0:0:0:
320,192,481621,1,0,0:0:0:0:
448,192,481728,128,0,481835:0:0:0:0:
64,192,481835,128,0,481943:0:0:0:0:
320,192,481835,128,0,481943:0:0:0:0:
192,192,481943,128,0,482050:0:0:0:0:
448,192,482050,128,0,482157:0:0:0:0:
64,192,482050,128,0,482264:0:0:0:0:
320,192,482050,1,0,0:0:0:0:
192,192,482157,128,0,482264:0:0:0:0:
320,192,482264,128,0,482371:0:0:0:0:
448,192,482264,128,0,482371:0:0:0:0:
64,192,482478,128,0,482585:0:0:0:0:
320,192,482478,128,0,482907:0:0:0:0:
192,192,482478,128,0,482693:0:0:0:0:
448,192,482478,1,0,0:0:0:0:
192,192,482907,128,0,483335:0:0:0:0:
64,192,482907,128,0,483121:0:0:0:0:
448,192,482907,128,0,483014:0:0:0:0:
448,192,483335,128,0,483550:0:0:0:0:
320,192,483335,128,0,483443:0:0:0:0:
64,192,483335,1,0,0:0:0:0:
64,192,483550,1,0,0:0:0:0:
192,192,483603,1,0,0:0:0:0:
320,192,483657,1,0,0:0:0:0:
448,192,483710,1,0,0:0:0:0:
320,192,483764,1,0,0:0:0:0:
64,192,483978,128,0,484085:0:0:0:0:
192,192,484085,128,0,484193:0:0:0:0:
448,192,484193,128,0,484621:0:0:0:0:
320,192,484193,1,0,0:0:0:0:
320,192,484407,128,0,485050:0:0:0:0:
192,192,484621,128,0,485050:0:0:0:0:
64,192,484621,1,0,0:0:0:0:
448,192,484835,128,0,485050:0:0:0:0:
64,192,485050,128,0,485371:0:0:0:0:
192,192,485157,128,0,485478:0:0:0:0:
320,192,485264,128,0,485585:0:0:0:0:
448,192,485371,128,0,485693:0:0:0:0:
64,192,485478,128,0,485693:0:0:0:0:
192,192,485585,128,0,485800:0:0:0:0:
320,192,485693,128,0,485907:0:0:0:0:
64,192,485800,128,0,486014:0:0:0:0:
448,192,485800,128,0,486014:0:0:0:0:
192,192,485907,128,0,486014:0:0:0:0:
320,192,486014,128,0,486121:0:0:0:0:
192,192,486121,128,0,486228:0:0:0:0:
448,192,486121,128,0,486228:0:0:0:0:
64,192,486228,128,0,486335:0:0:0:0:
192,192,486335,128,0,486443:0:0:0:0:
448,192,486335,128,0,486443:0:0:0:0:
64,192,486443,128,0,486550:0:0:0:0:
320,192,486443,128,0,486550:0:0:0:0:
192,192,486550,128,0,486764:0:0:0:0:
448,192,486550,128,0,486657:0:0:0:0:
64,192,486657,128,0,486871:0:0:0:0:
320,192,486657,128,0,486764:0:0:0:0:
448,192,486764,128,0,486871:0:0:0:0:
320,192,486871,128,0,486978:0:0:0:0:
192,192,486978,128,0,487085:0:0:0:0:
64,192,487085,128,0,487193:0:0:0:0:
448,192,487193,128,0,487300:0:0:0:0:
320,192,487300,128,0,487407:0:0:0:0:
192,192,487407,128,0,487514:0:0:0:0:
64,192,487514,128,0,487621:0:0:0:0:
448,192,487621,1,0,0:0:0:0:
320,192,487621,1,0,0:0:0:0:
192,192,487621,1,0,0:0:0:0:
448,192,488050,1,0,0:0:0:0:
320,192,488050,1,0,0:0:0:0:
64,192,488264,1,0,0:0:0:0:
192,192,488371,1,0,0:0:0:0:
448,192,488478,1,0,0:0:0:0:
320,192,488478,1,0,0:0:0:0:
320,192,488693,1,0,0:0:0:0:
192,192,488907,1,0,0:0:0:0:
64,192,488907,1,0,0:0:0:0:
448,192,488907,1,0,0:0:0:0:
448,192,489121,1,0,0:0:0:0:
64,192,489121,1,0,0:0:0:0:
192,192,489228,1,0,0:0:0:0:
320,192,489335,1,0,0:0:0:0:
448,192,489335,1,0,0:0:0:0:
64,192,489335,1,0,0:0:0:0:
192,192,489550,1,0,0:0:0:0:
64,192,489657,1,0,0:0:0:0:
192,192,489764,1,0,0:0:0:0:
448,192,489764,1,0,0:0:0:0:
320,192,489764,1,0,0:0:0:0:
320,192,489978,1,0,0:0:0:0:
192,192,490193,1,0,0:0:0:0:
64,192,490193,1,0,0:0:0:0:
64,192,490621,1,0,0:0:0:0:
448,192,490621,1,0,0:0:0:0:
448,192,491050,1,0,0:0:0:0:
192,192,491050,1,0,0:0:0:0:
320,192,491050,1,0,0:0:0:0:
320,192,491478,1,0,0:0:0:0:
192,192,491478,1,0,0:0:0:0:
64,192,491693,1,0,0:0:0:0:
192,192,491800,1,0,0:0:0:0:
320,192,491907,1,0,0:0:0:0:
448,192,491907,1,0,0:0:0:0:
448,192,492121,1,0,0:0:0:0:
320,192,492335,1,0,0:0:0:0:
64,192,492335,1,0,0:0:0:0:
448,192,492550,1,0,0:0:0:0:
192,192,492550,1,0,0:0:0:0:
320,192,492764,1,0,0:0:0:0:
64,192,492764,1,0,0:0:0:0:
448,192,492764,1,0,0:0:0:0:
320,192,492978,1,0,0:0:0:0:
64,192,493085,1,0,0:0:0:0:
448,192,493085,1,0,0:0:0:0:
448,192,493193,1,0,0:0:0:0:
192,192,493193,1,0,0:0:0:0:
320,192,493193,1,0,0:0:0:0:
448,192,493407,1,0,0:0:0:0:
192,192,493514,1,0,0:0:0:0:
320,192,493621,1,0,0:0:0:0:
64,192,493621,1,0,0:0:0:0:
192,192,493621,1,0,0:0:0:0:
320,192,493943,1,0,0:0:0:0:
192,192,494050,1,0,0:0:0:0:
448,192,494050,1,0,0:0:0:0:
320,192,494050,1,0,0:0:0:0:
448,192,494371,1,0,0:0:0:0:
448,192,494478,1,0,0:0:0:0:
64,192,494478,1,0,0:0:0:0:
320,192,494478,1,0,0:0:0:0:
192,192,494478,1,0,0:0:0:0:
192,192,494621,1,0,0:0:0:0:
320,192,494764,1,0,0:0:0:0:
64,192,494907,1,0,0:0:0:0:
448,192,494907,1,0,0:0:0:0:
192,192,495050,1,0,0:0:0:0:
320,192,495121,1,0,0:0:0:0:
448,192,495193,1,0,0:0:0:0:
192,192,495228,1,0,0:0:0:0:
64,192,495335,1,0,0:0:0:0:
448,192,495335,1,0,0:0:0:0:
320,192,495335,1,0,0:0:0:0:
320,192,495478,1,0,0:0:0:0:
192,192,495621,1,0,0:0:0:0:
448,192,495764,1,0,0:0:0:0:
64,192,495764,1,0,0:0:0:0:
320,192,495907,1,0,0:0:0:0:
448,192,495978,1,0,0:0:0:0:
64,192,496050,1,0,0:0:0:0:
320,192,496085,1,0,0:0:0:0:
192,192,496193,1,0,0:0:0:0:
448,192,496193,1,0,0:0:0:0:
64,192,496193,1,0,0:0:0:0:
320,192,496335,1,0,0:0:0:0:
192,192,496478,1,0,0:0:0:0:
64,192,496621,1,0,0:0:0:0:
448,192,496621,1,0,0:0:0:0:
192,192,496764,1,0,0:0:0:0:
64,192,496835,1,0,0:0:0:0:
320,192,496907,1,0,0:0:0:0:
192,192,496943,1,0,0:0:0:0:
448,192,497050,1,0,0:0:0:0:
320,192,497050,1,0,0:0:0:0:
64,192,497050,1,0,0:0:0:0:
64,192,497193,1,0,0:0:0:0:
192,192,497335,1,0,0:0:0:0:
320,192,497478,1,0,0:0:0:0:
64,192,497478,1,0,0:0:0:0:
448,192,497478,1,0,0:0:0:0:
192,192,497621,1,0,0:0:0:0:
64,192,497693,1,0,0:0:0:0:
320,192,497764,1,0,0:0:0:0:
192,192,497907,1,0,0:0:0:0:
448,192,497907,1,0,0:0:0:0:
64,192,497907,1,0,0:0:0:0:
320,192,498050,1,0,0:0:0:0:
448,192,498121,1,0,0:0:0:0:
64,192,498193,1,0,0:0:0:0:
192,192,498228,1,0,0:0:0:0:
320,192,498335,1,0,0:0:0:0:
448,192,498335,1,0,0:0:0:0:
64,192,498335,1,0,0:0:0:0:
192,192,498478,1,0,0:0:0:0:
64,192,498621,1,0,0:0:0:0:
448,192,498764,1,0,0:0:0:0:
192,192,498764,1,0,0:0:0:0:
320,192,498907,1,0,0:0:0:0:
192,192,499050,1,0,0:0:0:0:
320,192,499193,1,0,0:0:0:0:
64,192,499193,1,0,0:0:0:0:
448,192,499193,1,0,0:0:0:0:
192,192,499335,1,0,0:0:0:0:
64,192,499478,1,0,0:0:0:0:
448,192,499621,1,0,0:0:0:0:
320,192,499621,1,0,0:0:0:0:
192,192,499621,1,0,0:0:0:0:
192,192,499764,1,0,0:0:0:0:
64,192,499907,1,0,0:0:0:0:
320,192,499943,1,0,0:0:0:0:
192,192,500050,1,0,0:0:0:0:
448,192,500050,1,0,0:0:0:0:
64,192,500050,1,0,0:0:0:0:
320,192,500193,1,0,0:0:0:0:
192,192,500335,1,0,0:0:0:0:
320,192,500478,1,0,0:0:0:0:
448,192,500478,1,0,0:0:0:0:
192,192,500621,1,0,0:0:0:0:
320,192,500693,1,0,0:0:0:0:
64,192,500764,1,0,0:0:0:0:
448,192,500907,1,0,0:0:0:0:
320,192,500907,1,0,0:0:0:0:
64,192,500907,1,0,0:0:0:0:
192,192,501050,1,0,0:0:0:0:
64,192,501121,1,0,0:0:0:0:
320,192,501121,1,0,0:0:0:0:
448,192,501193,1,0,0:0:0:0:
64,192,501335,1,0,0:0:0:0:
320,192,501335,1,0,0:0:0:0:
448,192,501335,1,0,0:0:0:0:
192,192,501478,1,0,0:0:0:0:
64,192,501550,1,0,0:0:0:0:
448,192,501621,1,0,0:0:0:0:
192,192,501657,1,0,0:0:0:0:
320,192,501764,1,0,0:0:0:0:
64,192,501764,1,0,0:0:0:0:
448,192,501764,1,0,0:0:0:0:
448,192,501907,1,0,0:0:0:0:
64,192,501978,1,0,0:0:0:0:
192,192,502050,1,0,0:0:0:0:
320,192,502085,1,0,0:0:0:0:
448,192,502193,1,0,0:0:0:0:
64,192,502193,1,0,0:0:0:0:
320,192,502193,1,0,0:0:0:0:
192,192,502335,1,0,0:0:0:0:
448,192,502478,1,0,0:0:0:0:
320,192,502514,1,0,0:0:0:0:
448,192,502621,1,0,0:0:0:0:
64,192,502621,1,0,0:0:0:0:
192,192,502621,1,0,0:0:0:0:
192,192,502764,1,0,0:0:0:0:
64,192,502907,1,0,0:0:0:0:
448,192,502943,1,0,0:0:0:0:
320,192,503050,1,0,0:0:0:0:
192,192,503050,1,0,0:0:0:0:
448,192,503050,1,0,0:0:0:0:
64,192,503193,1,0,0:0:0:0:
448,192,503335,1,0,0:0:0:0:
192,192,503371,1,0,0:0:0:0:
320,192,503371,1,0,0:0:0:0:
64,192,503478,1,0,0:0:0:0:
320,192,503478,1,0,0:0:0:0:
448,192,503478,1,0,0:0:0:0:
192,192,503621,1,0,0:0:0:0:
320,192,503693,1,0,0:0:0:0:
448,192,503764,1,0,0:0:0:0:
64,192,503907,1,0,0:0:0:0:
320,192,503907,1,0,0:0:0:0:
192,192,504050,1,0,0:0:0:0:
448,192,504121,1,0,0:0:0:0:
320,192,504193,1,0,0:0:0:0:
64,192,504335,1,0,0:0:0:0:
448,192,504335,1,0,0:0:0:0:
192,192,504478,1,0,0:0:0:0:
448,192,504550,1,0,0:0:0:0:
320,192,504621,1,0,0:0:0:0:
448,192,504764,1,0,0:0:0:0:
64,192,504764,1,0,0:0:0:0:
192,192,504764,1,0,0:0:0:0:
320,192,504907,1,0,0:0:0:0:
448,192,505050,1,0,0:0:0:0:
192,192,505050,1,0,0:0:0:0:
320,192,505193,1,0,0:0:0:0:
64,192,505193,1,0,0:0:0:0:
192,192,505335,1,0,0:0:0:0:
64,192,505478,1,0,0:0:0:0:
448,192,505621,1,0,0:0:0:0:
320,192,505621,1,0,0:0:0:0:
192,192,505621,1,0,0:0:0:0:
64,192,505764,1,0,0:0:0:0:
448,192,505907,1,0,0:0:0:0:
192,192,505907,1,0,0:0:0:0:
320,192,506050,1,0,0:0:0:0:
64,192,506050,1,0,0:0:0:0:
192,192,506193,1,0,0:0:0:0:
320,192,506335,1,0,0:0:0:0:
448,192,506335,1,0,0:0:0:0:
448,192,506478,1,0,0:0:0:0:
64,192,506478,1,0,0:0:0:0:
320,192,506478,1,0,0:0:0:0:
192,192,506621,1,0,0:0:0:0:
320,192,506764,1,0,0:0:0:0:
64,192,506764,1,0,0:0:0:0:
448,192,506907,1,0,0:0:0:0:
192,192,506907,1,0,0:0:0:0:
320,192,507050,1,0,0:0:0:0:
448,192,507193,1,0,0:0:0:0:
192,192,507193,1,0,0:0:0:0:
448,192,507335,1,0,0:0:0:0:
64,192,507335,1,0,0:0:0:0:
320,192,507335,1,0,0:0:0:0:
192,192,507478,1,0,0:0:0:0:
320,192,507621,1,0,0:0:0:0:
64,192,507621,1,0,0:0:0:0:
448,192,507764,1,0,0:0:0:0:
192,192,507764,1,0,0:0:0:0:
320,192,507907,1,0,0:0:0:0:
64,192,508050,1,0,0:0:0:0:
192,192,508050,1,0,0:0:0:0:
448,192,508193,1,0,0:0:0:0:
64,192,508193,1,0,0:0:0:0:
192,192,508193,1,0,0:0:0:0:
320,192,508335,1,0,0:0:0:0:
448,192,508478,1,0,0:0:0:0:
64,192,508478,1,0,0:0:0:0:
448,192,508621,1,0,0:0:0:0:
192,192,508621,1,0,0:0:0:0:
320,192,508764,1,0,0:0:0:0:
448,192,508907,1,0,0:0:0:0:
64,192,508907,1,0,0:0:0:0:
448,192,509050,1,0,0:0:0:0:
192,192,509050,1,0,0:0:0:0:
320,192,509050,1,0,0:0:0:0:
64,192,509193,1,0,0:0:0:0:
192,192,509193,1,0,0:0:0:0:
64,192,509335,1,0,0:0:0:0:
448,192,509335,1,0,0:0:0:0:
320,192,509335,1,0,0:0:0:0:
192,192,509478,1,0,0:0:0:0:
320,192,509621,1,0,0:0:0:0:
64,192,509764,1,0,0:0:0:0:
448,192,509764,1,0,0:0:0:0:
448,192,509907,1,0,0:0:0:0:
64,192,509907,1,0,0:0:0:0:
320,192,509907,1,0,0:0:0:0:
320,192,510050,1,0,0:0:0:0:
192,192,510050,1,0,0:0:0:0:
448,192,510193,1,0,0:0:0:0:
64,192,510193,1,0,0:0:0:0:
320,192,510335,1,0,0:0:0:0:
192,192,510335,1,0,0:0:0:0:
64,192,510478,1,0,0:0:0:0:
448,192,510621,1,0,0:0:0:0:
192,192,510621,1,0,0:0:0:0:
448,192,510764,1,0,0:0:0:0:
64,192,510764,1,0,0:0:0:0:
320,192,510764,1,0,0:0:0:0:
192,192,510907,1,0,0:0:0:0:
448,192,511050,1,0,0:0:0:0:
320,192,511050,1,0,0:0:0:0:
448,192,511193,1,0,0:0:0:0:
64,192,511193,1,0,0:0:0:0:
192,192,511335,1,0,0:0:0:0:
448,192,511478,1,0,0:0:0:0:
320,192,511478,1,0,0:0:0:0:
448,192,511621,1,0,0:0:0:0:
64,192,511621,1,0,0:0:0:0:
192,192,511621,1,0,0:0:0:0:
320,192,511764,1,0,0:0:0:0:
448,192,511907,1,0,0:0:0:0:
192,192,511907,1,0,0:0:0:0:
320,192,512050,1,0,0:0:0:0:
64,192,512050,1,0,0:0:0:0:
448,192,512193,1,0,0:0:0:0:
320,192,512335,1,0,0:0:0:0:
64,192,512335,1,0,0:0:0:0:
448,192,512478,1,0,0:0:0:0:
192,192,512478,1,0,0:0:0:0:
448,192,512764,1,0,0:0:0:0:
64,192,512764,1,0,0:0:0:0:
448,192,512907,1,0,0:0:0:0:
192,192,512907,1,0,0:0:0:0:
320,192,513050,1,0,0:0:0:0:
64,192,513193,1,0,0:0:0:0:
448,192,513193,1,0,0:0:0:0:
192,192,513193,1,0,0:0:0:0:
320,192,513335,1,0,0:0:0:0:
64,192,513335,1,0,0:0:0:0:
448,192,513621,1,0,0:0:0:0:
64,192,513621,1,0,0:0:0:0:
320,192,513764,1,0,0:0:0:0:
192,192,513764,1,0,0:0:0:0:
64,192,513907,1,0,0:0:0:0:
448,192,514050,1,0,0:0:0:0:
192,192,514050,1,0,0:0:0:0:
448,192,514193,1,0,0:0:0:0:
64,192,514193,1,0,0:0:0:0:
320,192,514193,1,0,0:0:0:0:
192,192,514335,1,0,0:0:0:0:
448,192,514478,1,0,0:0:0:0:
320,192,514478,1,0,0:0:0:0:
448,192,514621,1,0,0:0:0:0:
64,192,514621,1,0,0:0:0:0:
192,192,514764,1,0,0:0:0:0:
320,192,514907,1,0,0:0:0:0:
64,192,514907,1,0,0:0:0:0:
448,192,515050,1,0,0:0:0:0:
64,192,515050,1,0,0:0:0:0:
192,192,515050,1,0,0:0:0:0:
320,192,515193,1,0,0:0:0:0:
448,192,515335,1,0,0:0:0:0:
192,192,515335,1,0,0:0:0:0:
320,192,515478,1,0,0:0:0:0:
64,192,515478,1,0,0:0:0:0:
192,192,515621,1,0,0:0:0:0:
448,192,515764,1,0,0:0:0:0:
320,192,515764,1,0,0:0:0:0:
448,192,515907,1,0,0:0:0:0:
64,192,515907,1,0,0:0:0:0:
192,192,515907,1,0,0:0:0:0:
320,192,516050,1,0,0:0:0:0:
64,192,516193,1,0,0:0:0:0:
448,192,516193,1,0,0:0:0:0:
192,192,516193,1,0,0:0:0:0:
320,192,516335,1,0,0:0:0:0:
192,192,516478,1,0,0:0:0:0:
64,192,516621,1,0,0:0:0:0:
448,192,516621,1,0,0:0:0:0:
448,192,516764,1,0,0:0:0:0:
64,192,516764,1,0,0:0:0:0:
192,192,516764,1,0,0:0:0:0:
320,192,516907,1,0,0:0:0:0:
64,192,517050,1,0,0:0:0:0:
192,192,517050,1,0,0:0:0:0:
320,192,517193,1,0,0:0:0:0:
192,192,517335,1,0,0:0:0:0:
320,192,517478,1,0,0:0:0:0:
448,192,517621,1,0,0:0:0:0:
64,192,517621,1,0,0:0:0:0:
192,192,517764,1,0,0:0:0:0:
448,192,517907,1,0,0:0:0:0:
320,192,517907,1,0,0:0:0:0:
64,192,518050,1,0,0:0:0:0:
192,192,518050,1,0,0:0:0:0:
320,192,518193,1,0,0:0:0:0:
64,192,518335,1,0,0:0:0:0:
192,192,518335,1,0,0:0:0:0:
448,192,518478,1,0,0:0:0:0:
320,192,518478,1,0,0:0:0:0:
192,192,518478,1,0,0:0:0:0:
64,192,518764,1,0,0:0:0:0:
448,192,518764,1,0,0:0:0:0:
192,192,518764,1,0,0:0:0:0:
320,192,518907,1,0,0:0:0:0:
64,192,519050,1,0,0:0:0:0:
192,192,519193,1,0,0:0:0:0:
448,192,519193,1,0,0:0:0:0:
448,192,519335,1,0,0:0:0:0:
64,192,519335,1,0,0:0:0:0:
320,192,519335,1,0,0:0:0:0:
320,192,519621,1,0,0:0:0:0:
64,192,519621,1,0,0:0:0:0:
192,192,519764,1,0,0:0:0:0:
320,192,519907,1,0,0:0:0:0:
192,192,520050,1,0,0:0:0:0:
448,192,520193,1,0,0:0:0:0:
64,192,520193,1,0,0:0:0:0:
320,192,520193,1,0,0:0:0:0:
64,192,520478,1,0,0:0:0:0:
448,192,520478,1,0,0:0:0:0:
192,192,520478,1,0,0:0:0:0:
320,192,520621,1,0,0:0:0:0:
192,192,520764,1,0,0:0:0:0:
64,192,520907,1,0,0:0:0:0:
448,192,520907,1,0,0:0:0:0:
448,192,521050,1,0,0:0:0:0:
320,192,521050,1,0,0:0:0:0:
192,192,521050,1,0,0:0:0:0:
320,192,521335,1,0,0:0:0:0:
64,192,521335,1,0,0:0:0:0:
192,192,521478,1,0,0:0:0:0:
320,192,521621,1,0,0:0:0:0:
448,192,521764,1,0,0:0:0:0:
320,192,521907,1,0,0:0:0:0:
64,192,521907,1,0,0:0:0:0:
192,192,521907,1,0,0:0:0:0:
320,192,522193,1,0,0:0:0:0:
448,192,522193,1,0,0:0:0:0:
64,192,522193,1,0,0:0:0:0:
192,192,522335,1,0,0:0:0:0:
320,192,522478,1,0,0:0:0:0:
192,192,522621,1,0,0:0:0:0:
448,192,522621,1,0,0:0:0:0:
448,192,522764,1,0,0:0:0:0:
64,192,522764,1,0,0:0:0:0:
320,192,522764,1,0,0:0:0:0:
320,192,523050,1,0,0:0:0:0:
448,192,523050,1,0,0:0:0:0:
192,192,523193,1,0,0:0:0:0:
64,192,523335,1,0,0:0:0:0:
192,192,523478,1,0,0:0:0:0:
448,192,523621,1,0,0:0:0:0:
64,192,523621,1,0,0:0:0:0:
320,192,523621,1,0,0:0:0:0:
64,192,523907,1,0,0:0:0:0:
448,192,523907,1,0,0:0:0:0:
192,192,523907,1,0,0:0:0:0:
320,192,524050,1,0,0:0:0:0:
192,192,524193,1,0,0:0:0:0:
64,192,524335,1,0,0:0:0:0:
320,192,524335,1,0,0:0:0:0:
448,192,524478,1,0,0:0:0:0:
192,192,524478,1,0,0:0:0:0:
320,192,524478,1,0,0:0:0:0:
448,192,524764,1,0,0:0:0:0:
320,192,524764,1,0,0:0:0:0:
192,192,524907,1,0,0:0:0:0:
320,192,525050,1,0,0:0:0:0:
448,192,525193,1,0,0:0:0:0:
64,192,525335,1,0,0:0:0:0:
320,192,525335,1,0,0:0:0:0:
192,192,525335,1,0,0:0:0:0:
64,192,525621,1,0,0:0:0:0:
448,192,525621,1,0,0:0:0:0:
192,192,525621,1,0,0:0:0:0:
320,192,525764,1,0,0:0:0:0:
192,192,525907,1,0,0:0:0:0:
64,192,526050,1,0,0:0:0:0:
448,192,526050,1,0,0:0:0:0:
320,192,526193,1,0,0:0:0:0:
64,192,526193,1,0,0:0:0:0:
192,192,526193,1,0,0:0:0:0:
448,192,526478,1,0,0:0:0:0:
320,192,526478,1,0,0:0:0:0:
192,192,526621,1,0,0:0:0:0:
64,192,526764,1,0,0:0:0:0:
192,192,526907,1,0,0:0:0:0:
448,192,527050,1,0,0:0:0:0:
64,192,527050,1,0,0:0:0:0:
320,192,527050,1,0,0:0:0:0:
64,192,527335,1,0,0:0:0:0:
448,192,527335,1,0,0:0:0:0:
320,192,527335,1,0,0:0:0:0:
192,192,527478,1,0,0:0:0:0:
64,192,527621,1,0,0:0:0:0:
320,192,527764,1,0,0:0:0:0:
192,192,527764,1,0,0:0:0:0:
448,192,527907,1,0,0:0:0:0:
64,192,527907,1,0,0:0:0:0:
320,192,527907,1,0,0:0:0:0:
448,192,528193,1,0,0:0:0:0:
192,192,528193,1,0,0:0:0:0:
320,192,528335,1,0,0:0:0:0:
448,192,528478,1,0,0:0:0:0:
320,192,528621,1,0,0:0:0:0:
448,192,528764,1,0,0:0:0:0:
192,192,528764,1,0,0:0:0:0:
64,192,528764,1,0,0:0:0:0:
320,192,528871,1,0,0:0:0:0:
192,192,528978,1,0,0:0:0:0:
64,192,529050,1,0,0:0:0:0:
448,192,529050,1,0,0:0:0:0:
320,192,529085,1,0,0:0:0:0:
64,192,529193,1,0,0:0:0:0:
192,192,529193,1,0,0:0:0:0:
320,192,529300,1,0,0:0:0:0:
448,192,529335,1,0,0:0:0:0:
192,192,529407,1,0,0:0:0:0:
64,192,529478,1,0,0:0:0:0:
448,192,529478,1,0,0:0:0:0:
320,192,529514,1,0,0:0:0:0:
448,192,529621,1,0,0:0:0:0:
64,192,529621,1,0,0:0:0:0:
320,192,529621,1,0,0:0:0:0:
192,192,529728,1,0,0:0:0:0:
320,192,529835,1,0,0:0:0:0:
448,192,529907,1,0,0:0:0:0:
64,192,529907,1,0,0:0:0:0:
192,192,529943,1,0,0:0:0:0:
320,192,530050,1,0,0:0:0:0:
64,192,530050,1,0,0:0:0:0:
448,192,530157,1,0,0:0:0:0:
320,192,530193,1,0,0:0:0:0:
64,192,530264,1,0,0:0:0:0:
192,192,530335,1,0,0:0:0:0:
320,192,530371,1,0,0:0:0:0:
448,192,530478,1,0,0:0:0:0:
64,192,530478,1,0,0:0:0:0:
192,192,530478,1,0,0:0:0:0:
320,192,530585,1,0,0:0:0:0:
192,192,530693,1,0,0:0:0:0:
64,192,530764,1,0,0:0:0:0:
448,192,530764,1,0,0:0:0:0:
320,192,530800,1,0,0:0:0:0:
192,192,530907,1,0,0:0:0:0:
64,192,530907,1,0,0:0:0:0:
448,192,531014,1,0,0:0:0:0:
320,192,531050,1,0,0:0:0:0:
192,192,531121,1,0,0:0:0:0:
64,192,531193,1,0,0:0:0:0:
448,192,531193,1,0,0:0:0:0:
320,192,531228,1,0,0:0:0:0:
448,192,531335,1,0,0:0:0:0:
64,192,531335,1,0,0:0:0:0:
192,192,531335,1,0,0:0:0:0:
320,192,531443,1,0,0:0:0:0:
192,192,531550,1,0,0:0:0:0:
64,192,531621,1,0,0:0:0:0:
448,192,531621,1,0,0:0:0:0:
320,192,531657,1,0,0:0:0:0:
448,192,531764,1,0,0:0:0:0:
192,192,531764,1,0,0:0:0:0:
320,192,531871,1,0,0:0:0:0:
192,192,531907,1,0,0:0:0:0:
448,192,531978,1,0,0:0:0:0:
64,192,532050,1,0,0:0:0:0:
192,192,532085,1,0,0:0:0:0:
448,192,532193,1,0,0:0:0:0:
64,192,532193,1,0,0:0:0:0:
320,192,532193,1,0,0:0:0:0:
448,192,532407,1,0,0:0:0:0:
64,192,532407,1,0,0:0:0:0:
320,192,532407,1,0,0:0:0:0:
192,192,532514,1,0,0:0:0:0:
448,192,532621,1,0,0:0:0:0:
64,192,532621,1,0,0:0:0:0:
320,192,532621,1,0,0:0:0:0:
192,192,532728,1,0,0:0:0:0:
448,192,532835,1,0,0:0:0:0:
64,192,532835,1,0,0:0:0:0:
320,192,532835,1,0,0:0:0:0:
448,192,533050,1,0,0:0:0:0:
192,192,533050,1,0,0:0:0:0:
448,192,533264,1,0,0:0:0:0:
64,192,533264,1,0,0:0:0:0:
192,192,533264,1,0,0:0:0:0:
320,192,533371,1,0,0:0:0:0:
448,192,533478,1,0,0:0:0:0:
192,192,533478,1,0,0:0:0:0:
320,192,533585,1,0,0:0:0:0:
448,192,533693,1,0,0:0:0:0:
192,192,533693,1,0,0:0:0:0:
64,192,533693,1,0,0:0:0:0:
448,192,533907,1,0,0:0:0:0:
64,192,533907,1,0,0:0:0:0:
320,192,533907,1,0,0:0:0:0:
448,192,534121,1,0,0:0:0:0:
192,192,534121,1,0,0:0:0:0:
64,192,534121,1,0,0:0:0:0:
320,192,534228,1,0,0:0:0:0:
448,192,534335,1,0,0:0:0:0:
192,192,534335,1,0,0:0:0:0:
320,192,534443,1,0,0:0:0:0:
64,192,534550,1,0,0:0:0:0:
192,192,534550,1,0,0:0:0:0:
448,192,534764,1,0,0:0:0:0:
64,192,534764,1,0,0:0:0:0:
320,192,534764,1,0,0:0:0:0:
192,192,534871,1,0,0:0:0:0:
448,192,534978,1,0,0:0:0:0:
320,192,534978,1,0,0:0:0:0:
192,192,535085,1,0,0:0:0:0:
448,192,535193,1,0,0:0:0:0:
64,192,535193,1,0,0:0:0:0:
320,192,535300,1,0,0:0:0:0:
64,192,535407,1,0,0:0:0:0:
192,192,535407,1,0,0:0:0:0:
448,192,535621,1,0,0:0:0:0:
64,192,535621,1,0,0:0:0:0:
320,192,535621,1,0,0:0:0:0:
448,192,535835,1,0,0:0:0:0:
192,192,535835,1,0,0:0:0:0:
64,192,535835,1,0,0:0:0:0:
320,192,535943,1,0,0:0:0:0:
448,192,536050,1,0,0:0:0:0:
192,192,536050,1,0,0:0:0:0:
64,192,536050,1,0,0:0:0:0:
320,192,536157,1,0,0:0:0:0:
448,192,536264,1,0,0:0:0:0:
192,192,536264,1,0,0:0:0:0:
64,192,536264,1,0,0:0:0:0:
192,192,536478,1,0,0:0:0:0:
64,192,536478,1,0,0:0:0:0:
320,192,536585,1,0,0:0:0:0:
448,192,536693,1,0,0:0:0:0:
192,192,536693,1,0,0:0:0:0:
64,192,536693,1,0,0:0:0:0:
320,192,536800,1,0,0:0:0:0:
192,192,536907,1,0,0:0:0:0:
64,192,536907,1,0,0:0:0:0:
320,192,537014,1,0,0:0:0:0:
448,192,537121,1,0,0:0:0:0:
192,192,537121,1,0,0:0:0:0:
64,192,537121,1,0,0:0:0:0:
320,192,537228,1,0,0:0:0:0:
448,192,537335,1,0,0:0:0:0:
192,192,537335,1,0,0:0:0:0:
64,192,537335,1,0,0:0:0:0:
448,192,537550,1,0,0:0:0:0:
320,192,537550,1,0,0:0:0:0:
64,192,537550,1,0,0:0:0:0:
192,192,537657,1,0,0:0:0:0:
448,192,537764,1,0,0:0:0:0:
320,192,537764,1,0,0:0:0:0:
192,192,537871,1,0,0:0:0:0:
448,192,537978,1,0,0:0:0:0:
64,192,537978,1,0,0:0:0:0:
320,192,538085,1,0,0:0:0:0:
448,192,538193,1,0,0:0:0:0:
64,192,538193,1,0,0:0:0:0:
192,192,538193,1,0,0:0:0:0:
320,192,538300,1,0,0:0:0:0:
64,192,538407,1,0,0:0:0:0:
192,192,538407,1,0,0:0:0:0:
320,192,538514,1,0,0:0:0:0:
448,192,538621,1,0,0:0:0:0:
192,192,538621,1,0,0:0:0:0:
64,192,538621,1,0,0:0:0:0:
320,192,538728,1,0,0:0:0:0:
448,192,538835,1,0,0:0:0:0:
64,192,538835,1,0,0:0:0:0:
192,192,538943,1,0,0:0:0:0:
448,192,539050,1,0,0:0:0:0:
64,192,539050,1,0,0:0:0:0:
320,192,539050,1,0,0:0:0:0:
448,192,539264,1,0,0:0:0:0:
64,192,539264,1,0,0:0:0:0:
192,192,539264,1,0,0:0:0:0:
320,192,539371,1,0,0:0:0:0:
448,192,539478,1,0,0:0:0:0:
192,192,539478,1,0,0:0:0:0:
64,192,539478,1,0,0:0:0:0:
320,192,539585,1,0,0:0:0:0:
448,192,539693,1,0,0:0:0:0:
192,192,539693,1,0,0:0:0:0:
64,192,539693,1,0,0:0:0:0:
448,192,539907,1,0,0:0:0:0:
192,192,539907,1,0,0:0:0:0:
320,192,540014,1,0,0:0:0:0:
448,192,540121,1,0,0:0:0:0:
64,192,540121,1,0,0:0:0:0:
192,192,540121,1,0,0:0:0:0:
320,192,540228,1,0,0:0:0:0:
64,192,540335,1,0,0:0:0:0:
448,192,540335,1,0,0:0:0:0:
192,192,540443,1,0,0:0:0:0:
448,192,540550,1,0,0:0:0:0:
64,192,540550,1,0,0:0:0:0:
320,192,540550,1,0,0:0:0:0:
192,192,540657,1,0,0:0:0:0:
448,192,540764,1,0,0:0:0:0:
320,192,540764,1,0,0:0:0:0:
64,192,540764,1,0,0:0:0:0:
192,192,540871,1,0,0:0:0:0:
448,192,540978,1,0,0:0:0:0:
64,192,540978,1,0,0:0:0:0:
320,192,540978,1,0,0:0:0:0:
192,192,541085,1,0,0:0:0:0:
448,192,541193,1,0,0:0:0:0:
320,192,541193,1,0,0:0:0:0:
64,192,541300,1,0,0:0:0:0:
448,192,541407,1,0,0:0:0:0:
192,192,541407,1,0,0:0:0:0:
320,192,541514,1,0,0:0:0:0:
448,192,541621,1,0,0:0:0:0:
192,192,541621,1,0,0:0:0:0:
64,192,541621,1,0,0:0:0:0:
320,192,541728,1,0,0:0:0:0:
448,192,541835,1,0,0:0:0:0:
64,192,541835,1,0,0:0:0:0:
192,192,541943,1,0,0:0:0:0:
448,192,542050,1,0,0:0:0:0:
64,192,542050,1,0,0:0:0:0:
320,192,542050,1,0,0:0:0:0:
192,192,542157,1,0,0:0:0:0:
448,192,542264,1,0,0:0:0:0:
320,192,542264,1,0,0:0:0:0:
192,192,542371,1,0,0:0:0:0:
448,192,542478,1,0,0:0:0:0:
64,192,542478,1,0,0:0:0:0:
320,192,542478,1,0,0:0:0:0:
448,192,542693,1,0,0:0:0:0:
64,192,542693,1,0,0:0:0:0:
320,192,542693,1,0,0:0:0:0:
192,192,542800,1,0,0:0:0:0:
448,192,542907,1,0,0:0:0:0:
64,192,542907,1,0,0:0:0:0:
320,192,542907,1,0,0:0:0:0:
192,192,543014,1,0,0:0:0:0:
448,192,543121,1,0,0:0:0:0:
64,192,543121,1,0,0:0:0:0:
320,192,543121,1,0,0:0:0:0:
192,192,543228,1,0,0:0:0:0:
448,192,543335,1,0,0:0:0:0:
64,192,543335,1,0,0:0:0:0:
320,192,543443,1,0,0:0:0:0:
448,192,543550,1,0,0:0:0:0:
192,192,543550,1,0,0:0:0:0:
64,192,543550,1,0,0:0:0:0:
320,192,543657,1,0,0:0:0:0:
64,192,543764,1,0,0:0:0:0:
192,192,543764,1,0,0:0:0:0:
320,192,543871,1,0,0:0:0:0:
448,192,543978,1,0,0:0:0:0:
192,192,543978,1,0,0:0:0:0:
64,192,543978,1,0,0:0:0:0:
320,192,544085,1,0,0:0:0:0:
64,192,544193,1,0,0:0:0:0:
192,192,544193,1,0,0:0:0:0:
448,192,544193,1,0,0:0:0:0:
448,192,544407,1,0,0:0:0:0:
320,192,544407,1,0,0:0:0:0:
192,192,544514,1,0,0:0:0:0:
320,192,544621,1,0,0:0:0:0:
64,192,544621,1,0,0:0:0:0:
448,192,544835,1,0,0:0:0:0:
192,192,544835,1,0,0:0:0:0:
448,192,545050,1,0,0:0:0:0:
192,192,545050,1,0,0:0:0:0:
64,192,545050,1,0,0:0:0:0:
320,192,545264,1,0,0:0:0:0:
64,192,545264,1,0,0:0:0:0:
192,192,545371,1,0,0:0:0:0:
448,192,545478,1,0,0:0:0:0:
64,192,545478,1,0,0:0:0:0:
320,192,545478,1,0,0:0:0:0:
192,192,545585,1,0,0:0:0:0:
320,192,545693,1,0,0:0:0:0:
448,192,545693,1,0,0:0:0:0:
192,192,545800,1,0,0:0:0:0:
448,192,545907,1,0,0:0:0:0:
320,192,545907,1,0,0:0:0:0:
64,192,545907,1,0,0:0:0:0:
192,192,546014,1,0,0:0:0:0:
448,192,546121,1,0,0:0:0:0:
64,192,546121,1,0,0:0:0:0:
192,192,546228,1,0,0:0:0:0:
448,192,546335,1,0,0:0:0:0:
64,192,546335,1,0,0:0:0:0:
320,192,546443,1,0,0:0:0:0:
448,192,546550,1,0,0:0:0:0:
192,192,546550,1,0,0:0:0:0:
64,192,546657,1,0,0:0:0:0:
448,192,546764,1,0,0:0:0:0:
192,192,546764,1,0,0:0:0:0:
320,192,546764,1,0,0:0:0:0:
64,192,546871,1,0,0:0:0:0:
448,192,546978,1,0,0:0:0:0:
192,192,546978,1,0,0:0:0:0:
320,192,547085,1,0,0:0:0:0:
192,192,547193,1,0,0:0:0:0:
64,192,547193,1,0,0:0:0:0:
320,192,547300,1,0,0:0:0:0:
448,192,547407,1,0,0:0:0:0:
192,192,547407,1,0,0:0:0:0:
320,192,547514,1,0,0:0:0:0:
448,192,547621,1,0,0:0:0:0:
192,192,547621,1,0,0:0:0:0:
64,192,547621,1,0,0:0:0:0:
320,192,547728,1,0,0:0:0:0:
448,192,547835,1,0,0:0:0:0:
192,192,547835,1,0,0:0:0:0:
64,192,547835,1,0,0:0:0:0:
320,192,547943,1,0,0:0:0:0:
64,192,548050,1,0,0:0:0:0:
192,192,548050,1,0,0:0:0:0:
448,192,548050,1,0,0:0:0:0:
320,192,548157,1,0,0:0:0:0:
192,192,548264,1,0,0:0:0:0:
64,192,548264,1,0,0:0:0:0:
448,192,548264,1,0,0:0:0:0:
320,192,548371,1,0,0:0:0:0:
448,192,548478,1,0,0:0:0:0:
192,192,548478,1,0,0:0:0:0:
64,192,548478,1,0,0:0:0:0:
320,192,548585,1,0,0:0:0:0:
448,192,548693,1,0,0:0:0:0:
192,192,548693,1,0,0:0:0:0:
64,192,548800,1,0,0:0:0:0:
192,192,548907,1,0,0:0:0:0:
448,192,548907,1,0,0:0:0:0:
320,192,549014,1,0,0:0:0:0:
448,192,549121,1,0,0:0:0:0:
64,192,549121,1,0,0:0:0:0:
192,192,549228,1,0,0:0:0:0:
448,192,549335,1,0,0:0:0:0:
320,192,549335,1,0,0:0:0:0:
64,192,549335,1,0,0:0:0:0:
192,192,549443,1,0,0:0:0:0:
320,192,549550,1,0,0:0:0:0:
64,192,549550,1,0,0:0:0:0:
192,192,549657,1,0,0:0:0:0:
448,192,549764,1,0,0:0:0:0:
320,192,549764,1,0,0:0:0:0:
192,192,549871,1,0,0:0:0:0:
448,192,549978,1,0,0:0:0:0:
64,192,549978,1,0,0:0:0:0:
192,192,550085,1,0,0:0:0:0:
448,192,550193,1,0,0:0:0:0:
64,192,550193,1,0,0:0:0:0:
320,192,550193,1,0,0:0:0:0:
192,192,550300,1,0,0:0:0:0:
448,192,550407,1,0,0:0:0:0:
320,192,550407,1,0,0:0:0:0:
192,192,550514,1,0,0:0:0:0:
448,192,550621,1,0,0:0:0:0:
64,192,550621,1,0,0:0:0:0:
320,192,550728,1,0,0:0:0:0:
64,192,550835,1,0,0:0:0:0:
448,192,550835,1,0,0:0:0:0:
192,192,550943,1,0,0:0:0:0:
320,192,551050,1,0,0:0:0:0:
448,192,551050,1,0,0:0:0:0:
64,192,551050,1,0,0:0:0:0:
192,192,551157,1,0,0:0:0:0:
448,192,551264,1,0,0:0:0:0:
64,192,551264,1,0,0:0:0:0:
320,192,551264,1,0,0:0:0:0:
192,192,551371,1,0,0:0:0:0:
448,192,551478,1,0,0:0:0:0:
64,192,551478,1,0,0:0:0:0:
320,192,551478,1,0,0:0:0:0:
192,192,551585,1,0,0:0:0:0:
448,192,551693,1,0,0:0:0:0:
64,192,551693,1,0,0:0:0:0:
320,192,551693,1,0,0:0:0:0:
192,192,551800,1,0,0:0:0:0:
448,192,551907,1,0,0:0:0:0:
64,192,551907,1,0,0:0:0:0:
320,192,551907,1,0,0:0:0:0:
192,192,552014,1,0,0:0:0:0:
448,192,552121,1,0,0:0:0:0:
320,192,552121,1,0,0:0:0:0:
192,192,552228,1,0,0:0:0:0:
448,192,552335,1,0,0:0:0:0:
64,192,552335,1,0,0:0:0:0:
320,192,552443,1,0,0:0:0:0:
448,192,552550,1,0,0:0:0:0:
64,192,552550,1,0,0:0:0:0:
192,192,552657,1,0,0:0:0:0:
448,192,552764,1,0,0:0:0:0:
64,192,552764,1,0,0:0:0:0:
320,192,552764,1,0,0:0:0:0:
192,192,552871,1,0,0:0:0:0:
448,192,552978,1,0,0:0:0:0:
64,192,552978,1,0,0:0:0:0:
320,192,552978,1,0,0:0:0:0:
192,192,553085,1,0,0:0:0:0:
448,192,553193,1,0,0:0:0:0:
64,192,553193,1,0,0:0:0:0:
320,192,553193,1,0,0:0:0:0:
192,192,553300,1,0,0:0:0:0:
448,192,553407,1,0,0:0:0:0:
64,192,553407,1,0,0:0:0:0:
320,192,553514,1,0,0:0:0:0:
448,192,553621,1,0,0:0:0:0:
64,192,553621,1,0,0:0:0:0:
192,192,553621,1,0,0:0:0:0:
320,192,553728,1,0,0:0:0:0:
448,192,553835,1,0,0:0:0:0:
64,192,553835,1,0,0:0:0:0:
192,192,553835,1,0,0:0:0:0:
320,192,553943,1,0,0:0:0:0:
448,192,554050,1,0,0:0:0:0:
64,192,554050,1,0,0:0:0:0:
192,192,554050,1,0,0:0:0:0:
320,192,554157,1,0,0:0:0:0:
448,192,554264,1,0,0:0:0:0:
64,192,554264,1,0,0:0:0:0:
192,192,554264,1,0,0:0:0:0:
320,192,554371,1,0,0:0:0:0:
64,192,554478,1,0,0:0:0:0:
320,192,554478,1,0,0:0:0:0:
448,192,554478,1,0,0:0:0:0:
192,192,554585,1,0,0:0:0:0:
448,192,554693,1,0,0:0:0:0:
320,192,554693,1,0,0:0:0:0:
64,192,554693,1,0,0:0:0:0:
192,192,554800,1,0,0:0:0:0:
448,192,554907,1,0,0:0:0:0:
320,192,554907,1,0,0:0:0:0:
64,192,554907,1,0,0:0:0:0:
192,192,555014,1,0,0:0:0:0:
448,192,555121,1,0,0:0:0:0:
320,192,555121,1,0,0:0:0:0:
64,192,555121,1,0,0:0:0:0:
192,192,555228,1,0,0:0:0:0:
448,192,555335,1,0,0:0:0:0:
192,192,555335,1,0,0:0:0:0:
64,192,555335,1,0,0:0:0:0:
320,192,555443,1,0,0:0:0:0:
448,192,555550,1,0,0:0:0:0:
64,192,555550,1,0,0:0:0:0:
192,192,555550,1,0,0:0:0:0:
320,192,555657,1,0,0:0:0:0:
448,192,555764,1,0,0:0:0:0:
64,192,555764,1,0,0:0:0:0:
192,192,555764,1,0,0:0:0:0:
320,192,555871,1,0,0:0:0:0:
448,192,555978,1,0,0:0:0:0:
64,192,555978,1,0,0:0:0:0:
192,192,555978,1,0,0:0:0:0:
320,192,556085,1,0,0:0:0:0:
448,192,556193,1,0,0:0:0:0:
192,192,556193,1,0,0:0:0:0:
64,192,556193,1,0,0:0:0:0:
320,192,556300,1,0,0:0:0:0:
64,192,556407,1,0,0:0:0:0:
448,192,556407,1,0,0:0:0:0:
192,192,556514,1,0,0:0:0:0:
448,192,556621,1,0,0:0:0:0:
320,192,556621,1,0,0:0:0:0:
64,192,556621,1,0,0:0:0:0:
448,192,556835,1,0,0:0:0:0:
192,192,556835,1,0,0:0:0:0:
320,192,556835,1,0,0:0:0:0:
448,192,557050,1,0,0:0:0:0:
192,192,557050,1,0,0:0:0:0:
64,192,557050,1,0,0:0:0:0:
320,192,557157,1,0,0:0:0:0:
448,192,557264,1,0,0:0:0:0:
64,192,557264,1,0,0:0:0:0:
192,192,557264,1,0,0:0:0:0:
320,192,557371,1,0,0:0:0:0:
448,192,557478,1,0,0:0:0:0:
64,192,557478,1,0,0:0:0:0:
192,192,557478,1,0,0:0:0:0:
320,192,557585,1,0,0:0:0:0:
448,192,557693,1,0,0:0:0:0:
64,192,557693,1,0,0:0:0:0:
192,192,557800,1,0,0:0:0:0:
448,192,557907,1,0,0:0:0:0:
320,192,557907,1,0,0:0:0:0:
64,192,557907,1,0,0:0:0:0:
320,192,558014,1,0,0:0:0:0:
192,192,558014,1,0,0:0:0:0:
448,192,558121,1,0,0:0:0:0:
192,192,558121,1,0,0:0:0:0:
64,192,558121,1,0,0:0:0:0:
320,192,558228,1,0,0:0:0:0:
448,192,558335,1,0,0:0:0:0:
64,192,558335,1,0,0:0:0:0:
192,192,558443,1,0,0:0:0:0:
320,192,558443,1,0,0:0:0:0:
320,192,558550,1,0,0:0:0:0:
64,192,558550,1,0,0:0:0:0:
448,192,558550,1,0,0:0:0:0:
192,192,558657,1,0,0:0:0:0:
448,192,558657,1,0,0:0:0:0:
448,192,558764,1,0,0:0:0:0:
192,192,558764,1,0,0:0:0:0:
320,192,558764,1,0,0:0:0:0:
64,192,558764,1,0,0:0:0:0:
192,192,558871,1,0,0:0:0:0:
64,192,558871,1,0,0:0:0:0:
448,192,558978,1,0,0:0:0:0:
320,192,558978,1,0,0:0:0:0:
192,192,559085,1,0,0:0:0:0:
64,192,559085,1,0,0:0:0:0:
448,192,559193,5,0,0:0:0:0:
320,192,559193,1,0,0:0:0:0:
192,192,559193,1,0,0:0:0:0:
448,192,559300,1,0,0:0:0:0:
320,192,559300,1,0,0:0:0:0:
192,192,559407,1,0,0:0:0:0:
64,192,559407,1,0,0:0:0:0:
320,192,559514,1,0,0:0:0:0:
448,192,559514,1,0,0:0:0:0:
448,192,559621,5,0,0:0:0:0:
192,192,559621,1,0,0:0:0:0:
64,192,559621,1,0,0:0:0:0:
192,192,559835,1,0,0:0:0:0:
64,192,560050,1,0,0:0:0:0:
192,192,560478,1,0,0:0:0:0:
448,192,560478,1,0,0:0:0:0:
320,192,560693,1,0,0:0:0:0:
448,192,560907,1,0,0:0:0:0:
64,192,561121,1,0,0:0:0:0:
448,192,561335,1,0,0:0:0:0:
192,192,561335,1,0,0:0:0:0:
64,192,561335,1,0,0:0:0:0:
320,192,561550,1,0,0:0:0:0:
448,192,561550,1,0,0:0:0:0:
192,192,561764,1,0,0:0:0:0:
320,192,561764,1,0,0:0:0:0:
64,192,561978,1,0,0:0:0:0:
448,192,562193,1,0,0:0:0:0:
192,192,562193,1,0,0:0:0:0:
320,192,562407,1,0,0:0:0:0:
192,192,562621,1,0,0:0:0:0:
64,192,562835,1,0,0:0:0:0:
320,192,563050,1,0,0:0:0:0:
448,192,563050,1,0,0:0:0:0:
192,192,563050,1,0,0:0:0:0:
192,192,563264,1,0,0:0:0:0:
64,192,563478,1,0,0:0:0:0:
192,192,563907,1,0,0:0:0:0:
448,192,563907,1,0,0:0:0:0:
320,192,564121,1,0,0:0:0:0:
448,192,564335,1,0,0:0:0:0:
64,192,564550,1,0,0:0:0:0:
320,192,564764,1,0,0:0:0:0:
192,192,564764,1,0,0:0:0:0:
448,192,564764,1,0,0:0:0:0:
448,192,564978,1,0,0:0:0:0:
64,192,564978,1,0,0:0:0:0:
320,192,565193,1,0,0:0:0:0:
448,192,565193,1,0,0:0:0:0:
192,192,565407,1,0,0:0:0:0:
320,192,565407,1,0,0:0:0:0:
64,192,565621,1,0,0:0:0:0:
192,192,565621,1,0,0:0:0:0:
448,192,566478,1,0,0:0:0:0:
192,192,566478,1,0,0:0:0:0:
64,192,566478,1,0,0:0:0:0:
320,192,566693,1,0,0:0:0:0:
64,192,566907,1,0,0:0:0:0:
192,192,567335,1,0,0:0:0:0:
448,192,567335,1,0,0:0:0:0:
320,192,567550,1,0,0:0:0:0:
448,192,567764,1,0,0:0:0:0:
64,192,567978,1,0,0:0:0:0:
448,192,568193,1,0,0:0:0:0:
192,192,568193,1,0,0:0:0:0:
320,192,568193,1,0,0:0:0:0:
320,192,568407,1,0,0:0:0:0:
64,192,568407,1,0,0:0:0:0:
64,192,568621,1,0,0:0:0:0:
192,192,568621,1,0,0:0:0:0:
448,192,568835,1,0,0:0:0:0:
192,192,569050,1,0,0:0:0:0:
320,192,569050,1,0,0:0:0:0:
320,192,569264,1,0,0:0:0:0:
448,192,569478,1,0,0:0:0:0:
64,192,569693,1,0,0:0:0:0:
320,192,569907,1,0,0:0:0:0:
448,192,569907,1,0,0:0:0:0:
192,192,569907,1,0,0:0:0:0:
192,192,570121,1,0,0:0:0:0:
64,192,570335,1,0,0:0:0:0:
448,192,570335,1,0,0:0:0:0:
320,192,570550,1,0,0:0:0:0:
192,192,570764,1,0,0:0:0:0:
448,192,570764,1,0,0:0:0:0:
320,192,570978,1,0,0:0:0:0:
448,192,571193,1,0,0:0:0:0:
64,192,571407,1,0,0:0:0:0:
448,192,571621,1,0,0:0:0:0:
192,192,571621,1,0,0:0:0:0:
64,192,571621,1,0,0:0:0:0:
320,192,571835,1,0,0:0:0:0:
448,192,571835,1,0,0:0:0:0:
320,192,572050,1,0,0:0:0:0:
64,192,572050,1,0,0:0:0:0:
192,192,572264,1,0,0:0:0:0:
320,192,572264,1,0,0:0:0:0:
64,192,572478,1,0,0:0:0:0:
448,192,572478,1,0,0:0:0:0:
320,192,573335,1,0,0:0:0:0:
448,192,573335,1,0,0:0:0:0:
