osu file format v14

[General]
AudioFilename: medley.mp3
AudioLeadIn: 2000
PreviewTime: 774
Countdown: 0
SampleSet: None
StackLeniency: 0.7
Mode: 3
LetterboxInBreaks: 0
SpecialStyle: 0
WidescreenStoryboard: 1

[Editor]
Bookmarks: 96674,199621,320884,408893,412093,487521,573235,580253,672073,704073,761673,787273,898706,1047336,1058436,1094446,1110446,1154446,1227446,1233106
DistanceSpacing: 1.5
BeatDivisor: 4
GridSize: 4
TimelineZoom: 1.5

[Metadata]
Title:THE MEDLEY OF POKEMON RGBY+GSC -3PBs-
TitleUnicode:THE MEDLEY OF POKéMON RGBY+GSC -3PBs-
Artist:hapi
ArtistUnicode:hapi⇒
Creator:pikechu
Version:The 1st Part
Source:Pokémon
Tags:remix red green blue gold silver crystal vocaloid master ntd03 golden sun pikachu raichu pichu nintendo gamefreak gb gba hapinano
BeatmapID:1919772
BeatmapSetID:908046

[Difficulty]
HPDrainRate:8
CircleSize:4
OverallDifficulty:8
ApproachRate:9
SliderMultiplier:1.6
SliderTickRate:1

[Events]
//Background and Video events
0,0,"background.jpg",0,0
//Break Periods
//Storyboard Layer 0 (Background)
//Storyboard Layer 1 (Fail)
//Storyboard Layer 2 (Pass)
//Storyboard Layer 3 (Foreground)
//Storyboard Sound Samples

[TimingPoints]
1406,315.789473684211,4,2,1,40,1,0
7721,-100,4,2,1,40,0,0
7800,-100,4,2,3,40,0,0
12774,-133.333333333333,4,2,2,40,0,0
12853,-80,4,2,2,40,0,0
12932,-100,4,2,2,40,0,0
13090,-133.333333333333,4,2,2,40,0,0
13169,-80,4,2,2,40,0,0
13248,-100,4,2,2,40,0,0
13406,-133.333333333333,4,2,2,40,0,0
13485,-80,4,2,2,40,0,0
13564,-100,4,2,2,40,0,0
13721,-133.333333333333,4,2,2,40,0,0
13800,-80,4,2,2,40,0,0
13879,-100,4,2,2,40,0,0
14037,-133.333333333333,4,2,2,40,0,0
14116,-80,4,2,2,40,0,0
14195,-100,4,2,2,40,0,0
14353,-133.333333333333,4,2,2,40,0,0
14432,-80,4,2,2,40,0,0
14511,-100,4,2,2,40,0,0
14669,-133.333333333333,4,2,2,40,0,0
14748,-80,4,2,2,40,0,0
14827,-133.333333333333,4,2,2,40,0,0
14906,-80,4,2,2,40,0,0
14984,-133.333333333333,4,2,2,40,0,0
15063,-80,4,2,2,40,0,0
15142,-100,4,2,2,40,0,0
15300,-133.333333333333,4,2,2,40,0,0
15379,-80,4,2,2,40,0,0
15458,-100,4,2,2,40,0,0
15616,-133.333333333333,4,2,2,40,0,0
15695,-80,4,2,2,40,0,0
15774,-100,4,2,2,40,0,0
15932,-133.333333333333,4,2,2,40,0,0
16011,-80,4,2,2,40,0,0
16090,-100,4,2,2,40,0,0
16248,-133.333333333333,4,2,2,40,0,0
16327,-80,4,2,2,40,0,0
16406,-100,4,2,2,40,0,0
16563,-133.333333333333,4,2,2,40,0,0
16642,-80,4,2,2,40,0,0
16721,-100,4,2,2,40,0,0
16879,-133.333333333333,4,2,2,40,0,0
16958,-80,4,2,2,40,0,0
17037,-133.333333333333,4,2,2,40,0,0
17116,-80,4,2,2,40,0,0
17194,-133.333333333333,4,2,2,40,0,0
17273,-80,4,2,2,40,0,0
17352,-100,4,2,2,40,0,0
17511,-133.333333333333,4,2,2,40,0,0
17590,-80,4,2,2,40,0,0
17669,-100,4,2,2,40,0,0
17827,-133.333333333333,4,2,2,40,0,0
17906,-80,4,2,2,40,0,0
17985,-100,4,2,2,40,0,0
18142,-133.333333333333,4,2,2,40,0,0
18221,-80,4,2,2,40,0,0
18300,-100,4,2,2,40,0,0
18458,-133.333333333333,4,2,2,40,0,0
18537,-80,4,2,2,40,0,0
18616,-100,4,2,2,40,0,0
18774,-133.333333333333,4,2,2,40,0,0
18853,-80,4,2,2,40,0,0
18932,-100,4,2,2,40,0,0
19090,-133.333333333333,4,2,2,40,0,0
19169,-80,4,2,2,40,0,0
19248,-100,4,2,2,40,0,0
19406,-133.333333333333,4,2,2,40,0,0
19485,-80,4,2,2,40,0,0
19564,-100,4,2,2,40,0,0
19721,-133.333333333333,4,2,2,40,0,0
19800,-80,4,2,2,40,0,0
19879,-133.333333333333,4,2,2,40,0,0
19958,-80,4,2,2,40,0,0
20036,-133.333333333333,4,2,2,40,0,0
20115,-80,4,2,2,40,0,0
20194,-100,4,2,2,40,0,0
20353,-133.333333333333,4,2,2,40,0,0
20432,-80,4,2,2,40,0,0
20511,-100,4,2,2,40,0,0
20669,-133.333333333333,4,2,2,40,0,0
20748,-80,4,2,2,40,0,0
20827,-100,4,2,2,40,0,0
20984,-133.333333333333,4,2,2,40,0,0
21063,-80,4,2,2,40,0,0
21142,-100,4,2,2,40,0,0
21300,-133.333333333333,4,2,2,40,0,0
21379,-80,4,2,2,40,0,0
21458,-100,4,2,2,40,0,0
21616,-133.333333333333,4,2,2,40,0,0
21695,-80,4,2,2,40,0,0
21774,-100,4,2,2,40,0,0
21932,-133.333333333333,4,2,2,40,0,0
22011,-80,4,2,2,40,0,0
22090,-133.333333333333,4,2,2,40,0,0
22169,-80,4,2,2,40,0,0
22247,-133.333333333333,4,2,2,40,0,0
22326,-80,4,2,2,40,0,0
22405,-100,4,2,2,40,0,0
22563,-133.333333333333,4,2,2,40,0,0
22642,-80,4,2,2,40,0,0
22721,-100,4,2,2,40,0,0
22879,-133.333333333333,4,2,2,40,0,0
22958,-80,4,2,2,40,0,0
23037,-100,4,2,2,40,0,0
23195,-133.333333333333,4,2,2,40,0,0
23274,-80,4,2,2,40,0,0
23353,-100,4,2,2,40,0,0
23511,-133.333333333333,4,2,2,40,0,0
23590,-80,4,2,2,40,0,0
23669,-100,4,2,2,40,0,0
25090,-133.333333333333,4,2,2,40,0,0
25169,-80,4,2,2,40,0,0
25248,-100,4,2,2,40,0,0
25405,-100,4,2,3,40,0,0
25484,-100,4,2,1,40,0,0
30458,-100,4,2,1,40,0,0
35511,-100,4,2,1,40,0,0
37406,-100,4,2,2,40,0,0
37721,-100,4,2,1,40,0,0
39616,-100,4,2,2,40,0,0
40011,-100,4,2,1,40,0,0
42458,-100,4,2,2,40,0,0
42853,-100,4,2,1,40,0,0
44669,-100,4,2,2,40,0,0
45063,-100,4,2,1,40,0,0
47511,-100,4,2,2,40,0,0
47906,-100,4,2,1,40,0,0
49721,-100,4,2,2,40,0,0
50116,-100,4,2,1,40,0,0
52563,-100,4,2,2,40,0,0
52958,-100,4,2,1,40,0,0
55090,-100,4,2,2,40,0,0
55800,-100,4,2,1,40,0,0
57616,-100,4,2,2,40,0,0
57932,-100,4,2,1,40,0,0
59511,-100,4,2,2,40,0,0
60537,-100,4,2,1,40,0,0
61406,-100,4,2,2,40,0,0
61563,-100,4,2,1,40,0,0
63932,-100,4,2,2,40,0,0
64090,-100,4,2,1,40,0,0
65195,-100,4,2,2,40,0,0
65353,-100,4,2,1,40,0,0
65511,-100,4,2,2,40,0,0
65827,-100,4,2,2,40,0,0
69616,-100,4,2,1,40,0,0
70879,-100,4,2,2,40,0,0
75932,-100,4,2,1,40,0,0
77827,-100,4,2,2,40,0,0
78221,-100,4,2,1,40,0,0
80195,-100,4,2,2,40,0,0
80511,-100,4,2,1,40,0,0
82879,-100,4,2,2,40,0,0
83195,-100,4,2,1,40,0,0
84774,-100,4,2,2,40,0,0
86037,-100,4,2,1,40,0,0
90300,-100,4,2,2,40,0,0
90616,-100,4,2,1,40,0,0
92984,-100,4,2,2,40,0,0
93300,-100,4,2,1,40,0,0
94879,-100,4,2,2,40,0,0
95984,-83.3333333333333,4,2,2,40,0,0
96063,-133.333333333333,4,2,2,40,0,0
96142,-83.3333333333333,4,2,2,40,0,0
96221,-133.333333333333,4,2,2,40,0,0
96300,-83.3333333333333,4,2,2,40,0,0
96379,-133.333333333333,4,2,2,40,0,0
96458,-83.3333333333333,4,2,2,40,0,0
96537,-133.333333333333,4,2,2,40,0,0
96616,-83.3333333333333,4,2,2,40,0,0
96695,-133.333333333333,4,2,2,40,0,0
96774,-100,4,2,2,40,0,0
106090,-133.333333333333,4,2,2,40,0,0
106169,-76.9230769230769,4,2,2,40,0,0
106248,-133.333333333333,4,2,2,40,0,0
106406,-76.9230769230769,4,2,2,40,0,0
106563,-133.333333333333,4,2,2,40,0,0
106721,-76.9230769230769,4,2,2,40,0,0
106879,-100,4,2,2,40,0,0
107195,-100,4,2,1,40,0,0
107511,-100,4,2,3,40,0,0
107590,-100,4,2,1,40,0,0
117300,-100,4,2,2,40,0,0
117616,-100,4,2,1,40,0,0
119511,-100,4,2,2,40,0,0
119906,-100,4,2,1,40,0,0
121879,-100,4,2,2,40,0,0
122195,-100,4,2,1,40,0,0
124563,-100,4,2,2,40,0,0
124958,-100,4,2,1,40,0,0
126142,-100,4,2,2,40,0,0
127721,-100,4,2,1,40,0,0
129616,-100,4,2,2,40,0,0
130011,-100,4,2,1,40,0,0
131827,-100,4,2,2,40,0,0
132221,-100,4,2,1,40,0,0
134669,-100,4,2,2,40,0,0
135063,-100,4,2,1,40,0,0
136563,-100,4,2,2,40,0,0
137827,-100,4,2,3,40,0,0
137984,-100,4,2,1,40,0,0
139721,-100,4,2,2,40,0,0
140037,-100,4,2,1,40,0,0
141932,-100,4,2,2,40,0,0
142327,-100,4,2,1,40,0,0
144774,-100,4,2,2,40,0,0
145090,-100,4,2,1,40,0,0
146827,-100,4,2,2,40,0,0
147616,-100,4,2,1,40,0,0
149827,-100,4,2,2,40,0,0
150221,-100,4,2,1,40,0,0
152353,-100,4,2,2,40,0,0
152827,-100,4,2,1,40,0,0
158037,-100,4,2,3,40,0,0
158116,-100,4,2,1,40,0,0
159932,-100,4,2,2,40,0,0
160406,-100,4,2,1,40,0,0
162142,-100,4,2,2,40,0,0
162537,-100,4,2,1,40,0,0
164984,-100,4,2,2,40,0,0
165300,-100,4,2,1,40,0,0
166879,-100,4,2,2,40,0,0
168063,-100,4,2,1,40,0,0
170037,-100,4,2,2,40,0,0
170353,-100,4,2,1,40,0,0
172248,-100,4,2,2,40,0,0
172642,-100,4,2,1,40,0,0
175090,-100,4,2,2,40,0,0
175406,-100,4,2,1,40,0,0
176984,-100,4,2,2,40,0,0
177300,-100,4,2,1,40,0,0
177379,-100,4,2,2,40,0,0
177616,-100,4,2,2,40,0,0
177932,-100,4,2,1,40,0,0
178011,-100,4,2,2,40,0,0
178090,-100,4,2,1,40,0,0
178248,-100,4,2,3,40,0,0
178327,-100,4,2,1,40,0,0
180142,-100,4,2,2,40,0,0
180300,-100,4,2,1,40,0,0
182511,-100,4,2,2,40,0,0
182827,-100,4,2,2,40,0,0
183142,-100,4,2,1,40,0,0
185195,-100,4,2,2,40,0,0
185590,-100,4,2,1,40,0,0
187090,-100,4,2,2,40,0,0
188353,-100,4,2,1,40,0,0
188432,-100,4,2,2,40,0,0
189616,-100,4,2,1,40,0,0
189695,-100,4,2,2,40,0,0
190879,-100,4,2,1,40,0,0
190958,-100,4,2,2,40,0,0
192142,-100,4,2,1,40,0,0
192221,-100,4,2,2,40,0,0
193406,-100,4,2,1,40,0,0
193484,-100,4,2,2,40,0,0
194669,-100,4,2,1,40,0,0
194748,-100,4,2,2,40,0,0
195932,-100,4,2,1,40,0,0
196011,-100,4,2,2,40,0,0
197195,-100,4,2,1,40,0,0
197274,-100,4,2,2,40,0,0
198616,-100,4,2,1,40,0,0
198774,-100,4,2,2,40,0,0
198932,-100,4,2,1,40,0,0
199090,-100,4,2,2,40,0,0
199721,-100,4,2,1,40,0,0
200669,-100,4,2,1,40,0,0
200984,-100,4,2,3,40,0,0
201063,-100,4,2,1,40,0,0
202879,-100,4,2,2,40,0,0
203195,-100,4,2,1,40,0,0
205090,-100,4,2,2,40,0,0
205563,-100,4,2,1,40,0,0
207932,-100,4,2,2,40,0,0
208248,-100,4,2,1,40,0,0
208721,-100,4,2,2,40,0,0
208879,-100,4,2,1,40,0,0
209037,-100,4,2,2,40,0,0
209511,-100,4,2,1,40,0,0
209669,-100,4,2,2,40,0,0
209827,-100,4,2,1,40,0,0
209984,-100,4,2,2,40,0,0
211090,-100,4,2,1,40,0,0
212984,-100,4,2,2,40,0,0
213300,-100,4,2,1,40,0,0
215195,-100,4,2,2,40,0,0
215669,-100,4,2,1,40,0,0
218037,-100,4,2,2,40,0,0
218353,-100,4,2,1,40,0,0
218669,-100,4,2,2,40,0,0
218984,-100,4,2,1,40,0,0
219142,-100,4,2,2,40,0,0
219616,-100,4,2,1,40,0,0
219774,-100,4,2,2,40,0,0
220721,-100,4,2,2,40,0,0
221195,-100,4,2,1,40,0,0
223090,-100,4,2,2,40,0,0
223406,-100,4,2,1,40,0,0
225300,-100,4,2,2,40,0,0
225932,-100,4,2,1,40,0,0
228142,-100,4,2,2,40,0,0
228458,-100,4,2,1,40,0,0
230037,-100,4,2,2,40,0,0
231300,-100,4,2,1,40,0,0
233195,-100,4,2,2,40,0,0
233511,-100,4,2,1,40,0,0
235563,-100,4,2,2,40,0,0
235958,-100,4,2,1,40,0,0
238248,-100,4,2,2,40,0,0
238563,-100,4,2,1,40,0,0
240300,-100,4,2,2,40,0,0
240458,-100,4,2,1,40,0,0
240616,-100,4,2,2,40,0,0
241090,-100,4,2,1,40,0,0
241248,-100,4,2,2,40,0,0
241406,-263.157894736842,4,2,1,40,0,0
241445,-100,4,2,1,40,0,0
241484,-263.157894736842,4,2,1,40,0,0
241523,-100,4,2,1,40,0,0
241563,-263.157894736842,4,2,1,40,0,0
241602,-100,4,2,1,40,0,0
241642,-263.157894736842,4,2,1,40,0,0
241681,-100,4,2,1,40,0,0
241721,-10000,4,2,1,40,0,0
241879,-100,4,2,1,40,0,0
242037,-10000,4,2,1,40,0,0
242195,-100,4,2,1,40,0,0
242669,-263.157894736842,4,2,1,40,0,0
242708,-100,4,2,1,40,0,0
242747,-263.157894736842,4,2,1,40,0,0
242786,-100,4,2,1,40,0,0
242826,-263.157894736842,4,2,1,40,0,0
242865,-100,4,2,1,40,0,0
242905,-263.157894736842,4,2,1,40,0,0
242944,-100,4,2,1,40,0,0
242984,-10000,4,2,1,40,0,0
243142,-100,4,2,1,40,0,0
243300,-10000,4,2,1,40,0,0
243458,-100,4,2,1,40,0,0
244090,-100,4,2,2,40,0,0
244248,-100,4,2,1,40,0,0
244563,-100,4,2,2,40,0,0
244721,-100,4,2,1,40,0,0
244958,-100,4,2,2,40,0,0
245195,-100,4,2,1,40,0,0
248353,-100,4,2,2,40,0,0
248590,-100,4,2,1,40,0,0
250484,-100,4,2,2,40,0,0
251037,-100,4,2,1,40,0,0
251984,-100,4,2,2,40,0,0
252458,-100,4,2,1,40,0,0
252616,-100,4,2,2,40,0,0
252774,-100,4,2,1,40,0,0
252932,-100,4,2,2,40,0,0
253090,-100,4,2,1,40,0,0
253248,-100,4,2,2,40,0,0
253721,-100,4,2,1,40,0,0
253879,-100,4,2,2,40,0,0
254037,-100,4,2,1,40,0,0
255458,-100,4,2,2,40,0,0
256248,-100,4,2,1,40,0,0
256327,-100,4,2,2,40,0,0
256563,-100,4,2,1,40,0,0
258458,-100,4,2,2,40,0,0
258695,-100,4,2,1,40,0,0
260669,-100,4,2,2,40,0,0
261063,-100,4,2,1,40,0,0
263511,-100,4,2,2,40,0,0
263827,-100,4,2,1,40,0,0
265642,-100,4,2,1,40,0,0
265721,-100,4,2,1,40,0,0
265958,-100,4,2,1,40,0,0
266037,-100,4,2,1,40,0,0
266353,-100,4,2,2,40,0,0
266669,-100,4,2,1,40,0,0
268563,-100,4,2,2,40,0,0
268879,-100,4,2,1,40,0,0
270932,-100,4,2,2,40,0,0
271248,-100,4,2,1,40,0,0
273616,-100,4,2,2,40,0,0
273932,-100,4,2,1,40,0,0
275511,-100,4,2,2,40,0,0
276142,-100,4,2,1,40,0,0
278669,-100,4,2,2,40,0,0
278984,-100,4,2,1,40,0,0
280879,-100,4,2,2,40,0,0
281511,-100,4,2,1,40,0,0
283721,-100,4,2,2,40,0,0
284116,-100,4,2,1,40,0,0
285774,-100,4,2,2,40,0,0
286327,-100,4,2,2,40,0,0
286406,-100,4,2,2,40,0,0
286879,-100,4,2,1,40,0,0
286958,-100,4,2,2,40,0,0
287195,-100,4,2,1,40,0,0
287274,-100,4,2,2,40,0,0
287511,-100,4,2,1,40,0,0
287590,-100,4,2,2,40,0,0
287827,-100,4,2,1,40,0,0
287906,-100,4,2,2,40,0,0
288142,-100,4,2,1,40,0,0
290037,-100,4,2,2,40,0,0
290353,-100,4,2,2,40,0,0
290511,-100,4,2,2,40,0,0
290669,-100,4,2,1,40,0,0
292248,-100,4,2,2,40,0,0
292642,-100,4,2,2,40,0,0
292879,-100,4,2,1,40,0,0
293037,-100,4,2,1,40,0,0
293353,-100,4,2,1,40,0,0
294537,-100,4,2,1,40,0,0
294616,-100,4,2,1,40,0,0
295090,-100,4,2,2,40,0,0
295563,-100,4,2,1,40,0,0
297142,-100,4,2,2,40,0,0
297616,-100,4,2,1,40,0,0
297774,-100,4,2,2,40,0,0
298248,-100,4,2,1,40,0,0
298484,-100,4,2,1,40,0,0
298563,-100,4,2,1,40,0,0
299037,-100,4,2,1,40,0,0
299116,-100,4,2,1,40,0,0
299195,-100,4,2,1,40,0,0
299590,-100,4,2,2,40,0,0
300774,-100,4,2,1,40,0,0
302669,-100,4,2,2,40,0,0
303300,-100,4,2,1,40,0,0
307721,-100,4,2,2,40,0,0
308116,-100,4,2,1,40,0,0
310090,-100,4,2,2,40,0,0
310563,-100,4,2,1,40,0,0
310721,-100,4,2,2,40,0,0
310879,-100,4,2,1,40,0,0
312774,-100,4,2,2,40,0,0
313011,-100,4,2,1,40,0,0
315142,-100,4,2,2,40,0,0
315537,-100,4,2,1,40,0,0
317827,-100,4,2,2,40,0,0
318063,-100,4,2,1,40,0,0
320195,-100,4,2,2,40,0,0
320906,-100,4,2,2,40,0,0
320984,-100,4,2,1,40,0,0
331090,-100,4,2,1,40,0,0
332984,-100,4,2,2,40,0,0
333300,-100,4,2,1,40,0,0
335353,-100,4,2,2,40,0,0
335827,-100,4,2,1,40,0,0
338037,-100,4,2,2,40,0,0
338353,-100,4,2,1,40,0,0
340879,-100,4,2,2,40,0,0
341116,-100,4,2,1,40,0,0
343090,-100,4,2,2,40,0,0
343406,-100,4,2,1,40,0,0
345458,-100,4,2,2,40,0,0
345774,-100,4,2,1,40,0,0
348142,-100,4,2,2,40,0,0
348458,-100,4,2,1,40,0,0
350037,-100,4,2,2,40,0,0
351300,-100,4,2,1,40,0,0
353195,-100,4,2,2,40,0,0
353511,-100,4,2,1,40,0,0
355563,-100,4,2,2,40,0,0
355879,-100,4,2,1,40,0,0
358248,-100,4,2,2,40,0,0
358563,-100,4,2,1,40,0,0
360142,-100,4,2,2,40,0,0
361406,-100,4,2,1,40,0,0
363300,-100,4,2,2,40,0,0
363774,-100,4,2,1,40,0,0
365669,-100,4,2,2,40,0,0
365984,-100,4,2,1,40,0,0
368353,-100,4,2,2,40,0,0
368748,-100,4,2,1,40,0,0
370721,-100,4,2,2,40,0,0
371037,-100,4,2,1,40,0,0
372616,-100,4,2,1,40,0,0
372853,-100,4,2,1,40,0,0
374037,-100,4,2,1,40,0,0
374984,-100,4,2,2,40,0,0
375300,-100,4,2,1,40,0,0
375932,-100,4,2,2,40,0,0
376090,-100,4,2,1,40,0,0
376406,-100,4,2,2,40,0,0
376563,-100,4,2,1,40,0,0
376721,-100,4,2,2,40,0,0
376800,-100,4,2,1,40,0,0
377037,-100,4,2,2,40,0,0
377353,-100,4,2,1,40,0,0
378458,-100,4,2,2,40,0,0
378616,-100,4,2,1,40,0,0
379721,-100,4,2,2,40,0,0
379879,-100,4,2,1,40,0,0
380511,-100,4,2,2,40,0,0
382879,-100,4,2,1,40,0,0
384774,-100,4,2,2,40,0,0
385011,-100,4,2,1,40,0,0
387142,-100,4,2,2,40,0,0
387379,-100,4,2,1,40,0,0
389827,-100,4,2,2,40,0,0
390142,-100,4,2,1,40,0,0
392827,-100,4,2,2,40,0,0
392984,-100,4,2,1,40,0,0
394879,-100,4,2,2,40,0,0
395195,-100,4,2,1,40,0,0
397248,-100,4,2,2,40,0,0
397484,-100,4,2,1,40,0,0
399300,327.868852459016,4,2,1,40,1,0
399300,-96.1538461538461,4,2,1,40,0,0
399955,-96.1538461538461,4,2,2,40,0,0
400283,-96.1538461538461,4,2,1,40,0,0
401922,342.857142857143,4,2,1,40,1,0
401922,-91.743119266055,4,2,1,40,0,0
402607,-91.743119266055,4,2,2,40,0,0
402950,-91.743119266055,4,2,1,40,0,0
403293,346.820809248555,4,2,1,40,1,0
403293,-90.9090909090909,4,2,1,40,0,0
406075,363.636363636364,4,2,1,40,1,0
406075,-86.9565217391304,4,2,1,40,0,0
407533,368.098159509202,4,2,1,40,1,0
407533,-85.4700854700855,4,2,1,40,0,0
408993,400,4,2,1,40,1,0
408993,-78.7401574803149,4,2,1,40,0,0
412193,428.571428571429,4,2,1,40,1,0
412193,-73.5294117647059,4,2,1,40,0,0
417764,-73.5294117647059,4,2,1,40,0,0
419050,-73.5294117647059,4,2,1,40,0,0
443050,-73.5294117647059,4,2,2,35,0,0
443907,-73.5294117647059,4,2,2,45,0,0
444764,-73.5294117647059,4,2,2,55,0,0
445621,-73.5294117647059,4,2,2,65,0,0
446264,-73.5294117647059,4,2,1,67,0,0
456228,-73.5294117647059,4,2,1,67,0,0
456443,-73.5294117647059,4,2,1,67,0,0
461264,-73.5294117647059,4,2,1,67,0,0
461478,-73.5294117647059,4,2,1,67,0,0
464693,-73.5294117647059,4,2,1,67,0,0
464907,-73.5294117647059,4,2,1,67,0,0
476478,-73.5294117647059,4,2,2,67,0,0
476907,-73.5294117647059,4,2,1,67,0,0
479907,-73.5294117647059,4,2,2,67,0,0
480335,-73.5294117647059,4,2,1,67,0,0
481621,-73.5294117647059,4,2,2,67,0,0
482050,-73.5294117647059,4,2,1,67,0,0
483550,-73.5294117647059,4,2,1,67,0,0
483764,-73.5294117647059,4,2,1,67,0,0
484193,-73.5294117647059,4,2,2,67,0,0
484300,-73.5294117647059,4,2,2,67,0,0
485050,-73.5294117647059,4,2,2,67,0,0
485907,-73.5294117647059,4,2,2,67,0,0
486335,-73.5294117647059,4,2,2,67,0,0
486764,-73.5294117647059,4,2,2,67,0,0
487193,-73.5294117647059,4,2,2,67,0,0
487621,-73.5294117647059,4,2,2,67,0,0
487728,-73.5294117647059,4,2,1,67,0,0
492764,-73.5294117647059,4,2,2,55,0,0
493621,-73.5294117647059,4,2,1,45,0,0
493907,-73.5294117647059,4,2,2,45,0,0
494050,-73.5294117647059,4,2,1,45,0,0
494335,-73.5294117647059,4,2,2,45,0,0
494478,-73.5294117647059,4,2,1,55,0,0
494621,-73.5294117647059,4,2,2,55,0,0
504764,-73.5294117647059,4,2,1,55,0,0
509907,-73.5294117647059,4,2,1,55,0,0
516621,-73.5294117647059,4,2,1,45,0,0
516764,-73.5294117647059,4,2,1,55,0,0
528764,-73.5294117647059,4,2,1,35,0,0
528907,-73.5294117647059,4,2,2,35,0,0
529621,-73.5294117647059,4,2,2,45,0,0
530478,-73.5294117647059,4,2,2,55,0,0
530907,-73.5294117647059,4,2,2,60,0,0
531335,-73.5294117647059,4,2,2,65,0,0
532193,-73.5294117647059,4,2,1,65,0,0
557907,-73.5294117647059,4,2,1,55,0,0
558014,-73.5294117647059,4,2,2,55,0,0
558335,-73.5294117647059,4,2,2,60,0,0
558764,-73.5294117647059,4,2,2,65,0,0
573335,-73.5294117647059,4,2,3,20,0,0
573550,-133.333333333333,4,2,3,20,0,0
580353,444.444444444444,4,2,1,20,1,0
580353,-71.4285714285714,4,2,1,20,0,0
594907,333.333333333333,4,2,1,20,1,0
594907,-94.3396226415094,4,2,1,20,0,0
609407,-133.333333333333,4,2,1,20,0,0
609490,-92.5925925925926,4,2,1,20,0,0
609576,317.460317460317,4,2,1,80,1,0
611322,-138.888888888889,4,2,1,80,0,0
611401,-98.0392156862745,4,2,1,80,0,0
611484,285.714285714286,4,2,1,80,1,0
611484,-111.111111111111,4,2,1,80,0,0
611626,-142.857142857143,4,2,1,80,0,0
611698,-106.382978723404,4,2,1,80,0,0
613555,-142.857142857143,4,2,1,80,0,0
613626,-106.382978723404,4,2,1,80,0,0
613698,250,4,2,1,80,1,0
613698,-126.582278481013,4,2,1,80,0,0
613823,-181.818181818182,4,2,1,80,0,0
613885,-117.647058823529,4,2,1,80,0,0
614073,-181.818181818182,4,2,1,80,0,0
614135,-117.647058823529,4,2,1,80,0,0
615323,-181.818181818182,4,2,1,80,0,0
615385,-117.647058823529,4,2,1,80,0,0
615416,226.415094339623,4,2,1,80,1,0
615416,-138.888888888889,4,2,1,80,0,0
615642,-200,4,2,1,80,0,0
615699,-125,4,2,1,80,0,0
615755,-200,4,2,1,80,0,0
615812,-125,4,2,1,80,0,0
615982,-200,4,2,1,80,0,0
616038,-125,4,2,1,80,0,0
616095,218.181818181818,4,2,1,80,1,0
616095,-144.927536231884,4,2,1,80,0,0
616422,-217.391304347826,4,2,1,80,0,0
616476,-126.582278481013,4,2,1,80,0,0
616544,214.285714285714,4,2,1,80,1,0
616544,-147.058823529412,4,2,1,80,0,0
616865,-222.222222222222,4,2,1,80,0,0
616919,-121.951219512195,4,2,1,80,0,0
616959,206.896551724138,4,2,1,80,1,0
616959,-151.515151515152,4,2,1,80,0,0
617269,-232.558139534884,4,2,1,80,0,0
617321,-121.951219512195,4,2,1,80,0,0
617683,-232.558139534884,4,2,1,80,0,0
617734,-121.951219512195,4,2,1,80,0,0
617773,400,4,2,1,80,1,0
617773,-78.7401574803149,4,2,1,80,0,0
630173,-78.7401574803149,4,2,2,80,0,0
630573,-78.7401574803149,4,2,1,80,0,0
636173,-78.7401574803149,4,2,2,80,0,0
636573,-78.7401574803149,4,2,1,80,0,0
641973,-78.7401574803149,4,2,2,80,0,0
643373,-78.7401574803149,4,2,1,70,0,0
643573,-78.7401574803149,4,2,1,30,0,0
643773,-78.7401574803149,4,2,1,40,0,0
643973,-78.7401574803149,4,2,1,30,0,0
644173,-78.7401574803149,4,2,1,40,0,0
645173,-78.7401574803149,4,2,1,30,0,0
645373,-78.7401574803149,4,2,1,40,0,0
645573,-78.7401574803149,4,2,1,30,0,0
645773,-78.7401574803149,4,2,1,70,0,0
645873,-78.7401574803149,4,2,1,40,0,0
646073,-78.7401574803149,4,2,2,70,0,0
646173,-78.7401574803149,4,2,1,30,0,0
646573,-78.7401574803149,4,2,1,31,0,0
652773,-78.7401574803149,4,2,2,31,0,0
652973,-78.7401574803149,4,2,1,31,0,0
657973,-78.7401574803149,4,2,1,30,0,0
658173,-78.7401574803149,4,2,1,40,0,0
658373,-78.7401574803149,4,2,1,30,0,0
658573,-78.7401574803149,4,2,1,40,0,0
658673,-78.7401574803149,4,2,1,50,0,0
658773,-78.7401574803149,4,2,1,60,0,0
658873,-78.7401574803149,4,2,1,30,0,0
659373,-66.6666666666667,4,2,1,30,0,0
659473,-133.333333333333,4,2,1,30,0,0
659573,-66.6666666666667,4,2,1,30,0,0
659673,-133.333333333333,4,2,1,30,0,0
659773,-66.6666666666667,4,2,1,30,0,0
659873,-133.333333333333,4,2,1,30,0,0
659973,-66.6666666666667,4,2,1,30,0,0
660073,-133.333333333333,4,2,1,30,0,0
660173,-78.7401574803149,4,2,1,30,0,0
660573,-133.333333333333,4,2,1,30,0,0
660973,-117.647058823529,4,2,1,30,0,0
661373,-105.263157894737,4,2,1,30,0,0
661773,-95.2380952380952,4,2,1,30,0,0
661973,-86.9565217391304,4,2,1,30,0,0
662173,-80,4,2,1,30,0,0
662373,-78.7401574803149,4,2,1,30,0,0
662573,-117.647058823529,4,2,1,30,0,0
662973,-105.263157894737,4,2,1,30,0,0
663173,-95.2380952380952,4,2,1,30,0,0
663373,-86.9565217391304,4,2,1,30,0,0
663773,-133.333333333333,4,2,1,30,0,0
664173,-105.263157894737,4,2,1,30,0,0
664573,-86.9565217391304,4,2,1,30,0,0
664973,-66.6666666666667,4,2,1,30,0,0
665073,-133.333333333333,4,2,1,30,0,0
665173,-66.6666666666667,4,2,1,30,0,0
665273,-133.333333333333,4,2,1,30,0,0
665373,-66.6666666666667,4,2,1,30,0,0
665473,-133.333333333333,4,2,1,30,0,0
665573,-66.6666666666667,4,2,1,30,0,0
665673,-133.333333333333,4,2,1,30,0,0
665773,-10000,4,2,1,30,0,0
665973,-33.3333333333333,4,2,1,30,0,0
666073,-78.7401574803149,4,2,1,30,0,0
666173,-10000,4,2,1,30,0,0
666398,-33.3333333333333,4,2,1,30,0,0
666473,-78.7401574803149,4,2,1,30,0,0
666573,-10000,4,2,1,30,0,0
666823,-33.3333333333333,4,2,1,30,0,0
666873,-78.7401574803149,4,2,1,30,0,0
666973,-10000,4,2,1,30,0,0
667248,-33.3333333333333,4,2,1,30,0,0
667273,-78.7401574803149,4,2,1,30,0,0
667373,-10000,4,2,1,30,0,0
667623,-33.3333333333333,4,2,1,30,0,0
667673,-78.7401574803149,4,2,1,30,0,0
667773,-10000,4,2,1,30,0,0
667973,-33.3333333333333,4,2,1,30,0,0
668073,-78.7401574803149,4,2,1,30,0,0
668173,-10000,4,2,1,30,0,0
668398,-33.3333333333333,4,2,1,30,0,0
668473,-78.7401574803149,4,2,1,30,0,0
668573,-10000,4,2,1,30,0,0
668823,-33.3333333333333,4,2,1,30,0,0
668873,-78.7401574803149,4,2,1,30,0,0
668973,-100,4,2,1,30,0,0
669173,-66.6666666666667,4,2,1,30,0,0
669273,-78.7401574803149,4,2,1,30,0,0
669373,-100,4,2,1,30,0,0
669573,-66.6666666666667,4,2,1,30,0,0
669673,-78.7401574803149,4,2,1,30,0,0
669773,-100,4,2,1,30,0,0
669973,-66.6666666666667,4,2,1,30,0,0
670073,-78.7401574803149,4,2,1,30,0,0
670173,-100,4,2,1,30,0,0
670373,-66.6666666666667,4,2,1,30,0,0
670473,-78.7401574803149,4,2,1,30,0,0
670573,-100,4,2,1,30,0,0
670773,-66.6666666666667,4,2,1,30,0,0
670873,-78.7401574803149,4,2,1,30,0,0
670973,-100,4,2,1,30,0,0
671173,-66.6666666666667,4,2,1,30,0,0
671273,-78.7401574803149,4,2,1,30,0,0
671373,-100,4,2,1,30,0,0
671573,-66.6666666666667,4,2,1,30,0,0
671673,-78.7401574803149,4,2,1,30,0,0
671773,-100,4,2,1,30,0,0
671973,-66.6666666666667,4,2,1,30,0,0
672073,-78.7401574803149,4,2,1,30,0,0
678573,-78.7401574803149,4,2,1,30,0,0
678673,-78.7401574803149,4,2,1,30,0,0
684973,-78.7401574803149,4,2,1,30,0,0
685073,-78.7401574803149,4,2,1,30,0,0
691373,-78.7401574803149,4,2,1,30,0,0
691473,-78.7401574803149,4,2,1,30,0,0
704173,-78.7401574803149,4,2,1,30,0,0
704973,-50,4,2,1,30,0,0
705373,-100,4,2,1,30,0,0
705573,-78.7401574803149,4,2,1,30,0,0
706573,-50,4,2,1,30,0,0
706973,-100,4,2,1,30,0,0
707173,-78.7401574803149,4,2,1,30,0,0
707773,-78.7401574803149,4,2,2,30,0,0
707873,-78.7401574803149,4,2,1,30,0,0
708173,-50,4,2,1,30,0,0
708573,-100,4,2,1,30,0,0
708773,-78.7401574803149,4,2,1,30,0,0
708973,-100,4,2,1,30,0,0
710473,-78.7401574803149,4,2,1,30,0,0
710573,-78.7401574803149,4,2,1,30,0,0
711373,-50,4,2,1,30,0,0
711773,-100,4,2,1,30,0,0
711973,-78.7401574803149,4,2,1,30,0,0
712973,-50,4,2,1,30,0,0
713373,-100,4,2,1,30,0,0
713573,-78.7401574803149,4,2,1,30,0,0
714573,-50,4,2,1,30,0,0
714973,-100,4,2,1,30,0,0
715173,-78.7401574803149,4,2,1,30,0,0
715373,-100,4,2,1,30,0,0
716873,-78.7401574803149,4,2,1,30,0,0
716973,-78.7401574803149,4,2,1,30,0,0
723173,-78.7401574803149,4,2,2,30,0,0
723373,-78.7401574803149,4,2,1,30,0,0
728973,-78.7401574803149,4,2,2,30,0,0
729373,-78.7401574803149,4,2,1,30,0,0
729573,-78.7401574803149,4,2,2,30,0,0
729773,-78.7401574803149,4,2,1,30,0,0
735173,-78.7401574803149,4,2,2,30,0,0
736173,-78.7401574803149,4,2,1,30,0,1
741773,-78.7401574803149,4,2,2,30,0,1
742173,-78.7401574803149,4,2,1,30,0,1
748173,-78.7401574803149,4,2,2,30,0,1
748573,-78.7401574803149,4,2,1,30,0,1
748773,-78.7401574803149,4,2,2,30,0,0
748973,-78.7401574803149,4,2,1,30,0,1
754573,-78.7401574803149,4,2,2,30,0,1
754973,-78.7401574803149,4,2,1,30,0,1
755173,-78.7401574803149,4,2,2,30,0,1
755373,-78.7401574803149,4,2,1,30,0,1
760973,-78.7401574803149,4,2,2,30,0,1
761373,-78.7401574803149,4,2,1,30,0,1
761573,-78.7401574803149,4,2,2,30,0,1
763373,-78.7401574803149,4,2,1,30,0,0
768973,-78.7401574803149,4,2,2,30,0,0
769473,-78.7401574803149,4,2,1,30,0,0
775373,-78.7401574803149,4,2,2,30,0,0
828973,387.096774193548,4,2,1,30,1,0
828973,-81.3008130081301,4,2,1,30,0,0
830521,375,4,2,1,30,1,0
830521,-84.0336134453781,4,2,1,30,0,0
832021,359.281437125748,4,2,1,30,1,0
832021,-87.719298245614,4,2,1,30,0,0
834807,333.333333333333,4,2,1,30,1,0
834807,-94.3396226415094,4,2,1,30,0,0
845474,-94.3396226415094,4,2,1,30,0,0
849474,-94.3396226415094,4,2,1,30,0,0
850140,-94.3396226415094,4,2,1,30,0,0
850474,-94.3396226415094,4,2,1,30,0,0
850807,-94.3396226415094,4,2,1,30,0,1
869474,-94.3396226415094,4,2,1,30,0,1
870807,-94.3396226415094,4,2,1,30,0,1
872140,-94.3396226415094,4,2,1,50,0,0
877474,-94.3396226415094,4,2,1,70,0,0
879807,-94.3396226415094,4,2,1,5,0,0
880140,-94.3396226415094,4,2,1,31,0,0
882140,-94.3396226415094,4,2,1,31,0,0
882474,-94.3396226415094,4,2,2,31,0,0
882807,-94.3396226415094,4,2,1,31,0,0
885140,-94.3396226415094,4,2,1,5,0,0
885474,-94.3396226415094,4,2,1,70,0,0
887140,-94.3396226415094,4,2,1,20,0,0
887474,-94.3396226415094,4,2,1,70,0,0
887807,-94.3396226415094,4,2,2,70,0,0
888140,-94.3396226415094,4,2,1,37,0,1
890696,-94.3396226415094,4,2,2,37,0,1
890807,-94.3396226415094,4,2,1,37,0,1
893140,-94.3396226415094,4,2,2,37,0,1
893473,-94.3396226415094,4,2,1,37,0,1
898807,333.333333333333,4,2,1,37,1,0
898807,-94.3396226415094,4,2,1,37,0,0
899473,324.324324324324,4,2,1,37,1,0
899473,-97.0873786407767,4,2,1,37,0,0
900121,307.692307692308,4,2,1,37,1,0
900121,-103.092783505155,4,2,1,37,0,0
900736,300,4,2,1,37,1,0
900736,-105.263157894737,4,2,1,37,0,0
901336,300,4,2,1,37,1,0
901336,-105.263157894737,4,2,1,37,0,0
901786,-105.263157894737,4,2,1,50,0,0
906136,-105.263157894737,4,2,1,70,0,0
910936,-105.263157894737,4,2,1,80,0,1
913111,-105.263157894737,4,2,2,40,0,1
913186,-105.263157894737,4,2,2,50,0,1
913261,-105.263157894737,4,2,2,60,0,1
913336,-105.263157894737,4,2,1,80,0,1
917911,-105.263157894737,4,2,2,40,0,1
917986,-105.263157894737,4,2,2,50,0,1
918061,-105.263157894737,4,2,2,60,0,1
918136,-105.263157894737,4,2,1,80,0,1
920311,-105.263157894737,4,2,2,40,0,1
920386,-105.263157894737,4,2,2,50,0,1
920461,-105.263157894737,4,2,2,60,0,1
920536,-105.263157894737,4,2,1,80,0,1
925261,-105.263157894737,4,2,1,40,0,0
934936,-105.263157894737,4,2,1,40,0,0
937036,-105.263157894737,4,2,2,40,0,0
937261,-105.263157894737,4,2,2,40,0,0
937336,-105.263157894737,4,2,1,40,0,0
939436,-105.263157894737,4,2,2,40,0,0
939736,-105.263157894737,4,2,1,40,0,1
941986,-105.263157894737,4,2,2,40,0,1
942136,-105.263157894737,4,2,1,40,0,1
944311,-105.263157894737,4,2,2,40,0,1
944386,-105.263157894737,4,2,2,40,0,1
944461,-105.263157894737,4,2,2,40,0,1
944536,-105.263157894737,4,2,1,40,0,1
946711,-105.263157894737,4,2,2,40,0,1
946936,-105.263157894737,4,2,1,40,0,1
949111,-105.263157894737,4,2,2,40,0,1
949186,-105.263157894737,4,2,2,40,0,1
949261,-105.263157894737,4,2,2,40,0,1
949336,-105.263157894737,4,2,1,40,0,1
951586,-105.263157894737,4,2,2,40,0,1
951736,-105.263157894737,4,2,1,40,0,1
954211,-105.263157894737,4,2,2,40,0,1
954736,-105.263157894737,4,2,1,40,0,1
954811,-105.263157894737,4,2,2,40,0,1
955336,-105.263157894737,4,2,1,40,0,1
955411,-105.263157894737,4,2,2,40,0,1
955636,-105.263157894737,4,2,1,50,0,1
955786,-105.263157894737,4,2,1,5,0,1
955936,-105.263157894737,4,2,1,31,0,1
956011,-105.263157894737,4,2,2,31,0,1
956536,-105.263157894737,4,2,1,31,0,1
958936,-105.263157894737,4,2,1,31,0,0
963736,-105.263157894737,4,2,1,31,0,1
968236,-105.263157894737,4,2,2,31,0,1
968536,-105.263157894737,4,2,1,31,0,1
972136,-105.263157894737,4,2,2,31,0,1
973036,-105.263157894737,4,2,2,31,0,1
975736,-105.263157894737,4,2,1,31,0,1
977686,-105.263157894737,4,2,2,31,0,1
977836,-105.263157894737,4,2,1,31,0,1
984361,-105.263157894737,4,2,2,31,0,1
984436,-105.263157894737,4,2,1,31,0,1
984511,-105.263157894737,4,2,2,31,0,1
984736,-105.263157894737,4,2,1,31,0,1
984811,-105.263157894737,4,2,2,32,0,1
985036,-105.263157894737,4,2,1,32,0,1
985111,-105.263157894737,4,2,2,32,0,1
985186,-105.263157894737,4,2,1,32,0,1
985261,-105.263157894737,4,2,2,32,0,1
986536,-105.263157894737,4,2,1,32,0,0
987736,-105.263157894737,4,2,1,32,0,1
989686,-105.263157894737,4,2,2,32,0,1
989836,-105.263157894737,4,2,1,32,0,1
992236,-105.263157894737,4,2,2,32,0,1
992536,-105.263157894737,4,2,1,32,0,1
997036,-105.263157894737,4,2,2,32,0,1
997336,-105.263157894737,4,2,1,32,0,1
1001836,-105.263157894737,4,2,2,32,0,1
1002136,-105.263157894737,4,2,1,32,0,1
1004086,-105.263157894737,4,2,2,32,0,1
1004236,-105.263157894737,4,2,2,32,0,1
1004536,-105.263157894737,4,2,1,32,0,1
1006636,-105.263157894737,4,2,2,32,0,1
1006936,-105.263157894737,4,2,1,32,0,1
1008886,-105.263157894737,4,2,2,32,0,1
1009336,-105.263157894737,4,2,1,32,0,1
1011436,-105.263157894737,4,2,2,32,0,1
1011736,-105.263157894737,4,2,1,32,0,1
1015336,-105.263157894737,4,2,1,32,0,1
1016236,-105.263157894737,4,2,2,32,0,1
1018936,-105.263157894737,4,2,1,32,0,1
1023436,-105.263157894737,4,2,2,32,0,1
1023736,-105.263157894737,4,2,1,32,0,1
1025686,-105.263157894737,4,2,2,32,0,1
1025836,-105.263157894737,4,2,1,32,0,1
1025986,-105.263157894737,4,2,2,32,0,1
1026136,-105.263157894737,4,2,1,32,0,1
1028236,-105.263157894737,4,2,2,32,0,1
1028386,-105.263157894737,4,2,1,32,0,1
1029886,-66.6666666666667,4,2,1,32,0,1
1030036,-133.333333333333,4,2,1,32,0,1
1030111,-105.263157894737,4,2,1,32,0,1
1030186,-66.6666666666667,4,2,1,32,0,1
1030336,-133.333333333333,4,2,1,32,0,1
1030411,-105.263157894737,4,2,1,32,0,1
1030486,-66.6666666666667,4,2,1,32,0,1
1030636,-133.333333333333,4,2,1,32,0,1
1030711,-105.263157894737,4,2,1,32,0,1
1030786,-105.263157894737,4,2,3,32,0,1
1030936,-105.263157894737,4,2,1,32,0,1
1032286,-133.333333333333,4,2,1,32,0,1
1032436,-66.6666666666667,4,2,1,32,0,1
1032511,-105.263157894737,4,2,1,32,0,1
1032586,-133.333333333333,4,2,1,32,0,1
1032736,-66.6666666666667,4,2,1,32,0,1
1032811,-105.263157894737,4,2,1,32,0,1
1032886,-133.333333333333,4,2,1,32,0,1
1033036,-66.6666666666667,4,2,1,32,0,1
1033111,-105.263157894737,4,2,1,32,0,1
1034086,-105.263157894737,4,2,2,32,0,1
1034236,-105.263157894737,4,2,1,32,0,1
1035286,-105.263157894737,4,2,2,32,0,1
1035436,-105.263157894737,4,2,1,32,0,1
1036486,-105.263157894737,4,2,2,32,0,1
1036636,-105.263157894737,4,2,1,32,0,1
1038136,-55.5555555555556,4,2,1,32,0,0
1038286,-153.846153846154,4,2,1,32,0,0
1038436,-105.263157894737,4,2,1,32,0,0
1038586,-55.5555555555556,4,2,1,32,0,0
1038736,-153.846153846154,4,2,1,32,0,0
1038886,-105.263157894737,4,2,1,32,0,0
1039036,-55.5555555555556,4,2,1,32,0,0
1039186,-153.846153846154,4,2,1,32,0,0
1039336,-105.263157894737,4,2,1,32,0,0
1039486,-55.5555555555556,4,2,1,32,0,0
1039561,-153.846153846154,4,2,1,32,0,0
1039636,-105.263157894737,4,2,1,32,0,0
1039786,-100,4,2,1,32,0,0
1039861,-105.263157894737,4,2,1,32,0,0
1039936,-100,4,2,1,32,0,0
1040011,-105.263157894737,4,2,1,32,0,0
1040086,-100,4,2,1,32,0,0
1040161,-105.263157894737,4,2,1,32,0,0
1040236,-55.5555555555556,4,2,1,32,0,0
1040311,-153.846153846154,4,2,1,32,0,0
1040386,-105.263157894737,4,2,1,32,0,0
1040536,-55.5555555555556,4,2,1,32,0,0
1040686,-153.846153846154,4,2,1,32,0,0
1040836,-105.263157894737,4,2,1,32,0,0
1040986,-55.5555555555556,4,2,1,32,0,0
1041061,-153.846153846154,4,2,1,32,0,0
1041136,-105.263157894737,4,2,1,32,0,0
1041286,-100,4,2,1,32,0,0
1041361,-105.263157894737,4,2,1,32,0,0
1041436,-55.5555555555556,4,2,1,32,0,0
1041511,-153.846153846154,4,2,1,32,0,0
1041586,-105.263157894737,4,2,1,32,0,0
1041736,-55.5555555555556,4,2,1,32,0,0
1041886,-153.846153846154,4,2,1,32,0,0
1041961,-105.263157894737,4,2,1,32,0,0
1042936,-105.263157894737,4,2,1,32,0,1
1044961,-105.263157894737,4,2,2,32,0,1
1045186,-105.263157894737,4,2,1,32,0,1
1046536,-105.263157894737,4,2,2,32,0,1
1047436,-105.263157894737,4,2,2,32,0,1
1047736,-105.263157894737,4,2,1,32,0,0
1048636,-105.263157894737,4,2,1,32,0,0
1058536,500,4,3,1,32,1,0
1058536,-63.2911392405063,4,3,1,32,0,0
1061536,-63.2911392405063,4,3,1,32,0,0
1062536,-63.2911392405063,4,3,1,32,0,0
1078536,-63.2911392405063,4,2,3,32,0,0
1086546,500,4,2,1,32,1,0
1086546,-63.2911392405063,4,2,1,32,0,0
1094546,-63.2911392405063,4,2,1,32,0,0
1098046,-63.2911392405063,4,2,2,32,0,0
1110546,250,4,1,2,32,1,1
1110546,-126.582278481013,4,1,2,32,0,1
1110608,-126.582278481013,4,1,1,32,0,1
1112546,-126.582278481013,4,1,2,32,0,1
1112608,-126.582278481013,4,1,1,32,0,1
1114546,-126.582278481013,4,1,2,32,0,1
1114608,-126.582278481013,4,1,1,32,0,1
1116546,-126.582278481013,4,1,2,32,0,1
1116608,-126.582278481013,4,1,1,32,0,1
1122546,-126.582278481013,4,1,2,32,0,1
1122608,-126.582278481013,4,1,1,32,0,1
1124546,-126.582278481013,4,1,2,32,0,1
1124608,-126.582278481013,4,1,1,32,0,1
1126546,-126.582278481013,4,1,2,32,0,1
1126608,-126.582278481013,4,1,1,32,0,1
1128546,-126.582278481013,4,1,2,32,0,1
1128608,-126.582278481013,4,1,1,32,0,1
1130546,-126.582278481013,4,1,2,32,0,1
1132046,-126.582278481013,4,1,1,32,0,1
1132296,-126.582278481013,4,1,1,32,0,1
1132421,-126.582278481013,4,1,1,32,0,0
1132546,-126.582278481013,4,1,2,32,0,1
1132608,-126.582278481013,4,1,1,32,0,1
1134546,-126.582278481013,4,1,2,32,0,1
1134608,-126.582278481013,4,1,1,32,0,1
1136546,-126.582278481013,4,1,2,32,0,1
1136608,-126.582278481013,4,1,1,32,0,1
1138546,-126.582278481013,4,1,2,32,0,1
1138608,-126.582278481013,4,1,1,32,0,1
1139546,-126.582278481013,4,1,1,32,0,1
1140546,-126.582278481013,4,1,1,32,0,0
1150546,-126.582278481013,4,1,1,32,0,0
1154546,-126.582278481013,4,1,2,32,0,1
1154608,-126.582278481013,4,1,1,32,0,1
1156546,-126.582278481013,4,1,2,32,0,1
1156608,-126.582278481013,4,1,1,32,0,1
1158546,-126.582278481013,4,1,2,32,0,1
1158608,-126.582278481013,4,1,1,32,0,1
1160546,-126.582278481013,4,1,2,32,0,1
1160608,-126.582278481013,4,1,1,32,0,1
1168546,-126.582278481013,4,1,2,32,0,1
1168608,-126.582278481013,4,1,1,32,0,1
1170546,-126.582278481013,4,1,2,32,0,1
1170608,-126.582278481013,4,1,1,32,0,1
1172546,-126.582278481013,4,1,2,32,0,1
1172608,-126.582278481013,4,1,1,32,0,1
1174546,-126.582278481013,4,1,2,32,0,1
1174608,-126.582278481013,4,1,1,32,0,1
1176421,-126.582278481013,4,1,1,32,0,0
1176546,-126.582278481013,4,1,2,32,0,1
1176608,-126.582278481013,4,1,1,32,0,1
1177671,-126.582278481013,4,1,1,32,0,1
1178171,-126.582278481013,4,1,1,32,0,1
1178546,-126.582278481013,4,1,2,32,0,1
1178608,-126.582278481013,4,1,1,32,0,1
1179671,-126.582278481013,4,1,1,32,0,1
1180171,-126.582278481013,4,1,1,32,0,1
1180546,-126.582278481013,4,1,2,32,0,1
1180608,-126.582278481013,4,1,1,32,0,1
1181671,-126.582278481013,4,1,1,32,0,1
1182171,-126.582278481013,4,1,1,32,0,1
1182546,-126.582278481013,4,1,1,32,0,1
1182671,-126.582278481013,4,1,1,32,0,1
1183171,-126.582278481013,4,1,1,32,0,1
1183546,-126.582278481013,4,1,2,32,0,1
1183608,-126.582278481013,4,1,1,32,0,1
1185546,-126.582278481013,4,1,2,32,0,1
1185608,-126.582278481013,4,1,1,32,0,1
1187546,-126.582278481013,4,1,2,32,0,1
1187608,-126.582278481013,4,1,1,32,0,1
1189546,-126.582278481013,4,1,2,32,0,1
1189608,-126.582278481013,4,1,1,32,0,1
1191546,-126.582278481013,4,1,2,32,0,1
1191608,-126.582278481013,4,1,1,32,0,1
1193546,-126.582278481013,4,1,2,32,0,1
1193608,-126.582278481013,4,1,1,32,0,1
1205546,-126.582278481013,4,1,2,32,0,1
1205608,-126.582278481013,4,1,1,32,0,1
1207546,-126.582278481013,4,1,2,32,0,1
1207608,-126.582278481013,4,1,1,32,0,1
1209546,-126.582278481013,4,1,2,32,0,1
1209608,-126.582278481013,4,1,1,32,0,1
1211546,-126.582278481013,4,1,2,32,0,1
1211608,-126.582278481013,4,1,1,32,0,1
1213546,-126.582278481013,4,1,2,32,0,1
1213608,-126.582278481013,4,1,1,32,0,1
1215546,-126.582278481013,4,1,2,32,0,1
1215608,-126.582278481013,4,1,1,32,0,1
1219546,-126.582278481013,4,1,2,32,0,1
1219608,-126.582278481013,4,1,1,32,0,1
1221546,-126.582278481013,4,1,2,32,0,1
1221608,-126.582278481013,4,1,1,32,0,1
1227483,-126.582278481013,4,1,1,32,0,0
1227546,-126.582278481013,4,1,1,32,0,1
1227608,-126.582278481013,4,2,1,32,0,0
1228046,-126.582278481013,4,2,1,70,0,0
1228358,-126.582278481013,4,2,1,60,0,0
1228608,-126.582278481013,4,2,1,50,0,0
1228921,-126.582278481013,4,2,1,40,0,0
1229233,-126.582278481013,4,2,1,30,0,0
1229546,-126.582278481013,4,2,1,20,0,0
1229858,-126.582278481013,4,2,1,10,0,0
1230046,-126.582278481013,4,2,1,5,0,0
1233206,666.666666666667,4,2,1,50,1,0
1233206,-47.6190476190476,4,2,1,50,0,0
1297206,-47.6190476190476,4,2,1,50,0,0
1299872,333.333333333333,4,2,1,51,1,0
1299872,-95.2380952380952,4,2,1,51,0,0
1350633,-95.2380952380952,4,2,1,51,0,1
1383967,-95.2380952380952,4,2,1,51,0,0
1395867,342.857142857143,4,2,1,51,1,0
1401352,352.941176470588,4,2,1,51,1,0
1405587,363.636363636364,4,2,1,51,1,0
1414314,375,4,2,1,51,1,0
1415814,387.096774193548,4,2,1,51,1,0
1417362,400,4,2,1,51,1,0
1418962,428.571428571429,4,2,1,51,1,0
1420676,461.538461538462,4,2,1,51,1,0
1422522,480,4,2,1,51,1,0
1424442,521.739130434783,4,2,1,51,1,0
1426525,545.454545454546,4,2,1,51,1,0
1426525,-58.1395348837209,4,2,1,51,0,0
1430888,600,4,2,1,51,1,0
1430888,-52.6315789473684,4,2,1,51,0,0
1433288,333.333333333333,4,2,1,51,1,0
1433288,-95.2380952380952,4,2,1,51,0,0

[HitObjects]
64,192,774,128,0,1406:0:0:0:0:
320,192,1406,1,0,0:0:0:0:
192,192,1406,1,0,0:0:0:0:
448,192,1563,1,0,0:0:0:0:
320,192,1563,1,0,0:0:0:0:
192,192,1721,1,0,0:0:0:0:
64,192,1721,1,0,0:0:0:0:
320,192,2037,1,0,0:0:0:0:
192,192,2037,1,0,0:0:0:0:
448,192,2195,1,0,0:0:0:0:
64,192,2195,1,0,0:0:0:0:
320,192,2353,1,0,0:0:0:0:
192,192,2353,1,0,0:0:0:0:
448,192,2669,1,0,0:0:0:0:
64,192,2669,1,0,0:0:0:0:
320,192,2827,1,0,0:0:0:0:
192,192,2827,1,0,0:0:0:0:
448,192,2984,1,0,0:0:0:0:
64,192,2984,1,0,0:0:0:0:
448,192,3300,1,0,0:0:0:0:
192,192,3300,1,0,0:0:0:0:
320,192,3458,1,0,0:0:0:0:
64,192,3458,1,0,0:0:0:0:
448,192,3616,1,0,0:0:0:0:
192,192,3616,1,0,0:0:0:0:
320,192,3932,1,0,0:0:0:0:
64,192,3932,1,0,0:0:0:0:
448,192,4090,1,0,0:0:0:0:
192,192,4090,1,0,0:0:0:0:
320,192,4248,1,0,0:0:0:0:
64,192,4248,1,0,0:0:0:0:
448,192,4563,1,0,0:0:0:0:
320,192,4563,1,0,0:0:0:0:
320,192,4721,1,0,0:0:0:0:
192,192,4721,1,0,0:0:0:0:
192,192,4879,1,0,0:0:0:0:
64,192,4879,1,0,0:0:0:0:
320,192,5195,1,0,0:0:0:0:
448,192,5195,128,0,5827:0:0:0:0:
192,192,5827,1,0,0:0:0:0:
320,192,5827,128,0,6458:0:0:0:0:
448,192,6458,1,0,0:0:0:0:
192,192,6458,128,0,7090:0:0:0:0:
320,192,7090,1,0,0:0:0:0:
64,192,7090,128,0,7721:0:0:0:0:
320,192,7721,1,0,0:0:0:0:
192,192,7721,1,0,0:0:0:0:
448,192,7721,1,0,0:0:0:0:
192,192,7879,1,0,0:0:0:0:
64,192,7879,1,0,0:0:0:0:
448,192,7879,1,0,0:0:0:0:
320,192,8037,1,0,0:0:0:0:
192,192,8037,1,0,0:0:0:0:
448,192,8037,1,0,0:0:0:0:
192,192,8195,1,0,0:0:0:0:
320,192,8274,1,0,0:0:0:0:
64,192,8353,1,0,0:0:0:0:
192,192,8353,1,0,0:0:0:0:
448,192,8353,1,0,0:0:0:0:
320,192,8511,1,0,0:0:0:0:
192,192,8511,1,0,0:0:0:0:
448,192,8511,1,0,0:0:0:0:
192,192,8669,1,0,0:0:0:0:
64,192,8669,1,0,0:0:0:0:
448,192,8669,1,0,0:0:0:0:
320,192,8748,1,0,0:0:0:0:
192,192,8827,1,0,0:0:0:0:
320,192,8906,1,0,0:0:0:0:
64,192,8984,1,0,0:0:0:0:
192,192,8984,1,0,0:0:0:0:
448,192,8984,1,0,0:0:0:0:
320,192,9142,1,0,0:0:0:0:
192,192,9142,1,0,0:0:0:0:
448,192,9142,1,0,0:0:0:0:
320,192,9300,1,0,0:0:0:0:
192,192,9300,1,0,0:0:0:0:
448,192,9300,1,0,0:0:0:0:
448,192,9458,1,0,0:0:0:0:
192,192,9537,1,0,0:0:0:0:
320,192,9616,1,0,0:0:0:0:
64,192,9616,1,0,0:0:0:0:
448,192,9616,1,0,0:0:0:0:
320,192,9774,1,0,0:0:0:0:
192,192,9774,1,0,0:0:0:0:
448,192,9774,1,0,0:0:0:0:
64,192,9932,1,0,0:0:0:0:
192,192,9932,1,0,0:0:0:0:
448,192,9932,1,0,0:0:0:0:
320,192,10011,1,0,0:0:0:0:
192,192,10090,1,0,0:0:0:0:
64,192,10169,1,0,0:0:0:0:
320,192,10248,1,0,0:0:0:0:
192,192,10248,1,0,0:0:0:0:
448,192,10248,1,0,0:0:0:0:
64,192,10406,1,0,0:0:0:0:
192,192,10406,1,0,0:0:0:0:
448,192,10406,1,0,0:0:0:0:
320,192,10563,1,0,0:0:0:0:
192,192,10563,1,0,0:0:0:0:
448,192,10563,1,0,0:0:0:0:
64,192,10721,1,0,0:0:0:0:
192,192,10800,1,0,0:0:0:0:
320,192,10879,1,0,0:0:0:0:
64,192,10879,1,0,0:0:0:0:
448,192,10879,1,0,0:0:0:0:
320,192,11037,1,0,0:0:0:0:
64,192,11037,1,0,0:0:0:0:
448,192,11037,1,0,0:0:0:0:
320,192,11195,1,0,0:0:0:0:
64,192,11195,1,0,0:0:0:0:
448,192,11195,1,0,0:0:0:0:
192,192,11274,1,0,0:0:0:0:
320,192,11353,1,0,0:0:0:0:
192,192,11432,1,0,0:0:0:0:
320,192,11511,1,0,0:0:0:0:
64,192,11511,1,0,0:0:0:0:
448,192,11511,1,0,0:0:0:0:
192,192,11669,1,0,0:0:0:0:
64,192,11669,1,0,0:0:0:0:
448,192,11669,1,0,0:0:0:0:
320,192,11827,1,0,0:0:0:0:
64,192,11827,1,0,0:0:0:0:
448,192,11827,1,0,0:0:0:0:
192,192,11984,1,0,0:0:0:0:
320,192,12063,1,0,0:0:0:0:
64,192,12142,1,0,0:0:0:0:
192,192,12142,1,0,0:0:0:0:
448,192,12142,1,0,0:0:0:0:
320,192,12300,1,0,0:0:0:0:
192,192,12300,1,0,0:0:0:0:
448,192,12300,1,0,0:0:0:0:
64,192,12458,1,0,0:0:0:0:
448,192,12458,1,0,0:0:0:0:
192,192,12458,1,0,0:0:0:0:
320,192,12537,1,0,0:0:0:0:
448,192,12616,1,0,0:0:0:0:
64,192,12695,1,0,0:0:0:0:
192,192,12774,1,0,0:0:0:0:
320,192,12774,1,0,0:0:0:0:
448,192,12774,1,0,0:0:0:0:
320,192,12932,1,0,0:0:0:0:
192,192,12932,1,0,0:0:0:0:
448,192,12932,1,0,0:0:0:0:
192,192,13090,1,0,0:0:0:0:
64,192,13090,1,0,0:0:0:0:
448,192,13090,1,0,0:0:0:0:
320,192,13248,1,0,0:0:0:0:
192,192,13327,1,0,0:0:0:0:
64,192,13406,1,0,0:0:0:0:
320,192,13406,1,0,0:0:0:0:
448,192,13406,1,0,0:0:0:0:
192,192,13563,1,0,0:0:0:0:
64,192,13563,1,0,0:0:0:0:
448,192,13563,1,0,0:0:0:0:
320,192,13721,1,0,0:0:0:0:
64,192,13721,1,0,0:0:0:0:
448,192,13721,1,0,0:0:0:0:
192,192,13800,1,0,0:0:0:0:
64,192,13879,1,0,0:0:0:0:
192,192,13958,1,0,0:0:0:0:
320,192,14037,1,0,0:0:0:0:
64,192,14037,1,0,0:0:0:0:
448,192,14037,1,0,0:0:0:0:
192,192,14195,1,0,0:0:0:0:
320,192,14195,1,0,0:0:0:0:
448,192,14195,1,0,0:0:0:0:
320,192,14353,1,0,0:0:0:0:
192,192,14353,1,0,0:0:0:0:
448,192,14353,1,0,0:0:0:0:
64,192,14511,1,0,0:0:0:0:
192,192,14590,1,0,0:0:0:0:
320,192,14669,1,0,0:0:0:0:
64,192,14669,1,0,0:0:0:0:
448,192,14669,1,0,0:0:0:0:
320,192,14827,1,0,0:0:0:0:
192,192,14827,1,0,0:0:0:0:
448,192,14827,1,0,0:0:0:0:
192,192,14984,1,0,0:0:0:0:
64,192,14984,1,0,0:0:0:0:
448,192,14984,1,0,0:0:0:0:
320,192,15063,1,0,0:0:0:0:
448,192,15142,1,0,0:0:0:0:
320,192,15221,1,0,0:0:0:0:
64,192,15300,1,0,0:0:0:0:
192,192,15300,1,0,0:0:0:0:
448,192,15300,1,0,0:0:0:0:
320,192,15458,1,0,0:0:0:0:
64,192,15458,1,0,0:0:0:0:
448,192,15458,1,0,0:0:0:0:
192,192,15616,1,0,0:0:0:0:
320,192,15616,1,0,0:0:0:0:
448,192,15616,1,0,0:0:0:0:
448,192,15774,1,0,0:0:0:0:
320,192,15853,1,0,0:0:0:0:
192,192,15932,1,0,0:0:0:0:
64,192,15932,1,0,0:0:0:0:
448,192,15932,1,0,0:0:0:0:
320,192,16090,1,0,0:0:0:0:
192,192,16090,1,0,0:0:0:0:
448,192,16090,1,0,0:0:0:0:
64,192,16248,1,0,0:0:0:0:
192,192,16248,1,0,0:0:0:0:
448,192,16248,1,0,0:0:0:0:
320,192,16327,1,0,0:0:0:0:
192,192,16406,1,0,0:0:0:0:
64,192,16484,1,0,0:0:0:0:
192,192,16563,1,0,0:0:0:0:
320,192,16563,1,0,0:0:0:0:
448,192,16563,1,0,0:0:0:0:
64,192,16721,1,0,0:0:0:0:
192,192,16721,1,0,0:0:0:0:
448,192,16721,1,0,0:0:0:0:
192,192,16879,1,0,0:0:0:0:
64,192,16879,1,0,0:0:0:0:
448,192,16879,1,0,0:0:0:0:
192,192,17037,1,0,0:0:0:0:
64,192,17116,1,0,0:0:0:0:
320,192,17195,1,0,0:0:0:0:
192,192,17195,1,0,0:0:0:0:
448,192,17195,1,0,0:0:0:0:
320,192,17353,1,0,0:0:0:0:
192,192,17353,1,0,0:0:0:0:
448,192,17353,1,0,0:0:0:0:
320,192,17511,1,0,0:0:0:0:
64,192,17511,1,0,0:0:0:0:
448,192,17511,1,0,0:0:0:0:
192,192,17590,1,0,0:0:0:0:
320,192,17669,1,0,0:0:0:0:
448,192,17748,1,0,0:0:0:0:
320,192,17827,1,0,0:0:0:0:
192,192,17827,1,0,0:0:0:0:
64,192,17827,1,0,0:0:0:0:
320,192,17984,1,0,0:0:0:0:
192,192,17984,1,0,0:0:0:0:
448,192,17984,1,0,0:0:0:0:
320,192,18142,1,0,0:0:0:0:
192,192,18142,1,0,0:0:0:0:
448,192,18142,1,0,0:0:0:0:
192,192,18300,1,0,0:0:0:0:
64,192,18379,1,0,0:0:0:0:
192,192,18458,1,0,0:0:0:0:
320,192,18458,1,0,0:0:0:0:
448,192,18458,1,0,0:0:0:0:
192,192,18616,1,0,0:0:0:0:
64,192,18616,1,0,0:0:0:0:
448,192,18616,1,0,0:0:0:0:
192,192,18774,1,0,0:0:0:0:
64,192,18774,1,0,0:0:0:0:
448,192,18774,1,0,0:0:0:0:
320,192,18853,1,0,0:0:0:0:
192,192,18932,1,0,0:0:0:0:
320,192,19011,1,0,0:0:0:0:
64,192,19090,1,0,0:0:0:0:
192,192,19090,1,0,0:0:0:0:
448,192,19090,1,0,0:0:0:0:
320,192,19248,1,0,0:0:0:0:
192,192,19248,1,0,0:0:0:0:
448,192,19248,1,0,0:0:0:0:
64,192,19406,1,0,0:0:0:0:
192,192,19406,1,0,0:0:0:0:
448,192,19406,1,0,0:0:0:0:
192,192,19563,1,0,0:0:0:0:
320,192,19642,1,0,0:0:0:0:
192,192,19721,1,0,0:0:0:0:
64,192,19721,1,0,0:0:0:0:
448,192,19721,1,0,0:0:0:0:
192,192,19879,1,0,0:0:0:0:
64,192,19879,1,0,0:0:0:0:
448,192,19879,1,0,0:0:0:0:
192,192,20037,1,0,0:0:0:0:
64,192,20037,1,0,0:0:0:0:
448,192,20037,1,0,0:0:0:0:
320,192,20116,1,0,0:0:0:0:
192,192,20195,1,0,0:0:0:0:
64,192,20274,1,0,0:0:0:0:
320,192,20353,1,0,0:0:0:0:
192,192,20353,1,0,0:0:0:0:
448,192,20353,1,0,0:0:0:0:
192,192,20511,1,0,0:0:0:0:
64,192,20511,1,0,0:0:0:0:
448,192,20511,1,0,0:0:0:0:
320,192,20669,1,0,0:0:0:0:
192,192,20669,1,0,0:0:0:0:
448,192,20669,1,0,0:0:0:0:
64,192,20827,1,0,0:0:0:0:
192,192,20906,1,0,0:0:0:0:
64,192,20984,1,0,0:0:0:0:
320,192,20984,1,0,0:0:0:0:
448,192,20984,1,0,0:0:0:0:
320,192,21142,1,0,0:0:0:0:
192,192,21142,1,0,0:0:0:0:
448,192,21142,1,0,0:0:0:0:
64,192,21300,1,0,0:0:0:0:
192,192,21300,1,0,0:0:0:0:
448,192,21300,1,0,0:0:0:0:
320,192,21379,1,0,0:0:0:0:
192,192,21458,1,0,0:0:0:0:
64,192,21537,1,0,0:0:0:0:
320,192,21616,1,0,0:0:0:0:
192,192,21616,1,0,0:0:0:0:
448,192,21616,1,0,0:0:0:0:
192,192,21774,1,0,0:0:0:0:
64,192,21774,1,0,0:0:0:0:
448,192,21774,1,0,0:0:0:0:
320,192,21932,1,0,0:0:0:0:
64,192,21932,1,0,0:0:0:0:
448,192,21932,1,0,0:0:0:0:
448,192,22090,1,0,0:0:0:0:
320,192,22169,1,0,0:0:0:0:
64,192,22248,1,0,0:0:0:0:
192,192,22248,1,0,0:0:0:0:
448,192,22248,1,0,0:0:0:0:
320,192,22406,1,0,0:0:0:0:
192,192,22406,1,0,0:0:0:0:
448,192,22406,1,0,0:0:0:0:
192,192,22563,1,0,0:0:0:0:
320,192,22563,1,0,0:0:0:0:
448,192,22563,1,0,0:0:0:0:
64,192,22642,1,0,0:0:0:0:
192,192,22721,1,0,0:0:0:0:
64,192,22800,1,0,0:0:0:0:
192,192,22879,1,0,0:0:0:0:
320,192,22879,1,0,0:0:0:0:
64,192,23037,1,0,0:0:0:0:
448,192,23037,1,0,0:0:0:0:
320,192,23195,1,0,0:0:0:0:
448,192,23195,1,0,0:0:0:0:
192,192,23353,1,0,0:0:0:0:
448,192,23353,1,0,0:0:0:0:
320,192,23432,1,0,0:0:0:0:
64,192,23511,1,0,0:0:0:0:
448,192,23511,1,0,0:0:0:0:
448,192,23669,1,0,0:0:0:0:
64,192,23827,1,0,0:0:0:0:
448,192,23827,1,0,0:0:0:0:
192,192,23906,1,0,0:0:0:0:
320,192,23906,1,0,0:0:0:0:
64,192,23984,1,0,0:0:0:0:
448,192,23984,1,0,0:0:0:0:
320,192,24063,1,0,0:0:0:0:
64,192,24142,1,0,0:0:0:0:
192,192,24142,1,0,0:0:0:0:
64,192,24300,1,0,0:0:0:0:
192,192,24340,1,0,0:0:0:0:
320,192,24379,1,0,0:0:0:0:
448,192,24419,1,0,0:0:0:0:
64,192,24458,1,0,0:0:0:0:
448,192,24616,1,0,0:0:0:0:
320,192,24656,1,0,0:0:0:0:
192,192,24695,1,0,0:0:0:0:
64,192,24734,1,0,0:0:0:0:
448,192,24774,1,0,0:0:0:0:
192,192,24774,1,0,0:0:0:0:
320,192,24813,1,0,0:0:0:0:
448,192,24853,1,0,0:0:0:0:
64,192,24892,1,0,0:0:0:0:
192,192,24932,1,0,0:0:0:0:
448,192,25090,1,0,0:0:0:0:
320,192,25090,1,0,0:0:0:0:
64,192,25248,1,0,0:0:0:0:
192,192,25248,1,0,0:0:0:0:
448,192,25327,1,0,0:0:0:0:
320,192,25327,1,0,0:0:0:0:
192,192,25406,1,0,0:0:0:0:
448,192,25406,1,0,0:0:0:0:
320,192,25406,1,0,0:0:0:0:
192,192,25721,1,0,0:0:0:0:
448,192,25721,1,0,0:0:0:0:
320,192,25721,1,0,0:0:0:0:
64,192,26195,1,0,0:0:0:0:
320,192,26195,1,0,0:0:0:0:
192,192,26195,1,0,0:0:0:0:
64,192,26511,1,0,0:0:0:0:
320,192,26511,1,0,0:0:0:0:
192,192,26511,1,0,0:0:0:0:
64,192,26669,1,0,0:0:0:0:
320,192,26669,1,0,0:0:0:0:
192,192,26669,1,0,0:0:0:0:
192,192,26984,1,0,0:0:0:0:
448,192,26984,1,0,0:0:0:0:
320,192,26984,1,0,0:0:0:0:
192,192,27142,1,0,0:0:0:0:
448,192,27142,1,0,0:0:0:0:
320,192,27142,1,0,0:0:0:0:
320,192,27458,1,0,0:0:0:0:
192,192,27458,1,0,0:0:0:0:
64,192,27458,1,0,0:0:0:0:
320,192,27616,1,0,0:0:0:0:
192,192,27616,1,0,0:0:0:0:
64,192,27616,1,0,0:0:0:0:
64,192,27932,1,0,0:0:0:0:
448,192,27932,1,0,0:0:0:0:
320,192,27932,1,0,0:0:0:0:
64,192,28248,1,0,0:0:0:0:
448,192,28248,1,0,0:0:0:0:
320,192,28248,1,0,0:0:0:0:
448,192,28721,1,0,0:0:0:0:
320,192,28721,1,0,0:0:0:0:
192,192,28721,1,0,0:0:0:0:
448,192,29037,1,0,0:0:0:0:
320,192,29037,1,0,0:0:0:0:
192,192,29037,1,0,0:0:0:0:
448,192,29195,1,0,0:0:0:0:
320,192,29195,1,0,0:0:0:0:
192,192,29195,1,0,0:0:0:0:
64,192,29511,1,0,0:0:0:0:
320,192,29511,1,0,0:0:0:0:
192,192,29511,1,0,0:0:0:0:
64,192,29669,1,0,0:0:0:0:
192,192,29669,1,0,0:0:0:0:
320,192,29669,1,0,0:0:0:0:
448,192,29984,1,0,0:0:0:0:
192,192,29984,1,0,0:0:0:0:
64,192,29984,1,0,0:0:0:0:
448,192,30142,1,0,0:0:0:0:
192,192,30142,1,0,0:0:0:0:
64,192,30142,1,0,0:0:0:0:
192,192,30458,1,0,0:0:0:0:
448,192,30458,1,0,0:0:0:0:
320,192,30458,1,0,0:0:0:0:
64,192,30774,1,0,0:0:0:0:
448,192,30774,1,0,0:0:0:0:
320,192,30774,1,0,0:0:0:0:
448,192,31248,1,0,0:0:0:0:
192,192,31248,1,0,0:0:0:0:
64,192,31248,1,0,0:0:0:0:
320,192,31563,1,0,0:0:0:0:
192,192,31563,1,0,0:0:0:0:
64,192,31563,1,0,0:0:0:0:
448,192,31721,1,0,0:0:0:0:
192,192,31721,1,0,0:0:0:0:
64,192,31721,1,0,0:0:0:0:
448,192,32037,1,0,0:0:0:0:
192,192,32037,1,0,0:0:0:0:
64,192,32037,1,0,0:0:0:0:
192,192,32195,1,0,0:0:0:0:
448,192,32195,1,0,0:0:0:0:
320,192,32195,1,0,0:0:0:0:
64,192,32511,1,0,0:0:0:0:
448,192,32511,1,0,0:0:0:0:
320,192,32511,1,0,0:0:0:0:
192,192,32669,1,0,0:0:0:0:
448,192,32669,1,0,0:0:0:0:
320,192,32669,1,0,0:0:0:0:
448,192,32984,1,0,0:0:0:0:
320,192,32984,1,0,0:0:0:0:
192,192,32984,1,0,0:0:0:0:
64,192,33300,1,0,0:0:0:0:
320,192,33300,1,0,0:0:0:0:
192,192,33300,1,0,0:0:0:0:
448,192,33774,1,0,0:0:0:0:
320,192,33774,1,0,0:0:0:0:
192,192,33774,1,0,0:0:0:0:
64,192,34090,1,0,0:0:0:0:
320,192,34090,1,0,0:0:0:0:
192,192,34090,1,0,0:0:0:0:
448,192,34248,1,0,0:0:0:0:
64,192,34248,1,0,0:0:0:0:
192,192,34248,1,0,0:0:0:0:
320,192,34248,1,0,0:0:0:0:
448,192,34327,1,0,0:0:0:0:
320,192,34406,1,0,0:0:0:0:
192,192,34484,1,0,0:0:0:0:
448,192,34563,1,0,0:0:0:0:
320,192,34563,1,0,0:0:0:0:
64,192,34563,1,0,0:0:0:0:
192,192,34642,1,0,0:0:0:0:
64,192,34721,1,0,0:0:0:0:
448,192,34721,1,0,0:0:0:0:
192,192,34721,1,0,0:0:0:0:
320,192,34800,1,0,0:0:0:0:
192,192,34879,1,0,0:0:0:0:
64,192,34958,1,0,0:0:0:0:
320,192,35037,1,0,0:0:0:0:
448,192,35037,1,0,0:0:0:0:
192,192,35037,1,0,0:0:0:0:
64,192,35116,1,0,0:0:0:0:
192,192,35195,1,0,0:0:0:0:
448,192,35195,1,0,0:0:0:0:
320,192,35195,1,0,0:0:0:0:
64,192,35511,128,0,35984:0:0:0:0:
192,192,35511,1,0,0:0:0:0:
320,192,35669,1,0,0:0:0:0:
448,192,35827,1,0,0:0:0:0:
192,192,35984,128,0,36142:0:0:0:0:
320,192,35984,1,0,0:0:0:0:
320,192,36142,128,0,37406:0:0:0:0:
64,192,36142,1,0,0:0:0:0:
192,192,36300,1,0,0:0:0:0:
448,192,36458,1,0,0:0:0:0:
64,192,36616,1,0,0:0:0:0:
192,192,36774,1,0,0:0:0:0:
448,192,36932,1,0,0:0:0:0:
64,192,37090,1,0,0:0:0:0:
192,192,37248,1,0,0:0:0:0:
64,192,37406,128,0,37879:0:0:0:0:
448,192,37406,1,0,0:0:0:0:
320,192,37563,1,0,0:0:0:0:
192,192,37721,1,0,0:0:0:0:
320,192,37879,1,0,0:0:0:0:
448,192,37879,1,0,0:0:0:0:
192,192,37958,1,0,0:0:0:0:
64,192,38037,1,0,0:0:0:0:
448,192,38037,128,0,39300:0:0:0:0:
320,192,38037,1,0,0:0:0:0:
192,192,38195,1,0,0:0:0:0:
64,192,38353,1,0,0:0:0:0:
192,192,38511,1,0,0:0:0:0:
320,192,38669,128,0,39142:0:0:0:0:
64,192,38669,1,0,0:0:0:0:
192,192,38827,1,0,0:0:0:0:
64,192,38984,1,0,0:0:0:0:
64,192,39142,1,0,0:0:0:0:
192,192,39142,1,0,0:0:0:0:
192,192,39221,1,0,0:0:0:0:
320,192,39300,1,0,0:0:0:0:
64,192,39300,1,0,0:0:0:0:
192,192,39458,1,0,0:0:0:0:
320,192,39616,1,0,0:0:0:0:
192,192,39774,1,0,0:0:0:0:
448,192,39932,1,0,0:0:0:0:
320,192,39932,1,0,0:0:0:0:
64,192,40090,1,0,0:0:0:0:
192,192,40169,1,0,0:0:0:0:
320,192,40248,1,0,0:0:0:0:
64,192,40406,1,0,0:0:0:0:
448,192,40406,1,0,0:0:0:0:
192,192,40563,1,0,0:0:0:0:
320,192,40563,128,0,41037:0:0:0:0:
448,192,40563,1,0,0:0:0:0:
64,192,40721,1,0,0:0:0:0:
448,192,40879,1,0,0:0:0:0:
192,192,41037,128,0,41195:0:0:0:0:
64,192,41037,1,0,0:0:0:0:
64,192,41195,128,0,42458:0:0:0:0:
448,192,41195,1,0,0:0:0:0:
192,192,41353,1,0,0:0:0:0:
320,192,41511,1,0,0:0:0:0:
448,192,41669,1,0,0:0:0:0:
192,192,41827,1,0,0:0:0:0:
320,192,41827,1,0,0:0:0:0:
448,192,41984,1,0,0:0:0:0:
192,192,42142,1,0,0:0:0:0:
320,192,42300,1,0,0:0:0:0:
192,192,42458,128,0,42695:0:0:0:0:
448,192,42458,1,0,0:0:0:0:
64,192,42616,1,0,0:0:0:0:
320,192,42695,128,0,42932:0:0:0:0:
448,192,42774,1,0,0:0:0:0:
64,192,42932,1,0,0:0:0:0:
192,192,42932,128,0,43090:0:0:0:0:
64,192,43090,128,0,45616:0:0:0:0:
448,192,43090,1,0,0:0:0:0:
320,192,43248,1,0,0:0:0:0:
192,192,43406,1,0,0:0:0:0:
448,192,43563,1,0,0:0:0:0:
320,192,43721,1,0,0:0:0:0:
192,192,43721,1,0,0:0:0:0:
448,192,43879,1,0,0:0:0:0:
320,192,43958,1,0,0:0:0:0:
192,192,44037,1,0,0:0:0:0:
320,192,44195,1,0,0:0:0:0:
448,192,44195,1,0,0:0:0:0:
192,192,44353,1,0,0:0:0:0:
320,192,44353,1,0,0:0:0:0:
448,192,44511,1,0,0:0:0:0:
320,192,44669,1,0,0:0:0:0:
192,192,44827,1,0,0:0:0:0:
448,192,44984,1,0,0:0:0:0:
320,192,45142,1,0,0:0:0:0:
192,192,45300,1,0,0:0:0:0:
448,192,45458,1,0,0:0:0:0:
192,192,45616,128,0,46090:0:0:0:0:
320,192,45616,1,0,0:0:0:0:
448,192,45774,1,0,0:0:0:0:
320,192,45932,1,0,0:0:0:0:
64,192,46090,128,0,46248:0:0:0:0:
448,192,46090,1,0,0:0:0:0:
320,192,46248,128,0,47511:0:0:0:0:
192,192,46248,1,0,0:0:0:0:
448,192,46406,1,0,0:0:0:0:
192,192,46563,1,0,0:0:0:0:
64,192,46721,1,0,0:0:0:0:
448,192,46879,1,0,0:0:0:0:
192,192,47037,1,0,0:0:0:0:
64,192,47195,1,0,0:0:0:0:
448,192,47353,1,0,0:0:0:0:
64,192,47511,128,0,47984:0:0:0:0:
192,192,47511,1,0,0:0:0:0:
448,192,47669,1,0,0:0:0:0:
192,192,47827,1,0,0:0:0:0:
320,192,47984,1,0,0:0:0:0:
448,192,47984,1,0,0:0:0:0:
192,192,48063,1,0,0:0:0:0:
64,192,48142,128,0,50669:0:0:0:0:
320,192,48142,1,0,0:0:0:0:
448,192,48300,1,0,0:0:0:0:
192,192,48458,1,0,0:0:0:0:
320,192,48616,1,0,0:0:0:0:
192,192,48774,128,0,49248:0:0:0:0:
448,192,48774,1,0,0:0:0:0:
320,192,48932,1,0,0:0:0:0:
448,192,49090,1,0,0:0:0:0:
320,192,49248,1,0,0:0:0:0:
448,192,49248,1,0,0:0:0:0:
192,192,49327,1,0,0:0:0:0:
320,192,49406,1,0,0:0:0:0:
448,192,49406,1,0,0:0:0:0:
192,192,49563,1,0,0:0:0:0:
320,192,49721,1,0,0:0:0:0:
448,192,49879,1,0,0:0:0:0:
192,192,50037,1,0,0:0:0:0:
320,192,50037,1,0,0:0:0:0:
448,192,50195,1,0,0:0:0:0:
320,192,50274,1,0,0:0:0:0:
192,192,50353,1,0,0:0:0:0:
320,192,50511,1,0,0:0:0:0:
448,192,50511,1,0,0:0:0:0:
192,192,50669,128,0,51142:0:0:0:0:
448,192,50669,1,0,0:0:0:0:
320,192,50827,1,0,0:0:0:0:
64,192,50984,1,0,0:0:0:0:
64,192,51142,128,0,51300:0:0:0:0:
320,192,51142,1,0,0:0:0:0:
320,192,51300,128,0,52563:0:0:0:0:
448,192,51300,1,0,0:0:0:0:
192,192,51458,1,0,0:0:0:0:
64,192,51616,1,0,0:0:0:0:
192,192,51774,1,0,0:0:0:0:
448,192,51932,1,0,0:0:0:0:
192,192,52090,1,0,0:0:0:0:
64,192,52248,1,0,0:0:0:0:
192,192,52406,1,0,0:0:0:0:
64,192,52563,128,0,52800:0:0:0:0:
448,192,52563,1,0,0:0:0:0:
320,192,52721,1,0,0:0:0:0:
192,192,52800,128,0,53037:0:0:0:0:
448,192,52879,1,0,0:0:0:0:
320,192,53037,128,0,53195:0:0:0:0:
64,192,53037,1,0,0:0:0:0:
192,192,53195,128,0,53669:0:0:0:0:
448,192,53195,1,0,0:0:0:0:
320,192,53353,1,0,0:0:0:0:
64,192,53511,1,0,0:0:0:0:
64,192,53669,128,0,53827:0:0:0:0:
320,192,53669,1,0,0:0:0:0:
320,192,53827,128,0,54458:0:0:0:0:
448,192,53827,1,0,0:0:0:0:
192,192,53984,1,0,0:0:0:0:
64,192,54142,1,0,0:0:0:0:
448,192,54300,1,0,0:0:0:0:
192,192,54458,1,0,0:0:0:0:
64,192,54458,1,0,0:0:0:0:
192,192,54616,1,0,0:0:0:0:
64,192,54616,1,0,0:0:0:0:
448,192,54695,1,0,0:0:0:0:
320,192,54695,1,0,0:0:0:0:
192,192,54774,1,0,0:0:0:0:
64,192,54774,1,0,0:0:0:0:
448,192,54853,1,0,0:0:0:0:
320,192,54853,1,0,0:0:0:0:
64,192,54932,1,0,0:0:0:0:
192,192,54932,1,0,0:0:0:0:
320,192,55011,1,0,0:0:0:0:
448,192,55011,1,0,0:0:0:0:
192,192,55090,1,0,0:0:0:0:
64,192,55090,1,0,0:0:0:0:
64,192,55248,1,0,0:0:0:0:
448,192,55248,1,0,0:0:0:0:
320,192,55327,1,0,0:0:0:0:
192,192,55327,1,0,0:0:0:0:
448,192,55406,1,0,0:0:0:0:
64,192,55406,1,0,0:0:0:0:
448,192,55563,1,0,0:0:0:0:
320,192,55563,1,0,0:0:0:0:
64,192,55563,1,0,0:0:0:0:
448,192,55721,128,0,56195:0:0:0:0:
320,192,55721,1,0,0:0:0:0:
64,192,55721,1,0,0:0:0:0:
192,192,55721,1,0,0:0:0:0:
320,192,55879,1,0,0:0:0:0:
192,192,56037,1,0,0:0:0:0:
192,192,56195,128,0,57616:0:0:0:0:
64,192,56195,1,0,0:0:0:0:
448,192,56353,1,0,0:0:0:0:
320,192,56511,1,0,0:0:0:0:
64,192,56669,1,0,0:0:0:0:
320,192,56827,1,0,0:0:0:0:
448,192,56984,1,0,0:0:0:0:
64,192,57142,1,0,0:0:0:0:
320,192,57300,1,0,0:0:0:0:
448,192,57458,1,0,0:0:0:0:
64,192,57616,128,0,57932:0:0:0:0:
320,192,57616,1,0,0:0:0:0:
448,192,57774,1,0,0:0:0:0:
192,192,57932,128,0,58248:0:0:0:0:
320,192,57932,1,0,0:0:0:0:
64,192,58090,1,0,0:0:0:0:
320,192,58248,128,0,58721:0:0:0:0:
448,192,58248,1,0,0:0:0:0:
192,192,58406,1,0,0:0:0:0:
64,192,58563,1,0,0:0:0:0:
192,192,58721,128,0,60142:0:0:0:0:
448,192,58721,1,0,0:0:0:0:
320,192,58879,1,0,0:0:0:0:
64,192,59037,1,0,0:0:0:0:
448,192,59195,1,0,0:0:0:0:
320,192,59353,1,0,0:0:0:0:
64,192,59511,1,0,0:0:0:0:
320,192,59669,1,0,0:0:0:0:
448,192,59827,1,0,0:0:0:0:
64,192,59984,1,0,0:0:0:0:
64,192,60142,128,0,60458:0:0:0:0:
320,192,60142,1,0,0:0:0:0:
448,192,60300,1,0,0:0:0:0:
192,192,60458,128,0,60774:0:0:0:0:
320,192,60458,1,0,0:0:0:0:
448,192,60616,1,0,0:0:0:0:
448,192,60774,1,0,0:0:0:0:
320,192,60774,1,0,0:0:0:0:
64,192,60774,1,0,0:0:0:0:
320,192,60932,1,0,0:0:0:0:
64,192,60932,1,0,0:0:0:0:
448,192,61090,1,0,0:0:0:0:
320,192,61090,1,0,0:0:0:0:
192,192,61090,1,0,0:0:0:0:
448,192,61406,1,0,0:0:0:0:
320,192,61406,1,0,0:0:0:0:
320,192,61563,1,0,0:0:0:0:
192,192,61563,1,0,0:0:0:0:
64,192,61563,1,0,0:0:0:0:
448,192,61879,1,0,0:0:0:0:
320,192,61879,1,0,0:0:0:0:
192,192,61879,1,0,0:0:0:0:
448,192,62037,1,0,0:0:0:0:
320,192,62037,1,0,0:0:0:0:
64,192,62037,1,0,0:0:0:0:
448,192,62195,1,0,0:0:0:0:
320,192,62195,1,0,0:0:0:0:
64,192,62353,1,0,0:0:0:0:
320,192,62353,1,0,0:0:0:0:
192,192,62353,1,0,0:0:0:0:
192,192,62511,1,0,0:0:0:0:
448,192,62669,1,0,0:0:0:0:
320,192,62669,1,0,0:0:0:0:
448,192,62827,1,0,0:0:0:0:
192,192,62827,1,0,0:0:0:0:
64,192,62827,1,0,0:0:0:0:
64,192,62984,1,0,0:0:0:0:
192,192,62984,1,0,0:0:0:0:
448,192,63063,1,0,0:0:0:0:
320,192,63063,1,0,0:0:0:0:
192,192,63142,1,0,0:0:0:0:
64,192,63142,1,0,0:0:0:0:
448,192,63221,1,0,0:0:0:0:
320,192,63221,1,0,0:0:0:0:
64,192,63300,1,0,0:0:0:0:
192,192,63300,1,0,0:0:0:0:
448,192,63458,1,0,0:0:0:0:
320,192,63458,1,0,0:0:0:0:
448,192,63616,1,0,0:0:0:0:
192,192,63616,1,0,0:0:0:0:
320,192,63616,1,0,0:0:0:0:
192,192,63932,1,0,0:0:0:0:
64,192,63932,1,0,0:0:0:0:
448,192,64090,1,0,0:0:0:0:
320,192,64090,1,0,0:0:0:0:
64,192,64090,1,0,0:0:0:0:
448,192,64406,1,0,0:0:0:0:
320,192,64406,1,0,0:0:0:0:
192,192,64406,1,0,0:0:0:0:
320,192,64563,1,0,0:0:0:0:
64,192,64563,1,0,0:0:0:0:
192,192,64563,1,0,0:0:0:0:
448,192,64721,1,0,0:0:0:0:
320,192,64721,1,0,0:0:0:0:
448,192,64879,1,0,0:0:0:0:
320,192,64879,1,0,0:0:0:0:
64,192,64879,1,0,0:0:0:0:
192,192,65037,1,0,0:0:0:0:
448,192,65195,1,0,0:0:0:0:
64,192,65195,1,0,0:0:0:0:
320,192,65353,1,0,0:0:0:0:
448,192,65511,1,0,0:0:0:0:
192,192,65669,1,0,0:0:0:0:
64,192,65669,1,0,0:0:0:0:
448,192,65748,1,0,0:0:0:0:
320,192,65748,1,0,0:0:0:0:
192,192,65827,1,0,0:0:0:0:
64,192,65827,1,0,0:0:0:0:
192,192,65984,1,0,0:0:0:0:
448,192,65984,1,0,0:0:0:0:
64,192,66063,1,0,0:0:0:0:
320,192,66063,1,0,0:0:0:0:
448,192,66142,1,0,0:0:0:0:
192,192,66142,1,0,0:0:0:0:
320,192,66300,1,0,0:0:0:0:
64,192,66300,1,0,0:0:0:0:
448,192,66379,1,0,0:0:0:0:
192,192,66379,1,0,0:0:0:0:
64,192,66458,1,0,0:0:0:0:
320,192,66458,1,0,0:0:0:0:
64,192,66616,1,0,0:0:0:0:
448,192,66616,1,0,0:0:0:0:
192,192,66695,1,0,0:0:0:0:
320,192,66695,1,0,0:0:0:0:
64,192,66774,1,0,0:0:0:0:
448,192,66774,1,0,0:0:0:0:
320,192,66932,1,0,0:0:0:0:
192,192,66932,1,0,0:0:0:0:
448,192,67011,1,0,0:0:0:0:
64,192,67011,1,0,0:0:0:0:
192,192,67090,1,0,0:0:0:0:
320,192,67090,1,0,0:0:0:0:
64,192,67248,1,0,0:0:0:0:
448,192,67248,1,0,0:0:0:0:
192,192,67327,1,0,0:0:0:0:
320,192,67327,1,0,0:0:0:0:
448,192,67406,1,0,0:0:0:0:
64,192,67406,1,0,0:0:0:0:
448,192,67563,1,0,0:0:0:0:
64,192,67563,1,0,0:0:0:0:
320,192,67642,1,0,0:0:0:0:
192,192,67642,1,0,0:0:0:0:
64,192,67721,1,0,0:0:0:0:
448,192,67721,1,0,0:0:0:0:
192,192,67879,1,0,0:0:0:0:
448,192,67879,1,0,0:0:0:0:
64,192,67958,1,0,0:0:0:0:
320,192,67958,1,0,0:0:0:0:
192,192,68037,1,0,0:0:0:0:
448,192,68037,1,0,0:0:0:0:
320,192,68195,1,0,0:0:0:0:
64,192,68195,1,0,0:0:0:0:
448,192,68274,1,0,0:0:0:0:
192,192,68274,1,0,0:0:0:0:
320,192,68353,1,0,0:0:0:0:
64,192,68353,1,0,0:0:0:0:
192,192,68511,1,0,0:0:0:0:
448,192,68511,1,0,0:0:0:0:
64,192,68590,1,0,0:0:0:0:
320,192,68590,1,0,0:0:0:0:
448,192,68669,1,0,0:0:0:0:
192,192,68669,1,0,0:0:0:0:
320,192,68827,1,0,0:0:0:0:
64,192,68827,1,0,0:0:0:0:
448,192,68906,1,0,0:0:0:0:
192,192,68906,1,0,0:0:0:0:
64,192,68984,1,0,0:0:0:0:
320,192,68984,1,0,0:0:0:0:
192,192,69142,1,0,0:0:0:0:
448,192,69142,1,0,0:0:0:0:
64,192,69221,1,0,0:0:0:0:
320,192,69221,1,0,0:0:0:0:
192,192,69300,1,0,0:0:0:0:
448,192,69300,1,0,0:0:0:0:
320,192,69458,1,0,0:0:0:0:
64,192,69458,1,0,0:0:0:0:
448,192,69537,1,0,0:0:0:0:
192,192,69537,1,0,0:0:0:0:
320,192,69616,1,0,0:0:0:0:
64,192,69616,1,0,0:0:0:0:
320,192,69774,1,0,0:0:0:0:
192,192,69853,1,0,0:0:0:0:
64,192,69932,1,0,0:0:0:0:
192,192,70090,1,0,0:0:0:0:
320,192,70169,1,0,0:0:0:0:
448,192,70248,1,0,0:0:0:0:
64,192,70406,1,0,0:0:0:0:
192,192,70484,1,0,0:0:0:0:
320,192,70563,1,0,0:0:0:0:
448,192,70721,1,0,0:0:0:0:
320,192,70800,1,0,0:0:0:0:
192,192,70879,1,0,0:0:0:0:
320,192,71037,1,0,0:0:0:0:
64,192,71037,1,0,0:0:0:0:
448,192,71116,1,0,0:0:0:0:
192,192,71116,1,0,0:0:0:0:
64,192,71195,1,0,0:0:0:0:
320,192,71195,1,0,0:0:0:0:
192,192,71353,1,0,0:0:0:0:
448,192,71353,1,0,0:0:0:0:
64,192,71432,1,0,0:0:0:0:
320,192,71432,1,0,0:0:0:0:
448,192,71511,1,0,0:0:0:0:
192,192,71511,1,0,0:0:0:0:
448,192,71669,1,0,0:0:0:0:
64,192,71669,1,0,0:0:0:0:
320,192,71748,1,0,0:0:0:0:
192,192,71748,1,0,0:0:0:0:
448,192,71827,1,0,0:0:0:0:
64,192,71827,1,0,0:0:0:0:
192,192,71984,1,0,0:0:0:0:
320,192,71984,1,0,0:0:0:0:
64,192,72063,1,0,0:0:0:0:
448,192,72063,1,0,0:0:0:0:
320,192,72142,1,0,0:0:0:0:
192,192,72142,1,0,0:0:0:0:
448,192,72300,1,0,0:0:0:0:
64,192,72300,1,0,0:0:0:0:
320,192,72379,1,0,0:0:0:0:
192,192,72379,1,0,0:0:0:0:
64,192,72458,1,0,0:0:0:0:
448,192,72458,1,0,0:0:0:0:
64,192,72616,1,0,0:0:0:0:
448,192,72616,1,0,0:0:0:0:
192,192,72695,1,0,0:0:0:0:
320,192,72695,1,0,0:0:0:0:
448,192,72774,1,0,0:0:0:0:
64,192,72774,1,0,0:0:0:0:
320,192,72932,1,0,0:0:0:0:
64,192,72932,1,0,0:0:0:0:
448,192,73011,1,0,0:0:0:0:
192,192,73011,1,0,0:0:0:0:
320,192,73090,1,0,0:0:0:0:
64,192,73090,1,0,0:0:0:0:
192,192,73248,1,0,0:0:0:0:
448,192,73248,1,0,0:0:0:0:
64,192,73327,1,0,0:0:0:0:
320,192,73327,1,0,0:0:0:0:
192,192,73406,1,0,0:0:0:0:
448,192,73406,1,0,0:0:0:0:
320,192,73563,1,0,0:0:0:0:
64,192,73563,1,0,0:0:0:0:
448,192,73642,1,0,0:0:0:0:
192,192,73642,1,0,0:0:0:0:
64,192,73721,1,0,0:0:0:0:
320,192,73721,1,0,0:0:0:0:
192,192,73879,1,0,0:0:0:0:
448,192,73879,1,0,0:0:0:0:
64,192,73958,1,0,0:0:0:0:
320,192,73958,1,0,0:0:0:0:
448,192,74037,1,0,0:0:0:0:
192,192,74037,1,0,0:0:0:0:
320,192,74195,1,0,0:0:0:0:
64,192,74195,1,0,0:0:0:0:
448,192,74274,1,0,0:0:0:0:
192,192,74274,1,0,0:0:0:0:
320,192,74353,1,0,0:0:0:0:
64,192,74353,1,0,0:0:0:0:
64,192,74511,1,0,0:0:0:0:
192,192,74511,1,0,0:0:0:0:
320,192,74590,1,0,0:0:0:0:
192,192,74669,1,0,0:0:0:0:
64,192,74669,1,0,0:0:0:0:
448,192,74669,1,0,0:0:0:0:
320,192,74748,1,0,0:0:0:0:
64,192,74827,1,0,0:0:0:0:
448,192,74827,1,0,0:0:0:0:
192,192,74906,1,0,0:0:0:0:
64,192,74984,1,0,0:0:0:0:
448,192,74984,1,0,0:0:0:0:
320,192,74984,1,0,0:0:0:0:
192,192,75063,1,0,0:0:0:0:
64,192,75142,1,0,0:0:0:0:
320,192,75142,1,0,0:0:0:0:
448,192,75142,1,0,0:0:0:0:
192,192,75221,1,0,0:0:0:0:
64,192,75300,1,0,0:0:0:0:
320,192,75300,1,0,0:0:0:0:
448,192,75300,1,0,0:0:0:0:
192,192,75379,1,0,0:0:0:0:
320,192,75458,1,0,0:0:0:0:
192,192,75537,1,0,0:0:0:0:
64,192,75616,1,0,0:0:0:0:
320,192,75616,1,0,0:0:0:0:
448,192,75695,1,0,0:0:0:0:
320,192,75774,1,0,0:0:0:0:
192,192,75853,1,0,0:0:0:0:
448,192,75932,1,0,0:0:0:0:
64,192,75932,1,0,0:0:0:0:
320,192,75932,1,0,0:0:0:0:
192,192,76011,1,0,0:0:0:0:
320,192,76090,1,0,0:0:0:0:
192,192,76169,1,0,0:0:0:0:
64,192,76248,1,0,0:0:0:0:
448,192,76248,1,0,0:0:0:0:
192,192,76327,1,0,0:0:0:0:
320,192,76406,1,0,0:0:0:0:
64,192,76406,1,0,0:0:0:0:
192,192,76484,1,0,0:0:0:0:
64,192,76563,1,0,0:0:0:0:
448,192,76563,1,0,0:0:0:0:
320,192,76563,1,0,0:0:0:0:
192,192,76642,1,0,0:0:0:0:
320,192,76721,1,0,0:0:0:0:
192,192,76800,1,0,0:0:0:0:
64,192,76879,1,0,0:0:0:0:
448,192,76879,1,0,0:0:0:0:
192,192,76958,1,0,0:0:0:0:
448,192,77037,1,0,0:0:0:0:
64,192,77037,1,0,0:0:0:0:
320,192,77116,1,0,0:0:0:0:
64,192,77195,1,0,0:0:0:0:
448,192,77195,1,0,0:0:0:0:
192,192,77195,1,0,0:0:0:0:
320,192,77274,1,0,0:0:0:0:
192,192,77353,1,0,0:0:0:0:
320,192,77432,1,0,0:0:0:0:
192,192,77511,1,0,0:0:0:0:
448,192,77511,1,0,0:0:0:0:
64,192,77511,1,0,0:0:0:0:
320,192,77590,1,0,0:0:0:0:
192,192,77669,1,0,0:0:0:0:
64,192,77748,1,0,0:0:0:0:
192,192,77827,1,0,0:0:0:0:
448,192,77827,1,0,0:0:0:0:
320,192,77906,1,0,0:0:0:0:
192,192,77984,1,0,0:0:0:0:
448,192,77984,1,0,0:0:0:0:
64,192,77984,1,0,0:0:0:0:
320,192,78063,1,0,0:0:0:0:
192,192,78142,1,0,0:0:0:0:
448,192,78142,1,0,0:0:0:0:
64,192,78142,1,0,0:0:0:0:
320,192,78221,1,0,0:0:0:0:
192,192,78300,1,0,0:0:0:0:
64,192,78379,1,0,0:0:0:0:
192,192,78458,1,0,0:0:0:0:
448,192,78458,1,0,0:0:0:0:
320,192,78458,1,0,0:0:0:0:
64,192,78537,1,0,0:0:0:0:
192,192,78616,1,0,0:0:0:0:
320,192,78695,1,0,0:0:0:0:
64,192,78774,1,0,0:0:0:0:
448,192,78774,1,0,0:0:0:0:
192,192,78853,1,0,0:0:0:0:
320,192,78932,1,0,0:0:0:0:
64,192,78932,1,0,0:0:0:0:
192,192,79011,1,0,0:0:0:0:
64,192,79090,1,0,0:0:0:0:
448,192,79090,1,0,0:0:0:0:
320,192,79090,1,0,0:0:0:0:
192,192,79169,1,0,0:0:0:0:
448,192,79248,1,0,0:0:0:0:
320,192,79327,1,0,0:0:0:0:
448,192,79406,1,0,0:0:0:0:
192,192,79406,1,0,0:0:0:0:
64,192,79484,1,0,0:0:0:0:
448,192,79563,1,0,0:0:0:0:
192,192,79563,1,0,0:0:0:0:
320,192,79642,1,0,0:0:0:0:
192,192,79721,1,0,0:0:0:0:
448,192,79721,1,0,0:0:0:0:
64,192,79721,1,0,0:0:0:0:
320,192,79800,1,0,0:0:0:0:
192,192,79879,1,0,0:0:0:0:
320,192,79958,1,0,0:0:0:0:
192,192,80037,1,0,0:0:0:0:
448,192,80037,1,0,0:0:0:0:
64,192,80037,1,0,0:0:0:0:
320,192,80116,1,0,0:0:0:0:
192,192,80195,1,0,0:0:0:0:
448,192,80195,1,0,0:0:0:0:
64,192,80274,1,0,0:0:0:0:
192,192,80353,1,0,0:0:0:0:
448,192,80353,1,0,0:0:0:0:
320,192,80432,1,0,0:0:0:0:
192,192,80511,1,0,0:0:0:0:
64,192,80590,1,0,0:0:0:0:
192,192,80669,1,0,0:0:0:0:
448,192,80669,1,0,0:0:0:0:
320,192,80748,1,0,0:0:0:0:
64,192,80827,1,0,0:0:0:0:
192,192,80906,1,0,0:0:0:0:
320,192,80984,1,0,0:0:0:0:
448,192,80984,1,0,0:0:0:0:
64,192,80984,1,0,0:0:0:0:
192,192,81063,1,0,0:0:0:0:
64,192,81142,1,0,0:0:0:0:
192,192,81221,1,0,0:0:0:0:
320,192,81300,1,0,0:0:0:0:
448,192,81300,1,0,0:0:0:0:
64,192,81379,1,0,0:0:0:0:
320,192,81458,1,0,0:0:0:0:
192,192,81458,1,0,0:0:0:0:
64,192,81537,1,0,0:0:0:0:
192,192,81616,1,0,0:0:0:0:
320,192,81616,1,0,0:0:0:0:
448,192,81616,1,0,0:0:0:0:
64,192,81695,1,0,0:0:0:0:
192,192,81774,1,0,0:0:0:0:
320,192,81853,1,0,0:0:0:0:
64,192,81932,1,0,0:0:0:0:
448,192,81932,1,0,0:0:0:0:
192,192,82011,1,0,0:0:0:0:
64,192,82090,1,0,0:0:0:0:
192,192,82169,1,0,0:0:0:0:
64,192,82248,1,0,0:0:0:0:
448,192,82248,1,0,0:0:0:0:
320,192,82248,1,0,0:0:0:0:
192,192,82327,1,0,0:0:0:0:
64,192,82406,1,0,0:0:0:0:
192,192,82484,1,0,0:0:0:0:
320,192,82563,1,0,0:0:0:0:
448,192,82563,1,0,0:0:0:0:
192,192,82642,1,0,0:0:0:0:
320,192,82721,1,0,0:0:0:0:
64,192,82721,1,0,0:0:0:0:
192,192,82800,1,0,0:0:0:0:
64,192,82879,1,0,0:0:0:0:
448,192,82879,1,0,0:0:0:0:
320,192,82879,1,0,0:0:0:0:
192,192,82958,1,0,0:0:0:0:
320,192,83037,1,0,0:0:0:0:
448,192,83037,1,0,0:0:0:0:
64,192,83116,1,0,0:0:0:0:
192,192,83195,1,0,0:0:0:0:
448,192,83195,1,0,0:0:0:0:
320,192,83274,1,0,0:0:0:0:
448,192,83353,1,0,0:0:0:0:
320,192,83432,1,0,0:0:0:0:
192,192,83511,1,0,0:0:0:0:
448,192,83511,1,0,0:0:0:0:
64,192,83511,1,0,0:0:0:0:
320,192,83590,1,0,0:0:0:0:
192,192,83669,1,0,0:0:0:0:
64,192,83748,1,0,0:0:0:0:
320,192,83827,1,0,0:0:0:0:
448,192,83827,1,0,0:0:0:0:
192,192,83906,1,0,0:0:0:0:
64,192,83984,1,0,0:0:0:0:
320,192,83984,1,0,0:0:0:0:
192,192,84063,1,0,0:0:0:0:
320,192,84142,1,0,0:0:0:0:
448,192,84142,1,0,0:0:0:0:
64,192,84142,1,0,0:0:0:0:
192,192,84221,5,0,0:0:0:0:
320,192,84300,1,0,0:0:0:0:
64,192,84379,1,0,0:0:0:0:
320,192,84458,5,0,0:0:0:0:
192,192,84458,1,0,0:0:0:0:
448,192,84458,1,0,0:0:0:0:
64,192,84537,1,0,0:0:0:0:
192,192,84616,1,0,0:0:0:0:
448,192,84616,1,0,0:0:0:0:
64,192,84774,5,0,0:0:0:0:
448,192,84774,1,0,0:0:0:0:
320,192,84774,1,0,0:0:0:0:
192,192,84774,1,0,0:0:0:0:
448,192,84932,1,0,0:0:0:0:
320,192,84932,1,0,0:0:0:0:
192,192,84932,1,0,0:0:0:0:
448,192,85090,1,0,0:0:0:0:
320,192,85090,1,0,0:0:0:0:
64,192,85090,1,0,0:0:0:0:
192,192,85248,1,0,0:0:0:0:
448,192,85248,1,0,0:0:0:0:
64,192,85248,1,0,0:0:0:0:
320,192,85406,1,0,0:0:0:0:
192,192,85406,1,0,0:0:0:0:
64,192,85406,1,0,0:0:0:0:
448,192,85563,1,0,0:0:0:0:
320,192,85563,1,0,0:0:0:0:
192,192,85563,1,0,0:0:0:0:
448,192,85721,1,0,0:0:0:0:
320,192,85721,1,0,0:0:0:0:
64,192,85721,1,0,0:0:0:0:
192,192,85879,1,0,0:0:0:0:
448,192,85879,1,0,0:0:0:0:
64,192,85879,1,0,0:0:0:0:
64,192,86037,1,0,0:0:0:0:
448,192,86037,1,0,0:0:0:0:
192,192,86037,1,0,0:0:0:0:
320,192,86116,1,0,0:0:0:0:
192,192,86195,1,0,0:0:0:0:
320,192,86274,1,0,0:0:0:0:
448,192,86353,1,0,0:0:0:0:
64,192,86353,1,0,0:0:0:0:
320,192,86432,1,0,0:0:0:0:
192,192,86511,1,0,0:0:0:0:
448,192,86511,1,0,0:0:0:0:
64,192,86590,1,0,0:0:0:0:
320,192,86590,1,0,0:0:0:0:
448,192,86669,1,0,0:0:0:0:
192,192,86669,1,0,0:0:0:0:
320,192,86748,1,0,0:0:0:0:
192,192,86827,1,0,0:0:0:0:
320,192,86906,1,0,0:0:0:0:
448,192,86984,1,0,0:0:0:0:
64,192,86984,1,0,0:0:0:0:
320,192,87063,1,0,0:0:0:0:
64,192,87142,1,0,0:0:0:0:
448,192,87142,1,0,0:0:0:0:
192,192,87221,1,0,0:0:0:0:
448,192,87300,1,0,0:0:0:0:
64,192,87300,1,0,0:0:0:0:
320,192,87300,1,0,0:0:0:0:
192,192,87379,1,0,0:0:0:0:
320,192,87458,1,0,0:0:0:0:
192,192,87537,1,0,0:0:0:0:
320,192,87616,1,0,0:0:0:0:
64,192,87616,1,0,0:0:0:0:
448,192,87616,1,0,0:0:0:0:
192,192,87695,1,0,0:0:0:0:
320,192,87774,1,0,0:0:0:0:
448,192,87853,1,0,0:0:0:0:
320,192,87932,1,0,0:0:0:0:
64,192,87932,1,0,0:0:0:0:
192,192,88011,1,0,0:0:0:0:
320,192,88090,1,0,0:0:0:0:
64,192,88090,1,0,0:0:0:0:
448,192,88090,1,0,0:0:0:0:
192,192,88169,1,0,0:0:0:0:
320,192,88248,1,0,0:0:0:0:
64,192,88248,1,0,0:0:0:0:
448,192,88248,1,0,0:0:0:0:
192,192,88327,1,0,0:0:0:0:
320,192,88406,1,0,0:0:0:0:
448,192,88484,1,0,0:0:0:0:
320,192,88563,1,0,0:0:0:0:
64,192,88563,1,0,0:0:0:0:
192,192,88563,1,0,0:0:0:0:
448,192,88642,1,0,0:0:0:0:
320,192,88721,1,0,0:0:0:0:
192,192,88800,1,0,0:0:0:0:
448,192,88879,1,0,0:0:0:0:
64,192,88879,1,0,0:0:0:0:
320,192,88958,1,0,0:0:0:0:
192,192,89037,1,0,0:0:0:0:
448,192,89037,1,0,0:0:0:0:
320,192,89116,1,0,0:0:0:0:
448,192,89195,1,0,0:0:0:0:
64,192,89195,1,0,0:0:0:0:
192,192,89195,1,0,0:0:0:0:
320,192,89274,1,0,0:0:0:0:
448,192,89353,1,0,0:0:0:0:
320,192,89432,1,0,0:0:0:0:
192,192,89511,1,0,0:0:0:0:
64,192,89511,1,0,0:0:0:0:
448,192,89590,1,0,0:0:0:0:
64,192,89669,1,0,0:0:0:0:
320,192,89669,1,0,0:0:0:0:
192,192,89748,1,0,0:0:0:0:
320,192,89827,1,0,0:0:0:0:
64,192,89827,1,0,0:0:0:0:
448,192,89827,1,0,0:0:0:0:
192,192,89906,1,0,0:0:0:0:
320,192,89984,1,0,0:0:0:0:
192,192,90063,1,0,0:0:0:0:
320,192,90142,1,0,0:0:0:0:
64,192,90142,1,0,0:0:0:0:
448,192,90142,1,0,0:0:0:0:
192,192,90221,1,0,0:0:0:0:
320,192,90300,1,0,0:0:0:0:
64,192,90300,1,0,0:0:0:0:
448,192,90379,1,0,0:0:0:0:
320,192,90458,1,0,0:0:0:0:
64,192,90458,1,0,0:0:0:0:
192,192,90537,1,0,0:0:0:0:
320,192,90616,1,0,0:0:0:0:
448,192,90695,1,0,0:0:0:0:
320,192,90774,1,0,0:0:0:0:
64,192,90774,1,0,0:0:0:0:
192,192,90853,1,0,0:0:0:0:
448,192,90932,1,0,0:0:0:0:
320,192,91011,1,0,0:0:0:0:
192,192,91090,1,0,0:0:0:0:
64,192,91090,1,0,0:0:0:0:
448,192,91090,1,0,0:0:0:0:
320,192,91169,1,0,0:0:0:0:
448,192,91248,1,0,0:0:0:0:
320,192,91327,1,0,0:0:0:0:
192,192,91406,1,0,0:0:0:0:
64,192,91406,1,0,0:0:0:0:
448,192,91484,1,0,0:0:0:0:
64,192,91563,1,0,0:0:0:0:
320,192,91563,1,0,0:0:0:0:
192,192,91642,1,0,0:0:0:0:
320,192,91721,1,0,0:0:0:0:
448,192,91721,1,0,0:0:0:0:
64,192,91721,1,0,0:0:0:0:
192,192,91800,1,0,0:0:0:0:
320,192,91879,1,0,0:0:0:0:
448,192,91958,1,0,0:0:0:0:
192,192,92037,1,0,0:0:0:0:
64,192,92037,1,0,0:0:0:0:
320,192,92116,1,0,0:0:0:0:
448,192,92195,1,0,0:0:0:0:
320,192,92274,1,0,0:0:0:0:
448,192,92353,1,0,0:0:0:0:
64,192,92353,1,0,0:0:0:0:
192,192,92353,1,0,0:0:0:0:
320,192,92432,1,0,0:0:0:0:
448,192,92511,1,0,0:0:0:0:
320,192,92590,1,0,0:0:0:0:
192,192,92669,1,0,0:0:0:0:
64,192,92669,1,0,0:0:0:0:
320,192,92748,1,0,0:0:0:0:
192,192,92827,1,0,0:0:0:0:
448,192,92827,1,0,0:0:0:0:
320,192,92906,1,0,0:0:0:0:
448,192,92984,1,0,0:0:0:0:
64,192,92984,1,0,0:0:0:0:
192,192,92984,1,0,0:0:0:0:
320,192,93063,1,0,0:0:0:0:
192,192,93142,1,0,0:0:0:0:
64,192,93142,1,0,0:0:0:0:
448,192,93221,1,0,0:0:0:0:
320,192,93300,1,0,0:0:0:0:
64,192,93300,1,0,0:0:0:0:
192,192,93379,1,0,0:0:0:0:
64,192,93458,1,0,0:0:0:0:
192,192,93537,1,0,0:0:0:0:
320,192,93616,1,0,0:0:0:0:
64,192,93616,1,0,0:0:0:0:
448,192,93616,1,0,0:0:0:0:
192,192,93695,1,0,0:0:0:0:
320,192,93774,1,0,0:0:0:0:
448,192,93853,1,0,0:0:0:0:
192,192,93932,1,0,0:0:0:0:
64,192,93932,1,0,0:0:0:0:
320,192,94011,1,0,0:0:0:0:
448,192,94090,1,0,0:0:0:0:
192,192,94090,1,0,0:0:0:0:
320,192,94169,1,0,0:0:0:0:
192,192,94248,1,0,0:0:0:0:
64,192,94248,1,0,0:0:0:0:
448,192,94248,1,0,0:0:0:0:
320,192,94327,5,0,0:0:0:0:
192,192,94406,1,0,0:0:0:0:
448,192,94484,1,0,0:0:0:0:
192,192,94563,5,0,0:0:0:0:
320,192,94563,1,0,0:0:0:0:
64,192,94563,1,0,0:0:0:0:
448,192,94642,1,0,0:0:0:0:
320,192,94721,1,0,0:0:0:0:
64,192,94721,1,0,0:0:0:0:
448,192,94879,5,0,0:0:0:0:
64,192,94879,1,0,0:0:0:0:
320,192,94879,1,0,0:0:0:0:
192,192,94879,1,0,0:0:0:0:
64,192,95037,1,0,0:0:0:0:
192,192,95037,1,0,0:0:0:0:
320,192,95037,1,0,0:0:0:0:
64,192,95195,1,0,0:0:0:0:
192,192,95195,1,0,0:0:0:0:
448,192,95195,1,0,0:0:0:0:
320,192,95353,1,0,0:0:0:0:
64,192,95353,1,0,0:0:0:0:
448,192,95353,1,0,0:0:0:0:
192,192,95511,1,0,0:0:0:0:
320,192,95511,1,0,0:0:0:0:
448,192,95511,1,0,0:0:0:0:
320,192,95669,5,0,0:0:0:0:
64,192,95669,1,0,0:0:0:0:
192,192,95669,1,0,0:0:0:0:
64,192,95827,1,0,0:0:0:0:
192,192,95827,1,0,0:0:0:0:
448,192,95827,1,0,0:0:0:0:
320,192,95984,1,0,0:0:0:0:
64,192,95984,1,0,0:0:0:0:
448,192,95984,1,0,0:0:0:0:
64,192,96142,5,0,0:0:0:0:
448,192,96142,1,0,0:0:0:0:
320,192,96142,1,0,0:0:0:0:
192,192,96142,1,0,0:0:0:0:
320,192,96300,1,0,0:0:0:0:
448,192,96300,1,0,0:0:0:0:
64,192,96300,1,0,0:0:0:0:
192,192,96300,1,0,0:0:0:0:
320,192,96458,1,0,0:0:0:0:
448,192,96458,1,0,0:0:0:0:
64,192,96458,1,0,0:0:0:0:
192,192,96458,1,0,0:0:0:0:
320,192,96616,1,0,0:0:0:0:
448,192,96616,1,0,0:0:0:0:
64,192,96616,1,0,0:0:0:0:
192,192,96616,1,0,0:0:0:0:
448,192,96774,1,0,0:0:0:0:
320,192,96774,1,0,0:0:0:0:
64,192,96774,1,0,0:0:0:0:
192,192,96774,1,0,0:0:0:0:
448,192,96932,1,0,0:0:0:0:
320,192,97011,1,0,0:0:0:0:
448,192,97090,128,0,97248:0:0:0:0:
64,192,97169,1,0,0:0:0:0:
320,192,97248,128,0,97406:0:0:0:0:
192,192,97248,1,0,0:0:0:0:
192,192,97406,1,0,0:0:0:0:
64,192,97406,1,0,0:0:0:0:
448,192,97406,128,0,97563:0:0:0:0:
320,192,97563,128,0,97721:0:0:0:0:
192,192,97721,128,0,97879:0:0:0:0:
320,192,97879,1,0,0:0:0:0:
64,192,97879,128,0,98037:0:0:0:0:
448,192,98037,128,0,98195:0:0:0:0:
320,192,98195,128,0,98353:0:0:0:0:
448,192,98353,1,0,0:0:0:0:
192,192,98353,128,0,98511:0:0:0:0:
64,192,98511,128,0,98669:0:0:0:0:
448,192,98669,1,0,0:0:0:0:
320,192,98669,128,0,99142:0:0:0:0:
448,192,99142,1,0,0:0:0:0:
192,192,99142,128,0,99300:0:0:0:0:
64,192,99300,128,0,99616:0:0:0:0:
320,192,99616,1,0,0:0:0:0:
448,192,99616,1,0,0:0:0:0:
192,192,99616,128,0,99774:0:0:0:0:
320,192,99774,128,0,99932:0:0:0:0:
192,192,99932,1,0,0:0:0:0:
64,192,99932,1,0,0:0:0:0:
448,192,99932,128,0,100721:0:0:0:0:
192,192,100406,1,0,0:0:0:0:
64,192,100721,128,0,100879:0:0:0:0:
320,192,100879,1,0,0:0:0:0:
192,192,100879,128,0,101037:0:0:0:0:
320,192,101037,128,0,101195:0:0:0:0:
64,192,101195,1,0,0:0:0:0:
448,192,101195,128,0,101669:0:0:0:0:
64,192,101669,1,0,0:0:0:0:
320,192,101669,128,0,101748:0:0:0:0:
192,192,101748,128,0,101827:0:0:0:0:
64,192,101827,128,0,101984:0:0:0:0:
448,192,101984,1,0,0:0:0:0:
320,192,101984,1,0,0:0:0:0:
192,192,102458,1,0,0:0:0:0:
320,192,102458,1,0,0:0:0:0:
448,192,102458,128,0,102616:0:0:0:0:
64,192,102458,1,0,0:0:0:0:
320,192,102616,128,0,102774:0:0:0:0:
192,192,102774,128,0,102932:0:0:0:0:
64,192,102932,1,0,0:0:0:0:
320,192,102932,128,0,103090:0:0:0:0:
448,192,103090,128,0,103248:0:0:0:0:
64,192,103248,128,0,103406:0:0:0:0:
448,192,103406,1,0,0:0:0:0:
192,192,103406,128,0,103563:0:0:0:0:
320,192,103563,128,0,103721:0:0:0:0:
192,192,103721,1,0,0:0:0:0:
64,192,103721,1,0,0:0:0:0:
448,192,103721,128,0,104195:0:0:0:0:
64,192,104195,1,0,0:0:0:0:
320,192,104195,128,0,104353:0:0:0:0:
192,192,104353,128,0,104984:0:0:0:0:
320,192,104669,1,0,0:0:0:0:
448,192,104984,1,0,0:0:0:0:
320,192,104984,1,0,0:0:0:0:
64,192,104984,128,0,105142:0:0:0:0:
192,192,105142,128,0,105300:0:0:0:0:
320,192,105300,128,0,105458:0:0:0:0:
64,192,105458,1,0,0:0:0:0:
448,192,105458,128,0,105616:0:0:0:0:
192,192,105616,1,0,0:0:0:0:
320,192,105616,1,0,0:0:0:0:
64,192,105616,128,0,105774:0:0:0:0:
192,192,105774,128,0,105932:0:0:0:0:
64,192,105932,1,0,0:0:0:0:
320,192,105932,128,0,106090:0:0:0:0:
448,192,106090,128,0,107037:0:0:0:0:
320,192,106248,1,0,0:0:0:0:
192,192,106248,1,0,0:0:0:0:
64,192,106248,1,0,0:0:0:0:
192,192,106563,1,0,0:0:0:0:
64,192,106563,1,0,0:0:0:0:
192,192,106879,1,0,0:0:0:0:
64,192,106879,1,0,0:0:0:0:
320,192,107195,1,0,0:0:0:0:
448,192,107195,1,0,0:0:0:0:
64,192,107195,1,0,0:0:0:0:
192,192,107274,1,0,0:0:0:0:
320,192,107353,1,0,0:0:0:0:
448,192,107353,1,0,0:0:0:0:
64,192,107353,1,0,0:0:0:0:
192,192,107432,1,0,0:0:0:0:
320,192,107511,1,0,0:0:0:0:
448,192,107511,1,0,0:0:0:0:
64,192,107511,1,0,0:0:0:0:
192,192,107590,1,0,0:0:0:0:
320,192,107669,1,0,0:0:0:0:
64,192,107669,1,0,0:0:0:0:
448,192,107748,1,0,0:0:0:0:
320,192,107827,1,0,0:0:0:0:
192,192,107827,1,0,0:0:0:0:
64,192,107827,1,0,0:0:0:0:
448,192,107906,1,0,0:0:0:0:
320,192,107984,1,0,0:0:0:0:
192,192,107984,1,0,0:0:0:0:
64,192,107984,1,0,0:0:0:0:
448,192,108063,1,0,0:0:0:0:
192,192,108142,1,0,0:0:0:0:
64,192,108142,1,0,0:0:0:0:
320,192,108221,1,0,0:0:0:0:
448,192,108300,1,0,0:0:0:0:
192,192,108300,1,0,0:0:0:0:
64,192,108300,1,0,0:0:0:0:
320,192,108379,1,0,0:0:0:0:
448,192,108458,1,0,0:0:0:0:
192,192,108458,1,0,0:0:0:0:
64,192,108458,1,0,0:0:0:0:
320,192,108537,1,0,0:0:0:0:
448,192,108616,1,0,0:0:0:0:
64,192,108616,1,0,0:0:0:0:
192,192,108695,1,0,0:0:0:0:
320,192,108774,1,0,0:0:0:0:
448,192,108774,1,0,0:0:0:0:
64,192,108774,1,0,0:0:0:0:
192,192,108853,1,0,0:0:0:0:
320,192,108932,1,0,0:0:0:0:
64,192,108932,1,0,0:0:0:0:
448,192,109011,1,0,0:0:0:0:
320,192,109090,1,0,0:0:0:0:
192,192,109090,1,0,0:0:0:0:
64,192,109169,1,0,0:0:0:0:
320,192,109248,1,0,0:0:0:0:
192,192,109248,1,0,0:0:0:0:
448,192,109248,1,0,0:0:0:0:
64,192,109327,1,0,0:0:0:0:
320,192,109406,1,0,0:0:0:0:
448,192,109406,1,0,0:0:0:0:
192,192,109406,1,0,0:0:0:0:
64,192,109484,1,0,0:0:0:0:
192,192,109563,1,0,0:0:0:0:
448,192,109563,1,0,0:0:0:0:
320,192,109642,1,0,0:0:0:0:
192,192,109721,1,0,0:0:0:0:
448,192,109721,1,0,0:0:0:0:
64,192,109721,1,0,0:0:0:0:
320,192,109800,1,0,0:0:0:0:
64,192,109800,1,0,0:0:0:0:
320,192,109879,1,0,0:0:0:0:
192,192,109879,1,0,0:0:0:0:
448,192,109958,1,0,0:0:0:0:
192,192,109958,1,0,0:0:0:0:
448,192,110037,1,0,0:0:0:0:
320,192,110037,1,0,0:0:0:0:
64,192,110037,1,0,0:0:0:0:
192,192,110116,1,0,0:0:0:0:
320,192,110195,1,0,0:0:0:0:
448,192,110195,1,0,0:0:0:0:
64,192,110274,1,0,0:0:0:0:
320,192,110353,1,0,0:0:0:0:
192,192,110353,1,0,0:0:0:0:
448,192,110432,1,0,0:0:0:0:
320,192,110511,1,0,0:0:0:0:
64,192,110511,1,0,0:0:0:0:
192,192,110590,1,0,0:0:0:0:
320,192,110669,1,0,0:0:0:0:
64,192,110669,1,0,0:0:0:0:
448,192,110748,1,0,0:0:0:0:
192,192,110827,1,0,0:0:0:0:
64,192,110827,1,0,0:0:0:0:
320,192,110906,1,0,0:0:0:0:
448,192,110984,1,0,0:0:0:0:
64,192,110984,1,0,0:0:0:0:
192,192,111063,1,0,0:0:0:0:
448,192,111142,1,0,0:0:0:0:
64,192,111142,1,0,0:0:0:0:
320,192,111221,1,0,0:0:0:0:
448,192,111300,1,0,0:0:0:0:
192,192,111300,1,0,0:0:0:0:
64,192,111300,1,0,0:0:0:0:
320,192,111379,1,0,0:0:0:0:
448,192,111458,1,0,0:0:0:0:
64,192,111458,1,0,0:0:0:0:
192,192,111537,1,0,0:0:0:0:
320,192,111616,1,0,0:0:0:0:
64,192,111616,1,0,0:0:0:0:
192,192,111695,1,0,0:0:0:0:
320,192,111774,1,0,0:0:0:0:
64,192,111774,1,0,0:0:0:0:
192,192,111853,1,0,0:0:0:0:
320,192,111932,1,0,0:0:0:0:
448,192,111932,1,0,0:0:0:0:
64,192,111932,1,0,0:0:0:0:
192,192,112011,1,0,0:0:0:0:
320,192,112090,1,0,0:0:0:0:
64,192,112090,1,0,0:0:0:0:
448,192,112169,1,0,0:0:0:0:
320,192,112248,1,0,0:0:0:0:
64,192,112248,1,0,0:0:0:0:
192,192,112327,1,0,0:0:0:0:
448,192,112327,1,0,0:0:0:0:
320,192,112406,1,0,0:0:0:0:
64,192,112406,1,0,0:0:0:0:
448,192,112484,1,0,0:0:0:0:
320,192,112563,1,0,0:0:0:0:
192,192,112563,1,0,0:0:0:0:
64,192,112563,1,0,0:0:0:0:
448,192,112642,1,0,0:0:0:0:
320,192,112721,1,0,0:0:0:0:
64,192,112721,1,0,0:0:0:0:
192,192,112800,1,0,0:0:0:0:
320,192,112879,1,0,0:0:0:0:
448,192,112879,1,0,0:0:0:0:
64,192,112879,1,0,0:0:0:0:
192,192,112958,1,0,0:0:0:0:
320,192,113037,1,0,0:0:0:0:
64,192,113037,1,0,0:0:0:0:
448,192,113116,1,0,0:0:0:0:
320,192,113195,1,0,0:0:0:0:
192,192,113195,1,0,0:0:0:0:
64,192,113195,1,0,0:0:0:0:
448,192,113274,1,0,0:0:0:0:
320,192,113353,1,0,0:0:0:0:
64,192,113353,1,0,0:0:0:0:
192,192,113432,1,0,0:0:0:0:
320,192,113511,1,0,0:0:0:0:
448,192,113511,1,0,0:0:0:0:
64,192,113511,1,0,0:0:0:0:
192,192,113590,1,0,0:0:0:0:
448,192,113669,1,0,0:0:0:0:
64,192,113669,1,0,0:0:0:0:
320,192,113748,1,0,0:0:0:0:
448,192,113827,1,0,0:0:0:0:
192,192,113827,1,0,0:0:0:0:
64,192,113827,1,0,0:0:0:0:
320,192,113906,1,0,0:0:0:0:
64,192,113984,1,0,0:0:0:0:
192,192,114063,1,0,0:0:0:0:
320,192,114142,1,0,0:0:0:0:
448,192,114142,1,0,0:0:0:0:
64,192,114221,1,0,0:0:0:0:
192,192,114300,1,0,0:0:0:0:
320,192,114300,1,0,0:0:0:0:
448,192,114379,1,0,0:0:0:0:
320,192,114458,1,0,0:0:0:0:
192,192,114458,1,0,0:0:0:0:
64,192,114458,1,0,0:0:0:0:
448,192,114537,1,0,0:0:0:0:
320,192,114616,1,0,0:0:0:0:
448,192,114695,1,0,0:0:0:0:
192,192,114774,1,0,0:0:0:0:
64,192,114774,1,0,0:0:0:0:
320,192,114853,1,0,0:0:0:0:
448,192,114932,1,0,0:0:0:0:
192,192,115011,1,0,0:0:0:0:
320,192,115090,1,0,0:0:0:0:
448,192,115090,1,0,0:0:0:0:
64,192,115090,1,0,0:0:0:0:
192,192,115169,1,0,0:0:0:0:
320,192,115248,1,0,0:0:0:0:
448,192,115248,1,0,0:0:0:0:
64,192,115248,1,0,0:0:0:0:
192,192,115327,1,0,0:0:0:0:
320,192,115406,1,0,0:0:0:0:
448,192,115406,1,0,0:0:0:0:
64,192,115406,1,0,0:0:0:0:
192,192,115484,1,0,0:0:0:0:
448,192,115563,1,0,0:0:0:0:
320,192,115563,1,0,0:0:0:0:
64,192,115563,1,0,0:0:0:0:
192,192,115642,1,0,0:0:0:0:
64,192,115721,1,0,0:0:0:0:
320,192,115721,1,0,0:0:0:0:
448,192,115800,1,0,0:0:0:0:
320,192,115879,1,0,0:0:0:0:
192,192,115879,1,0,0:0:0:0:
64,192,115879,1,0,0:0:0:0:
448,192,115958,1,0,0:0:0:0:
320,192,116037,1,0,0:0:0:0:
192,192,116037,1,0,0:0:0:0:
64,192,116037,1,0,0:0:0:0:
448,192,116116,1,0,0:0:0:0:
320,192,116195,1,0,0:0:0:0:
192,192,116195,1,0,0:0:0:0:
64,192,116195,1,0,0:0:0:0:
448,192,116274,1,0,0:0:0:0:
448,192,116353,1,0,0:0:0:0:
192,192,116353,1,0,0:0:0:0:
64,192,116353,1,0,0:0:0:0:
320,192,116432,1,0,0:0:0:0:
64,192,116511,1,0,0:0:0:0:
192,192,116511,1,0,0:0:0:0:
448,192,116511,1,0,0:0:0:0:
320,192,116590,1,0,0:0:0:0:
64,192,116669,1,0,0:0:0:0:
192,192,116669,1,0,0:0:0:0:
448,192,116669,1,0,0:0:0:0:
320,192,116748,1,0,0:0:0:0:
64,192,116827,1,0,0:0:0:0:
192,192,116827,1,0,0:0:0:0:
448,192,116827,1,0,0:0:0:0:
320,192,116906,1,0,0:0:0:0:
192,192,116984,1,0,0:0:0:0:
64,192,116984,1,0,0:0:0:0:
448,192,116984,1,0,0:0:0:0:
320,192,117063,1,0,0:0:0:0:
192,192,117142,1,0,0:0:0:0:
64,192,117142,1,0,0:0:0:0:
320,192,117221,1,0,0:0:0:0:
448,192,117300,1,0,0:0:0:0:
64,192,117300,1,0,0:0:0:0:
320,192,117379,1,0,0:0:0:0:
192,192,117379,1,0,0:0:0:0:
448,192,117458,1,0,0:0:0:0:
64,192,117458,1,0,0:0:0:0:
320,192,117537,1,0,0:0:0:0:
192,192,117616,1,0,0:0:0:0:
448,192,117616,1,0,0:0:0:0:
64,192,117616,1,0,0:0:0:0:
320,192,117695,1,0,0:0:0:0:
64,192,117774,1,0,0:0:0:0:
192,192,117774,1,0,0:0:0:0:
448,192,117853,1,0,0:0:0:0:
64,192,117932,1,0,0:0:0:0:
320,192,117932,1,0,0:0:0:0:
192,192,118011,1,0,0:0:0:0:
320,192,118090,1,0,0:0:0:0:
448,192,118090,1,0,0:0:0:0:
192,192,118169,1,0,0:0:0:0:
64,192,118248,1,0,0:0:0:0:
448,192,118248,1,0,0:0:0:0:
320,192,118327,1,0,0:0:0:0:
192,192,118406,1,0,0:0:0:0:
64,192,118406,1,0,0:0:0:0:
320,192,118484,1,0,0:0:0:0:
192,192,118563,1,0,0:0:0:0:
448,192,118563,1,0,0:0:0:0:
64,192,118642,1,0,0:0:0:0:
192,192,118721,1,0,0:0:0:0:
320,192,118721,1,0,0:0:0:0:
448,192,118800,1,0,0:0:0:0:
192,192,118879,1,0,0:0:0:0:
320,192,118879,1,0,0:0:0:0:
64,192,118879,1,0,0:0:0:0:
448,192,118958,1,0,0:0:0:0:
64,192,119037,1,0,0:0:0:0:
192,192,119037,1,0,0:0:0:0:
448,192,119116,1,0,0:0:0:0:
64,192,119195,1,0,0:0:0:0:
320,192,119195,1,0,0:0:0:0:
192,192,119274,1,0,0:0:0:0:
320,192,119353,1,0,0:0:0:0:
448,192,119353,1,0,0:0:0:0:
64,192,119432,1,0,0:0:0:0:
448,192,119511,1,0,0:0:0:0:
192,192,119511,1,0,0:0:0:0:
320,192,119590,1,0,0:0:0:0:
448,192,119669,1,0,0:0:0:0:
192,192,119669,1,0,0:0:0:0:
64,192,119669,1,0,0:0:0:0:
320,192,119748,1,0,0:0:0:0:
192,192,119827,1,0,0:0:0:0:
448,192,119827,1,0,0:0:0:0:
64,192,119906,1,0,0:0:0:0:
448,192,119984,1,0,0:0:0:0:
192,192,119984,1,0,0:0:0:0:
320,192,119984,1,0,0:0:0:0:
64,192,120063,1,0,0:0:0:0:
320,192,120142,1,0,0:0:0:0:
448,192,120142,1,0,0:0:0:0:
192,192,120221,1,0,0:0:0:0:
64,192,120300,1,0,0:0:0:0:
320,192,120300,1,0,0:0:0:0:
448,192,120379,1,0,0:0:0:0:
320,192,120458,1,0,0:0:0:0:
192,192,120458,1,0,0:0:0:0:
448,192,120537,1,0,0:0:0:0:
320,192,120616,1,0,0:0:0:0:
64,192,120616,1,0,0:0:0:0:
192,192,120695,1,0,0:0:0:0:
448,192,120774,1,0,0:0:0:0:
64,192,120774,1,0,0:0:0:0:
320,192,120774,1,0,0:0:0:0:
192,192,120853,1,0,0:0:0:0:
448,192,120932,1,0,0:0:0:0:
320,192,120932,1,0,0:0:0:0:
64,192,121011,1,0,0:0:0:0:
192,192,121090,1,0,0:0:0:0:
448,192,121090,1,0,0:0:0:0:
320,192,121169,1,0,0:0:0:0:
448,192,121248,1,0,0:0:0:0:
64,192,121248,1,0,0:0:0:0:
192,192,121327,1,0,0:0:0:0:
64,192,121406,1,0,0:0:0:0:
320,192,121406,1,0,0:0:0:0:
448,192,121406,1,0,0:0:0:0:
192,192,121484,1,0,0:0:0:0:
64,192,121563,1,0,0:0:0:0:
320,192,121563,1,0,0:0:0:0:
448,192,121642,1,0,0:0:0:0:
320,192,121721,1,0,0:0:0:0:
192,192,121721,1,0,0:0:0:0:
448,192,121800,1,0,0:0:0:0:
192,192,121879,1,0,0:0:0:0:
64,192,121879,1,0,0:0:0:0:
448,192,121958,1,0,0:0:0:0:
192,192,122037,1,0,0:0:0:0:
320,192,122037,1,0,0:0:0:0:
64,192,122116,1,0,0:0:0:0:
448,192,122195,1,0,0:0:0:0:
192,192,122195,1,0,0:0:0:0:
320,192,122274,1,0,0:0:0:0:
64,192,122353,1,0,0:0:0:0:
192,192,122353,1,0,0:0:0:0:
448,192,122353,1,0,0:0:0:0:
320,192,122432,1,0,0:0:0:0:
192,192,122511,1,0,0:0:0:0:
448,192,122511,1,0,0:0:0:0:
64,192,122511,1,0,0:0:0:0:
320,192,122590,1,0,0:0:0:0:
64,192,122669,1,0,0:0:0:0:
448,192,122669,1,0,0:0:0:0:
192,192,122669,1,0,0:0:0:0:
320,192,122748,1,0,0:0:0:0:
448,192,122827,1,0,0:0:0:0:
64,192,122827,1,0,0:0:0:0:
192,192,122906,1,0,0:0:0:0:
320,192,122984,1,0,0:0:0:0:
64,192,122984,1,0,0:0:0:0:
192,192,123063,1,0,0:0:0:0:
320,192,123142,1,0,0:0:0:0:
448,192,123142,1,0,0:0:0:0:
192,192,123221,1,0,0:0:0:0:
320,192,123300,1,0,0:0:0:0:
64,192,123300,1,0,0:0:0:0:
448,192,123379,1,0,0:0:0:0:
320,192,123458,1,0,0:0:0:0:
192,192,123458,1,0,0:0:0:0:
64,192,123537,1,0,0:0:0:0:
192,192,123616,1,0,0:0:0:0:
320,192,123616,1,0,0:0:0:0:
64,192,123695,1,0,0:0:0:0:
192,192,123774,1,0,0:0:0:0:
448,192,123774,1,0,0:0:0:0:
320,192,123853,1,0,0:0:0:0:
64,192,123932,1,0,0:0:0:0:
448,192,123932,1,0,0:0:0:0:
192,192,123932,1,0,0:0:0:0:
320,192,124011,1,0,0:0:0:0:
64,192,124090,1,0,0:0:0:0:
448,192,124090,1,0,0:0:0:0:
192,192,124169,1,0,0:0:0:0:
448,192,124248,1,0,0:0:0:0:
64,192,124248,1,0,0:0:0:0:
320,192,124327,1,0,0:0:0:0:
192,192,124406,1,0,0:0:0:0:
448,192,124406,1,0,0:0:0:0:
320,192,124484,1,0,0:0:0:0:
448,192,124563,1,0,0:0:0:0:
64,192,124563,1,0,0:0:0:0:
320,192,124642,1,0,0:0:0:0:
448,192,124721,1,0,0:0:0:0:
192,192,124721,1,0,0:0:0:0:
64,192,124800,1,0,0:0:0:0:
192,192,124879,1,0,0:0:0:0:
320,192,124879,1,0,0:0:0:0:
64,192,124958,1,0,0:0:0:0:
320,192,125037,1,0,0:0:0:0:
448,192,125037,1,0,0:0:0:0:
64,192,125116,1,0,0:0:0:0:
320,192,125195,1,0,0:0:0:0:
448,192,125195,1,0,0:0:0:0:
192,192,125195,1,0,0:0:0:0:
64,192,125274,1,0,0:0:0:0:
192,192,125353,1,0,0:0:0:0:
320,192,125353,1,0,0:0:0:0:
64,192,125432,1,0,0:0:0:0:
192,192,125511,1,0,0:0:0:0:
448,192,125511,1,0,0:0:0:0:
320,192,125590,1,0,0:0:0:0:
192,192,125669,1,0,0:0:0:0:
64,192,125669,1,0,0:0:0:0:
320,192,125748,1,0,0:0:0:0:
64,192,125827,1,0,0:0:0:0:
192,192,125827,1,0,0:0:0:0:
448,192,125827,1,0,0:0:0:0:
320,192,125906,1,0,0:0:0:0:
64,192,125984,1,0,0:0:0:0:
192,192,125984,1,0,0:0:0:0:
448,192,126063,1,0,0:0:0:0:
192,192,126142,1,0,0:0:0:0:
320,192,126142,1,0,0:0:0:0:
64,192,126142,1,0,0:0:0:0:
448,192,126221,1,0,0:0:0:0:
320,192,126300,1,0,0:0:0:0:
192,192,126300,1,0,0:0:0:0:
64,192,126379,1,0,0:0:0:0:
192,192,126458,1,0,0:0:0:0:
448,192,126458,1,0,0:0:0:0:
320,192,126458,1,0,0:0:0:0:
64,192,126537,1,0,0:0:0:0:
320,192,126616,1,0,0:0:0:0:
448,192,126616,1,0,0:0:0:0:
192,192,126616,1,0,0:0:0:0:
64,192,126695,1,0,0:0:0:0:
192,192,126774,1,0,0:0:0:0:
320,192,126774,1,0,0:0:0:0:
448,192,126774,1,0,0:0:0:0:
64,192,126853,1,0,0:0:0:0:
320,192,126932,1,0,0:0:0:0:
192,192,126932,1,0,0:0:0:0:
448,192,127011,1,0,0:0:0:0:
64,192,127090,1,0,0:0:0:0:
320,192,127090,1,0,0:0:0:0:
192,192,127090,1,0,0:0:0:0:
448,192,127169,1,0,0:0:0:0:
64,192,127248,1,0,0:0:0:0:
192,192,127248,1,0,0:0:0:0:
320,192,127248,1,0,0:0:0:0:
448,192,127327,1,0,0:0:0:0:
64,192,127406,1,0,0:0:0:0:
320,192,127406,1,0,0:0:0:0:
192,192,127406,1,0,0:0:0:0:
448,192,127484,1,0,0:0:0:0:
192,192,127563,1,0,0:0:0:0:
320,192,127563,1,0,0:0:0:0:
64,192,127563,1,0,0:0:0:0:
448,192,127642,1,0,0:0:0:0:
64,192,127721,1,0,0:0:0:0:
320,192,127721,1,0,0:0:0:0:
192,192,127800,1,0,0:0:0:0:
64,192,127879,1,0,0:0:0:0:
320,192,127879,1,0,0:0:0:0:
192,192,127958,1,0,0:0:0:0:
64,192,128037,1,0,0:0:0:0:
320,192,128037,1,0,0:0:0:0:
448,192,128037,1,0,0:0:0:0:
192,192,128116,1,0,0:0:0:0:
320,192,128195,1,0,0:0:0:0:
64,192,128195,1,0,0:0:0:0:
448,192,128274,1,0,0:0:0:0:
64,192,128353,1,0,0:0:0:0:
320,192,128353,1,0,0:0:0:0:
192,192,128353,1,0,0:0:0:0:
448,192,128432,1,0,0:0:0:0:
64,192,128511,1,0,0:0:0:0:
320,192,128511,1,0,0:0:0:0:
192,192,128590,1,0,0:0:0:0:
448,192,128669,1,0,0:0:0:0:
64,192,128669,1,0,0:0:0:0:
320,192,128669,1,0,0:0:0:0:
192,192,128748,1,0,0:0:0:0:
448,192,128827,1,0,0:0:0:0:
64,192,128827,1,0,0:0:0:0:
320,192,128906,1,0,0:0:0:0:
64,192,128984,1,0,0:0:0:0:
448,192,128984,1,0,0:0:0:0:
192,192,128984,1,0,0:0:0:0:
320,192,129063,1,0,0:0:0:0:
192,192,129142,1,0,0:0:0:0:
64,192,129221,1,0,0:0:0:0:
320,192,129300,1,0,0:0:0:0:
448,192,129300,1,0,0:0:0:0:
64,192,129379,1,0,0:0:0:0:
448,192,129458,1,0,0:0:0:0:
192,192,129458,1,0,0:0:0:0:
320,192,129537,1,0,0:0:0:0:
192,192,129616,1,0,0:0:0:0:
448,192,129616,1,0,0:0:0:0:
64,192,129616,1,0,0:0:0:0:
320,192,129695,1,0,0:0:0:0:
448,192,129774,1,0,0:0:0:0:
320,192,129853,1,0,0:0:0:0:
448,192,129932,1,0,0:0:0:0:
64,192,129932,1,0,0:0:0:0:
192,192,129932,1,0,0:0:0:0:
320,192,130011,1,0,0:0:0:0:
448,192,130090,1,0,0:0:0:0:
192,192,130090,1,0,0:0:0:0:
64,192,130169,1,0,0:0:0:0:
320,192,130248,1,0,0:0:0:0:
192,192,130248,1,0,0:0:0:0:
448,192,130248,1,0,0:0:0:0:
64,192,130327,1,0,0:0:0:0:
320,192,130406,1,0,0:0:0:0:
192,192,130484,1,0,0:0:0:0:
64,192,130563,1,0,0:0:0:0:
320,192,130563,1,0,0:0:0:0:
448,192,130563,1,0,0:0:0:0:
192,192,130642,1,0,0:0:0:0:
448,192,130721,1,0,0:0:0:0:
192,192,130800,1,0,0:0:0:0:
320,192,130879,1,0,0:0:0:0:
64,192,130879,1,0,0:0:0:0:
448,192,130879,1,0,0:0:0:0:
192,192,130958,1,0,0:0:0:0:
64,192,131037,1,0,0:0:0:0:
448,192,131037,1,0,0:0:0:0:
320,192,131116,1,0,0:0:0:0:
192,192,131195,1,0,0:0:0:0:
448,192,131195,1,0,0:0:0:0:
64,192,131195,1,0,0:0:0:0:
320,192,131274,1,0,0:0:0:0:
64,192,131353,1,0,0:0:0:0:
448,192,131353,1,0,0:0:0:0:
192,192,131432,1,0,0:0:0:0:
448,192,131511,1,0,0:0:0:0:
64,192,131511,1,0,0:0:0:0:
320,192,131511,1,0,0:0:0:0:
192,192,131590,1,0,0:0:0:0:
448,192,131669,1,0,0:0:0:0:
64,192,131669,1,0,0:0:0:0:
320,192,131748,1,0,0:0:0:0:
64,192,131827,1,0,0:0:0:0:
192,192,131827,1,0,0:0:0:0:
320,192,131906,1,0,0:0:0:0:
192,192,131984,1,0,0:0:0:0:
448,192,131984,1,0,0:0:0:0:
64,192,132063,1,0,0:0:0:0:
320,192,132063,1,0,0:0:0:0:
448,192,132142,1,0,0:0:0:0:
192,192,132142,1,0,0:0:0:0:
320,192,132221,1,0,0:0:0:0:
192,192,132300,1,0,0:0:0:0:
64,192,132379,1,0,0:0:0:0:
448,192,132458,1,0,0:0:0:0:
192,192,132458,1,0,0:0:0:0:
320,192,132537,1,0,0:0:0:0:
64,192,132616,1,0,0:0:0:0:
192,192,132695,1,0,0:0:0:0:
448,192,132774,1,0,0:0:0:0:
320,192,132774,1,0,0:0:0:0:
64,192,132774,1,0,0:0:0:0:
192,192,132853,1,0,0:0:0:0:
448,192,132932,1,0,0:0:0:0:
320,192,133011,1,0,0:0:0:0:
192,192,133090,1,0,0:0:0:0:
64,192,133090,1,0,0:0:0:0:
448,192,133090,1,0,0:0:0:0:
320,192,133169,1,0,0:0:0:0:
448,192,133248,1,0,0:0:0:0:
64,192,133248,1,0,0:0:0:0:
192,192,133327,1,0,0:0:0:0:
320,192,133406,1,0,0:0:0:0:
448,192,133406,1,0,0:0:0:0:
64,192,133406,1,0,0:0:0:0:
192,192,133484,1,0,0:0:0:0:
320,192,133563,1,0,0:0:0:0:
448,192,133563,1,0,0:0:0:0:
192,192,133642,1,0,0:0:0:0:
448,192,133721,1,0,0:0:0:0:
64,192,133721,1,0,0:0:0:0:
320,192,133721,1,0,0:0:0:0:
192,192,133800,1,0,0:0:0:0:
64,192,133879,1,0,0:0:0:0:
448,192,133879,1,0,0:0:0:0:
320,192,133958,1,0,0:0:0:0:
64,192,134037,1,0,0:0:0:0:
448,192,134037,1,0,0:0:0:0:
192,192,134037,1,0,0:0:0:0:
320,192,134116,1,0,0:0:0:0:
64,192,134195,1,0,0:0:0:0:
192,192,134274,1,0,0:0:0:0:
320,192,134353,1,0,0:0:0:0:
448,192,134353,1,0,0:0:0:0:
64,192,134432,1,0,0:0:0:0:
448,192,134511,1,0,0:0:0:0:
192,192,134511,1,0,0:0:0:0:
320,192,134590,1,0,0:0:0:0:
192,192,134669,1,0,0:0:0:0:
448,192,134669,1,0,0:0:0:0:
64,192,134669,1,0,0:0:0:0:
320,192,134748,1,0,0:0:0:0:
192,192,134827,1,0,0:0:0:0:
448,192,134827,1,0,0:0:0:0:
64,192,134906,1,0,0:0:0:0:
448,192,134984,1,0,0:0:0:0:
192,192,134984,1,0,0:0:0:0:
320,192,134984,1,0,0:0:0:0:
64,192,135063,1,0,0:0:0:0:
448,192,135142,1,0,0:0:0:0:
192,192,135142,1,0,0:0:0:0:
320,192,135221,1,0,0:0:0:0:
192,192,135300,1,0,0:0:0:0:
448,192,135300,1,0,0:0:0:0:
64,192,135300,1,0,0:0:0:0:
320,192,135379,1,0,0:0:0:0:
192,192,135458,1,0,0:0:0:0:
448,192,135458,1,0,0:0:0:0:
64,192,135458,1,0,0:0:0:0:
320,192,135537,1,0,0:0:0:0:
64,192,135616,1,0,0:0:0:0:
192,192,135616,1,0,0:0:0:0:
448,192,135616,1,0,0:0:0:0:
320,192,135695,1,0,0:0:0:0:
192,192,135774,1,0,0:0:0:0:
64,192,135774,1,0,0:0:0:0:
320,192,135853,1,0,0:0:0:0:
64,192,135932,1,0,0:0:0:0:
448,192,135932,1,0,0:0:0:0:
192,192,136011,1,0,0:0:0:0:
320,192,136090,1,0,0:0:0:0:
448,192,136090,1,0,0:0:0:0:
64,192,136090,1,0,0:0:0:0:
192,192,136169,1,0,0:0:0:0:
320,192,136248,1,0,0:0:0:0:
64,192,136248,1,0,0:0:0:0:
448,192,136248,1,0,0:0:0:0:
192,192,136327,1,0,0:0:0:0:
448,192,136406,1,0,0:0:0:0:
320,192,136406,1,0,0:0:0:0:
64,192,136406,1,0,0:0:0:0:
192,192,136484,1,0,0:0:0:0:
448,192,136563,1,0,0:0:0:0:
320,192,136563,1,0,0:0:0:0:
64,192,136563,1,0,0:0:0:0:
192,192,136642,1,0,0:0:0:0:
448,192,136721,1,0,0:0:0:0:
320,192,136721,1,0,0:0:0:0:
192,192,136800,1,0,0:0:0:0:
320,192,136879,1,0,0:0:0:0:
448,192,136879,1,0,0:0:0:0:
64,192,136879,1,0,0:0:0:0:
192,192,136958,1,0,0:0:0:0:
64,192,137037,1,0,0:0:0:0:
320,192,137037,1,0,0:0:0:0:
192,192,137116,5,0,0:0:0:0:
64,192,137195,5,0,0:0:0:0:
320,192,137195,1,0,0:0:0:0:
448,192,137195,1,0,0:0:0:0:
192,192,137274,1,0,0:0:0:0:
320,192,137353,1,0,0:0:0:0:
64,192,137353,1,0,0:0:0:0:
448,192,137353,1,0,0:0:0:0:
192,192,137432,1,0,0:0:0:0:
64,192,137511,1,0,0:0:0:0:
320,192,137511,1,0,0:0:0:0:
448,192,137669,5,0,0:0:0:0:
192,192,137669,1,0,0:0:0:0:
320,192,137748,1,0,0:0:0:0:
448,192,137827,1,0,0:0:0:0:
192,192,137827,1,0,0:0:0:0:
64,192,137827,1,0,0:0:0:0:
192,192,137984,1,0,0:0:0:0:
64,192,137984,1,0,0:0:0:0:
448,192,138142,1,0,0:0:0:0:
192,192,138142,1,0,0:0:0:0:
64,192,138142,1,0,0:0:0:0:
64,192,138300,1,0,0:0:0:0:
192,192,138379,1,0,0:0:0:0:
64,192,138458,1,0,0:0:0:0:
448,192,138458,1,0,0:0:0:0:
320,192,138458,1,0,0:0:0:0:
448,192,138616,1,0,0:0:0:0:
320,192,138616,1,0,0:0:0:0:
64,192,138774,1,0,0:0:0:0:
448,192,138774,1,0,0:0:0:0:
320,192,138774,1,0,0:0:0:0:
64,192,138932,1,0,0:0:0:0:
192,192,139011,1,0,0:0:0:0:
64,192,139090,1,0,0:0:0:0:
448,192,139090,1,0,0:0:0:0:
320,192,139090,1,0,0:0:0:0:
448,192,139248,1,0,0:0:0:0:
320,192,139248,1,0,0:0:0:0:
64,192,139406,1,0,0:0:0:0:
320,192,139406,1,0,0:0:0:0:
192,192,139406,1,0,0:0:0:0:
64,192,139563,1,0,0:0:0:0:
192,192,139642,1,0,0:0:0:0:
64,192,139721,1,0,0:0:0:0:
448,192,139721,1,0,0:0:0:0:
320,192,139721,1,0,0:0:0:0:
320,192,139879,1,0,0:0:0:0:
64,192,139879,1,0,0:0:0:0:
320,192,140037,1,0,0:0:0:0:
64,192,140037,1,0,0:0:0:0:
64,192,140195,1,0,0:0:0:0:
192,192,140274,1,0,0:0:0:0:
64,192,140353,1,0,0:0:0:0:
320,192,140353,1,0,0:0:0:0:
448,192,140353,1,0,0:0:0:0:
320,192,140511,1,0,0:0:0:0:
448,192,140511,1,0,0:0:0:0:
64,192,140669,1,0,0:0:0:0:
320,192,140669,1,0,0:0:0:0:
448,192,140669,1,0,0:0:0:0:
448,192,140827,1,0,0:0:0:0:
320,192,140906,1,0,0:0:0:0:
448,192,140984,1,0,0:0:0:0:
64,192,140984,1,0,0:0:0:0:
192,192,140984,1,0,0:0:0:0:
64,192,141142,1,0,0:0:0:0:
192,192,141142,1,0,0:0:0:0:
448,192,141300,1,0,0:0:0:0:
64,192,141300,1,0,0:0:0:0:
192,192,141300,1,0,0:0:0:0:
448,192,141458,1,0,0:0:0:0:
320,192,141537,1,0,0:0:0:0:
448,192,141616,1,0,0:0:0:0:
64,192,141616,1,0,0:0:0:0:
192,192,141616,1,0,0:0:0:0:
64,192,141774,1,0,0:0:0:0:
192,192,141774,1,0,0:0:0:0:
448,192,141932,1,0,0:0:0:0:
192,192,141932,1,0,0:0:0:0:
320,192,141932,1,0,0:0:0:0:
448,192,142090,1,0,0:0:0:0:
320,192,142169,1,0,0:0:0:0:
448,192,142248,1,0,0:0:0:0:
64,192,142248,1,0,0:0:0:0:
192,192,142248,1,0,0:0:0:0:
192,192,142406,1,0,0:0:0:0:
448,192,142406,1,0,0:0:0:0:
192,192,142563,1,0,0:0:0:0:
448,192,142563,1,0,0:0:0:0:
448,192,142721,1,0,0:0:0:0:
320,192,142800,1,0,0:0:0:0:
448,192,142879,1,0,0:0:0:0:
64,192,142879,1,0,0:0:0:0:
192,192,142879,1,0,0:0:0:0:
64,192,143037,1,0,0:0:0:0:
192,192,143037,1,0,0:0:0:0:
448,192,143195,1,0,0:0:0:0:
64,192,143195,1,0,0:0:0:0:
192,192,143195,1,0,0:0:0:0:
64,192,143353,1,0,0:0:0:0:
192,192,143432,1,0,0:0:0:0:
64,192,143511,1,0,0:0:0:0:
320,192,143511,1,0,0:0:0:0:
448,192,143511,1,0,0:0:0:0:
320,192,143669,1,0,0:0:0:0:
448,192,143669,1,0,0:0:0:0:
64,192,143827,1,0,0:0:0:0:
320,192,143827,1,0,0:0:0:0:
448,192,143827,1,0,0:0:0:0:
64,192,143984,1,0,0:0:0:0:
192,192,144063,1,0,0:0:0:0:
64,192,144142,1,0,0:0:0:0:
320,192,144142,1,0,0:0:0:0:
448,192,144142,1,0,0:0:0:0:
320,192,144300,1,0,0:0:0:0:
448,192,144300,1,0,0:0:0:0:
64,192,144458,1,0,0:0:0:0:
320,192,144458,1,0,0:0:0:0:
192,192,144458,1,0,0:0:0:0:
64,192,144616,1,0,0:0:0:0:
192,192,144695,1,0,0:0:0:0:
64,192,144774,1,0,0:0:0:0:
320,192,144774,1,0,0:0:0:0:
448,192,144774,1,0,0:0:0:0:
448,192,144932,1,0,0:0:0:0:
64,192,144932,1,0,0:0:0:0:
448,192,145090,1,0,0:0:0:0:
64,192,145090,1,0,0:0:0:0:
448,192,145248,1,0,0:0:0:0:
320,192,145327,1,0,0:0:0:0:
448,192,145406,1,0,0:0:0:0:
192,192,145406,1,0,0:0:0:0:
64,192,145406,1,0,0:0:0:0:
448,192,145563,1,0,0:0:0:0:
320,192,145563,1,0,0:0:0:0:
64,192,145721,1,0,0:0:0:0:
320,192,145721,1,0,0:0:0:0:
192,192,145721,1,0,0:0:0:0:
192,192,145879,1,0,0:0:0:0:
64,192,145879,1,0,0:0:0:0:
64,192,146037,1,0,0:0:0:0:
448,192,146037,1,0,0:0:0:0:
320,192,146037,1,0,0:0:0:0:
320,192,146195,1,0,0:0:0:0:
192,192,146195,1,0,0:0:0:0:
448,192,146353,1,0,0:0:0:0:
192,192,146353,1,0,0:0:0:0:
64,192,146353,1,0,0:0:0:0:
448,192,146511,1,0,0:0:0:0:
320,192,146511,1,0,0:0:0:0:
320,192,146669,1,0,0:0:0:0:
448,192,146669,1,0,0:0:0:0:
64,192,146669,1,0,0:0:0:0:
192,192,146669,1,0,0:0:0:0:
192,192,146827,1,0,0:0:0:0:
64,192,146827,1,0,0:0:0:0:
448,192,146984,1,0,0:0:0:0:
320,192,146984,1,0,0:0:0:0:
64,192,146984,1,0,0:0:0:0:
192,192,146984,1,0,0:0:0:0:
320,192,147142,1,0,0:0:0:0:
448,192,147142,1,0,0:0:0:0:
448,192,147300,1,0,0:0:0:0:
192,192,147300,1,0,0:0:0:0:
64,192,147300,1,0,0:0:0:0:
320,192,147300,1,0,0:0:0:0:
192,192,147458,1,0,0:0:0:0:
64,192,147458,1,0,0:0:0:0:
192,192,147616,1,0,0:0:0:0:
64,192,147616,1,0,0:0:0:0:
448,192,147774,1,0,0:0:0:0:
320,192,147853,1,0,0:0:0:0:
448,192,147932,1,0,0:0:0:0:
64,192,147932,1,0,0:0:0:0:
192,192,147932,1,0,0:0:0:0:
320,192,148011,1,0,0:0:0:0:
448,192,148090,1,0,0:0:0:0:
192,192,148090,1,0,0:0:0:0:
64,192,148169,1,0,0:0:0:0:
192,192,148248,1,0,0:0:0:0:
448,192,148248,1,0,0:0:0:0:
320,192,148248,1,0,0:0:0:0:
64,192,148327,1,0,0:0:0:0:
192,192,148406,1,0,0:0:0:0:
448,192,148406,1,0,0:0:0:0:
320,192,148484,1,0,0:0:0:0:
64,192,148563,1,0,0:0:0:0:
192,192,148563,1,0,0:0:0:0:
448,192,148563,1,0,0:0:0:0:
320,192,148642,1,0,0:0:0:0:
64,192,148721,1,0,0:0:0:0:
448,192,148721,1,0,0:0:0:0:
320,192,148800,1,0,0:0:0:0:
64,192,148879,1,0,0:0:0:0:
448,192,148879,1,0,0:0:0:0:
192,192,148879,1,0,0:0:0:0:
320,192,148958,1,0,0:0:0:0:
448,192,149037,1,0,0:0:0:0:
64,192,149037,1,0,0:0:0:0:
192,192,149116,1,0,0:0:0:0:
64,192,149195,1,0,0:0:0:0:
448,192,149195,1,0,0:0:0:0:
320,192,149195,1,0,0:0:0:0:
192,192,149274,1,0,0:0:0:0:
64,192,149353,1,0,0:0:0:0:
320,192,149353,1,0,0:0:0:0:
192,192,149432,1,0,0:0:0:0:
448,192,149511,1,0,0:0:0:0:
320,192,149511,1,0,0:0:0:0:
64,192,149511,1,0,0:0:0:0:
192,192,149590,1,0,0:0:0:0:
320,192,149669,1,0,0:0:0:0:
448,192,149669,1,0,0:0:0:0:
64,192,149748,1,0,0:0:0:0:
448,192,149827,1,0,0:0:0:0:
192,192,149827,1,0,0:0:0:0:
320,192,149827,1,0,0:0:0:0:
64,192,149906,1,0,0:0:0:0:
448,192,149984,1,0,0:0:0:0:
320,192,150063,1,0,0:0:0:0:
192,192,150142,1,0,0:0:0:0:
320,192,150221,1,0,0:0:0:0:
448,192,150300,1,0,0:0:0:0:
64,192,150300,1,0,0:0:0:0:
192,192,150379,1,0,0:0:0:0:
64,192,150458,1,0,0:0:0:0:
320,192,150458,1,0,0:0:0:0:
448,192,150458,1,0,0:0:0:0:
192,192,150537,1,0,0:0:0:0:
64,192,150616,1,0,0:0:0:0:
448,192,150616,1,0,0:0:0:0:
320,192,150695,1,0,0:0:0:0:
448,192,150774,1,0,0:0:0:0:
192,192,150774,1,0,0:0:0:0:
64,192,150774,1,0,0:0:0:0:
320,192,150853,1,0,0:0:0:0:
64,192,150932,1,0,0:0:0:0:
448,192,150932,1,0,0:0:0:0:
320,192,151011,1,0,0:0:0:0:
448,192,151090,1,0,0:0:0:0:
64,192,151090,1,0,0:0:0:0:
192,192,151090,1,0,0:0:0:0:
320,192,151169,1,0,0:0:0:0:
192,192,151248,1,0,0:0:0:0:
448,192,151248,1,0,0:0:0:0:
64,192,151327,1,0,0:0:0:0:
192,192,151406,1,0,0:0:0:0:
448,192,151406,1,0,0:0:0:0:
320,192,151406,1,0,0:0:0:0:
64,192,151484,1,0,0:0:0:0:
448,192,151563,1,0,0:0:0:0:
192,192,151563,1,0,0:0:0:0:
320,192,151642,1,0,0:0:0:0:
64,192,151642,1,0,0:0:0:0:
448,192,151721,1,0,0:0:0:0:
192,192,151721,1,0,0:0:0:0:
320,192,151800,1,0,0:0:0:0:
64,192,151879,1,0,0:0:0:0:
448,192,151879,1,0,0:0:0:0:
192,192,151958,1,0,0:0:0:0:
448,192,152037,1,0,0:0:0:0:
320,192,152037,1,0,0:0:0:0:
64,192,152037,1,0,0:0:0:0:
192,192,152116,1,0,0:0:0:0:
64,192,152195,1,0,0:0:0:0:
448,192,152195,1,0,0:0:0:0:
320,192,152274,1,0,0:0:0:0:
448,192,152353,1,0,0:0:0:0:
64,192,152353,1,0,0:0:0:0:
192,192,152353,1,0,0:0:0:0:
448,192,152511,1,0,0:0:0:0:
320,192,152511,1,0,0:0:0:0:
320,192,152669,1,0,0:0:0:0:
192,192,152669,1,0,0:0:0:0:
192,192,152827,1,0,0:0:0:0:
64,192,152827,1,0,0:0:0:0:
320,192,152984,1,0,0:0:0:0:
448,192,152984,1,0,0:0:0:0:
192,192,152984,1,0,0:0:0:0:
448,192,153142,128,0,153300:0:0:0:0:
320,192,153300,1,0,0:0:0:0:
64,192,153300,1,0,0:0:0:0:
64,192,153458,128,0,153616:0:0:0:0:
320,192,153616,1,0,0:0:0:0:
192,192,153616,1,0,0:0:0:0:
192,192,153774,128,0,153932:0:0:0:0:
64,192,153932,1,0,0:0:0:0:
448,192,153932,1,0,0:0:0:0:
448,192,154090,128,0,154248:0:0:0:0:
320,192,154248,1,0,0:0:0:0:
64,192,154248,1,0,0:0:0:0:
320,192,154406,128,0,154563:0:0:0:0:
448,192,154563,1,0,0:0:0:0:
192,192,154563,1,0,0:0:0:0:
192,192,154721,128,0,154800:0:0:0:0:
64,192,154721,128,0,154879:0:0:0:0:
320,192,154800,128,0,154879:0:0:0:0:
448,192,154879,128,0,155353:0:0:0:0:
192,192,154879,1,0,0:0:0:0:
320,192,155037,128,0,155195:0:0:0:0:
192,192,155195,1,0,0:0:0:0:
64,192,155195,1,0,0:0:0:0:
64,192,155353,128,0,155432:0:0:0:0:
320,192,155353,128,0,155511:0:0:0:0:
192,192,155432,128,0,155511:0:0:0:0:
64,192,155511,1,0,0:0:0:0:
448,192,155511,1,0,0:0:0:0:
320,192,155669,128,0,155827:0:0:0:0:
64,192,155827,1,0,0:0:0:0:
192,192,155827,1,0,0:0:0:0:
448,192,155984,128,0,156142:0:0:0:0:
64,192,156142,1,0,0:0:0:0:
320,192,156142,1,0,0:0:0:0:
64,192,156300,128,0,156458:0:0:0:0:
320,192,156458,1,0,0:0:0:0:
192,192,156458,1,0,0:0:0:0:
192,192,156616,128,0,156774:0:0:0:0:
448,192,156774,1,0,0:0:0:0:
320,192,156774,1,0,0:0:0:0:
192,192,156932,1,0,0:0:0:0:
64,192,156932,1,0,0:0:0:0:
320,192,157090,1,0,0:0:0:0:
448,192,157090,1,0,0:0:0:0:
192,192,157248,1,0,0:0:0:0:
64,192,157248,1,0,0:0:0:0:
448,192,157406,1,0,0:0:0:0:
64,192,157406,1,0,0:0:0:0:
320,192,157563,1,0,0:0:0:0:
192,192,157563,1,0,0:0:0:0:
448,192,157721,1,0,0:0:0:0:
64,192,157721,1,0,0:0:0:0:
320,192,157879,1,0,0:0:0:0:
192,192,157879,1,0,0:0:0:0:
192,192,158037,1,0,0:0:0:0:
64,192,158037,1,0,0:0:0:0:
448,192,158037,1,0,0:0:0:0:
320,192,158116,1,0,0:0:0:0:
192,192,158195,1,0,0:0:0:0:
64,192,158274,1,0,0:0:0:0:
320,192,158353,1,0,0:0:0:0:
448,192,158353,1,0,0:0:0:0:
192,192,158432,1,0,0:0:0:0:
448,192,158511,1,0,0:0:0:0:
64,192,158511,1,0,0:0:0:0:
192,192,158590,1,0,0:0:0:0:
64,192,158669,1,0,0:0:0:0:
320,192,158669,1,0,0:0:0:0:
448,192,158669,1,0,0:0:0:0:
192,192,158748,1,0,0:0:0:0:
64,192,158827,1,0,0:0:0:0:
320,192,158906,1,0,0:0:0:0:
192,192,158984,1,0,0:0:0:0:
64,192,158984,1,0,0:0:0:0:
448,192,158984,1,0,0:0:0:0:
320,192,159063,1,0,0:0:0:0:
64,192,159142,1,0,0:0:0:0:
192,192,159221,1,0,0:0:0:0:
320,192,159300,1,0,0:0:0:0:
64,192,159300,1,0,0:0:0:0:
448,192,159300,1,0,0:0:0:0:
192,192,159379,1,0,0:0:0:0:
320,192,159458,1,0,0:0:0:0:
448,192,159458,1,0,0:0:0:0:
64,192,159537,1,0,0:0:0:0:
192,192,159616,1,0,0:0:0:0:
448,192,159616,1,0,0:0:0:0:
320,192,159695,1,0,0:0:0:0:
192,192,159774,1,0,0:0:0:0:
64,192,159774,1,0,0:0:0:0:
448,192,159853,1,0,0:0:0:0:
320,192,159853,1,0,0:0:0:0:
192,192,159932,1,0,0:0:0:0:
64,192,159932,1,0,0:0:0:0:
320,192,160011,1,0,0:0:0:0:
192,192,160090,1,0,0:0:0:0:
64,192,160090,1,0,0:0:0:0:
448,192,160090,1,0,0:0:0:0:
320,192,160169,1,0,0:0:0:0:
192,192,160248,1,0,0:0:0:0:
64,192,160248,1,0,0:0:0:0:
448,192,160248,1,0,0:0:0:0:
320,192,160327,1,0,0:0:0:0:
448,192,160406,1,0,0:0:0:0:
64,192,160406,1,0,0:0:0:0:
192,192,160484,1,0,0:0:0:0:
320,192,160563,1,0,0:0:0:0:
64,192,160563,1,0,0:0:0:0:
448,192,160563,1,0,0:0:0:0:
192,192,160642,1,0,0:0:0:0:
448,192,160721,1,0,0:0:0:0:
320,192,160800,1,0,0:0:0:0:
64,192,160879,1,0,0:0:0:0:
448,192,160879,1,0,0:0:0:0:
192,192,160958,1,0,0:0:0:0:
320,192,161037,1,0,0:0:0:0:
192,192,161116,1,0,0:0:0:0:
320,192,161195,1,0,0:0:0:0:
64,192,161195,1,0,0:0:0:0:
448,192,161195,1,0,0:0:0:0:
192,192,161274,1,0,0:0:0:0:
448,192,161353,1,0,0:0:0:0:
320,192,161432,1,0,0:0:0:0:
192,192,161511,1,0,0:0:0:0:
64,192,161511,1,0,0:0:0:0:
448,192,161590,1,0,0:0:0:0:
320,192,161669,1,0,0:0:0:0:
192,192,161748,1,0,0:0:0:0:
320,192,161827,1,0,0:0:0:0:
64,192,161827,1,0,0:0:0:0:
448,192,161827,1,0,0:0:0:0:
192,192,161906,1,0,0:0:0:0:
448,192,161984,1,0,0:0:0:0:
320,192,162063,1,0,0:0:0:0:
64,192,162142,1,0,0:0:0:0:
448,192,162142,1,0,0:0:0:0:
192,192,162221,1,0,0:0:0:0:
320,192,162300,1,0,0:0:0:0:
448,192,162300,1,0,0:0:0:0:
64,192,162379,1,0,0:0:0:0:
192,192,162458,1,0,0:0:0:0:
320,192,162458,1,0,0:0:0:0:
448,192,162458,1,0,0:0:0:0:
64,192,162537,1,0,0:0:0:0:
320,192,162616,1,0,0:0:0:0:
192,192,162695,1,0,0:0:0:0:
64,192,162774,1,0,0:0:0:0:
448,192,162774,1,0,0:0:0:0:
320,192,162853,1,0,0:0:0:0:
192,192,162932,1,0,0:0:0:0:
320,192,163011,1,0,0:0:0:0:
192,192,163090,1,0,0:0:0:0:
64,192,163090,1,0,0:0:0:0:
448,192,163090,1,0,0:0:0:0:
320,192,163169,1,0,0:0:0:0:
64,192,163248,1,0,0:0:0:0:
192,192,163327,1,0,0:0:0:0:
320,192,163406,1,0,0:0:0:0:
448,192,163406,1,0,0:0:0:0:
64,192,163484,1,0,0:0:0:0:
192,192,163563,1,0,0:0:0:0:
448,192,163563,1,0,0:0:0:0:
320,192,163642,1,0,0:0:0:0:
64,192,163642,1,0,0:0:0:0:
192,192,163721,1,0,0:0:0:0:
448,192,163721,1,0,0:0:0:0:
320,192,163800,1,0,0:0:0:0:
64,192,163879,1,0,0:0:0:0:
192,192,163958,1,0,0:0:0:0:
64,192,164037,1,0,0:0:0:0:
448,192,164037,1,0,0:0:0:0:
320,192,164116,1,0,0:0:0:0:
192,192,164195,1,0,0:0:0:0:
320,192,164274,1,0,0:0:0:0:
192,192,164353,1,0,0:0:0:0:
64,192,164353,1,0,0:0:0:0:
448,192,164353,1,0,0:0:0:0:
320,192,164432,1,0,0:0:0:0:
448,192,164511,1,0,0:0:0:0:
320,192,164590,1,0,0:0:0:0:
192,192,164669,1,0,0:0:0:0:
448,192,164669,1,0,0:0:0:0:
64,192,164669,1,0,0:0:0:0:
320,192,164748,1,0,0:0:0:0:
192,192,164827,1,0,0:0:0:0:
320,192,164906,1,0,0:0:0:0:
448,192,164984,1,0,0:0:0:0:
192,192,164984,1,0,0:0:0:0:
64,192,164984,1,0,0:0:0:0:
320,192,165063,1,0,0:0:0:0:
192,192,165142,1,0,0:0:0:0:
448,192,165142,1,0,0:0:0:0:
64,192,165142,1,0,0:0:0:0:
320,192,165221,1,0,0:0:0:0:
448,192,165300,1,0,0:0:0:0:
192,192,165300,1,0,0:0:0:0:
64,192,165300,1,0,0:0:0:0:
320,192,165379,1,0,0:0:0:0:
64,192,165458,1,0,0:0:0:0:
192,192,165458,1,0,0:0:0:0:
320,192,165537,1,0,0:0:0:0:
192,192,165616,1,0,0:0:0:0:
448,192,165616,1,0,0:0:0:0:
64,192,165616,1,0,0:0:0:0:
320,192,165695,1,0,0:0:0:0:
448,192,165774,1,0,0:0:0:0:
320,192,165853,1,0,0:0:0:0:
64,192,165932,1,0,0:0:0:0:
448,192,165932,1,0,0:0:0:0:
192,192,166011,1,0,0:0:0:0:
448,192,166090,1,0,0:0:0:0:
320,192,166169,1,0,0:0:0:0:
192,192,166248,1,0,0:0:0:0:
64,192,166248,1,0,0:0:0:0:
448,192,166248,1,0,0:0:0:0:
320,192,166327,1,0,0:0:0:0:
64,192,166406,1,0,0:0:0:0:
192,192,166484,1,0,0:0:0:0:
64,192,166563,1,0,0:0:0:0:
320,192,166563,1,0,0:0:0:0:
192,192,166642,1,0,0:0:0:0:
448,192,166721,1,0,0:0:0:0:
320,192,166800,1,0,0:0:0:0:
192,192,166879,1,0,0:0:0:0:
64,192,166879,1,0,0:0:0:0:
448,192,166879,1,0,0:0:0:0:
320,192,166958,1,0,0:0:0:0:
64,192,167037,1,0,0:0:0:0:
448,192,167037,1,0,0:0:0:0:
192,192,167116,1,0,0:0:0:0:
64,192,167195,1,0,0:0:0:0:
448,192,167195,1,0,0:0:0:0:
320,192,167274,1,0,0:0:0:0:
64,192,167353,1,0,0:0:0:0:
448,192,167353,1,0,0:0:0:0:
192,192,167432,1,0,0:0:0:0:
320,192,167511,1,0,0:0:0:0:
64,192,167511,1,0,0:0:0:0:
448,192,167511,1,0,0:0:0:0:
192,192,167590,1,0,0:0:0:0:
320,192,167669,1,0,0:0:0:0:
448,192,167669,1,0,0:0:0:0:
192,192,167748,1,0,0:0:0:0:
64,192,167827,1,0,0:0:0:0:
320,192,167827,1,0,0:0:0:0:
192,192,167906,1,0,0:0:0:0:
320,192,167984,1,0,0:0:0:0:
448,192,167984,1,0,0:0:0:0:
192,192,168063,1,0,0:0:0:0:
64,192,168063,1,0,0:0:0:0:
448,192,168142,1,0,0:0:0:0:
320,192,168142,1,0,0:0:0:0:
192,192,168221,1,0,0:0:0:0:
320,192,168300,1,0,0:0:0:0:
64,192,168300,1,0,0:0:0:0:
192,192,168379,1,0,0:0:0:0:
320,192,168458,1,0,0:0:0:0:
64,192,168458,1,0,0:0:0:0:
448,192,168458,1,0,0:0:0:0:
192,192,168537,1,0,0:0:0:0:
448,192,168616,1,0,0:0:0:0:
320,192,168616,1,0,0:0:0:0:
192,192,168695,1,0,0:0:0:0:
64,192,168774,1,0,0:0:0:0:
448,192,168774,1,0,0:0:0:0:
320,192,168853,1,0,0:0:0:0:
192,192,168932,1,0,0:0:0:0:
320,192,169011,1,0,0:0:0:0:
192,192,169090,1,0,0:0:0:0:
64,192,169090,1,0,0:0:0:0:
448,192,169090,1,0,0:0:0:0:
320,192,169169,1,0,0:0:0:0:
448,192,169248,1,0,0:0:0:0:
192,192,169248,1,0,0:0:0:0:
320,192,169327,1,0,0:0:0:0:
64,192,169327,1,0,0:0:0:0:
192,192,169406,1,0,0:0:0:0:
448,192,169406,1,0,0:0:0:0:
320,192,169484,1,0,0:0:0:0:
192,192,169563,1,0,0:0:0:0:
64,192,169563,1,0,0:0:0:0:
320,192,169642,1,0,0:0:0:0:
64,192,169721,1,0,0:0:0:0:
448,192,169721,1,0,0:0:0:0:
192,192,169800,1,0,0:0:0:0:
320,192,169879,1,0,0:0:0:0:
448,192,169879,1,0,0:0:0:0:
64,192,169879,1,0,0:0:0:0:
192,192,169958,1,0,0:0:0:0:
320,192,170037,1,0,0:0:0:0:
448,192,170037,1,0,0:0:0:0:
192,192,170116,1,0,0:0:0:0:
64,192,170195,1,0,0:0:0:0:
320,192,170195,1,0,0:0:0:0:
192,192,170274,1,0,0:0:0:0:
64,192,170353,1,0,0:0:0:0:
448,192,170353,1,0,0:0:0:0:
320,192,170432,1,0,0:0:0:0:
448,192,170511,1,0,0:0:0:0:
64,192,170511,1,0,0:0:0:0:
320,192,170590,1,0,0:0:0:0:
192,192,170590,1,0,0:0:0:0:
64,192,170669,1,0,0:0:0:0:
448,192,170669,1,0,0:0:0:0:
320,192,170748,1,0,0:0:0:0:
448,192,170827,1,0,0:0:0:0:
192,192,170906,1,0,0:0:0:0:
64,192,170906,1,0,0:0:0:0:
320,192,170984,1,0,0:0:0:0:
448,192,170984,1,0,0:0:0:0:
192,192,171063,1,0,0:0:0:0:
448,192,171142,1,0,0:0:0:0:
64,192,171142,1,0,0:0:0:0:
320,192,171221,1,0,0:0:0:0:
192,192,171300,1,0,0:0:0:0:
64,192,171300,1,0,0:0:0:0:
448,192,171300,1,0,0:0:0:0:
320,192,171379,1,0,0:0:0:0:
64,192,171458,1,0,0:0:0:0:
192,192,171537,1,0,0:0:0:0:
64,192,171616,1,0,0:0:0:0:
448,192,171616,1,0,0:0:0:0:
320,192,171695,1,0,0:0:0:0:
192,192,171774,1,0,0:0:0:0:
320,192,171853,1,0,0:0:0:0:
192,192,171932,1,0,0:0:0:0:
448,192,171932,1,0,0:0:0:0:
64,192,172011,1,0,0:0:0:0:
320,192,172090,1,0,0:0:0:0:
192,192,172169,1,0,0:0:0:0:
64,192,172248,1,0,0:0:0:0:
448,192,172248,1,0,0:0:0:0:
320,192,172327,1,0,0:0:0:0:
64,192,172406,1,0,0:0:0:0:
448,192,172406,1,0,0:0:0:0:
192,192,172484,1,0,0:0:0:0:
320,192,172563,1,0,0:0:0:0:
448,192,172563,1,0,0:0:0:0:
64,192,172642,1,0,0:0:0:0:
192,192,172721,1,0,0:0:0:0:
320,192,172800,1,0,0:0:0:0:
192,192,172879,1,0,0:0:0:0:
448,192,172879,1,0,0:0:0:0:
320,192,172958,1,0,0:0:0:0:
192,192,173037,1,0,0:0:0:0:
64,192,173037,1,0,0:0:0:0:
448,192,173116,1,0,0:0:0:0:
320,192,173116,1,0,0:0:0:0:
64,192,173195,1,0,0:0:0:0:
192,192,173195,1,0,0:0:0:0:
320,192,173274,1,0,0:0:0:0:
448,192,173353,1,0,0:0:0:0:
64,192,173353,1,0,0:0:0:0:
320,192,173432,1,0,0:0:0:0:
192,192,173511,1,0,0:0:0:0:
64,192,173511,1,0,0:0:0:0:
448,192,173511,1,0,0:0:0:0:
320,192,173590,1,0,0:0:0:0:
448,192,173669,1,0,0:0:0:0:
64,192,173669,1,0,0:0:0:0:
192,192,173748,1,0,0:0:0:0:
320,192,173827,1,0,0:0:0:0:
64,192,173827,1,0,0:0:0:0:
448,192,173827,1,0,0:0:0:0:
192,192,173906,1,0,0:0:0:0:
448,192,173984,1,0,0:0:0:0:
320,192,174063,1,0,0:0:0:0:
192,192,174142,1,0,0:0:0:0:
64,192,174142,1,0,0:0:0:0:
448,192,174142,1,0,0:0:0:0:
320,192,174221,1,0,0:0:0:0:
448,192,174300,1,0,0:0:0:0:
64,192,174300,1,0,0:0:0:0:
192,192,174379,1,0,0:0:0:0:
320,192,174458,1,0,0:0:0:0:
64,192,174458,1,0,0:0:0:0:
448,192,174458,1,0,0:0:0:0:
192,192,174537,1,0,0:0:0:0:
448,192,174616,1,0,0:0:0:0:
320,192,174695,1,0,0:0:0:0:
192,192,174774,1,0,0:0:0:0:
448,192,174774,1,0,0:0:0:0:
64,192,174853,1,0,0:0:0:0:
192,192,174932,1,0,0:0:0:0:
448,192,174932,1,0,0:0:0:0:
320,192,175011,1,0,0:0:0:0:
64,192,175090,1,0,0:0:0:0:
192,192,175090,1,0,0:0:0:0:
320,192,175169,1,0,0:0:0:0:
64,192,175248,1,0,0:0:0:0:
448,192,175248,1,0,0:0:0:0:
192,192,175327,1,0,0:0:0:0:
320,192,175406,1,0,0:0:0:0:
448,192,175406,1,0,0:0:0:0:
192,192,175484,1,0,0:0:0:0:
64,192,175563,1,0,0:0:0:0:
320,192,175642,1,0,0:0:0:0:
192,192,175721,1,0,0:0:0:0:
64,192,175721,1,0,0:0:0:0:
448,192,175721,1,0,0:0:0:0:
320,192,175800,1,0,0:0:0:0:
448,192,175879,1,0,0:0:0:0:
320,192,175958,1,0,0:0:0:0:
64,192,175958,1,0,0:0:0:0:
448,192,176037,1,0,0:0:0:0:
192,192,176037,1,0,0:0:0:0:
64,192,176116,1,0,0:0:0:0:
192,192,176195,1,0,0:0:0:0:
448,192,176195,1,0,0:0:0:0:
320,192,176274,1,0,0:0:0:0:
192,192,176353,1,0,0:0:0:0:
64,192,176353,1,0,0:0:0:0:
448,192,176353,1,0,0:0:0:0:
320,192,176432,1,0,0:0:0:0:
192,192,176511,1,0,0:0:0:0:
64,192,176590,1,0,0:0:0:0:
320,192,176669,1,0,0:0:0:0:
448,192,176669,1,0,0:0:0:0:
192,192,176748,1,0,0:0:0:0:
64,192,176827,1,0,0:0:0:0:
320,192,176906,1,0,0:0:0:0:
192,192,176984,1,0,0:0:0:0:
64,192,176984,1,0,0:0:0:0:
448,192,176984,1,0,0:0:0:0:
320,192,177063,1,0,0:0:0:0:
64,192,177142,1,0,0:0:0:0:
448,192,177142,1,0,0:0:0:0:
320,192,177221,1,0,0:0:0:0:
64,192,177300,1,0,0:0:0:0:
448,192,177300,1,0,0:0:0:0:
320,192,177379,1,0,0:0:0:0:
64,192,177458,1,0,0:0:0:0:
448,192,177458,1,0,0:0:0:0:
192,192,177537,1,0,0:0:0:0:
320,192,177616,1,0,0:0:0:0:
64,192,177616,1,0,0:0:0:0:
448,192,177616,1,0,0:0:0:0:
192,192,177695,1,0,0:0:0:0:
320,192,177774,1,0,0:0:0:0:
448,192,177774,1,0,0:0:0:0:
192,192,177853,1,0,0:0:0:0:
320,192,177932,1,0,0:0:0:0:
448,192,177932,1,0,0:0:0:0:
192,192,178011,1,0,0:0:0:0:
448,192,178090,1,0,0:0:0:0:
320,192,178090,1,0,0:0:0:0:
192,192,178169,1,0,0:0:0:0:
320,192,178248,1,0,0:0:0:0:
64,192,178248,1,0,0:0:0:0:
448,192,178248,1,0,0:0:0:0:
192,192,178327,1,0,0:0:0:0:
320,192,178406,1,0,0:0:0:0:
448,192,178484,1,0,0:0:0:0:
192,192,178563,1,0,0:0:0:0:
64,192,178563,1,0,0:0:0:0:
320,192,178563,1,0,0:0:0:0:
448,192,178642,1,0,0:0:0:0:
192,192,178721,1,0,0:0:0:0:
320,192,178800,1,0,0:0:0:0:
192,192,178879,1,0,0:0:0:0:
64,192,178879,1,0,0:0:0:0:
448,192,178879,1,0,0:0:0:0:
320,192,178958,1,0,0:0:0:0:
64,192,179037,1,0,0:0:0:0:
448,192,179037,1,0,0:0:0:0:
192,192,179116,1,0,0:0:0:0:
320,192,179195,1,0,0:0:0:0:
64,192,179195,1,0,0:0:0:0:
448,192,179195,1,0,0:0:0:0:
192,192,179274,1,0,0:0:0:0:
448,192,179353,1,0,0:0:0:0:
320,192,179353,1,0,0:0:0:0:
64,192,179432,1,0,0:0:0:0:
192,192,179511,1,0,0:0:0:0:
320,192,179511,1,0,0:0:0:0:
448,192,179590,1,0,0:0:0:0:
64,192,179590,1,0,0:0:0:0:
320,192,179669,1,0,0:0:0:0:
192,192,179669,1,0,0:0:0:0:
64,192,179748,1,0,0:0:0:0:
192,192,179827,1,0,0:0:0:0:
320,192,179827,1,0,0:0:0:0:
448,192,179827,1,0,0:0:0:0:
64,192,179906,1,0,0:0:0:0:
192,192,179984,1,0,0:0:0:0:
448,192,179984,1,0,0:0:0:0:
320,192,180063,1,0,0:0:0:0:
192,192,180142,1,0,0:0:0:0:
64,192,180142,1,0,0:0:0:0:
448,192,180142,1,0,0:0:0:0:
320,192,180221,1,0,0:0:0:0:
192,192,180300,1,0,0:0:0:0:
64,192,180300,1,0,0:0:0:0:
448,192,180300,1,0,0:0:0:0:
320,192,180458,1,0,0:0:0:0:
64,192,180458,1,0,0:0:0:0:
448,192,180458,1,0,0:0:0:0:
192,192,180537,1,0,0:0:0:0:
448,192,180616,1,0,0:0:0:0:
64,192,180616,1,0,0:0:0:0:
320,192,180695,1,0,0:0:0:0:
192,192,180695,1,0,0:0:0:0:
64,192,180774,1,0,0:0:0:0:
448,192,180774,1,0,0:0:0:0:
320,192,180853,1,0,0:0:0:0:
448,192,180932,1,0,0:0:0:0:
192,192,180932,1,0,0:0:0:0:
320,192,181011,1,0,0:0:0:0:
192,192,181090,1,0,0:0:0:0:
64,192,181090,1,0,0:0:0:0:
448,192,181090,1,0,0:0:0:0:
320,192,181169,1,0,0:0:0:0:
448,192,181248,1,0,0:0:0:0:
64,192,181248,1,0,0:0:0:0:
192,192,181327,1,0,0:0:0:0:
320,192,181406,1,0,0:0:0:0:
64,192,181406,1,0,0:0:0:0:
448,192,181406,1,0,0:0:0:0:
192,192,181484,1,0,0:0:0:0:
64,192,181563,1,0,0:0:0:0:
448,192,181563,1,0,0:0:0:0:
192,192,181642,1,0,0:0:0:0:
320,192,181721,1,0,0:0:0:0:
64,192,181721,1,0,0:0:0:0:
448,192,181721,1,0,0:0:0:0:
192,192,181800,1,0,0:0:0:0:
448,192,181879,1,0,0:0:0:0:
320,192,181879,1,0,0:0:0:0:
192,192,181958,1,0,0:0:0:0:
320,192,182037,1,0,0:0:0:0:
64,192,182037,1,0,0:0:0:0:
192,192,182116,1,0,0:0:0:0:
448,192,182116,1,0,0:0:0:0:
320,192,182195,1,0,0:0:0:0:
64,192,182195,1,0,0:0:0:0:
192,192,182274,1,0,0:0:0:0:
320,192,182353,1,0,0:0:0:0:
64,192,182353,1,0,0:0:0:0:
448,192,182353,1,0,0:0:0:0:
192,192,182432,1,0,0:0:0:0:
320,192,182511,1,0,0:0:0:0:
64,192,182511,1,0,0:0:0:0:
448,192,182511,1,0,0:0:0:0:
192,192,182590,1,0,0:0:0:0:
320,192,182669,1,0,0:0:0:0:
64,192,182669,1,0,0:0:0:0:
448,192,182669,1,0,0:0:0:0:
192,192,182748,1,0,0:0:0:0:
448,192,182827,1,0,0:0:0:0:
320,192,182906,1,0,0:0:0:0:
64,192,182984,1,0,0:0:0:0:
448,192,182984,1,0,0:0:0:0:
192,192,183063,1,0,0:0:0:0:
320,192,183142,1,0,0:0:0:0:
64,192,183142,1,0,0:0:0:0:
448,192,183221,1,0,0:0:0:0:
192,192,183221,1,0,0:0:0:0:
320,192,183300,1,0,0:0:0:0:
64,192,183300,1,0,0:0:0:0:
192,192,183379,1,0,0:0:0:0:
448,192,183458,1,0,0:0:0:0:
320,192,183537,1,0,0:0:0:0:
192,192,183616,1,0,0:0:0:0:
64,192,183616,1,0,0:0:0:0:
448,192,183616,1,0,0:0:0:0:
320,192,183695,1,0,0:0:0:0:
64,192,183774,1,0,0:0:0:0:
192,192,183853,1,0,0:0:0:0:
320,192,183932,1,0,0:0:0:0:
64,192,183932,1,0,0:0:0:0:
448,192,183932,1,0,0:0:0:0:
192,192,184011,1,0,0:0:0:0:
320,192,184090,1,0,0:0:0:0:
448,192,184090,1,0,0:0:0:0:
192,192,184169,1,0,0:0:0:0:
320,192,184248,1,0,0:0:0:0:
64,192,184248,1,0,0:0:0:0:
448,192,184248,1,0,0:0:0:0:
192,192,184327,1,0,0:0:0:0:
448,192,184406,1,0,0:0:0:0:
64,192,184406,1,0,0:0:0:0:
320,192,184484,1,0,0:0:0:0:
448,192,184563,1,0,0:0:0:0:
64,192,184563,1,0,0:0:0:0:
192,192,184642,1,0,0:0:0:0:
320,192,184642,1,0,0:0:0:0:
448,192,184721,1,0,0:0:0:0:
64,192,184721,1,0,0:0:0:0:
192,192,184800,1,0,0:0:0:0:
64,192,184879,1,0,0:0:0:0:
320,192,184879,1,0,0:0:0:0:
448,192,184879,1,0,0:0:0:0:
192,192,184958,1,0,0:0:0:0:
320,192,185037,1,0,0:0:0:0:
448,192,185037,1,0,0:0:0:0:
192,192,185116,1,0,0:0:0:0:
320,192,185195,1,0,0:0:0:0:
64,192,185195,1,0,0:0:0:0:
448,192,185195,1,0,0:0:0:0:
192,192,185274,1,0,0:0:0:0:
64,192,185353,1,0,0:0:0:0:
320,192,185353,1,0,0:0:0:0:
448,192,185353,1,0,0:0:0:0:
192,192,185511,1,0,0:0:0:0:
64,192,185511,1,0,0:0:0:0:
448,192,185511,1,0,0:0:0:0:
320,192,185590,1,0,0:0:0:0:
64,192,185669,1,0,0:0:0:0:
192,192,185669,1,0,0:0:0:0:
320,192,185748,1,0,0:0:0:0:
448,192,185748,1,0,0:0:0:0:
64,192,185827,1,0,0:0:0:0:
192,192,185827,1,0,0:0:0:0:
320,192,185906,1,0,0:0:0:0:
64,192,185984,1,0,0:0:0:0:
448,192,185984,1,0,0:0:0:0:
192,192,186063,1,0,0:0:0:0:
320,192,186142,1,0,0:0:0:0:
64,192,186142,1,0,0:0:0:0:
448,192,186142,1,0,0:0:0:0:
192,192,186221,1,0,0:0:0:0:
320,192,186300,1,0,0:0:0:0:
448,192,186300,1,0,0:0:0:0:
192,192,186379,1,0,0:0:0:0:
320,192,186458,1,0,0:0:0:0:
64,192,186458,1,0,0:0:0:0:
448,192,186458,1,0,0:0:0:0:
192,192,186537,1,0,0:0:0:0:
448,192,186616,1,0,0:0:0:0:
64,192,186616,1,0,0:0:0:0:
192,192,186695,1,0,0:0:0:0:
320,192,186774,1,0,0:0:0:0:
64,192,186774,1,0,0:0:0:0:
448,192,186774,1,0,0:0:0:0:
192,192,186853,1,0,0:0:0:0:
448,192,186932,1,0,0:0:0:0:
64,192,186932,1,0,0:0:0:0:
320,192,187011,1,0,0:0:0:0:
192,192,187090,1,0,0:0:0:0:
64,192,187090,1,0,0:0:0:0:
448,192,187090,1,0,0:0:0:0:
320,192,187169,1,0,0:0:0:0:
192,192,187248,1,0,0:0:0:0:
64,192,187248,1,0,0:0:0:0:
448,192,187248,1,0,0:0:0:0:
320,192,187327,1,0,0:0:0:0:
192,192,187406,1,0,0:0:0:0:
64,192,187406,1,0,0:0:0:0:
448,192,187406,1,0,0:0:0:0:
320,192,187484,1,0,0:0:0:0:
192,192,187563,1,0,0:0:0:0:
64,192,187563,1,0,0:0:0:0:
448,192,187563,1,0,0:0:0:0:
320,192,187642,1,0,0:0:0:0:
192,192,187721,1,0,0:0:0:0:
64,192,187721,1,0,0:0:0:0:
448,192,187721,1,0,0:0:0:0:
320,192,187800,1,0,0:0:0:0:
192,192,187879,1,0,0:0:0:0:
64,192,187879,1,0,0:0:0:0:
448,192,187879,1,0,0:0:0:0:
320,192,187958,1,0,0:0:0:0:
192,192,188037,1,0,0:0:0:0:
64,192,188037,1,0,0:0:0:0:
448,192,188037,1,0,0:0:0:0:
320,192,188116,1,0,0:0:0:0:
192,192,188195,1,0,0:0:0:0:
448,192,188195,1,0,0:0:0:0:
64,192,188274,1,0,0:0:0:0:
192,192,188353,1,0,0:0:0:0:
320,192,188353,1,0,0:0:0:0:
448,192,188353,1,0,0:0:0:0:
64,192,188432,1,0,0:0:0:0:
192,192,188511,1,0,0:0:0:0:
448,192,188511,1,0,0:0:0:0:
320,192,188590,1,0,0:0:0:0:
192,192,188669,1,0,0:0:0:0:
64,192,188669,1,0,0:0:0:0:
448,192,188669,1,0,0:0:0:0:
320,192,188748,1,0,0:0:0:0:
192,192,188827,1,0,0:0:0:0:
448,192,188827,1,0,0:0:0:0:
64,192,188906,1,0,0:0:0:0:
192,192,188984,1,0,0:0:0:0:
320,192,188984,1,0,0:0:0:0:
448,192,188984,1,0,0:0:0:0:
64,192,189063,1,0,0:0:0:0:
192,192,189142,1,0,0:0:0:0:
448,192,189142,1,0,0:0:0:0:
320,192,189142,1,0,0:0:0:0:
64,192,189221,1,0,0:0:0:0:
192,192,189300,1,0,0:0:0:0:
448,192,189300,1,0,0:0:0:0:
320,192,189300,1,0,0:0:0:0:
64,192,189379,1,0,0:0:0:0:
192,192,189458,1,0,0:0:0:0:
448,192,189458,1,0,0:0:0:0:
320,192,189458,1,0,0:0:0:0:
64,192,189537,1,0,0:0:0:0:
192,192,189616,1,0,0:0:0:0:
448,192,189616,1,0,0:0:0:0:
320,192,189616,1,0,0:0:0:0:
64,192,189695,1,0,0:0:0:0:
192,192,189774,1,0,0:0:0:0:
448,192,189774,1,0,0:0:0:0:
320,192,189853,1,0,0:0:0:0:
448,192,189932,1,0,0:0:0:0:
64,192,189932,1,0,0:0:0:0:
192,192,189932,1,0,0:0:0:0:
320,192,190011,1,0,0:0:0:0:
448,192,190090,1,0,0:0:0:0:
192,192,190090,1,0,0:0:0:0:
320,192,190169,1,0,0:0:0:0:
448,192,190248,1,0,0:0:0:0:
64,192,190248,1,0,0:0:0:0:
192,192,190248,1,0,0:0:0:0:
320,192,190327,1,0,0:0:0:0:
448,192,190406,1,0,0:0:0:0:
64,192,190406,1,0,0:0:0:0:
192,192,190406,1,0,0:0:0:0:
320,192,190484,1,0,0:0:0:0:
448,192,190563,1,0,0:0:0:0:
64,192,190563,1,0,0:0:0:0:
192,192,190563,1,0,0:0:0:0:
320,192,190642,1,0,0:0:0:0:
64,192,190721,1,0,0:0:0:0:
448,192,190721,1,0,0:0:0:0:
192,192,190721,1,0,0:0:0:0:
320,192,190800,1,0,0:0:0:0:
64,192,190879,1,0,0:0:0:0:
192,192,190879,1,0,0:0:0:0:
448,192,190958,1,0,0:0:0:0:
64,192,191037,1,0,0:0:0:0:
320,192,191037,1,0,0:0:0:0:
192,192,191116,1,0,0:0:0:0:
64,192,191195,1,0,0:0:0:0:
448,192,191195,1,0,0:0:0:0:
320,192,191195,1,0,0:0:0:0:
192,192,191274,1,0,0:0:0:0:
320,192,191353,1,0,0:0:0:0:
64,192,191353,1,0,0:0:0:0:
448,192,191432,1,0,0:0:0:0:
192,192,191511,1,0,0:0:0:0:
64,192,191511,1,0,0:0:0:0:
320,192,191511,1,0,0:0:0:0:
448,192,191590,1,0,0:0:0:0:
192,192,191669,1,0,0:0:0:0:
64,192,191669,1,0,0:0:0:0:
320,192,191669,1,0,0:0:0:0:
448,192,191748,1,0,0:0:0:0:
192,192,191827,1,0,0:0:0:0:
64,192,191827,1,0,0:0:0:0:
320,192,191827,1,0,0:0:0:0:
448,192,191906,1,0,0:0:0:0:
192,192,191984,1,0,0:0:0:0:
64,192,191984,1,0,0:0:0:0:
320,192,191984,1,0,0:0:0:0:
448,192,192063,1,0,0:0:0:0:
64,192,192142,1,0,0:0:0:0:
192,192,192142,1,0,0:0:0:0:
320,192,192142,1,0,0:0:0:0:
448,192,192221,1,0,0:0:0:0:
64,192,192300,1,0,0:0:0:0:
320,192,192300,1,0,0:0:0:0:
192,192,192379,1,0,0:0:0:0:
64,192,192458,1,0,0:0:0:0:
448,192,192458,1,0,0:0:0:0:
320,192,192458,1,0,0:0:0:0:
192,192,192537,1,0,0:0:0:0:
64,192,192616,1,0,0:0:0:0:
320,192,192616,1,0,0:0:0:0:
192,192,192695,1,0,0:0:0:0:
448,192,192695,1,0,0:0:0:0:
320,192,192774,1,0,0:0:0:0:
64,192,192774,1,0,0:0:0:0:
448,192,192853,1,0,0:0:0:0:
192,192,192932,1,0,0:0:0:0:
64,192,192932,1,0,0:0:0:0:
320,192,192932,1,0,0:0:0:0:
448,192,193011,1,0,0:0:0:0:
192,192,193090,1,0,0:0:0:0:
320,192,193090,1,0,0:0:0:0:
64,192,193169,1,0,0:0:0:0:
192,192,193248,1,0,0:0:0:0:
448,192,193248,1,0,0:0:0:0:
64,192,193327,1,0,0:0:0:0:
320,192,193327,1,0,0:0:0:0:
192,192,193406,1,0,0:0:0:0:
448,192,193406,1,0,0:0:0:0:
320,192,193484,1,0,0:0:0:0:
64,192,193563,1,0,0:0:0:0:
192,192,193642,1,0,0:0:0:0:
64,192,193721,1,0,0:0:0:0:
448,192,193721,1,0,0:0:0:0:
320,192,193721,1,0,0:0:0:0:
192,192,193800,1,0,0:0:0:0:
320,192,193879,1,0,0:0:0:0:
192,192,193958,1,0,0:0:0:0:
64,192,194037,1,0,0:0:0:0:
448,192,194037,1,0,0:0:0:0:
320,192,194037,1,0,0:0:0:0:
192,192,194116,1,0,0:0:0:0:
320,192,194195,1,0,0:0:0:0:
448,192,194195,1,0,0:0:0:0:
64,192,194274,1,0,0:0:0:0:
192,192,194353,1,0,0:0:0:0:
448,192,194353,1,0,0:0:0:0:
320,192,194353,1,0,0:0:0:0:
64,192,194432,1,0,0:0:0:0:
448,192,194511,1,0,0:0:0:0:
320,192,194511,1,0,0:0:0:0:
192,192,194590,1,0,0:0:0:0:
64,192,194669,1,0,0:0:0:0:
448,192,194669,1,0,0:0:0:0:
320,192,194669,1,0,0:0:0:0:
192,192,194748,1,0,0:0:0:0:
320,192,194827,1,0,0:0:0:0:
448,192,194906,1,0,0:0:0:0:
192,192,194984,1,0,0:0:0:0:
64,192,194984,1,0,0:0:0:0:
320,192,194984,1,0,0:0:0:0:
448,192,195063,1,0,0:0:0:0:
192,192,195142,1,0,0:0:0:0:
320,192,195221,1,0,0:0:0:0:
192,192,195300,1,0,0:0:0:0:
448,192,195300,1,0,0:0:0:0:
64,192,195300,1,0,0:0:0:0:
320,192,195379,1,0,0:0:0:0:
192,192,195458,1,0,0:0:0:0:
64,192,195458,1,0,0:0:0:0:
320,192,195537,1,0,0:0:0:0:
192,192,195616,1,0,0:0:0:0:
448,192,195616,1,0,0:0:0:0:
64,192,195616,1,0,0:0:0:0:
320,192,195695,1,0,0:0:0:0:
192,192,195774,1,0,0:0:0:0:
64,192,195774,1,0,0:0:0:0:
448,192,195853,1,0,0:0:0:0:
192,192,195932,1,0,0:0:0:0:
320,192,195932,1,0,0:0:0:0:
64,192,195932,1,0,0:0:0:0:
448,192,196011,1,0,0:0:0:0:
192,192,196090,1,0,0:0:0:0:
320,192,196090,1,0,0:0:0:0:
64,192,196090,1,0,0:0:0:0:
448,192,196169,1,0,0:0:0:0:
64,192,196248,1,0,0:0:0:0:
320,192,196248,1,0,0:0:0:0:
192,192,196248,1,0,0:0:0:0:
448,192,196327,1,0,0:0:0:0:
64,192,196406,1,0,0:0:0:0:
320,192,196406,1,0,0:0:0:0:
192,192,196406,1,0,0:0:0:0:
448,192,196484,1,0,0:0:0:0:
64,192,196563,1,0,0:0:0:0:
320,192,196563,1,0,0:0:0:0:
192,192,196563,1,0,0:0:0:0:
448,192,196642,1,0,0:0:0:0:
192,192,196721,1,0,0:0:0:0:
320,192,196800,1,0,0:0:0:0:
192,192,196879,1,0,0:0:0:0:
448,192,196879,1,0,0:0:0:0:
64,192,196879,1,0,0:0:0:0:
320,192,196958,1,0,0:0:0:0:
192,192,197037,1,0,0:0:0:0:
320,192,197116,1,0,0:0:0:0:
448,192,197195,1,0,0:0:0:0:
64,192,197195,1,0,0:0:0:0:
192,192,197195,1,0,0:0:0:0:
320,192,197274,1,0,0:0:0:0:
448,192,197353,1,0,0:0:0:0:
64,192,197353,1,0,0:0:0:0:
192,192,197353,1,0,0:0:0:0:
448,192,197511,1,0,0:0:0:0:
64,192,197511,1,0,0:0:0:0:
320,192,197511,1,0,0:0:0:0:
192,192,197590,1,0,0:0:0:0:
448,192,197669,1,0,0:0:0:0:
64,192,197669,1,0,0:0:0:0:
320,192,197669,1,0,0:0:0:0:
448,192,197827,1,0,0:0:0:0:
64,192,197827,1,0,0:0:0:0:
192,192,197827,1,0,0:0:0:0:
320,192,197906,1,0,0:0:0:0:
448,192,197984,1,0,0:0:0:0:
64,192,197984,1,0,0:0:0:0:
192,192,197984,1,0,0:0:0:0:
448,192,198142,1,0,0:0:0:0:
64,192,198142,1,0,0:0:0:0:
320,192,198142,1,0,0:0:0:0:
192,192,198221,1,0,0:0:0:0:
448,192,198300,1,0,0:0:0:0:
64,192,198300,1,0,0:0:0:0:
320,192,198300,1,0,0:0:0:0:
64,192,198458,1,0,0:0:0:0:
448,192,198458,1,0,0:0:0:0:
192,192,198458,1,0,0:0:0:0:
320,192,198537,1,0,0:0:0:0:
448,192,198616,1,0,0:0:0:0:
64,192,198616,1,0,0:0:0:0:
192,192,198616,1,0,0:0:0:0:
448,192,198774,1,0,0:0:0:0:
64,192,198774,1,0,0:0:0:0:
320,192,198774,1,0,0:0:0:0:
192,192,198853,1,0,0:0:0:0:
448,192,198932,1,0,0:0:0:0:
64,192,198932,1,0,0:0:0:0:
320,192,198932,1,0,0:0:0:0:
64,192,199090,1,0,0:0:0:0:
448,192,199090,1,0,0:0:0:0:
192,192,199090,1,0,0:0:0:0:
192,192,199248,5,0,0:0:0:0:
64,192,199248,1,0,0:0:0:0:
448,192,199248,1,0,0:0:0:0:
64,192,199406,1,0,0:0:0:0:
448,192,199406,1,0,0:0:0:0:
192,192,199406,1,0,0:0:0:0:
192,192,199563,1,0,0:0:0:0:
320,192,199563,1,0,0:0:0:0:
64,192,199721,5,0,0:0:0:0:
448,192,199721,1,0,0:0:0:0:
192,192,199800,1,0,0:0:0:0:
320,192,199879,1,0,0:0:0:0:
448,192,199958,1,0,0:0:0:0:
320,192,200037,1,0,0:0:0:0:
192,192,200116,1,0,0:0:0:0:
64,192,200195,1,0,0:0:0:0:
192,192,200274,1,0,0:0:0:0:
448,192,200353,1,0,0:0:0:0:
320,192,200353,1,0,0:0:0:0:
64,192,200669,128,0,200906:0:0:0:0:
448,192,200748,128,0,200906:0:0:0:0:
320,192,200787,128,0,200906:0:0:0:0:
192,192,200827,128,0,200906:0:0:0:0:
64,192,200984,128,0,201300:0:0:0:0:
448,192,200984,128,0,201300:0:0:0:0:
192,192,201300,128,0,201537:0:0:0:0:
320,192,201300,128,0,201537:0:0:0:0:
192,192,201616,128,0,201932:0:0:0:0:
320,192,201616,128,0,201695:0:0:0:0:
64,192,201616,128,0,201932:0:0:0:0:
448,192,201616,128,0,201695:0:0:0:0:
448,192,201774,128,0,201932:0:0:0:0:
320,192,201774,128,0,201932:0:0:0:0:
64,192,202248,128,0,202406:0:0:0:0:
448,192,202248,128,0,202406:0:0:0:0:
320,192,202327,128,0,202484:0:0:0:0:
192,192,202406,128,0,202563:0:0:0:0:
64,192,202484,128,0,202642:0:0:0:0:
320,192,202563,128,0,202721:0:0:0:0:
448,192,202563,128,0,202721:0:0:0:0:
64,192,202721,128,0,202879:0:0:0:0:
192,192,202721,128,0,202879:0:0:0:0:
320,192,202879,128,0,203037:0:0:0:0:
448,192,202879,128,0,203037:0:0:0:0:
448,192,203511,128,0,203827:0:0:0:0:
320,192,203511,128,0,203827:0:0:0:0:
64,192,203827,128,0,204063:0:0:0:0:
192,192,203827,128,0,204063:0:0:0:0:
320,192,204142,128,0,204458:0:0:0:0:
192,192,204142,128,0,204221:0:0:0:0:
448,192,204142,128,0,204458:0:0:0:0:
64,192,204142,128,0,204221:0:0:0:0:
64,192,204300,128,0,204458:0:0:0:0:
192,192,204300,128,0,204458:0:0:0:0:
448,192,204774,128,0,204932:0:0:0:0:
64,192,204774,128,0,204932:0:0:0:0:
192,192,204853,128,0,205011:0:0:0:0:
320,192,204932,128,0,205090:0:0:0:0:
448,192,205011,128,0,205169:0:0:0:0:
64,192,205090,128,0,205327:0:0:0:0:
192,192,205090,128,0,205327:0:0:0:0:
320,192,205248,128,0,205327:0:0:0:0:
448,192,205248,128,0,205327:0:0:0:0:
320,192,205406,128,0,205563:0:0:0:0:
192,192,205406,128,0,205563:0:0:0:0:
320,192,205721,128,0,205879:0:0:0:0:
448,192,205721,128,0,205879:0:0:0:0:
64,192,205721,128,0,205879:0:0:0:0:
192,192,205721,128,0,205879:0:0:0:0:
448,192,206037,128,0,206353:0:0:0:0:
64,192,206037,128,0,206353:0:0:0:0:
192,192,206353,128,0,206590:0:0:0:0:
320,192,206353,128,0,206590:0:0:0:0:
448,192,206669,128,0,207142:0:0:0:0:
64,192,206669,128,0,207142:0:0:0:0:
320,192,206827,128,0,207142:0:0:0:0:
192,192,206827,128,0,207142:0:0:0:0:
64,192,207300,128,0,207458:0:0:0:0:
448,192,207300,128,0,207458:0:0:0:0:
320,192,207379,128,0,207537:0:0:0:0:
192,192,207458,128,0,207616:0:0:0:0:
64,192,207537,128,0,207695:0:0:0:0:
320,192,207616,128,0,207774:0:0:0:0:
448,192,207616,128,0,207774:0:0:0:0:
64,192,207774,128,0,207932:0:0:0:0:
192,192,207774,128,0,207932:0:0:0:0:
320,192,207932,128,0,208090:0:0:0:0:
448,192,207932,128,0,208090:0:0:0:0:
192,192,208563,1,0,0:0:0:0:
64,192,208563,128,0,208721:0:0:0:0:
320,192,208721,1,0,0:0:0:0:
192,192,208721,128,0,208879:0:0:0:0:
320,192,208879,128,0,209037:0:0:0:0:
448,192,208879,1,0,0:0:0:0:
64,192,209037,1,0,0:0:0:0:
448,192,209037,128,0,209195:0:0:0:0:
320,192,209195,1,0,0:0:0:0:
192,192,209195,128,0,209353:0:0:0:0:
448,192,209353,1,0,0:0:0:0:
320,192,209353,128,0,209511:0:0:0:0:
448,192,209511,128,0,209669:0:0:0:0:
64,192,209511,1,0,0:0:0:0:
320,192,209669,128,0,209827:0:0:0:0:
192,192,209669,1,0,0:0:0:0:
64,192,209827,1,0,0:0:0:0:
448,192,209827,128,0,209984:0:0:0:0:
320,192,209984,1,0,0:0:0:0:
64,192,209984,128,0,210142:0:0:0:0:
448,192,210142,128,0,210221:0:0:0:0:
192,192,210142,1,0,0:0:0:0:
320,192,210221,128,0,210300:0:0:0:0:
64,192,210300,128,0,210379:0:0:0:0:
448,192,210300,128,0,210379:0:0:0:0:
192,192,210379,128,0,210458:0:0:0:0:
64,192,210458,1,0,0:0:0:0:
320,192,210458,128,0,210537:0:0:0:0:
448,192,210458,128,0,210774:0:0:0:0:
192,192,210616,1,0,0:0:0:0:
320,192,210616,128,0,210695:0:0:0:0:
64,192,210774,1,0,0:0:0:0:
320,192,210774,128,0,210853:0:0:0:0:
320,192,210932,128,0,211011:0:0:0:0:
64,192,210932,1,0,0:0:0:0:
448,192,211090,1,0,0:0:0:0:
320,192,211090,1,0,0:0:0:0:
64,192,211090,1,0,0:0:0:0:
192,192,211169,1,0,0:0:0:0:
64,192,211248,1,0,0:0:0:0:
448,192,211327,1,0,0:0:0:0:
64,192,211406,1,0,0:0:0:0:
320,192,211406,1,0,0:0:0:0:
192,192,211484,1,0,0:0:0:0:
320,192,211563,1,0,0:0:0:0:
64,192,211642,1,0,0:0:0:0:
320,192,211721,1,0,0:0:0:0:
192,192,211721,1,0,0:0:0:0:
448,192,211721,1,0,0:0:0:0:
64,192,211800,1,0,0:0:0:0:
192,192,211879,1,0,0:0:0:0:
320,192,211879,1,0,0:0:0:0:
448,192,211958,1,0,0:0:0:0:
320,192,212037,1,0,0:0:0:0:
192,192,212037,1,0,0:0:0:0:
64,192,212037,1,0,0:0:0:0:
448,192,212116,1,0,0:0:0:0:
64,192,212195,1,0,0:0:0:0:
192,192,212195,1,0,0:0:0:0:
320,192,212274,1,0,0:0:0:0:
448,192,212353,1,0,0:0:0:0:
192,192,212353,1,0,0:0:0:0:
64,192,212432,1,0,0:0:0:0:
320,192,212511,1,0,0:0:0:0:
64,192,212590,1,0,0:0:0:0:
320,192,212669,1,0,0:0:0:0:
192,192,212669,1,0,0:0:0:0:
448,192,212669,1,0,0:0:0:0:
64,192,212748,1,0,0:0:0:0:
448,192,212827,1,0,0:0:0:0:
192,192,212906,1,0,0:0:0:0:
64,192,212984,1,0,0:0:0:0:
448,192,212984,1,0,0:0:0:0:
320,192,212984,1,0,0:0:0:0:
192,192,213063,1,0,0:0:0:0:
320,192,213142,1,0,0:0:0:0:
448,192,213142,1,0,0:0:0:0:
64,192,213221,1,0,0:0:0:0:
448,192,213300,1,0,0:0:0:0:
192,192,213300,1,0,0:0:0:0:
320,192,213379,1,0,0:0:0:0:
192,192,213458,1,0,0:0:0:0:
64,192,213537,1,0,0:0:0:0:
448,192,213616,1,0,0:0:0:0:
320,192,213616,1,0,0:0:0:0:
192,192,213616,1,0,0:0:0:0:
64,192,213695,1,0,0:0:0:0:
448,192,213774,1,0,0:0:0:0:
192,192,213774,1,0,0:0:0:0:
320,192,213853,1,0,0:0:0:0:
192,192,213932,1,0,0:0:0:0:
64,192,213932,1,0,0:0:0:0:
320,192,214011,1,0,0:0:0:0:
448,192,214090,1,0,0:0:0:0:
192,192,214169,1,0,0:0:0:0:
448,192,214248,1,0,0:0:0:0:
320,192,214248,1,0,0:0:0:0:
64,192,214248,1,0,0:0:0:0:
192,192,214327,1,0,0:0:0:0:
64,192,214406,1,0,0:0:0:0:
320,192,214406,1,0,0:0:0:0:
448,192,214484,1,0,0:0:0:0:
64,192,214563,1,0,0:0:0:0:
192,192,214563,1,0,0:0:0:0:
320,192,214563,1,0,0:0:0:0:
448,192,214642,1,0,0:0:0:0:
64,192,214721,1,0,0:0:0:0:
320,192,214721,1,0,0:0:0:0:
192,192,214800,1,0,0:0:0:0:
320,192,214879,1,0,0:0:0:0:
64,192,214879,1,0,0:0:0:0:
448,192,214879,1,0,0:0:0:0:
192,192,214958,1,0,0:0:0:0:
320,192,215037,1,0,0:0:0:0:
448,192,215116,1,0,0:0:0:0:
64,192,215195,1,0,0:0:0:0:
192,192,215195,1,0,0:0:0:0:
320,192,215195,1,0,0:0:0:0:
448,192,215274,1,0,0:0:0:0:
64,192,215353,1,0,0:0:0:0:
320,192,215353,1,0,0:0:0:0:
192,192,215353,1,0,0:0:0:0:
448,192,215432,1,0,0:0:0:0:
64,192,215511,1,0,0:0:0:0:
192,192,215511,1,0,0:0:0:0:
320,192,215511,1,0,0:0:0:0:
448,192,215590,1,0,0:0:0:0:
320,192,215669,1,0,0:0:0:0:
64,192,215748,1,0,0:0:0:0:
448,192,215827,1,0,0:0:0:0:
192,192,215827,1,0,0:0:0:0:
320,192,215906,1,0,0:0:0:0:
64,192,215984,1,0,0:0:0:0:
320,192,216063,1,0,0:0:0:0:
64,192,216142,1,0,0:0:0:0:
192,192,216142,1,0,0:0:0:0:
448,192,216142,1,0,0:0:0:0:
320,192,216221,1,0,0:0:0:0:
64,192,216300,1,0,0:0:0:0:
192,192,216379,1,0,0:0:0:0:
448,192,216458,1,0,0:0:0:0:
320,192,216458,1,0,0:0:0:0:
192,192,216537,1,0,0:0:0:0:
64,192,216616,1,0,0:0:0:0:
320,192,216695,1,0,0:0:0:0:
64,192,216774,1,0,0:0:0:0:
192,192,216774,1,0,0:0:0:0:
448,192,216774,1,0,0:0:0:0:
320,192,216853,1,0,0:0:0:0:
448,192,216932,1,0,0:0:0:0:
64,192,216932,1,0,0:0:0:0:
320,192,217011,1,0,0:0:0:0:
448,192,217090,1,0,0:0:0:0:
192,192,217090,1,0,0:0:0:0:
64,192,217090,1,0,0:0:0:0:
320,192,217169,1,0,0:0:0:0:
448,192,217248,1,0,0:0:0:0:
192,192,217248,1,0,0:0:0:0:
64,192,217327,1,0,0:0:0:0:
448,192,217406,1,0,0:0:0:0:
192,192,217406,1,0,0:0:0:0:
320,192,217406,1,0,0:0:0:0:
64,192,217484,1,0,0:0:0:0:
192,192,217563,1,0,0:0:0:0:
320,192,217642,1,0,0:0:0:0:
64,192,217721,1,0,0:0:0:0:
192,192,217721,1,0,0:0:0:0:
448,192,217721,1,0,0:0:0:0:
320,192,217800,1,0,0:0:0:0:
64,192,217879,1,0,0:0:0:0:
192,192,217879,1,0,0:0:0:0:
448,192,217958,1,0,0:0:0:0:
64,192,218037,1,0,0:0:0:0:
192,192,218037,1,0,0:0:0:0:
320,192,218037,1,0,0:0:0:0:
448,192,218116,1,0,0:0:0:0:
64,192,218195,1,0,0:0:0:0:
320,192,218195,1,0,0:0:0:0:
192,192,218274,1,0,0:0:0:0:
64,192,218353,1,0,0:0:0:0:
320,192,218353,1,0,0:0:0:0:
192,192,218432,1,0,0:0:0:0:
320,192,218511,1,0,0:0:0:0:
448,192,218590,1,0,0:0:0:0:
64,192,218669,1,0,0:0:0:0:
320,192,218669,1,0,0:0:0:0:
192,192,218748,1,0,0:0:0:0:
448,192,218827,1,0,0:0:0:0:
320,192,218827,1,0,0:0:0:0:
64,192,218906,1,0,0:0:0:0:
448,192,218984,1,0,0:0:0:0:
192,192,218984,1,0,0:0:0:0:
320,192,219063,1,0,0:0:0:0:
448,192,219142,1,0,0:0:0:0:
192,192,219142,1,0,0:0:0:0:
320,192,219221,1,0,0:0:0:0:
192,192,219300,1,0,0:0:0:0:
64,192,219300,1,0,0:0:0:0:
448,192,219300,1,0,0:0:0:0:
448,192,219458,1,0,0:0:0:0:
192,192,219458,1,0,0:0:0:0:
320,192,219458,1,0,0:0:0:0:
64,192,219616,1,0,0:0:0:0:
320,192,219616,1,0,0:0:0:0:
192,192,219616,1,0,0:0:0:0:
320,192,219774,1,0,0:0:0:0:
448,192,219774,1,0,0:0:0:0:
64,192,219774,1,0,0:0:0:0:
64,192,219932,1,0,0:0:0:0:
448,192,219932,1,0,0:0:0:0:
192,192,219932,1,0,0:0:0:0:
192,192,220090,1,0,0:0:0:0:
320,192,220090,1,0,0:0:0:0:
192,192,220248,1,0,0:0:0:0:
448,192,220248,1,0,0:0:0:0:
64,192,220248,1,0,0:0:0:0:
64,192,220406,1,0,0:0:0:0:
320,192,220406,1,0,0:0:0:0:
64,192,220563,1,0,0:0:0:0:
448,192,220563,1,0,0:0:0:0:
192,192,220563,1,0,0:0:0:0:
320,192,220642,1,0,0:0:0:0:
192,192,220721,1,0,0:0:0:0:
448,192,220721,1,0,0:0:0:0:
64,192,220800,1,0,0:0:0:0:
320,192,220879,1,0,0:0:0:0:
448,192,220879,1,0,0:0:0:0:
192,192,220958,1,0,0:0:0:0:
64,192,221037,1,0,0:0:0:0:
448,192,221037,1,0,0:0:0:0:
64,192,221195,128,0,221511:0:0:0:0:
448,192,221195,128,0,221511:0:0:0:0:
192,192,221511,128,0,221748:0:0:0:0:
320,192,221511,128,0,221748:0:0:0:0:
192,192,221827,128,0,222142:0:0:0:0:
320,192,221827,128,0,221906:0:0:0:0:
64,192,221827,128,0,222142:0:0:0:0:
448,192,221827,128,0,221906:0:0:0:0:
448,192,221984,128,0,222142:0:0:0:0:
320,192,221984,128,0,222142:0:0:0:0:
64,192,222458,128,0,222616:0:0:0:0:
448,192,222458,128,0,222616:0:0:0:0:
320,192,222537,128,0,222695:0:0:0:0:
192,192,222616,128,0,222774:0:0:0:0:
64,192,222695,128,0,222853:0:0:0:0:
320,192,222774,128,0,222932:0:0:0:0:
448,192,222774,128,0,222932:0:0:0:0:
64,192,222932,128,0,223090:0:0:0:0:
192,192,222932,128,0,223090:0:0:0:0:
320,192,223090,128,0,223248:0:0:0:0:
448,192,223090,128,0,223248:0:0:0:0:
448,192,223721,128,0,224037:0:0:0:0:
320,192,223721,128,0,224037:0:0:0:0:
64,192,224037,128,0,224274:0:0:0:0:
192,192,224037,128,0,224274:0:0:0:0:
320,192,224353,128,0,224669:0:0:0:0:
192,192,224353,128,0,224432:0:0:0:0:
448,192,224353,128,0,224669:0:0:0:0:
64,192,224353,128,0,224432:0:0:0:0:
64,192,224511,128,0,224669:0:0:0:0:
192,192,224511,128,0,224669:0:0:0:0:
448,192,224984,128,0,225142:0:0:0:0:
64,192,224984,128,0,225142:0:0:0:0:
192,192,225063,128,0,225221:0:0:0:0:
320,192,225142,128,0,225300:0:0:0:0:
448,192,225221,128,0,225379:0:0:0:0:
64,192,225300,128,0,225537:0:0:0:0:
192,192,225300,128,0,225537:0:0:0:0:
320,192,225458,128,0,225537:0:0:0:0:
448,192,225458,128,0,225537:0:0:0:0:
320,192,225616,128,0,225774:0:0:0:0:
192,192,225616,128,0,225774:0:0:0:0:
448,192,225932,128,0,226090:0:0:0:0:
320,192,225932,128,0,226090:0:0:0:0:
64,192,225932,128,0,226090:0:0:0:0:
192,192,225932,128,0,226090:0:0:0:0:
448,192,226248,128,0,226563:0:0:0:0:
64,192,226248,128,0,226563:0:0:0:0:
320,192,226563,128,0,226800:0:0:0:0:
192,192,226563,128,0,226800:0:0:0:0:
448,192,226879,128,0,227195:0:0:0:0:
64,192,226879,128,0,227195:0:0:0:0:
320,192,227037,128,0,227195:0:0:0:0:
192,192,227037,128,0,227195:0:0:0:0:
64,192,227511,128,0,227669:0:0:0:0:
448,192,227511,128,0,227669:0:0:0:0:
320,192,227590,128,0,227748:0:0:0:0:
192,192,227669,128,0,227827:0:0:0:0:
64,192,227748,128,0,227906:0:0:0:0:
320,192,227827,128,0,227984:0:0:0:0:
448,192,227827,128,0,227984:0:0:0:0:
64,192,227984,128,0,228142:0:0:0:0:
192,192,227984,128,0,228142:0:0:0:0:
320,192,228142,128,0,228300:0:0:0:0:
448,192,228142,128,0,228300:0:0:0:0:
448,192,228774,128,0,229090:0:0:0:0:
320,192,228774,128,0,229090:0:0:0:0:
64,192,229090,128,0,229327:0:0:0:0:
192,192,229090,128,0,229327:0:0:0:0:
320,192,229406,128,0,229721:0:0:0:0:
192,192,229406,128,0,229484:0:0:0:0:
448,192,229406,128,0,229721:0:0:0:0:
64,192,229406,128,0,229484:0:0:0:0:
64,192,229563,128,0,229721:0:0:0:0:
192,192,229563,128,0,229721:0:0:0:0:
448,192,230037,128,0,230195:0:0:0:0:
64,192,230037,128,0,230195:0:0:0:0:
192,192,230116,128,0,230274:0:0:0:0:
320,192,230195,128,0,230353:0:0:0:0:
448,192,230274,128,0,230432:0:0:0:0:
64,192,230353,128,0,230590:0:0:0:0:
192,192,230353,128,0,230590:0:0:0:0:
320,192,230511,128,0,230590:0:0:0:0:
448,192,230511,128,0,230590:0:0:0:0:
192,192,230669,128,0,230748:0:0:0:0:
64,192,230669,128,0,230748:0:0:0:0:
320,192,230827,1,0,0:0:0:0:
448,192,230827,1,0,0:0:0:0:
192,192,230984,1,0,0:0:0:0:
64,192,230984,1,0,0:0:0:0:
320,192,231142,1,0,0:0:0:0:
448,192,231142,1,0,0:0:0:0:
320,192,231300,1,0,0:0:0:0:
64,192,231300,1,0,0:0:0:0:
448,192,231300,1,0,0:0:0:0:
448,192,231616,1,0,0:0:0:0:
192,192,231774,1,0,0:0:0:0:
448,192,231853,1,0,0:0:0:0:
64,192,231932,1,0,0:0:0:0:
320,192,231932,1,0,0:0:0:0:
192,192,232090,1,0,0:0:0:0:
320,192,232248,1,0,0:0:0:0:
448,192,232248,1,0,0:0:0:0:
192,192,232327,1,0,0:0:0:0:
64,192,232406,1,0,0:0:0:0:
192,192,232484,1,0,0:0:0:0:
64,192,232563,1,0,0:0:0:0:
448,192,232563,1,0,0:0:0:0:
320,192,232563,1,0,0:0:0:0:
448,192,232879,1,0,0:0:0:0:
64,192,233037,1,0,0:0:0:0:
320,192,233037,1,0,0:0:0:0:
448,192,233116,1,0,0:0:0:0:
192,192,233116,1,0,0:0:0:0:
320,192,233195,1,0,0:0:0:0:
448,192,233195,1,0,0:0:0:0:
64,192,233195,1,0,0:0:0:0:
320,192,233353,1,0,0:0:0:0:
320,192,233511,1,0,0:0:0:0:
192,192,233827,1,0,0:0:0:0:
320,192,233827,1,0,0:0:0:0:
320,192,234142,1,0,0:0:0:0:
64,192,234300,1,0,0:0:0:0:
320,192,234379,1,0,0:0:0:0:
64,192,234458,1,0,0:0:0:0:
192,192,234458,1,0,0:0:0:0:
448,192,234458,1,0,0:0:0:0:
320,192,234616,1,0,0:0:0:0:
448,192,234774,1,0,0:0:0:0:
64,192,234774,1,0,0:0:0:0:
192,192,234853,1,0,0:0:0:0:
320,192,234932,1,0,0:0:0:0:
448,192,235011,1,0,0:0:0:0:
192,192,235090,1,0,0:0:0:0:
64,192,235090,1,0,0:0:0:0:
320,192,235090,1,0,0:0:0:0:
192,192,235248,1,0,0:0:0:0:
448,192,235406,1,0,0:0:0:0:
320,192,235406,1,0,0:0:0:0:
192,192,235563,1,0,0:0:0:0:
448,192,235563,1,0,0:0:0:0:
64,192,235563,1,0,0:0:0:0:
320,192,235642,1,0,0:0:0:0:
320,192,235721,1,0,0:0:0:0:
64,192,235721,1,0,0:0:0:0:
448,192,235721,1,0,0:0:0:0:
192,192,235879,1,0,0:0:0:0:
64,192,236037,1,0,0:0:0:0:
320,192,236037,1,0,0:0:0:0:
192,192,236195,1,0,0:0:0:0:
320,192,236353,1,0,0:0:0:0:
448,192,236669,1,0,0:0:0:0:
64,192,236827,1,0,0:0:0:0:
192,192,236906,1,0,0:0:0:0:
320,192,236984,1,0,0:0:0:0:
448,192,237142,1,0,0:0:0:0:
64,192,237300,1,0,0:0:0:0:
448,192,237300,1,0,0:0:0:0:
192,192,237379,1,0,0:0:0:0:
320,192,237458,1,0,0:0:0:0:
448,192,237537,1,0,0:0:0:0:
192,192,237616,1,0,0:0:0:0:
64,192,237616,1,0,0:0:0:0:
320,192,237616,1,0,0:0:0:0:
64,192,237932,1,0,0:0:0:0:
320,192,237932,1,0,0:0:0:0:
320,192,238090,1,0,0:0:0:0:
448,192,238090,1,0,0:0:0:0:
192,192,238169,1,0,0:0:0:0:
64,192,238169,1,0,0:0:0:0:
192,192,238248,1,0,0:0:0:0:
448,192,238248,1,0,0:0:0:0:
320,192,238248,1,0,0:0:0:0:
320,192,238406,1,0,0:0:0:0:
64,192,238563,1,0,0:0:0:0:
320,192,238563,1,0,0:0:0:0:
192,192,238879,1,0,0:0:0:0:
320,192,238879,1,0,0:0:0:0:
448,192,239195,1,0,0:0:0:0:
64,192,239353,1,0,0:0:0:0:
192,192,239432,1,0,0:0:0:0:
64,192,239511,1,0,0:0:0:0:
448,192,239511,1,0,0:0:0:0:
320,192,239511,1,0,0:0:0:0:
192,192,239669,1,0,0:0:0:0:
320,192,239827,1,0,0:0:0:0:
448,192,239827,1,0,0:0:0:0:
192,192,239906,1,0,0:0:0:0:
64,192,239984,1,0,0:0:0:0:
192,192,240063,1,0,0:0:0:0:
64,192,240142,1,0,0:0:0:0:
448,192,240142,1,0,0:0:0:0:
320,192,240142,1,0,0:0:0:0:
192,192,240300,1,0,0:0:0:0:
320,192,240300,1,0,0:0:0:0:
448,192,240458,1,0,0:0:0:0:
320,192,240458,1,0,0:0:0:0:
448,192,240616,1,0,0:0:0:0:
64,192,240616,1,0,0:0:0:0:
320,192,240616,1,0,0:0:0:0:
192,192,240695,1,0,0:0:0:0:
64,192,240774,1,0,0:0:0:0:
448,192,240774,1,0,0:0:0:0:
320,192,240774,1,0,0:0:0:0:
320,192,240932,5,0,0:0:0:0:
192,192,240932,1,0,0:0:0:0:
448,192,241090,1,0,0:0:0:0:
192,192,241090,1,0,0:0:0:0:
64,192,241248,1,0,0:0:0:0:
320,192,241248,1,0,0:0:0:0:
64,192,241406,5,0,0:0:0:0:
192,192,241406,1,0,0:0:0:0:
320,192,241484,1,0,0:0:0:0:
448,192,241484,1,0,0:0:0:0:
192,192,241563,1,0,0:0:0:0:
64,192,241563,1,0,0:0:0:0:
448,192,241642,1,0,0:0:0:0:
320,192,241642,1,0,0:0:0:0:
192,192,241721,1,0,0:0:0:0:
64,192,241721,1,0,0:0:0:0:
192,192,242037,1,0,0:0:0:0:
320,192,242037,1,0,0:0:0:0:
448,192,242037,1,0,0:0:0:0:
64,192,242353,1,0,0:0:0:0:
448,192,242353,1,0,0:0:0:0:
320,192,242353,1,0,0:0:0:0:
192,192,242669,1,0,0:0:0:0:
64,192,242669,1,0,0:0:0:0:
448,192,242748,1,0,0:0:0:0:
320,192,242748,1,0,0:0:0:0:
64,192,242827,1,0,0:0:0:0:
192,192,242827,1,0,0:0:0:0:
448,192,242906,1,0,0:0:0:0:
320,192,242906,1,0,0:0:0:0:
192,192,242984,1,0,0:0:0:0:
64,192,242984,1,0,0:0:0:0:
192,192,243300,1,0,0:0:0:0:
64,192,243300,1,0,0:0:0:0:
448,192,243300,1,0,0:0:0:0:
320,192,243616,1,0,0:0:0:0:
192,192,243616,1,0,0:0:0:0:
64,192,243616,1,0,0:0:0:0:
64,192,243932,1,0,0:0:0:0:
320,192,243932,1,0,0:0:0:0:
448,192,243932,1,0,0:0:0:0:
448,192,244090,1,0,0:0:0:0:
64,192,244090,1,0,0:0:0:0:
320,192,244169,1,0,0:0:0:0:
192,192,244169,1,0,0:0:0:0:
448,192,244248,1,0,0:0:0:0:
64,192,244248,1,0,0:0:0:0:
320,192,244406,1,0,0:0:0:0:
64,192,244406,1,0,0:0:0:0:
448,192,244484,1,0,0:0:0:0:
192,192,244484,1,0,0:0:0:0:
320,192,244563,1,0,0:0:0:0:
64,192,244563,1,0,0:0:0:0:
448,192,244642,1,0,0:0:0:0:
192,192,244642,1,0,0:0:0:0:
320,192,244721,1,0,0:0:0:0:
64,192,244721,1,0,0:0:0:0:
448,192,244879,1,0,0:0:0:0:
64,192,244879,1,0,0:0:0:0:
320,192,244958,1,0,0:0:0:0:
192,192,244958,1,0,0:0:0:0:
448,192,245037,1,0,0:0:0:0:
64,192,245037,1,0,0:0:0:0:
320,192,245116,1,0,0:0:0:0:
192,192,245116,1,0,0:0:0:0:
320,192,245195,1,0,0:0:0:0:
64,192,245195,1,0,0:0:0:0:
448,192,245274,1,0,0:0:0:0:
192,192,245274,1,0,0:0:0:0:
64,192,245353,1,0,0:0:0:0:
320,192,245353,1,0,0:0:0:0:
192,192,245432,1,0,0:0:0:0:
448,192,245432,1,0,0:0:0:0:
320,192,245511,1,0,0:0:0:0:
64,192,245511,1,0,0:0:0:0:
448,192,245590,1,0,0:0:0:0:
192,192,245590,1,0,0:0:0:0:
320,192,245669,1,0,0:0:0:0:
64,192,245669,1,0,0:0:0:0:
448,192,245748,1,0,0:0:0:0:
192,192,245748,1,0,0:0:0:0:
320,192,245827,1,0,0:0:0:0:
64,192,245827,1,0,0:0:0:0:
64,192,245984,1,0,0:0:0:0:
448,192,245984,1,0,0:0:0:0:
192,192,246063,1,0,0:0:0:0:
320,192,246063,1,0,0:0:0:0:
448,192,246142,1,0,0:0:0:0:
64,192,246142,1,0,0:0:0:0:
448,192,246300,1,0,0:0:0:0:
64,192,246300,1,0,0:0:0:0:
320,192,246458,1,0,0:0:0:0:
448,192,246458,128,0,247090:0:0:0:0:
192,192,246616,1,0,0:0:0:0:
64,192,246774,1,0,0:0:0:0:
320,192,246932,1,0,0:0:0:0:
64,192,247090,1,0,0:0:0:0:
192,192,247090,128,0,247406:0:0:0:0:
448,192,247248,1,0,0:0:0:0:
320,192,247327,1,0,0:0:0:0:
448,192,247406,1,0,0:0:0:0:
64,192,247406,128,0,247721:0:0:0:0:
448,192,247563,1,0,0:0:0:0:
320,192,247721,1,0,0:0:0:0:
192,192,247721,128,0,248037:0:0:0:0:
448,192,247879,1,0,0:0:0:0:
64,192,248037,1,0,0:0:0:0:
320,192,248037,128,0,248353:0:0:0:0:
448,192,248195,1,0,0:0:0:0:
192,192,248353,1,0,0:0:0:0:
448,192,248353,128,0,248590:0:0:0:0:
64,192,248511,1,0,0:0:0:0:
192,192,248590,1,0,0:0:0:0:
64,192,248669,1,0,0:0:0:0:
448,192,248669,128,0,248906:0:0:0:0:
320,192,248827,1,0,0:0:0:0:
64,192,248984,1,0,0:0:0:0:
448,192,248984,128,0,249616:0:0:0:0:
320,192,249142,1,0,0:0:0:0:
192,192,249300,1,0,0:0:0:0:
64,192,249458,1,0,0:0:0:0:
192,192,249616,1,0,0:0:0:0:
320,192,249616,128,0,249932:0:0:0:0:
192,192,249774,1,0,0:0:0:0:
64,192,249853,1,0,0:0:0:0:
448,192,249932,1,0,0:0:0:0:
192,192,249932,128,0,250248:0:0:0:0:
320,192,250090,1,0,0:0:0:0:
448,192,250248,1,0,0:0:0:0:
64,192,250248,128,0,250563:0:0:0:0:
320,192,250406,1,0,0:0:0:0:
448,192,250484,1,0,0:0:0:0:
192,192,250563,1,0,0:0:0:0:
320,192,250563,128,0,250879:0:0:0:0:
64,192,250721,1,0,0:0:0:0:
192,192,250800,1,0,0:0:0:0:
64,192,250879,1,0,0:0:0:0:
448,192,250879,128,0,251037:0:0:0:0:
64,192,251037,1,0,0:0:0:0:
320,192,251037,128,0,251195:0:0:0:0:
192,192,251116,1,0,0:0:0:0:
448,192,251195,1,0,0:0:0:0:
64,192,251195,128,0,251353:0:0:0:0:
320,192,251274,1,0,0:0:0:0:
448,192,251353,1,0,0:0:0:0:
192,192,251353,128,0,251511:0:0:0:0:
448,192,251511,1,0,0:0:0:0:
64,192,251511,128,0,251669:0:0:0:0:
320,192,251590,1,0,0:0:0:0:
192,192,251669,1,0,0:0:0:0:
448,192,251748,1,0,0:0:0:0:
64,192,251827,1,0,0:0:0:0:
320,192,251827,1,0,0:0:0:0:
192,192,251906,1,0,0:0:0:0:
320,192,251984,1,0,0:0:0:0:
64,192,251984,1,0,0:0:0:0:
448,192,252063,1,0,0:0:0:0:
64,192,252142,1,0,0:0:0:0:
320,192,252142,1,0,0:0:0:0:
192,192,252221,1,0,0:0:0:0:
320,192,252300,1,0,0:0:0:0:
64,192,252300,1,0,0:0:0:0:
448,192,252379,1,0,0:0:0:0:
64,192,252458,1,0,0:0:0:0:
320,192,252458,1,0,0:0:0:0:
192,192,252537,1,0,0:0:0:0:
320,192,252616,1,0,0:0:0:0:
64,192,252616,1,0,0:0:0:0:
448,192,252695,1,0,0:0:0:0:
64,192,252774,1,0,0:0:0:0:
192,192,252774,1,0,0:0:0:0:
320,192,252853,1,0,0:0:0:0:
448,192,252932,1,0,0:0:0:0:
64,192,252932,1,0,0:0:0:0:
192,192,253011,1,0,0:0:0:0:
448,192,253090,1,0,0:0:0:0:
320,192,253090,1,0,0:0:0:0:
64,192,253169,1,0,0:0:0:0:
320,192,253248,1,0,0:0:0:0:
192,192,253248,1,0,0:0:0:0:
448,192,253327,1,0,0:0:0:0:
64,192,253406,1,0,0:0:0:0:
192,192,253406,1,0,0:0:0:0:
320,192,253484,1,0,0:0:0:0:
448,192,253563,1,0,0:0:0:0:
64,192,253563,1,0,0:0:0:0:
192,192,253642,1,0,0:0:0:0:
448,192,253721,1,0,0:0:0:0:
64,192,253721,1,0,0:0:0:0:
320,192,253800,1,0,0:0:0:0:
192,192,253879,1,0,0:0:0:0:
448,192,253879,1,0,0:0:0:0:
64,192,253958,1,0,0:0:0:0:
320,192,254037,128,0,254432:0:0:0:0:
448,192,254037,128,0,254432:0:0:0:0:
320,192,254511,128,0,254669:0:0:0:0:
448,192,254511,128,0,254669:0:0:0:0:
192,192,254669,128,0,254827:0:0:0:0:
64,192,254669,128,0,254827:0:0:0:0:
320,192,254827,128,0,254984:0:0:0:0:
448,192,254827,128,0,254984:0:0:0:0:
192,192,254984,128,0,255300:0:0:0:0:
64,192,254984,128,0,255142:0:0:0:0:
448,192,255142,128,0,255300:0:0:0:0:
320,192,255142,128,0,255458:0:0:0:0:
64,192,255300,128,0,255616:0:0:0:0:
192,192,255458,1,0,0:0:0:0:
320,192,255537,1,0,0:0:0:0:
448,192,255616,1,0,0:0:0:0:
320,192,255695,1,0,0:0:0:0:
192,192,255774,1,0,0:0:0:0:
64,192,255853,1,0,0:0:0:0:
320,192,255932,1,0,0:0:0:0:
448,192,255932,1,0,0:0:0:0:
192,192,255932,1,0,0:0:0:0:
320,192,256090,5,0,0:0:0:0:
64,192,256090,1,0,0:0:0:0:
448,192,256248,1,0,0:0:0:0:
192,192,256248,1,0,0:0:0:0:
64,192,256406,1,0,0:0:0:0:
320,192,256406,1,0,0:0:0:0:
448,192,256563,5,0,0:0:0:0:
192,192,256563,1,0,0:0:0:0:
64,192,256563,1,0,0:0:0:0:
320,192,256642,1,0,0:0:0:0:
192,192,256721,1,0,0:0:0:0:
64,192,256800,1,0,0:0:0:0:
448,192,256879,1,0,0:0:0:0:
192,192,256879,1,0,0:0:0:0:
320,192,256958,1,0,0:0:0:0:
448,192,257037,1,0,0:0:0:0:
320,192,257116,1,0,0:0:0:0:
448,192,257195,1,0,0:0:0:0:
192,192,257195,1,0,0:0:0:0:
64,192,257274,1,0,0:0:0:0:
192,192,257353,1,0,0:0:0:0:
320,192,257432,1,0,0:0:0:0:
64,192,257511,1,0,0:0:0:0:
448,192,257511,1,0,0:0:0:0:
320,192,257590,1,0,0:0:0:0:
192,192,257669,1,0,0:0:0:0:
64,192,257748,1,0,0:0:0:0:
448,192,257827,1,0,0:0:0:0:
192,192,257827,1,0,0:0:0:0:
320,192,257906,1,0,0:0:0:0:
64,192,257984,1,0,0:0:0:0:
448,192,257984,1,0,0:0:0:0:
320,192,258063,1,0,0:0:0:0:
192,192,258142,1,0,0:0:0:0:
64,192,258221,1,0,0:0:0:0:
192,192,258300,1,0,0:0:0:0:
320,192,258379,1,0,0:0:0:0:
448,192,258458,1,0,0:0:0:0:
320,192,258537,1,0,0:0:0:0:
192,192,258616,1,0,0:0:0:0:
64,192,258695,1,0,0:0:0:0:
192,192,258774,1,0,0:0:0:0:
320,192,258853,1,0,0:0:0:0:
448,192,258932,1,0,0:0:0:0:
320,192,259011,1,0,0:0:0:0:
448,192,259090,1,0,0:0:0:0:
192,192,259090,1,0,0:0:0:0:
64,192,259169,1,0,0:0:0:0:
192,192,259248,1,0,0:0:0:0:
320,192,259327,1,0,0:0:0:0:
448,192,259406,1,0,0:0:0:0:
320,192,259484,1,0,0:0:0:0:
448,192,259563,1,0,0:0:0:0:
192,192,259563,1,0,0:0:0:0:
64,192,259642,1,0,0:0:0:0:
448,192,259721,1,0,0:0:0:0:
192,192,259721,1,0,0:0:0:0:
320,192,259800,1,0,0:0:0:0:
64,192,259879,1,0,0:0:0:0:
448,192,259879,1,0,0:0:0:0:
320,192,259958,1,0,0:0:0:0:
448,192,260037,1,0,0:0:0:0:
192,192,260037,1,0,0:0:0:0:
64,192,260116,1,0,0:0:0:0:
448,192,260195,1,0,0:0:0:0:
192,192,260195,1,0,0:0:0:0:
320,192,260274,1,0,0:0:0:0:
64,192,260353,1,0,0:0:0:0:
448,192,260353,1,0,0:0:0:0:
320,192,260432,1,0,0:0:0:0:
192,192,260511,1,0,0:0:0:0:
64,192,260590,1,0,0:0:0:0:
192,192,260669,1,0,0:0:0:0:
320,192,260748,1,0,0:0:0:0:
448,192,260827,1,0,0:0:0:0:
320,192,260906,1,0,0:0:0:0:
192,192,260984,1,0,0:0:0:0:
64,192,261063,1,0,0:0:0:0:
192,192,261142,1,0,0:0:0:0:
320,192,261221,1,0,0:0:0:0:
448,192,261300,1,0,0:0:0:0:
320,192,261379,1,0,0:0:0:0:
192,192,261458,1,0,0:0:0:0:
64,192,261537,1,0,0:0:0:0:
448,192,261616,1,0,0:0:0:0:
192,192,261616,1,0,0:0:0:0:
320,192,261695,1,0,0:0:0:0:
448,192,261774,1,0,0:0:0:0:
320,192,261853,1,0,0:0:0:0:
448,192,261932,1,0,0:0:0:0:
192,192,261932,1,0,0:0:0:0:
64,192,262011,1,0,0:0:0:0:
192,192,262090,1,0,0:0:0:0:
320,192,262169,1,0,0:0:0:0:
64,192,262248,1,0,0:0:0:0:
448,192,262248,1,0,0:0:0:0:
320,192,262327,1,0,0:0:0:0:
192,192,262406,1,0,0:0:0:0:
64,192,262484,1,0,0:0:0:0:
448,192,262563,1,0,0:0:0:0:
192,192,262563,1,0,0:0:0:0:
320,192,262642,1,0,0:0:0:0:
448,192,262721,1,0,0:0:0:0:
320,192,262800,1,0,0:0:0:0:
448,192,262879,1,0,0:0:0:0:
192,192,262879,1,0,0:0:0:0:
64,192,262958,1,0,0:0:0:0:
448,192,263037,1,0,0:0:0:0:
192,192,263037,1,0,0:0:0:0:
320,192,263116,1,0,0:0:0:0:
448,192,263195,1,0,0:0:0:0:
320,192,263274,1,0,0:0:0:0:
192,192,263353,1,0,0:0:0:0:
64,192,263432,1,0,0:0:0:0:
192,192,263511,1,0,0:0:0:0:
320,192,263590,1,0,0:0:0:0:
448,192,263669,1,0,0:0:0:0:
320,192,263748,1,0,0:0:0:0:
192,192,263827,1,0,0:0:0:0:
64,192,263906,1,0,0:0:0:0:
192,192,263984,1,0,0:0:0:0:
320,192,264063,1,0,0:0:0:0:
64,192,264142,1,0,0:0:0:0:
448,192,264142,1,0,0:0:0:0:
320,192,264221,1,0,0:0:0:0:
192,192,264300,1,0,0:0:0:0:
64,192,264379,1,0,0:0:0:0:
192,192,264458,1,0,0:0:0:0:
320,192,264537,1,0,0:0:0:0:
64,192,264616,1,0,0:0:0:0:
448,192,264616,1,0,0:0:0:0:
320,192,264695,1,0,0:0:0:0:
448,192,264774,1,0,0:0:0:0:
192,192,264774,1,0,0:0:0:0:
64,192,264853,1,0,0:0:0:0:
448,192,264932,1,0,0:0:0:0:
192,192,264932,1,0,0:0:0:0:
320,192,265011,1,0,0:0:0:0:
64,192,265090,1,0,0:0:0:0:
448,192,265090,1,0,0:0:0:0:
320,192,265169,1,0,0:0:0:0:
448,192,265248,1,0,0:0:0:0:
192,192,265248,1,0,0:0:0:0:
64,192,265327,1,0,0:0:0:0:
448,192,265406,1,0,0:0:0:0:
320,192,265406,1,0,0:0:0:0:
192,192,265406,1,0,0:0:0:0:
320,192,265642,1,0,0:0:0:0:
448,192,265721,1,0,0:0:0:0:
192,192,265721,1,0,0:0:0:0:
64,192,265721,1,0,0:0:0:0:
320,192,265800,1,0,0:0:0:0:
192,192,265879,1,0,0:0:0:0:
320,192,265958,1,0,0:0:0:0:
64,192,266037,1,0,0:0:0:0:
448,192,266037,1,0,0:0:0:0:
192,192,266037,1,0,0:0:0:0:
320,192,266116,1,0,0:0:0:0:
448,192,266195,1,0,0:0:0:0:
192,192,266195,1,0,0:0:0:0:
320,192,266353,1,0,0:0:0:0:
64,192,266353,1,0,0:0:0:0:
192,192,266432,1,0,0:0:0:0:
448,192,266511,1,0,0:0:0:0:
64,192,266511,1,0,0:0:0:0:
192,192,266590,1,0,0:0:0:0:
320,192,266669,1,0,0:0:0:0:
64,192,266669,1,0,0:0:0:0:
192,192,266748,1,0,0:0:0:0:
320,192,266827,1,0,0:0:0:0:
448,192,266906,1,0,0:0:0:0:
320,192,266984,1,0,0:0:0:0:
192,192,267063,1,0,0:0:0:0:
64,192,267142,1,0,0:0:0:0:
192,192,267221,1,0,0:0:0:0:
320,192,267300,1,0,0:0:0:0:
448,192,267379,1,0,0:0:0:0:
64,192,267458,1,0,0:0:0:0:
320,192,267458,1,0,0:0:0:0:
192,192,267537,1,0,0:0:0:0:
64,192,267616,1,0,0:0:0:0:
448,192,267616,1,0,0:0:0:0:
192,192,267695,1,0,0:0:0:0:
64,192,267774,1,0,0:0:0:0:
320,192,267774,1,0,0:0:0:0:
448,192,267853,1,0,0:0:0:0:
320,192,267932,1,0,0:0:0:0:
64,192,267932,1,0,0:0:0:0:
192,192,268011,1,0,0:0:0:0:
64,192,268090,1,0,0:0:0:0:
192,192,268169,1,0,0:0:0:0:
320,192,268248,1,0,0:0:0:0:
448,192,268327,1,0,0:0:0:0:
320,192,268406,1,0,0:0:0:0:
192,192,268484,1,0,0:0:0:0:
64,192,268563,1,0,0:0:0:0:
192,192,268642,1,0,0:0:0:0:
320,192,268721,1,0,0:0:0:0:
64,192,268721,1,0,0:0:0:0:
448,192,268800,1,0,0:0:0:0:
320,192,268879,1,0,0:0:0:0:
64,192,268879,1,0,0:0:0:0:
192,192,268958,1,0,0:0:0:0:
448,192,269037,1,0,0:0:0:0:
64,192,269037,1,0,0:0:0:0:
192,192,269116,1,0,0:0:0:0:
64,192,269195,1,0,0:0:0:0:
320,192,269195,1,0,0:0:0:0:
448,192,269274,1,0,0:0:0:0:
320,192,269353,1,0,0:0:0:0:
192,192,269432,1,0,0:0:0:0:
64,192,269511,1,0,0:0:0:0:
320,192,269511,1,0,0:0:0:0:
192,192,269590,1,0,0:0:0:0:
320,192,269669,1,0,0:0:0:0:
448,192,269748,1,0,0:0:0:0:
320,192,269827,1,0,0:0:0:0:
64,192,269827,1,0,0:0:0:0:
192,192,269906,1,0,0:0:0:0:
64,192,269984,1,0,0:0:0:0:
192,192,270063,1,0,0:0:0:0:
320,192,270142,1,0,0:0:0:0:
64,192,270142,1,0,0:0:0:0:
448,192,270221,1,0,0:0:0:0:
320,192,270300,1,0,0:0:0:0:
192,192,270379,1,0,0:0:0:0:
320,192,270458,1,0,0:0:0:0:
64,192,270458,1,0,0:0:0:0:
192,192,270537,1,0,0:0:0:0:
320,192,270616,1,0,0:0:0:0:
192,192,270695,1,0,0:0:0:0:
448,192,270695,1,0,0:0:0:0:
64,192,270774,1,0,0:0:0:0:
320,192,270774,1,0,0:0:0:0:
192,192,270853,1,0,0:0:0:0:
448,192,270932,1,0,0:0:0:0:
64,192,270932,1,0,0:0:0:0:
192,192,271011,1,0,0:0:0:0:
320,192,271090,1,0,0:0:0:0:
64,192,271090,1,0,0:0:0:0:
448,192,271169,1,0,0:0:0:0:
64,192,271248,1,0,0:0:0:0:
320,192,271248,1,0,0:0:0:0:
192,192,271327,1,0,0:0:0:0:
64,192,271406,1,0,0:0:0:0:
448,192,271406,1,0,0:0:0:0:
192,192,271484,1,0,0:0:0:0:
64,192,271563,1,0,0:0:0:0:
320,192,271563,1,0,0:0:0:0:
448,192,271642,1,0,0:0:0:0:
320,192,271721,1,0,0:0:0:0:
64,192,271721,1,0,0:0:0:0:
192,192,271800,1,0,0:0:0:0:
64,192,271879,1,0,0:0:0:0:
192,192,271958,1,0,0:0:0:0:
320,192,272037,1,0,0:0:0:0:
448,192,272116,1,0,0:0:0:0:
320,192,272195,1,0,0:0:0:0:
192,192,272274,1,0,0:0:0:0:
64,192,272353,1,0,0:0:0:0:
192,192,272432,1,0,0:0:0:0:
64,192,272511,1,0,0:0:0:0:
320,192,272511,1,0,0:0:0:0:
448,192,272590,1,0,0:0:0:0:
64,192,272669,1,0,0:0:0:0:
320,192,272669,1,0,0:0:0:0:
192,192,272748,1,0,0:0:0:0:
64,192,272827,1,0,0:0:0:0:
448,192,272827,1,0,0:0:0:0:
192,192,272906,1,0,0:0:0:0:
320,192,272984,1,0,0:0:0:0:
64,192,272984,1,0,0:0:0:0:
448,192,273063,1,0,0:0:0:0:
320,192,273142,1,0,0:0:0:0:
192,192,273221,1,0,0:0:0:0:
64,192,273300,1,0,0:0:0:0:
192,192,273379,1,0,0:0:0:0:
320,192,273458,1,0,0:0:0:0:
448,192,273537,1,0,0:0:0:0:
320,192,273616,1,0,0:0:0:0:
192,192,273695,1,0,0:0:0:0:
448,192,273774,1,0,0:0:0:0:
64,192,273774,1,0,0:0:0:0:
192,192,273853,1,0,0:0:0:0:
64,192,273932,1,0,0:0:0:0:
320,192,273932,1,0,0:0:0:0:
448,192,274011,1,0,0:0:0:0:
320,192,274090,1,0,0:0:0:0:
64,192,274090,1,0,0:0:0:0:
192,192,274169,1,0,0:0:0:0:
64,192,274248,1,0,0:0:0:0:
448,192,274248,1,0,0:0:0:0:
192,192,274327,1,0,0:0:0:0:
320,192,274406,1,0,0:0:0:0:
448,192,274484,1,0,0:0:0:0:
64,192,274563,1,0,0:0:0:0:
320,192,274563,1,0,0:0:0:0:
192,192,274642,1,0,0:0:0:0:
64,192,274721,1,0,0:0:0:0:
192,192,274800,1,0,0:0:0:0:
320,192,274879,1,0,0:0:0:0:
64,192,274879,1,0,0:0:0:0:
448,192,274958,1,0,0:0:0:0:
320,192,275037,1,0,0:0:0:0:
192,192,275116,1,0,0:0:0:0:
448,192,275195,1,0,0:0:0:0:
64,192,275195,1,0,0:0:0:0:
192,192,275274,1,0,0:0:0:0:
320,192,275353,1,0,0:0:0:0:
448,192,275432,1,0,0:0:0:0:
320,192,275511,1,0,0:0:0:0:
64,192,275511,1,0,0:0:0:0:
192,192,275590,1,0,0:0:0:0:
64,192,275669,1,0,0:0:0:0:
448,192,275748,1,0,0:0:0:0:
320,192,275827,1,0,0:0:0:0:
192,192,275906,1,0,0:0:0:0:
64,192,275984,1,0,0:0:0:0:
192,192,276063,1,0,0:0:0:0:
320,192,276142,1,0,0:0:0:0:
448,192,276142,1,0,0:0:0:0:
64,192,276142,1,0,0:0:0:0:
192,192,276221,1,0,0:0:0:0:
320,192,276300,1,0,0:0:0:0:
320,192,276458,1,0,0:0:0:0:
448,192,276458,1,0,0:0:0:0:
64,192,276458,1,0,0:0:0:0:
192,192,276537,1,0,0:0:0:0:
320,192,276616,1,0,0:0:0:0:
64,192,276616,1,0,0:0:0:0:
192,192,276774,1,0,0:0:0:0:
64,192,276774,1,0,0:0:0:0:
448,192,276774,1,0,0:0:0:0:
320,192,276853,1,0,0:0:0:0:
64,192,276932,1,0,0:0:0:0:
192,192,277011,1,0,0:0:0:0:
320,192,277090,1,0,0:0:0:0:
64,192,277090,1,0,0:0:0:0:
448,192,277090,1,0,0:0:0:0:
192,192,277169,1,0,0:0:0:0:
448,192,277248,1,0,0:0:0:0:
320,192,277327,1,0,0:0:0:0:
192,192,277406,1,0,0:0:0:0:
64,192,277406,1,0,0:0:0:0:
448,192,277406,1,0,0:0:0:0:
320,192,277484,1,0,0:0:0:0:
64,192,277563,1,0,0:0:0:0:
192,192,277642,1,0,0:0:0:0:
320,192,277721,1,0,0:0:0:0:
64,192,277721,1,0,0:0:0:0:
448,192,277721,1,0,0:0:0:0:
192,192,277800,1,0,0:0:0:0:
448,192,277879,1,0,0:0:0:0:
320,192,277958,1,0,0:0:0:0:
192,192,278037,1,0,0:0:0:0:
64,192,278037,1,0,0:0:0:0:
448,192,278037,1,0,0:0:0:0:
320,192,278116,1,0,0:0:0:0:
64,192,278195,1,0,0:0:0:0:
192,192,278274,1,0,0:0:0:0:
448,192,278353,1,0,0:0:0:0:
64,192,278353,1,0,0:0:0:0:
320,192,278432,1,0,0:0:0:0:
192,192,278511,1,0,0:0:0:0:
64,192,278511,1,0,0:0:0:0:
320,192,278590,1,0,0:0:0:0:
448,192,278590,1,0,0:0:0:0:
192,192,278669,1,0,0:0:0:0:
64,192,278669,1,0,0:0:0:0:
448,192,278669,1,0,0:0:0:0:
320,192,278748,1,0,0:0:0:0:
448,192,278827,1,0,0:0:0:0:
64,192,278827,1,0,0:0:0:0:
192,192,278906,1,0,0:0:0:0:
448,192,278984,1,0,0:0:0:0:
64,192,278984,1,0,0:0:0:0:
320,192,279063,1,0,0:0:0:0:
64,192,279142,1,0,0:0:0:0:
320,192,279221,1,0,0:0:0:0:
192,192,279300,1,0,0:0:0:0:
64,192,279300,1,0,0:0:0:0:
448,192,279300,1,0,0:0:0:0:
320,192,279379,1,0,0:0:0:0:
64,192,279458,1,0,0:0:0:0:
448,192,279458,1,0,0:0:0:0:
192,192,279537,1,0,0:0:0:0:
320,192,279616,1,0,0:0:0:0:
64,192,279616,1,0,0:0:0:0:
448,192,279616,1,0,0:0:0:0:
192,192,279695,1,0,0:0:0:0:
64,192,279774,1,0,0:0:0:0:
448,192,279774,1,0,0:0:0:0:
320,192,279853,1,0,0:0:0:0:
192,192,279932,1,0,0:0:0:0:
64,192,279932,1,0,0:0:0:0:
448,192,279932,1,0,0:0:0:0:
320,192,280011,1,0,0:0:0:0:
64,192,280090,1,0,0:0:0:0:
448,192,280090,1,0,0:0:0:0:
192,192,280169,1,0,0:0:0:0:
320,192,280248,1,0,0:0:0:0:
64,192,280248,1,0,0:0:0:0:
448,192,280248,1,0,0:0:0:0:
192,192,280327,1,0,0:0:0:0:
64,192,280406,1,0,0:0:0:0:
320,192,280406,1,0,0:0:0:0:
192,192,280484,1,0,0:0:0:0:
448,192,280484,1,0,0:0:0:0:
320,192,280563,1,0,0:0:0:0:
64,192,280563,1,0,0:0:0:0:
448,192,280563,1,0,0:0:0:0:
192,192,280642,1,0,0:0:0:0:
448,192,280721,1,0,0:0:0:0:
320,192,280800,1,0,0:0:0:0:
192,192,280879,1,0,0:0:0:0:
64,192,280879,1,0,0:0:0:0:
320,192,280958,1,0,0:0:0:0:
192,192,281037,1,0,0:0:0:0:
64,192,281037,1,0,0:0:0:0:
448,192,281037,1,0,0:0:0:0:
320,192,281116,1,0,0:0:0:0:
192,192,281195,1,0,0:0:0:0:
64,192,281195,1,0,0:0:0:0:
448,192,281195,1,0,0:0:0:0:
320,192,281274,1,0,0:0:0:0:
448,192,281353,1,0,0:0:0:0:
320,192,281432,1,0,0:0:0:0:
192,192,281511,1,0,0:0:0:0:
64,192,281511,1,0,0:0:0:0:
448,192,281590,1,0,0:0:0:0:
320,192,281669,1,0,0:0:0:0:
192,192,281748,1,0,0:0:0:0:
320,192,281827,1,0,0:0:0:0:
64,192,281827,1,0,0:0:0:0:
448,192,281827,1,0,0:0:0:0:
192,192,281906,1,0,0:0:0:0:
64,192,281984,1,0,0:0:0:0:
448,192,281984,1,0,0:0:0:0:
320,192,282063,1,0,0:0:0:0:
192,192,282142,1,0,0:0:0:0:
64,192,282142,1,0,0:0:0:0:
448,192,282142,1,0,0:0:0:0:
320,192,282221,1,0,0:0:0:0:
64,192,282300,1,0,0:0:0:0:
448,192,282300,1,0,0:0:0:0:
192,192,282379,1,0,0:0:0:0:
320,192,282458,1,0,0:0:0:0:
64,192,282458,1,0,0:0:0:0:
448,192,282458,1,0,0:0:0:0:
192,192,282537,1,0,0:0:0:0:
448,192,282616,1,0,0:0:0:0:
192,192,282695,1,0,0:0:0:0:
320,192,282774,1,0,0:0:0:0:
64,192,282774,1,0,0:0:0:0:
192,192,282853,1,0,0:0:0:0:
448,192,282932,1,0,0:0:0:0:
320,192,283011,1,0,0:0:0:0:
192,192,283090,1,0,0:0:0:0:
64,192,283090,1,0,0:0:0:0:
448,192,283090,1,0,0:0:0:0:
320,192,283169,1,0,0:0:0:0:
64,192,283248,1,0,0:0:0:0:
448,192,283248,1,0,0:0:0:0:
192,192,283327,1,0,0:0:0:0:
320,192,283406,1,0,0:0:0:0:
64,192,283406,1,0,0:0:0:0:
448,192,283406,1,0,0:0:0:0:
192,192,283484,1,0,0:0:0:0:
320,192,283563,1,0,0:0:0:0:
448,192,283563,1,0,0:0:0:0:
64,192,283642,1,0,0:0:0:0:
320,192,283721,1,0,0:0:0:0:
192,192,283721,1,0,0:0:0:0:
448,192,283721,1,0,0:0:0:0:
64,192,283800,1,0,0:0:0:0:
448,192,283879,1,0,0:0:0:0:
192,192,283879,1,0,0:0:0:0:
320,192,283958,1,0,0:0:0:0:
192,192,284037,1,0,0:0:0:0:
64,192,284037,1,0,0:0:0:0:
448,192,284116,1,0,0:0:0:0:
320,192,284195,1,0,0:0:0:0:
192,192,284274,1,0,0:0:0:0:
320,192,284353,1,0,0:0:0:0:
64,192,284353,1,0,0:0:0:0:
448,192,284353,1,0,0:0:0:0:
192,192,284432,1,0,0:0:0:0:
448,192,284511,1,0,0:0:0:0:
320,192,284590,1,0,0:0:0:0:
192,192,284669,1,0,0:0:0:0:
64,192,284669,1,0,0:0:0:0:
320,192,284748,1,0,0:0:0:0:
64,192,284827,1,0,0:0:0:0:
448,192,284827,1,0,0:0:0:0:
192,192,284906,1,0,0:0:0:0:
320,192,284984,1,0,0:0:0:0:
64,192,284984,1,0,0:0:0:0:
448,192,284984,1,0,0:0:0:0:
192,192,285063,1,0,0:0:0:0:
64,192,285142,1,0,0:0:0:0:
448,192,285142,1,0,0:0:0:0:
320,192,285221,1,0,0:0:0:0:
192,192,285300,1,0,0:0:0:0:
64,192,285300,1,0,0:0:0:0:
448,192,285300,1,0,0:0:0:0:
320,192,285379,1,0,0:0:0:0:
64,192,285458,1,0,0:0:0:0:
448,192,285458,1,0,0:0:0:0:
192,192,285537,1,0,0:0:0:0:
320,192,285616,1,0,0:0:0:0:
64,192,285616,1,0,0:0:0:0:
448,192,285616,1,0,0:0:0:0:
192,192,285695,1,0,0:0:0:0:
320,192,285774,1,0,0:0:0:0:
64,192,285774,1,0,0:0:0:0:
448,192,285853,1,0,0:0:0:0:
320,192,285932,1,0,0:0:0:0:
192,192,285932,1,0,0:0:0:0:
64,192,286011,1,0,0:0:0:0:
448,192,286090,1,0,0:0:0:0:
192,192,286090,1,0,0:0:0:0:
320,192,286169,1,0,0:0:0:0:
192,192,286248,1,0,0:0:0:0:
64,192,286248,1,0,0:0:0:0:
320,192,286327,1,0,0:0:0:0:
192,192,286406,1,0,0:0:0:0:
448,192,286406,1,0,0:0:0:0:
320,192,286484,1,0,0:0:0:0:
192,192,286563,1,0,0:0:0:0:
64,192,286563,1,0,0:0:0:0:
448,192,286563,1,0,0:0:0:0:
320,192,286642,1,0,0:0:0:0:
192,192,286721,1,0,0:0:0:0:
64,192,286721,1,0,0:0:0:0:
448,192,286721,1,0,0:0:0:0:
320,192,286800,1,0,0:0:0:0:
64,192,286879,1,0,0:0:0:0:
448,192,286879,1,0,0:0:0:0:
320,192,286958,1,0,0:0:0:0:
192,192,286958,1,0,0:0:0:0:
448,192,287037,1,0,0:0:0:0:
64,192,287037,1,0,0:0:0:0:
192,192,287116,1,0,0:0:0:0:
320,192,287116,1,0,0:0:0:0:
448,192,287195,1,0,0:0:0:0:
64,192,287195,1,0,0:0:0:0:
320,192,287274,1,0,0:0:0:0:
192,192,287274,1,0,0:0:0:0:
448,192,287353,1,0,0:0:0:0:
64,192,287353,1,0,0:0:0:0:
320,192,287432,1,0,0:0:0:0:
192,192,287432,1,0,0:0:0:0:
192,192,287511,1,0,0:0:0:0:
64,192,287511,1,0,0:0:0:0:
320,192,287590,1,0,0:0:0:0:
448,192,287590,1,0,0:0:0:0:
192,192,287669,1,0,0:0:0:0:
64,192,287669,1,0,0:0:0:0:
448,192,287748,1,0,0:0:0:0:
320,192,287748,1,0,0:0:0:0:
192,192,287827,1,0,0:0:0:0:
64,192,287827,1,0,0:0:0:0:
448,192,287906,1,0,0:0:0:0:
320,192,287906,1,0,0:0:0:0:
192,192,287984,1,0,0:0:0:0:
64,192,287984,1,0,0:0:0:0:
448,192,288063,1,0,0:0:0:0:
320,192,288063,1,0,0:0:0:0:
192,192,288142,1,0,0:0:0:0:
64,192,288142,1,0,0:0:0:0:
448,192,288142,1,0,0:0:0:0:
320,192,288221,1,0,0:0:0:0:
64,192,288300,1,0,0:0:0:0:
448,192,288379,1,0,0:0:0:0:
320,192,288458,1,0,0:0:0:0:
64,192,288458,1,0,0:0:0:0:
192,192,288537,1,0,0:0:0:0:
64,192,288616,1,0,0:0:0:0:
192,192,288695,1,0,0:0:0:0:
320,192,288774,1,0,0:0:0:0:
64,192,288774,1,0,0:0:0:0:
448,192,288774,1,0,0:0:0:0:
192,192,288853,1,0,0:0:0:0:
320,192,288932,1,0,0:0:0:0:
448,192,288932,1,0,0:0:0:0:
192,192,289011,1,0,0:0:0:0:
448,192,289090,1,0,0:0:0:0:
64,192,289090,1,0,0:0:0:0:
320,192,289090,1,0,0:0:0:0:
192,192,289169,1,0,0:0:0:0:
64,192,289248,1,0,0:0:0:0:
448,192,289248,1,0,0:0:0:0:
320,192,289327,1,0,0:0:0:0:
192,192,289406,1,0,0:0:0:0:
64,192,289406,1,0,0:0:0:0:
448,192,289406,1,0,0:0:0:0:
320,192,289484,1,0,0:0:0:0:
448,192,289563,1,0,0:0:0:0:
320,192,289642,1,0,0:0:0:0:
192,192,289721,1,0,0:0:0:0:
448,192,289721,1,0,0:0:0:0:
64,192,289800,1,0,0:0:0:0:
192,192,289879,1,0,0:0:0:0:
320,192,289958,1,0,0:0:0:0:
192,192,290037,1,0,0:0:0:0:
64,192,290037,1,0,0:0:0:0:
448,192,290037,1,0,0:0:0:0:
320,192,290116,1,0,0:0:0:0:
192,192,290195,1,0,0:0:0:0:
64,192,290195,1,0,0:0:0:0:
448,192,290195,1,0,0:0:0:0:
320,192,290274,1,0,0:0:0:0:
192,192,290353,1,0,0:0:0:0:
64,192,290353,1,0,0:0:0:0:
448,192,290353,1,0,0:0:0:0:
320,192,290432,1,0,0:0:0:0:
64,192,290511,1,0,0:0:0:0:
448,192,290511,1,0,0:0:0:0:
192,192,290590,1,0,0:0:0:0:
320,192,290669,1,0,0:0:0:0:
64,192,290669,1,0,0:0:0:0:
448,192,290669,1,0,0:0:0:0:
192,192,290748,1,0,0:0:0:0:
64,192,290827,1,0,0:0:0:0:
448,192,290827,1,0,0:0:0:0:
320,192,290906,1,0,0:0:0:0:
192,192,290984,1,0,0:0:0:0:
64,192,290984,1,0,0:0:0:0:
448,192,290984,1,0,0:0:0:0:
320,192,291063,1,0,0:0:0:0:
64,192,291142,1,0,0:0:0:0:
448,192,291142,1,0,0:0:0:0:
192,192,291221,1,0,0:0:0:0:
64,192,291300,1,0,0:0:0:0:
320,192,291300,1,0,0:0:0:0:
448,192,291300,1,0,0:0:0:0:
192,192,291379,1,0,0:0:0:0:
320,192,291458,1,0,0:0:0:0:
448,192,291458,1,0,0:0:0:0:
192,192,291537,1,0,0:0:0:0:
320,192,291616,1,0,0:0:0:0:
64,192,291616,1,0,0:0:0:0:
448,192,291616,1,0,0:0:0:0:
192,192,291695,1,0,0:0:0:0:
64,192,291774,1,0,0:0:0:0:
448,192,291774,1,0,0:0:0:0:
320,192,291853,1,0,0:0:0:0:
64,192,291932,1,0,0:0:0:0:
192,192,291932,1,0,0:0:0:0:
448,192,291932,1,0,0:0:0:0:
320,192,292011,1,0,0:0:0:0:
64,192,292090,1,0,0:0:0:0:
448,192,292090,1,0,0:0:0:0:
192,192,292169,1,0,0:0:0:0:
320,192,292248,1,0,0:0:0:0:
64,192,292248,1,0,0:0:0:0:
448,192,292327,1,0,0:0:0:0:
192,192,292406,1,0,0:0:0:0:
64,192,292406,1,0,0:0:0:0:
320,192,292406,1,0,0:0:0:0:
448,192,292484,1,0,0:0:0:0:
192,192,292563,1,0,0:0:0:0:
64,192,292563,1,0,0:0:0:0:
320,192,292563,1,0,0:0:0:0:
448,192,292642,1,0,0:0:0:0:
320,192,292721,1,0,0:0:0:0:
192,192,292800,1,0,0:0:0:0:
448,192,292879,1,0,0:0:0:0:
64,192,292879,1,0,0:0:0:0:
192,192,292958,1,0,0:0:0:0:
64,192,293037,1,0,0:0:0:0:
320,192,293037,1,0,0:0:0:0:
192,192,293116,1,0,0:0:0:0:
448,192,293116,1,0,0:0:0:0:
320,192,293195,1,0,0:0:0:0:
64,192,293195,1,0,0:0:0:0:
448,192,293195,1,0,0:0:0:0:
192,192,293274,1,0,0:0:0:0:
448,192,293353,1,0,0:0:0:0:
320,192,293353,1,0,0:0:0:0:
192,192,293432,1,0,0:0:0:0:
320,192,293511,1,0,0:0:0:0:
64,192,293511,1,0,0:0:0:0:
448,192,293511,1,0,0:0:0:0:
192,192,293590,1,0,0:0:0:0:
64,192,293669,1,0,0:0:0:0:
448,192,293669,1,0,0:0:0:0:
192,192,293748,1,0,0:0:0:0:
320,192,293827,1,0,0:0:0:0:
64,192,293827,1,0,0:0:0:0:
448,192,293827,1,0,0:0:0:0:
192,192,293906,1,0,0:0:0:0:
448,192,293984,1,0,0:0:0:0:
320,192,294063,1,0,0:0:0:0:
192,192,294142,1,0,0:0:0:0:
64,192,294142,1,0,0:0:0:0:
448,192,294142,1,0,0:0:0:0:
320,192,294221,1,0,0:0:0:0:
64,192,294300,1,0,0:0:0:0:
320,192,294379,1,0,0:0:0:0:
192,192,294458,1,0,0:0:0:0:
64,192,294458,1,0,0:0:0:0:
448,192,294458,1,0,0:0:0:0:
320,192,294537,1,0,0:0:0:0:
192,192,294616,1,0,0:0:0:0:
448,192,294616,1,0,0:0:0:0:
320,192,294695,1,0,0:0:0:0:
64,192,294774,1,0,0:0:0:0:
192,192,294774,1,0,0:0:0:0:
320,192,294853,1,0,0:0:0:0:
192,192,294932,1,0,0:0:0:0:
448,192,294932,1,0,0:0:0:0:
320,192,295011,1,0,0:0:0:0:
192,192,295090,1,0,0:0:0:0:
64,192,295090,1,0,0:0:0:0:
448,192,295090,1,0,0:0:0:0:
320,192,295169,1,0,0:0:0:0:
448,192,295248,1,0,0:0:0:0:
192,192,295248,1,0,0:0:0:0:
320,192,295327,1,0,0:0:0:0:
192,192,295406,1,0,0:0:0:0:
64,192,295406,1,0,0:0:0:0:
448,192,295406,1,0,0:0:0:0:
320,192,295484,1,0,0:0:0:0:
64,192,295563,1,0,0:0:0:0:
448,192,295642,1,0,0:0:0:0:
192,192,295721,1,0,0:0:0:0:
64,192,295721,1,0,0:0:0:0:
320,192,295721,1,0,0:0:0:0:
448,192,295800,1,0,0:0:0:0:
64,192,295879,1,0,0:0:0:0:
192,192,295958,1,0,0:0:0:0:
448,192,295958,1,0,0:0:0:0:
320,192,296037,1,0,0:0:0:0:
64,192,296037,1,0,0:0:0:0:
448,192,296116,1,0,0:0:0:0:
64,192,296195,1,0,0:0:0:0:
320,192,296195,1,0,0:0:0:0:
192,192,296274,1,0,0:0:0:0:
320,192,296353,1,0,0:0:0:0:
64,192,296353,1,0,0:0:0:0:
448,192,296353,1,0,0:0:0:0:
192,192,296432,1,0,0:0:0:0:
320,192,296511,1,0,0:0:0:0:
192,192,296590,1,0,0:0:0:0:
448,192,296590,1,0,0:0:0:0:
64,192,296669,1,0,0:0:0:0:
320,192,296669,1,0,0:0:0:0:
192,192,296748,1,0,0:0:0:0:
64,192,296827,1,0,0:0:0:0:
448,192,296827,1,0,0:0:0:0:
320,192,296906,1,0,0:0:0:0:
192,192,296984,1,0,0:0:0:0:
64,192,296984,1,0,0:0:0:0:
448,192,296984,1,0,0:0:0:0:
320,192,297063,1,0,0:0:0:0:
64,192,297142,1,0,0:0:0:0:
448,192,297142,1,0,0:0:0:0:
192,192,297221,1,0,0:0:0:0:
320,192,297221,1,0,0:0:0:0:
448,192,297300,1,0,0:0:0:0:
64,192,297300,1,0,0:0:0:0:
192,192,297379,1,0,0:0:0:0:
320,192,297458,1,0,0:0:0:0:
64,192,297458,1,0,0:0:0:0:
448,192,297458,1,0,0:0:0:0:
192,192,297537,1,0,0:0:0:0:
320,192,297616,1,0,0:0:0:0:
64,192,297616,1,0,0:0:0:0:
448,192,297616,1,0,0:0:0:0:
192,192,297695,1,0,0:0:0:0:
320,192,297774,1,0,0:0:0:0:
448,192,297774,1,0,0:0:0:0:
192,192,297853,1,0,0:0:0:0:
64,192,297932,1,0,0:0:0:0:
320,192,297932,1,0,0:0:0:0:
448,192,297932,1,0,0:0:0:0:
192,192,298011,1,0,0:0:0:0:
64,192,298090,1,0,0:0:0:0:
320,192,298090,1,0,0:0:0:0:
192,192,298169,1,0,0:0:0:0:
320,192,298248,1,0,0:0:0:0:
64,192,298248,1,0,0:0:0:0:
448,192,298248,1,0,0:0:0:0:
192,192,298327,1,0,0:0:0:0:
64,192,298406,1,0,0:0:0:0:
448,192,298406,1,0,0:0:0:0:
320,192,298484,1,0,0:0:0:0:
192,192,298563,1,0,0:0:0:0:
448,192,298563,1,0,0:0:0:0:
320,192,298642,1,0,0:0:0:0:
448,192,298721,1,0,0:0:0:0:
64,192,298721,1,0,0:0:0:0:
192,192,298800,1,0,0:0:0:0:
64,192,298879,1,0,0:0:0:0:
448,192,298879,1,0,0:0:0:0:
192,192,298958,1,0,0:0:0:0:
320,192,299037,1,0,0:0:0:0:
448,192,299037,1,0,0:0:0:0:
192,192,299116,1,0,0:0:0:0:
64,192,299195,1,0,0:0:0:0:
448,192,299195,1,0,0:0:0:0:
320,192,299195,1,0,0:0:0:0:
192,192,299274,1,0,0:0:0:0:
64,192,299353,1,0,0:0:0:0:
448,192,299353,1,0,0:0:0:0:
320,192,299432,1,0,0:0:0:0:
192,192,299511,1,0,0:0:0:0:
64,192,299511,1,0,0:0:0:0:
448,192,299590,1,0,0:0:0:0:
320,192,299590,1,0,0:0:0:0:
192,192,299669,1,0,0:0:0:0:
64,192,299669,1,0,0:0:0:0:
448,192,299748,1,0,0:0:0:0:
320,192,299748,1,0,0:0:0:0:
192,192,299827,1,0,0:0:0:0:
64,192,299827,1,0,0:0:0:0:
448,192,299906,1,0,0:0:0:0:
320,192,299906,1,0,0:0:0:0:
192,192,299984,1,0,0:0:0:0:
64,192,299984,1,0,0:0:0:0:
448,192,300063,1,0,0:0:0:0:
320,192,300063,1,0,0:0:0:0:
192,192,300142,1,0,0:0:0:0:
64,192,300142,1,0,0:0:0:0:
448,192,300221,1,0,0:0:0:0:
320,192,300221,1,0,0:0:0:0:
192,192,300300,1,0,0:0:0:0:
64,192,300300,1,0,0:0:0:0:
448,192,300379,1,0,0:0:0:0:
320,192,300379,1,0,0:0:0:0:
192,192,300458,1,0,0:0:0:0:
64,192,300458,1,0,0:0:0:0:
448,192,300537,1,0,0:0:0:0:
320,192,300537,1,0,0:0:0:0:
192,192,300616,1,0,0:0:0:0:
64,192,300616,1,0,0:0:0:0:
448,192,300695,1,0,0:0:0:0:
320,192,300695,1,0,0:0:0:0:
448,192,300774,1,0,0:0:0:0:
192,192,300774,1,0,0:0:0:0:
64,192,300774,1,0,0:0:0:0:
192,192,300932,1,0,0:0:0:0:
320,192,301090,1,0,0:0:0:0:
64,192,301090,1,0,0:0:0:0:
448,192,301090,1,0,0:0:0:0:
192,192,301248,1,0,0:0:0:0:
320,192,301406,1,0,0:0:0:0:
448,192,301406,1,0,0:0:0:0:
64,192,301406,1,0,0:0:0:0:
192,192,301484,1,0,0:0:0:0:
320,192,301563,1,0,0:0:0:0:
64,192,301563,1,0,0:0:0:0:
320,192,301721,1,0,0:0:0:0:
192,192,301721,1,0,0:0:0:0:
448,192,301721,1,0,0:0:0:0:
448,192,301879,1,0,0:0:0:0:
320,192,302037,1,0,0:0:0:0:
192,192,302037,1,0,0:0:0:0:
64,192,302037,1,0,0:0:0:0:
448,192,302195,1,0,0:0:0:0:
192,192,302195,1,0,0:0:0:0:
320,192,302353,1,0,0:0:0:0:
192,192,302353,1,0,0:0:0:0:
448,192,302353,1,0,0:0:0:0:
320,192,302511,1,0,0:0:0:0:
64,192,302511,1,0,0:0:0:0:
448,192,302669,1,0,0:0:0:0:
192,192,302669,1,0,0:0:0:0:
64,192,302669,1,0,0:0:0:0:
448,192,302827,1,0,0:0:0:0:
192,192,302827,1,0,0:0:0:0:
320,192,302984,1,0,0:0:0:0:
64,192,302984,1,0,0:0:0:0:
192,192,303142,1,0,0:0:0:0:
320,192,303300,1,0,0:0:0:0:
448,192,303300,1,0,0:0:0:0:
64,192,303300,1,0,0:0:0:0:
192,192,303458,1,0,0:0:0:0:
448,192,303616,1,0,0:0:0:0:
192,192,303616,1,0,0:0:0:0:
64,192,303616,1,0,0:0:0:0:
320,192,303774,1,0,0:0:0:0:
320,192,303932,1,0,0:0:0:0:
64,192,303932,1,0,0:0:0:0:
448,192,303932,1,0,0:0:0:0:
320,192,304090,1,0,0:0:0:0:
192,192,304090,1,0,0:0:0:0:
320,192,304248,1,0,0:0:0:0:
448,192,304248,1,0,0:0:0:0:
64,192,304248,1,0,0:0:0:0:
320,192,304406,1,0,0:0:0:0:
192,192,304406,1,0,0:0:0:0:
320,192,304563,1,0,0:0:0:0:
448,192,304563,1,0,0:0:0:0:
64,192,304563,1,0,0:0:0:0:
448,192,304721,1,0,0:0:0:0:
192,192,304721,1,0,0:0:0:0:
320,192,304879,1,0,0:0:0:0:
192,192,304879,1,0,0:0:0:0:
64,192,304879,1,0,0:0:0:0:
320,192,305037,1,0,0:0:0:0:
192,192,305037,1,0,0:0:0:0:
64,192,305037,1,0,0:0:0:0:
320,192,305195,1,0,0:0:0:0:
192,192,305195,1,0,0:0:0:0:
64,192,305195,1,0,0:0:0:0:
448,192,305353,1,0,0:0:0:0:
320,192,305511,1,0,0:0:0:0:
192,192,305511,1,0,0:0:0:0:
448,192,305669,1,0,0:0:0:0:
320,192,305827,1,0,0:0:0:0:
192,192,305827,1,0,0:0:0:0:
64,192,305827,1,0,0:0:0:0:
192,192,305984,1,0,0:0:0:0:
320,192,306142,1,0,0:0:0:0:
192,192,306142,1,0,0:0:0:0:
448,192,306142,1,0,0:0:0:0:
320,192,306300,1,0,0:0:0:0:
320,192,306458,1,0,0:0:0:0:
448,192,306458,1,0,0:0:0:0:
64,192,306458,1,0,0:0:0:0:
192,192,306537,1,0,0:0:0:0:
448,192,306616,1,0,0:0:0:0:
64,192,306616,1,0,0:0:0:0:
320,192,306774,1,0,0:0:0:0:
192,192,306774,1,0,0:0:0:0:
448,192,306774,1,0,0:0:0:0:
64,192,306932,1,0,0:0:0:0:
320,192,307090,1,0,0:0:0:0:
192,192,307090,1,0,0:0:0:0:
64,192,307090,1,0,0:0:0:0:
64,192,307248,1,0,0:0:0:0:
320,192,307248,1,0,0:0:0:0:
320,192,307406,1,0,0:0:0:0:
192,192,307406,1,0,0:0:0:0:
448,192,307406,1,0,0:0:0:0:
448,192,307563,1,0,0:0:0:0:
64,192,307563,1,0,0:0:0:0:
320,192,307721,1,0,0:0:0:0:
192,192,307721,1,0,0:0:0:0:
64,192,307721,1,0,0:0:0:0:
320,192,307879,1,0,0:0:0:0:
192,192,307879,1,0,0:0:0:0:
64,192,307879,1,0,0:0:0:0:
64,192,308037,1,0,0:0:0:0:
320,192,308037,1,0,0:0:0:0:
192,192,308037,1,0,0:0:0:0:
448,192,308195,1,0,0:0:0:0:
320,192,308353,1,0,0:0:0:0:
192,192,308353,1,0,0:0:0:0:
448,192,308353,1,0,0:0:0:0:
192,192,308511,1,0,0:0:0:0:
320,192,308669,1,0,0:0:0:0:
64,192,308669,1,0,0:0:0:0:
448,192,308669,1,0,0:0:0:0:
192,192,308827,1,0,0:0:0:0:
320,192,308984,1,0,0:0:0:0:
192,192,308984,1,0,0:0:0:0:
448,192,308984,1,0,0:0:0:0:
192,192,309142,1,0,0:0:0:0:
64,192,309142,1,0,0:0:0:0:
320,192,309300,1,0,0:0:0:0:
192,192,309300,1,0,0:0:0:0:
64,192,309300,1,0,0:0:0:0:
320,192,309458,1,0,0:0:0:0:
448,192,309458,1,0,0:0:0:0:
320,192,309616,1,0,0:0:0:0:
192,192,309616,1,0,0:0:0:0:
64,192,309616,1,0,0:0:0:0:
320,192,309774,1,0,0:0:0:0:
448,192,309774,1,0,0:0:0:0:
320,192,309932,1,0,0:0:0:0:
192,192,309932,1,0,0:0:0:0:
64,192,309932,1,0,0:0:0:0:
320,192,310090,1,0,0:0:0:0:
192,192,310090,1,0,0:0:0:0:
64,192,310090,1,0,0:0:0:0:
320,192,310248,1,0,0:0:0:0:
192,192,310248,1,0,0:0:0:0:
64,192,310248,1,0,0:0:0:0:
448,192,310406,1,0,0:0:0:0:
320,192,310406,1,0,0:0:0:0:
320,192,310563,1,0,0:0:0:0:
448,192,310563,1,0,0:0:0:0:
320,192,310721,1,0,0:0:0:0:
448,192,310721,1,0,0:0:0:0:
448,192,310879,1,0,0:0:0:0:
192,192,310879,1,0,0:0:0:0:
64,192,310879,1,0,0:0:0:0:
320,192,310958,1,0,0:0:0:0:
448,192,311037,1,0,0:0:0:0:
320,192,311116,1,0,0:0:0:0:
448,192,311195,1,0,0:0:0:0:
192,192,311195,1,0,0:0:0:0:
320,192,311274,1,0,0:0:0:0:
192,192,311353,1,0,0:0:0:0:
64,192,311353,1,0,0:0:0:0:
320,192,311432,1,0,0:0:0:0:
448,192,311511,1,0,0:0:0:0:
192,192,311511,1,0,0:0:0:0:
320,192,311590,1,0,0:0:0:0:
192,192,311669,1,0,0:0:0:0:
64,192,311748,1,0,0:0:0:0:
448,192,311827,1,0,0:0:0:0:
192,192,311827,1,0,0:0:0:0:
320,192,311827,1,0,0:0:0:0:
64,192,311906,1,0,0:0:0:0:
192,192,311984,1,0,0:0:0:0:
320,192,312063,1,0,0:0:0:0:
448,192,312142,1,0,0:0:0:0:
192,192,312142,1,0,0:0:0:0:
64,192,312142,1,0,0:0:0:0:
320,192,312221,1,0,0:0:0:0:
192,192,312300,1,0,0:0:0:0:
64,192,312379,1,0,0:0:0:0:
448,192,312458,1,0,0:0:0:0:
192,192,312458,1,0,0:0:0:0:
320,192,312537,1,0,0:0:0:0:
192,192,312616,1,0,0:0:0:0:
64,192,312616,1,0,0:0:0:0:
320,192,312695,1,0,0:0:0:0:
448,192,312774,1,0,0:0:0:0:
192,192,312774,1,0,0:0:0:0:
64,192,312853,1,0,0:0:0:0:
448,192,312932,1,0,0:0:0:0:
192,192,312932,1,0,0:0:0:0:
320,192,313011,1,0,0:0:0:0:
448,192,313090,1,0,0:0:0:0:
192,192,313090,1,0,0:0:0:0:
64,192,313090,1,0,0:0:0:0:
320,192,313169,1,0,0:0:0:0:
192,192,313248,1,0,0:0:0:0:
320,192,313327,1,0,0:0:0:0:
448,192,313406,1,0,0:0:0:0:
192,192,313406,1,0,0:0:0:0:
64,192,313406,1,0,0:0:0:0:
320,192,313484,1,0,0:0:0:0:
448,192,313563,1,0,0:0:0:0:
320,192,313642,1,0,0:0:0:0:
64,192,313721,1,0,0:0:0:0:
192,192,313721,1,0,0:0:0:0:
320,192,313800,1,0,0:0:0:0:
448,192,313879,1,0,0:0:0:0:
64,192,313879,1,0,0:0:0:0:
320,192,313958,1,0,0:0:0:0:
448,192,314037,1,0,0:0:0:0:
192,192,314037,1,0,0:0:0:0:
64,192,314116,1,0,0:0:0:0:
192,192,314195,1,0,0:0:0:0:
320,192,314274,1,0,0:0:0:0:
448,192,314353,1,0,0:0:0:0:
192,192,314353,1,0,0:0:0:0:
64,192,314353,1,0,0:0:0:0:
320,192,314432,1,0,0:0:0:0:
192,192,314511,1,0,0:0:0:0:
64,192,314590,1,0,0:0:0:0:
448,192,314669,1,0,0:0:0:0:
320,192,314669,1,0,0:0:0:0:
192,192,314669,1,0,0:0:0:0:
64,192,314748,1,0,0:0:0:0:
192,192,314827,1,0,0:0:0:0:
320,192,314906,1,0,0:0:0:0:
448,192,314984,1,0,0:0:0:0:
192,192,314984,1,0,0:0:0:0:
64,192,314984,1,0,0:0:0:0:
320,192,315063,1,0,0:0:0:0:
448,192,315142,1,0,0:0:0:0:
192,192,315142,1,0,0:0:0:0:
64,192,315142,1,0,0:0:0:0:
320,192,315221,1,0,0:0:0:0:
448,192,315300,1,0,0:0:0:0:
192,192,315300,1,0,0:0:0:0:
64,192,315300,1,0,0:0:0:0:
320,192,315379,1,0,0:0:0:0:
192,192,315458,1,0,0:0:0:0:
448,192,315458,1,0,0:0:0:0:
64,192,315458,1,0,0:0:0:0:
320,192,315537,1,0,0:0:0:0:
192,192,315616,1,0,0:0:0:0:
448,192,315616,1,0,0:0:0:0:
64,192,315616,1,0,0:0:0:0:
320,192,315695,1,0,0:0:0:0:
64,192,315774,1,0,0:0:0:0:
192,192,315853,1,0,0:0:0:0:
448,192,315932,1,0,0:0:0:0:
320,192,315932,1,0,0:0:0:0:
64,192,315932,1,0,0:0:0:0:
192,192,316011,1,0,0:0:0:0:
64,192,316090,1,0,0:0:0:0:
192,192,316169,1,0,0:0:0:0:
448,192,316248,1,0,0:0:0:0:
64,192,316248,1,0,0:0:0:0:
320,192,316327,1,0,0:0:0:0:
192,192,316406,1,0,0:0:0:0:
64,192,316406,1,0,0:0:0:0:
320,192,316484,1,0,0:0:0:0:
448,192,316563,1,0,0:0:0:0:
64,192,316563,1,0,0:0:0:0:
192,192,316642,1,0,0:0:0:0:
320,192,316721,1,0,0:0:0:0:
448,192,316800,1,0,0:0:0:0:
320,192,316879,1,0,0:0:0:0:
192,192,316879,1,0,0:0:0:0:
64,192,316879,1,0,0:0:0:0:
448,192,316958,1,0,0:0:0:0:
192,192,317037,1,0,0:0:0:0:
320,192,317116,1,0,0:0:0:0:
448,192,317195,1,0,0:0:0:0:
192,192,317195,1,0,0:0:0:0:
64,192,317195,1,0,0:0:0:0:
320,192,317274,1,0,0:0:0:0:
192,192,317353,1,0,0:0:0:0:
64,192,317432,1,0,0:0:0:0:
448,192,317511,1,0,0:0:0:0:
192,192,317511,1,0,0:0:0:0:
320,192,317590,1,0,0:0:0:0:
448,192,317669,1,0,0:0:0:0:
64,192,317669,1,0,0:0:0:0:
320,192,317748,1,0,0:0:0:0:
64,192,317827,1,0,0:0:0:0:
192,192,317827,1,0,0:0:0:0:
320,192,317906,1,0,0:0:0:0:
448,192,317984,1,0,0:0:0:0:
192,192,317984,1,0,0:0:0:0:
320,192,318063,1,0,0:0:0:0:
448,192,318142,1,0,0:0:0:0:
192,192,318142,1,0,0:0:0:0:
64,192,318142,1,0,0:0:0:0:
320,192,318221,1,0,0:0:0:0:
192,192,318300,1,0,0:0:0:0:
64,192,318379,1,0,0:0:0:0:
448,192,318458,1,0,0:0:0:0:
192,192,318458,1,0,0:0:0:0:
320,192,318458,1,0,0:0:0:0:
64,192,318537,1,0,0:0:0:0:
192,192,318616,1,0,0:0:0:0:
320,192,318695,1,0,0:0:0:0:
448,192,318774,1,0,0:0:0:0:
64,192,318774,1,0,0:0:0:0:
192,192,318853,1,0,0:0:0:0:
320,192,318932,1,0,0:0:0:0:
64,192,318932,1,0,0:0:0:0:
448,192,319011,1,0,0:0:0:0:
320,192,319090,1,0,0:0:0:0:
192,192,319090,1,0,0:0:0:0:
64,192,319169,1,0,0:0:0:0:
192,192,319248,1,0,0:0:0:0:
320,192,319327,1,0,0:0:0:0:
448,192,319406,1,0,0:0:0:0:
192,192,319406,1,0,0:0:0:0:
64,192,319406,1,0,0:0:0:0:
320,192,319484,1,0,0:0:0:0:
192,192,319563,1,0,0:0:0:0:
320,192,319642,1,0,0:0:0:0:
192,192,319721,1,0,0:0:0:0:
64,192,319721,1,0,0:0:0:0:
448,192,319800,1,0,0:0:0:0:
320,192,319800,1,0,0:0:0:0:
192,192,319879,1,0,0:0:0:0:
64,192,319879,1,0,0:0:0:0:
448,192,319958,1,0,0:0:0:0:
320,192,319958,1,0,0:0:0:0:
192,192,320037,1,0,0:0:0:0:
64,192,320037,1,0,0:0:0:0:
448,192,320116,1,0,0:0:0:0:
320,192,320116,1,0,0:0:0:0:
192,192,320195,1,0,0:0:0:0:
64,192,320195,1,0,0:0:0:0:
448,192,320274,1,0,0:0:0:0:
320,192,320274,1,0,0:0:0:0:
192,192,320353,1,0,0:0:0:0:
64,192,320353,1,0,0:0:0:0:
448,192,320432,1,0,0:0:0:0:
320,192,320432,1,0,0:0:0:0:
192,192,320511,1,0,0:0:0:0:
64,192,320511,1,0,0:0:0:0:
448,192,320590,1,0,0:0:0:0:
320,192,320590,1,0,0:0:0:0:
192,192,320669,1,0,0:0:0:0:
64,192,320669,1,0,0:0:0:0:
448,192,320748,1,0,0:0:0:0:
320,192,320748,1,0,0:0:0:0:
64,192,320827,1,0,0:0:0:0:
192,192,320827,1,0,0:0:0:0:
448,192,320906,1,0,0:0:0:0:
320,192,320906,1,0,0:0:0:0:
192,192,320984,1,0,0:0:0:0:
64,192,320984,1,0,0:0:0:0:
448,192,321142,1,0,0:0:0:0:
320,192,321221,1,0,0:0:0:0:
192,192,321300,1,0,0:0:0:0:
64,192,321300,1,0,0:0:0:0:
448,192,321458,1,0,0:0:0:0:
320,192,321537,1,0,0:0:0:0:
192,192,321616,1,0,0:0:0:0:
64,192,321616,1,0,0:0:0:0:
448,192,321774,1,0,0:0:0:0:
320,192,321853,1,0,0:0:0:0:
192,192,321932,1,0,0:0:0:0:
64,192,321932,1,0,0:0:0:0:
448,192,322090,1,0,0:0:0:0:
320,192,322169,1,0,0:0:0:0:
192,192,322248,1,0,0:0:0:0:
64,192,322248,1,0,0:0:0:0:
64,192,322406,1,0,0:0:0:0:
192,192,322484,1,0,0:0:0:0:
448,192,322563,1,0,0:0:0:0:
320,192,322563,1,0,0:0:0:0:
64,192,322721,1,0,0:0:0:0:
192,192,322800,1,0,0:0:0:0:
448,192,322879,1,0,0:0:0:0:
320,192,322879,1,0,0:0:0:0:
448,192,323037,1,0,0:0:0:0:
320,192,323037,1,0,0:0:0:0:
64,192,323037,1,0,0:0:0:0:
192,192,323116,1,0,0:0:0:0:
448,192,323195,1,0,0:0:0:0:
320,192,323195,1,0,0:0:0:0:
448,192,323353,1,0,0:0:0:0:
192,192,323432,1,0,0:0:0:0:
448,192,323511,1,0,0:0:0:0:
320,192,323511,1,0,0:0:0:0:
192,192,323669,1,0,0:0:0:0:
320,192,323748,1,0,0:0:0:0:
192,192,323827,1,0,0:0:0:0:
448,192,323827,1,0,0:0:0:0:
192,192,323984,1,0,0:0:0:0:
320,192,324063,1,0,0:0:0:0:
448,192,324142,1,0,0:0:0:0:
192,192,324142,1,0,0:0:0:0:
192,192,324300,1,0,0:0:0:0:
320,192,324379,1,0,0:0:0:0:
448,192,324458,1,0,0:0:0:0:
192,192,324458,1,0,0:0:0:0:
192,192,324616,1,0,0:0:0:0:
320,192,324695,1,0,0:0:0:0:
448,192,324774,1,0,0:0:0:0:
192,192,324774,1,0,0:0:0:0:
320,192,324932,1,0,0:0:0:0:
192,192,325011,1,0,0:0:0:0:
320,192,325090,1,0,0:0:0:0:
64,192,325090,1,0,0:0:0:0:
448,192,325248,1,0,0:0:0:0:
320,192,325248,1,0,0:0:0:0:
64,192,325248,1,0,0:0:0:0:
192,192,325327,1,0,0:0:0:0:
320,192,325406,1,0,0:0:0:0:
64,192,325406,1,0,0:0:0:0:
320,192,325563,1,0,0:0:0:0:
192,192,325642,1,0,0:0:0:0:
320,192,325721,1,0,0:0:0:0:
64,192,325721,1,0,0:0:0:0:
320,192,325879,1,0,0:0:0:0:
192,192,325958,1,0,0:0:0:0:
320,192,326037,1,0,0:0:0:0:
64,192,326037,1,0,0:0:0:0:
448,192,326195,1,0,0:0:0:0:
192,192,326195,1,0,0:0:0:0:
320,192,326274,1,0,0:0:0:0:
448,192,326353,1,0,0:0:0:0:
64,192,326353,1,0,0:0:0:0:
192,192,326511,1,0,0:0:0:0:
320,192,326590,1,0,0:0:0:0:
448,192,326669,1,0,0:0:0:0:
64,192,326669,1,0,0:0:0:0:
192,192,326827,1,0,0:0:0:0:
320,192,326906,1,0,0:0:0:0:
448,192,326984,1,0,0:0:0:0:
64,192,326984,1,0,0:0:0:0:
192,192,327142,1,0,0:0:0:0:
320,192,327221,1,0,0:0:0:0:
448,192,327300,1,0,0:0:0:0:
64,192,327300,1,0,0:0:0:0:
192,192,327379,1,0,0:0:0:0:
320,192,327458,1,0,0:0:0:0:
448,192,327458,1,0,0:0:0:0:
192,192,327537,1,0,0:0:0:0:
320,192,327616,1,0,0:0:0:0:
64,192,327616,1,0,0:0:0:0:
448,192,327774,1,0,0:0:0:0:
192,192,327774,1,0,0:0:0:0:
320,192,327853,1,0,0:0:0:0:
192,192,327932,1,0,0:0:0:0:
64,192,327932,1,0,0:0:0:0:
64,192,328090,1,0,0:0:0:0:
192,192,328090,1,0,0:0:0:0:
320,192,328169,1,0,0:0:0:0:
192,192,328248,1,0,0:0:0:0:
64,192,328248,1,0,0:0:0:0:
192,192,328406,1,0,0:0:0:0:
320,192,328484,1,0,0:0:0:0:
448,192,328563,1,0,0:0:0:0:
64,192,328563,1,0,0:0:0:0:
448,192,328721,1,0,0:0:0:0:
192,192,328721,1,0,0:0:0:0:
320,192,328800,1,0,0:0:0:0:
448,192,328879,1,0,0:0:0:0:
64,192,328879,1,0,0:0:0:0:
192,192,329037,1,0,0:0:0:0:
320,192,329116,1,0,0:0:0:0:
448,192,329195,1,0,0:0:0:0:
64,192,329195,1,0,0:0:0:0:
192,192,329353,1,0,0:0:0:0:
320,192,329432,1,0,0:0:0:0:
448,192,329511,1,0,0:0:0:0:
64,192,329511,1,0,0:0:0:0:
64,192,329669,1,0,0:0:0:0:
192,192,329669,1,0,0:0:0:0:
320,192,329748,1,0,0:0:0:0:
192,192,329827,1,0,0:0:0:0:
448,192,329827,1,0,0:0:0:0:
64,192,329827,1,0,0:0:0:0:
320,192,329984,1,0,0:0:0:0:
448,192,329984,1,0,0:0:0:0:
192,192,330063,1,0,0:0:0:0:
320,192,330142,1,0,0:0:0:0:
448,192,330142,1,0,0:0:0:0:
64,192,330142,1,0,0:0:0:0:
448,192,330300,1,0,0:0:0:0:
192,192,330300,1,0,0:0:0:0:
64,192,330300,1,0,0:0:0:0:
320,192,330379,1,0,0:0:0:0:
192,192,330458,1,0,0:0:0:0:
448,192,330458,1,0,0:0:0:0:
64,192,330458,1,0,0:0:0:0:
320,192,330537,1,0,0:0:0:0:
448,192,330616,1,0,0:0:0:0:
64,192,330616,1,0,0:0:0:0:
192,192,330695,1,0,0:0:0:0:
448,192,330774,1,0,0:0:0:0:
320,192,330774,1,0,0:0:0:0:
192,192,330853,1,0,0:0:0:0:
448,192,330932,1,0,0:0:0:0:
64,192,330932,1,0,0:0:0:0:
320,192,331011,1,0,0:0:0:0:
192,192,331090,1,0,0:0:0:0:
448,192,331090,1,0,0:0:0:0:
64,192,331090,1,0,0:0:0:0:
320,192,331248,1,0,0:0:0:0:
64,192,331248,1,0,0:0:0:0:
192,192,331327,1,0,0:0:0:0:
320,192,331406,1,0,0:0:0:0:
448,192,331406,1,0,0:0:0:0:
64,192,331406,1,0,0:0:0:0:
64,192,331563,1,0,0:0:0:0:
192,192,331563,1,0,0:0:0:0:
320,192,331642,1,0,0:0:0:0:
192,192,331721,1,0,0:0:0:0:
448,192,331721,1,0,0:0:0:0:
64,192,331721,1,0,0:0:0:0:
448,192,331879,1,0,0:0:0:0:
320,192,331879,1,0,0:0:0:0:
192,192,331958,1,0,0:0:0:0:
320,192,332037,1,0,0:0:0:0:
448,192,332037,1,0,0:0:0:0:
64,192,332037,1,0,0:0:0:0:
320,192,332195,1,0,0:0:0:0:
64,192,332195,1,0,0:0:0:0:
192,192,332274,1,0,0:0:0:0:
320,192,332353,1,0,0:0:0:0:
448,192,332353,1,0,0:0:0:0:
64,192,332353,1,0,0:0:0:0:
448,192,332511,1,0,0:0:0:0:
192,192,332511,1,0,0:0:0:0:
320,192,332590,1,0,0:0:0:0:
64,192,332669,1,0,0:0:0:0:
192,192,332669,1,0,0:0:0:0:
64,192,332827,1,0,0:0:0:0:
448,192,332827,1,0,0:0:0:0:
320,192,332827,1,0,0:0:0:0:
192,192,332906,1,0,0:0:0:0:
320,192,332906,1,0,0:0:0:0:
192,192,332984,1,0,0:0:0:0:
448,192,332984,1,0,0:0:0:0:
64,192,332984,1,0,0:0:0:0:
320,192,333142,1,0,0:0:0:0:
448,192,333142,1,0,0:0:0:0:
64,192,333142,1,0,0:0:0:0:
192,192,333221,1,0,0:0:0:0:
320,192,333300,1,0,0:0:0:0:
448,192,333300,1,0,0:0:0:0:
64,192,333300,1,0,0:0:0:0:
448,192,333458,1,0,0:0:0:0:
320,192,333458,1,0,0:0:0:0:
192,192,333537,1,0,0:0:0:0:
320,192,333616,1,0,0:0:0:0:
448,192,333616,1,0,0:0:0:0:
64,192,333616,1,0,0:0:0:0:
192,192,333774,1,0,0:0:0:0:
64,192,333774,1,0,0:0:0:0:
320,192,333853,1,0,0:0:0:0:
64,192,333932,1,0,0:0:0:0:
448,192,333932,1,0,0:0:0:0:
192,192,333932,1,0,0:0:0:0:
448,192,334090,1,0,0:0:0:0:
192,192,334090,1,0,0:0:0:0:
320,192,334169,1,0,0:0:0:0:
192,192,334248,1,0,0:0:0:0:
448,192,334248,1,0,0:0:0:0:
64,192,334248,1,0,0:0:0:0:
320,192,334406,1,0,0:0:0:0:
448,192,334406,1,0,0:0:0:0:
192,192,334484,1,0,0:0:0:0:
320,192,334563,1,0,0:0:0:0:
448,192,334563,1,0,0:0:0:0:
64,192,334563,1,0,0:0:0:0:
64,192,334721,1,0,0:0:0:0:
192,192,334721,1,0,0:0:0:0:
320,192,334800,1,0,0:0:0:0:
192,192,334879,1,0,0:0:0:0:
448,192,334879,1,0,0:0:0:0:
64,192,334879,1,0,0:0:0:0:
448,192,335037,1,0,0:0:0:0:
192,192,335037,1,0,0:0:0:0:
320,192,335116,1,0,0:0:0:0:
192,192,335195,1,0,0:0:0:0:
64,192,335195,1,0,0:0:0:0:
448,192,335353,1,0,0:0:0:0:
192,192,335353,1,0,0:0:0:0:
64,192,335353,1,0,0:0:0:0:
192,192,335432,1,0,0:0:0:0:
320,192,335432,1,0,0:0:0:0:
320,192,335511,1,0,0:0:0:0:
448,192,335511,1,0,0:0:0:0:
64,192,335511,1,0,0:0:0:0:
448,192,335669,1,0,0:0:0:0:
192,192,335669,1,0,0:0:0:0:
320,192,335748,1,0,0:0:0:0:
192,192,335827,1,0,0:0:0:0:
448,192,335827,1,0,0:0:0:0:
64,192,335827,1,0,0:0:0:0:
320,192,335984,1,0,0:0:0:0:
448,192,335984,1,0,0:0:0:0:
192,192,336063,1,0,0:0:0:0:
320,192,336142,1,0,0:0:0:0:
448,192,336142,1,0,0:0:0:0:
64,192,336142,1,0,0:0:0:0:
64,192,336300,1,0,0:0:0:0:
192,192,336300,1,0,0:0:0:0:
320,192,336379,1,0,0:0:0:0:
192,192,336458,1,0,0:0:0:0:
448,192,336458,1,0,0:0:0:0:
64,192,336458,1,0,0:0:0:0:
320,192,336616,1,0,0:0:0:0:
448,192,336616,1,0,0:0:0:0:
192,192,336695,1,0,0:0:0:0:
320,192,336774,1,0,0:0:0:0:
448,192,336774,1,0,0:0:0:0:
64,192,336774,1,0,0:0:0:0:
64,192,336932,1,0,0:0:0:0:
192,192,336932,1,0,0:0:0:0:
320,192,337011,1,0,0:0:0:0:
192,192,337090,1,0,0:0:0:0:
448,192,337090,1,0,0:0:0:0:
64,192,337090,1,0,0:0:0:0:
320,192,337248,1,0,0:0:0:0:
64,192,337248,1,0,0:0:0:0:
192,192,337327,1,0,0:0:0:0:
320,192,337406,1,0,0:0:0:0:
448,192,337406,1,0,0:0:0:0:
64,192,337406,1,0,0:0:0:0:
448,192,337563,1,0,0:0:0:0:
192,192,337563,1,0,0:0:0:0:
320,192,337642,1,0,0:0:0:0:
192,192,337721,1,0,0:0:0:0:
64,192,337721,1,0,0:0:0:0:
320,192,337879,1,0,0:0:0:0:
448,192,337879,1,0,0:0:0:0:
64,192,337879,1,0,0:0:0:0:
320,192,337958,1,0,0:0:0:0:
192,192,337958,1,0,0:0:0:0:
192,192,338037,1,0,0:0:0:0:
448,192,338037,1,0,0:0:0:0:
64,192,338037,1,0,0:0:0:0:
192,192,338195,1,0,0:0:0:0:
448,192,338195,1,0,0:0:0:0:
64,192,338195,1,0,0:0:0:0:
320,192,338274,1,0,0:0:0:0:
192,192,338353,1,0,0:0:0:0:
448,192,338353,1,0,0:0:0:0:
64,192,338353,1,0,0:0:0:0:
320,192,338511,1,0,0:0:0:0:
448,192,338511,1,0,0:0:0:0:
192,192,338590,1,0,0:0:0:0:
320,192,338669,1,0,0:0:0:0:
448,192,338669,1,0,0:0:0:0:
64,192,338669,1,0,0:0:0:0:
64,192,338827,1,0,0:0:0:0:
192,192,338827,1,0,0:0:0:0:
320,192,338906,1,0,0:0:0:0:
192,192,338984,1,0,0:0:0:0:
448,192,338984,1,0,0:0:0:0:
64,192,338984,1,0,0:0:0:0:
320,192,339142,1,0,0:0:0:0:
448,192,339142,1,0,0:0:0:0:
192,192,339221,1,0,0:0:0:0:
320,192,339300,1,0,0:0:0:0:
448,192,339300,1,0,0:0:0:0:
64,192,339300,1,0,0:0:0:0:
64,192,339458,1,0,0:0:0:0:
192,192,339458,1,0,0:0:0:0:
320,192,339537,1,0,0:0:0:0:
192,192,339616,1,0,0:0:0:0:
448,192,339616,1,0,0:0:0:0:
64,192,339616,1,0,0:0:0:0:
320,192,339774,1,0,0:0:0:0:
448,192,339774,1,0,0:0:0:0:
192,192,339853,1,0,0:0:0:0:
320,192,339932,1,0,0:0:0:0:
448,192,339932,1,0,0:0:0:0:
64,192,339932,1,0,0:0:0:0:
320,192,340090,1,0,0:0:0:0:
64,192,340090,1,0,0:0:0:0:
192,192,340169,1,0,0:0:0:0:
448,192,340248,1,0,0:0:0:0:
320,192,340248,1,0,0:0:0:0:
64,192,340406,1,0,0:0:0:0:
448,192,340406,1,0,0:0:0:0:
192,192,340406,1,0,0:0:0:0:
320,192,340484,1,0,0:0:0:0:
192,192,340484,1,0,0:0:0:0:
320,192,340563,1,0,0:0:0:0:
448,192,340563,1,0,0:0:0:0:
64,192,340563,1,0,0:0:0:0:
320,192,340721,1,0,0:0:0:0:
64,192,340721,1,0,0:0:0:0:
192,192,340800,1,0,0:0:0:0:
320,192,340879,1,0,0:0:0:0:
448,192,340879,1,0,0:0:0:0:
64,192,340879,1,0,0:0:0:0:
448,192,341037,1,0,0:0:0:0:
192,192,341037,1,0,0:0:0:0:
64,192,341037,1,0,0:0:0:0:
320,192,341116,1,0,0:0:0:0:
192,192,341195,1,0,0:0:0:0:
448,192,341195,1,0,0:0:0:0:
64,192,341195,1,0,0:0:0:0:
192,192,341353,1,0,0:0:0:0:
64,192,341353,1,0,0:0:0:0:
320,192,341432,1,0,0:0:0:0:
192,192,341511,1,0,0:0:0:0:
448,192,341511,1,0,0:0:0:0:
64,192,341511,1,0,0:0:0:0:
448,192,341669,1,0,0:0:0:0:
320,192,341669,1,0,0:0:0:0:
192,192,341748,1,0,0:0:0:0:
320,192,341827,1,0,0:0:0:0:
448,192,341827,1,0,0:0:0:0:
64,192,341827,1,0,0:0:0:0:
192,192,341984,1,0,0:0:0:0:
64,192,341984,1,0,0:0:0:0:
320,192,342063,1,0,0:0:0:0:
192,192,342142,1,0,0:0:0:0:
448,192,342142,1,0,0:0:0:0:
64,192,342142,1,0,0:0:0:0:
448,192,342300,1,0,0:0:0:0:
320,192,342300,1,0,0:0:0:0:
192,192,342379,1,0,0:0:0:0:
320,192,342458,1,0,0:0:0:0:
448,192,342458,1,0,0:0:0:0:
64,192,342458,1,0,0:0:0:0:
64,192,342616,1,0,0:0:0:0:
192,192,342616,1,0,0:0:0:0:
320,192,342695,1,0,0:0:0:0:
448,192,342774,1,0,0:0:0:0:
192,192,342774,1,0,0:0:0:0:
64,192,342932,1,0,0:0:0:0:
192,192,342932,1,0,0:0:0:0:
320,192,343011,1,0,0:0:0:0:
192,192,343090,1,0,0:0:0:0:
448,192,343090,1,0,0:0:0:0:
64,192,343090,1,0,0:0:0:0:
320,192,343248,1,0,0:0:0:0:
448,192,343248,1,0,0:0:0:0:
64,192,343248,1,0,0:0:0:0:
192,192,343327,1,0,0:0:0:0:
320,192,343406,1,0,0:0:0:0:
448,192,343406,1,0,0:0:0:0:
448,192,343563,1,0,0:0:0:0:
320,192,343563,1,0,0:0:0:0:
192,192,343642,1,0,0:0:0:0:
320,192,343721,1,0,0:0:0:0:
448,192,343721,1,0,0:0:0:0:
64,192,343721,1,0,0:0:0:0:
64,192,343879,1,0,0:0:0:0:
192,192,343879,1,0,0:0:0:0:
320,192,343958,1,0,0:0:0:0:
192,192,344037,1,0,0:0:0:0:
448,192,344037,1,0,0:0:0:0:
64,192,344037,1,0,0:0:0:0:
320,192,344195,1,0,0:0:0:0:
448,192,344195,1,0,0:0:0:0:
192,192,344274,1,0,0:0:0:0:
320,192,344353,1,0,0:0:0:0:
448,192,344353,1,0,0:0:0:0:
64,192,344353,1,0,0:0:0:0:
64,192,344511,1,0,0:0:0:0:
320,192,344511,1,0,0:0:0:0:
192,192,344590,1,0,0:0:0:0:
320,192,344669,1,0,0:0:0:0:
448,192,344669,1,0,0:0:0:0:
64,192,344669,1,0,0:0:0:0:
448,192,344827,1,0,0:0:0:0:
192,192,344827,1,0,0:0:0:0:
320,192,344906,1,0,0:0:0:0:
192,192,344984,1,0,0:0:0:0:
448,192,344984,1,0,0:0:0:0:
64,192,344984,1,0,0:0:0:0:
448,192,345142,1,0,0:0:0:0:
192,192,345142,1,0,0:0:0:0:
320,192,345221,1,0,0:0:0:0:
192,192,345300,1,0,0:0:0:0:
64,192,345300,1,0,0:0:0:0:
448,192,345458,1,0,0:0:0:0:
192,192,345458,1,0,0:0:0:0:
64,192,345458,1,0,0:0:0:0:
320,192,345537,1,0,0:0:0:0:
192,192,345616,1,0,0:0:0:0:
448,192,345616,1,0,0:0:0:0:
64,192,345616,1,0,0:0:0:0:
64,192,345774,1,0,0:0:0:0:
192,192,345774,1,0,0:0:0:0:
320,192,345853,1,0,0:0:0:0:
448,192,345932,1,0,0:0:0:0:
64,192,345932,1,0,0:0:0:0:
448,192,346090,1,0,0:0:0:0:
320,192,346090,1,0,0:0:0:0:
192,192,346169,1,0,0:0:0:0:
320,192,346248,1,0,0:0:0:0:
448,192,346248,1,0,0:0:0:0:
64,192,346248,1,0,0:0:0:0:
320,192,346406,1,0,0:0:0:0:
448,192,346406,1,0,0:0:0:0:
192,192,346484,1,0,0:0:0:0:
320,192,346563,1,0,0:0:0:0:
448,192,346563,1,0,0:0:0:0:
64,192,346563,1,0,0:0:0:0:
64,192,346721,1,0,0:0:0:0:
192,192,346721,1,0,0:0:0:0:
320,192,346800,1,0,0:0:0:0:
192,192,346879,1,0,0:0:0:0:
448,192,346879,1,0,0:0:0:0:
64,192,346879,1,0,0:0:0:0:
448,192,347037,1,0,0:0:0:0:
320,192,347037,1,0,0:0:0:0:
192,192,347116,1,0,0:0:0:0:
320,192,347195,1,0,0:0:0:0:
448,192,347195,1,0,0:0:0:0:
64,192,347195,1,0,0:0:0:0:
64,192,347353,1,0,0:0:0:0:
192,192,347353,1,0,0:0:0:0:
320,192,347432,1,0,0:0:0:0:
192,192,347511,1,0,0:0:0:0:
448,192,347511,1,0,0:0:0:0:
64,192,347511,1,0,0:0:0:0:
320,192,347669,1,0,0:0:0:0:
64,192,347669,1,0,0:0:0:0:
192,192,347748,1,0,0:0:0:0:
320,192,347827,1,0,0:0:0:0:
448,192,347827,1,0,0:0:0:0:
192,192,347984,1,0,0:0:0:0:
448,192,347984,1,0,0:0:0:0:
64,192,347984,1,0,0:0:0:0:
320,192,348063,1,0,0:0:0:0:
192,192,348063,1,0,0:0:0:0:
320,192,348142,1,0,0:0:0:0:
448,192,348142,1,0,0:0:0:0:
64,192,348142,1,0,0:0:0:0:
320,192,348300,1,0,0:0:0:0:
448,192,348300,1,0,0:0:0:0:
64,192,348300,1,0,0:0:0:0:
192,192,348379,1,0,0:0:0:0:
320,192,348458,1,0,0:0:0:0:
64,192,348458,1,0,0:0:0:0:
448,192,348616,1,0,0:0:0:0:
320,192,348616,1,0,0:0:0:0:
192,192,348695,1,0,0:0:0:0:
320,192,348774,1,0,0:0:0:0:
448,192,348774,1,0,0:0:0:0:
64,192,348774,1,0,0:0:0:0:
64,192,348932,1,0,0:0:0:0:
192,192,348932,1,0,0:0:0:0:
320,192,349011,1,0,0:0:0:0:
192,192,349090,1,0,0:0:0:0:
448,192,349090,1,0,0:0:0:0:
64,192,349090,1,0,0:0:0:0:
64,192,349248,1,0,0:0:0:0:
192,192,349248,1,0,0:0:0:0:
320,192,349327,1,0,0:0:0:0:
192,192,349406,1,0,0:0:0:0:
448,192,349406,1,0,0:0:0:0:
64,192,349406,1,0,0:0:0:0:
448,192,349563,1,0,0:0:0:0:
320,192,349563,1,0,0:0:0:0:
192,192,349642,1,0,0:0:0:0:
320,192,349721,1,0,0:0:0:0:
448,192,349721,1,0,0:0:0:0:
64,192,349721,1,0,0:0:0:0:
448,192,349879,1,0,0:0:0:0:
192,192,349879,1,0,0:0:0:0:
320,192,349958,1,0,0:0:0:0:
192,192,350037,1,0,0:0:0:0:
448,192,350037,1,0,0:0:0:0:
64,192,350037,1,0,0:0:0:0:
448,192,350195,1,0,0:0:0:0:
192,192,350195,1,0,0:0:0:0:
64,192,350195,1,0,0:0:0:0:
320,192,350274,1,0,0:0:0:0:
192,192,350353,1,0,0:0:0:0:
64,192,350353,1,0,0:0:0:0:
320,192,350511,1,0,0:0:0:0:
448,192,350511,1,0,0:0:0:0:
64,192,350511,1,0,0:0:0:0:
320,192,350590,1,0,0:0:0:0:
192,192,350590,1,0,0:0:0:0:
448,192,350669,1,0,0:0:0:0:
192,192,350669,1,0,0:0:0:0:
64,192,350669,1,0,0:0:0:0:
320,192,350827,1,0,0:0:0:0:
448,192,350827,1,0,0:0:0:0:
64,192,350827,1,0,0:0:0:0:
192,192,350906,1,0,0:0:0:0:
448,192,350984,1,0,0:0:0:0:
320,192,350984,1,0,0:0:0:0:
192,192,351142,1,0,0:0:0:0:
448,192,351142,1,0,0:0:0:0:
64,192,351142,1,0,0:0:0:0:
320,192,351221,1,0,0:0:0:0:
448,192,351300,1,0,0:0:0:0:
192,192,351300,1,0,0:0:0:0:
64,192,351300,1,0,0:0:0:0:
320,192,351458,1,0,0:0:0:0:
64,192,351458,1,0,0:0:0:0:
192,192,351537,1,0,0:0:0:0:
320,192,351616,1,0,0:0:0:0:
448,192,351616,1,0,0:0:0:0:
448,192,351774,1,0,0:0:0:0:
192,192,351774,1,0,0:0:0:0:
320,192,351853,1,0,0:0:0:0:
192,192,351932,1,0,0:0:0:0:
64,192,351932,1,0,0:0:0:0:
320,192,352090,1,0,0:0:0:0:
448,192,352090,1,0,0:0:0:0:
64,192,352090,1,0,0:0:0:0:
192,192,352169,1,0,0:0:0:0:
320,192,352248,1,0,0:0:0:0:
448,192,352248,1,0,0:0:0:0:
64,192,352248,1,0,0:0:0:0:
192,192,352406,1,0,0:0:0:0:
448,192,352406,1,0,0:0:0:0:
64,192,352406,1,0,0:0:0:0:
320,192,352484,1,0,0:0:0:0:
192,192,352563,1,0,0:0:0:0:
448,192,352563,1,0,0:0:0:0:
64,192,352563,1,0,0:0:0:0:
192,192,352721,1,0,0:0:0:0:
64,192,352721,1,0,0:0:0:0:
320,192,352800,1,0,0:0:0:0:
448,192,352800,1,0,0:0:0:0:
320,192,352879,1,0,0:0:0:0:
448,192,352879,1,0,0:0:0:0:
64,192,352879,1,0,0:0:0:0:
64,192,353037,1,0,0:0:0:0:
448,192,353037,1,0,0:0:0:0:
320,192,353116,1,0,0:0:0:0:
192,192,353195,1,0,0:0:0:0:
448,192,353353,1,0,0:0:0:0:
320,192,353353,1,0,0:0:0:0:
64,192,353353,1,0,0:0:0:0:
192,192,353432,1,0,0:0:0:0:
320,192,353511,1,0,0:0:0:0:
448,192,353511,1,0,0:0:0:0:
448,192,353669,1,0,0:0:0:0:
320,192,353748,1,0,0:0:0:0:
192,192,353827,1,0,0:0:0:0:
448,192,353827,1,0,0:0:0:0:
64,192,353827,1,0,0:0:0:0:
192,192,353984,1,0,0:0:0:0:
320,192,354063,1,0,0:0:0:0:
448,192,354142,1,0,0:0:0:0:
192,192,354142,1,0,0:0:0:0:
448,192,354300,1,0,0:0:0:0:
192,192,354300,1,0,0:0:0:0:
320,192,354379,1,0,0:0:0:0:
192,192,354458,1,0,0:0:0:0:
64,192,354458,1,0,0:0:0:0:
64,192,354616,1,0,0:0:0:0:
448,192,354616,1,0,0:0:0:0:
320,192,354616,1,0,0:0:0:0:
192,192,354695,1,0,0:0:0:0:
320,192,354774,1,0,0:0:0:0:
448,192,354774,1,0,0:0:0:0:
64,192,354774,1,0,0:0:0:0:
64,192,354932,1,0,0:0:0:0:
448,192,354932,1,0,0:0:0:0:
192,192,354932,1,0,0:0:0:0:
320,192,355011,1,0,0:0:0:0:
192,192,355090,1,0,0:0:0:0:
448,192,355090,1,0,0:0:0:0:
64,192,355090,1,0,0:0:0:0:
64,192,355248,1,0,0:0:0:0:
448,192,355248,1,0,0:0:0:0:
320,192,355248,1,0,0:0:0:0:
448,192,355327,1,0,0:0:0:0:
192,192,355327,1,0,0:0:0:0:
320,192,355406,1,0,0:0:0:0:
64,192,355406,1,0,0:0:0:0:
448,192,355563,1,0,0:0:0:0:
192,192,355563,1,0,0:0:0:0:
64,192,355563,1,0,0:0:0:0:
320,192,355642,1,0,0:0:0:0:
192,192,355721,1,0,0:0:0:0:
448,192,355879,1,0,0:0:0:0:
64,192,355879,1,0,0:0:0:0:
192,192,355958,1,0,0:0:0:0:
320,192,356037,1,0,0:0:0:0:
448,192,356195,1,0,0:0:0:0:
192,192,356195,1,0,0:0:0:0:
320,192,356274,1,0,0:0:0:0:
192,192,356353,1,0,0:0:0:0:
448,192,356353,1,0,0:0:0:0:
64,192,356353,1,0,0:0:0:0:
320,192,356511,1,0,0:0:0:0:
64,192,356511,1,0,0:0:0:0:
192,192,356590,1,0,0:0:0:0:
320,192,356669,1,0,0:0:0:0:
448,192,356669,1,0,0:0:0:0:
448,192,356827,1,0,0:0:0:0:
64,192,356827,1,0,0:0:0:0:
192,192,356906,1,0,0:0:0:0:
320,192,356984,1,0,0:0:0:0:
64,192,356984,1,0,0:0:0:0:
320,192,357142,1,0,0:0:0:0:
448,192,357142,1,0,0:0:0:0:
64,192,357142,1,0,0:0:0:0:
192,192,357221,1,0,0:0:0:0:
320,192,357300,1,0,0:0:0:0:
448,192,357300,1,0,0:0:0:0:
64,192,357300,1,0,0:0:0:0:
64,192,357458,1,0,0:0:0:0:
448,192,357458,1,0,0:0:0:0:
192,192,357458,1,0,0:0:0:0:
320,192,357537,1,0,0:0:0:0:
192,192,357616,1,0,0:0:0:0:
448,192,357616,1,0,0:0:0:0:
64,192,357616,1,0,0:0:0:0:
64,192,357774,1,0,0:0:0:0:
448,192,357774,1,0,0:0:0:0:
320,192,357853,1,0,0:0:0:0:
192,192,357853,1,0,0:0:0:0:
448,192,357932,1,0,0:0:0:0:
64,192,357932,1,0,0:0:0:0:
448,192,358090,1,0,0:0:0:0:
320,192,358090,1,0,0:0:0:0:
192,192,358169,1,0,0:0:0:0:
64,192,358248,1,0,0:0:0:0:
448,192,358406,1,0,0:0:0:0:
192,192,358406,1,0,0:0:0:0:
64,192,358406,1,0,0:0:0:0:
320,192,358484,1,0,0:0:0:0:
192,192,358563,1,0,0:0:0:0:
448,192,358563,1,0,0:0:0:0:
64,192,358563,1,0,0:0:0:0:
320,192,358721,1,0,0:0:0:0:
192,192,358800,1,0,0:0:0:0:
320,192,358879,1,0,0:0:0:0:
448,192,358879,1,0,0:0:0:0:
64,192,358879,1,0,0:0:0:0:
448,192,359037,1,0,0:0:0:0:
192,192,359037,1,0,0:0:0:0:
320,192,359116,1,0,0:0:0:0:
192,192,359195,1,0,0:0:0:0:
64,192,359195,1,0,0:0:0:0:
64,192,359353,1,0,0:0:0:0:
192,192,359353,1,0,0:0:0:0:
320,192,359432,1,0,0:0:0:0:
448,192,359511,1,0,0:0:0:0:
192,192,359511,1,0,0:0:0:0:
448,192,359669,1,0,0:0:0:0:
192,192,359669,1,0,0:0:0:0:
320,192,359748,1,0,0:0:0:0:
192,192,359827,1,0,0:0:0:0:
448,192,359827,1,0,0:0:0:0:
320,192,359984,1,0,0:0:0:0:
448,192,359984,1,0,0:0:0:0:
192,192,360063,1,0,0:0:0:0:
64,192,360142,1,0,0:0:0:0:
320,192,360142,1,0,0:0:0:0:
448,192,360300,1,0,0:0:0:0:
320,192,360300,1,0,0:0:0:0:
64,192,360300,1,0,0:0:0:0:
192,192,360379,1,0,0:0:0:0:
320,192,360458,1,0,0:0:0:0:
64,192,360458,1,0,0:0:0:0:
448,192,360616,1,0,0:0:0:0:
320,192,360616,1,0,0:0:0:0:
64,192,360616,1,0,0:0:0:0:
192,192,360695,1,0,0:0:0:0:
320,192,360774,1,0,0:0:0:0:
64,192,360774,1,0,0:0:0:0:
320,192,360932,1,0,0:0:0:0:
448,192,360932,1,0,0:0:0:0:
64,192,360932,1,0,0:0:0:0:
192,192,361011,1,0,0:0:0:0:
320,192,361090,1,0,0:0:0:0:
64,192,361090,1,0,0:0:0:0:
320,192,361248,1,0,0:0:0:0:
448,192,361248,1,0,0:0:0:0:
64,192,361248,1,0,0:0:0:0:
192,192,361327,1,0,0:0:0:0:
320,192,361406,1,0,0:0:0:0:
448,192,361406,1,0,0:0:0:0:
64,192,361406,1,0,0:0:0:0:
192,192,361563,1,0,0:0:0:0:
320,192,361642,1,0,0:0:0:0:
448,192,361721,1,0,0:0:0:0:
64,192,361879,1,0,0:0:0:0:
448,192,361879,1,0,0:0:0:0:
192,192,361879,1,0,0:0:0:0:
320,192,361958,1,0,0:0:0:0:
192,192,362037,1,0,0:0:0:0:
320,192,362195,1,0,0:0:0:0:
192,192,362274,1,0,0:0:0:0:
320,192,362353,1,0,0:0:0:0:
448,192,362353,1,0,0:0:0:0:
64,192,362353,1,0,0:0:0:0:
192,192,362511,1,0,0:0:0:0:
320,192,362590,1,0,0:0:0:0:
192,192,362669,1,0,0:0:0:0:
448,192,362669,1,0,0:0:0:0:
64,192,362669,1,0,0:0:0:0:
192,192,362827,1,0,0:0:0:0:
320,192,362906,1,0,0:0:0:0:
448,192,362984,1,0,0:0:0:0:
64,192,363142,1,0,0:0:0:0:
448,192,363142,1,0,0:0:0:0:
192,192,363142,1,0,0:0:0:0:
320,192,363221,1,0,0:0:0:0:
448,192,363300,1,0,0:0:0:0:
320,192,363458,1,0,0:0:0:0:
64,192,363458,1,0,0:0:0:0:
192,192,363537,1,0,0:0:0:0:
448,192,363616,1,0,0:0:0:0:
320,192,363616,1,0,0:0:0:0:
64,192,363774,1,0,0:0:0:0:
192,192,363853,1,0,0:0:0:0:
320,192,363932,1,0,0:0:0:0:
448,192,363932,1,0,0:0:0:0:
64,192,363932,1,0,0:0:0:0:
64,192,364090,1,0,0:0:0:0:
320,192,364090,1,0,0:0:0:0:
448,192,364090,1,0,0:0:0:0:
320,192,364169,1,0,0:0:0:0:
192,192,364169,1,0,0:0:0:0:
448,192,364248,1,0,0:0:0:0:
64,192,364248,1,0,0:0:0:0:
448,192,364406,1,0,0:0:0:0:
64,192,364406,1,0,0:0:0:0:
320,192,364484,1,0,0:0:0:0:
192,192,364563,1,0,0:0:0:0:
64,192,364721,1,0,0:0:0:0:
192,192,364800,1,0,0:0:0:0:
448,192,364879,1,0,0:0:0:0:
320,192,364879,1,0,0:0:0:0:
320,192,365037,1,0,0:0:0:0:
448,192,365037,1,0,0:0:0:0:
192,192,365116,1,0,0:0:0:0:
320,192,365195,1,0,0:0:0:0:
448,192,365195,1,0,0:0:0:0:
64,192,365195,1,0,0:0:0:0:
64,192,365353,1,0,0:0:0:0:
448,192,365353,1,0,0:0:0:0:
192,192,365353,1,0,0:0:0:0:
320,192,365432,1,0,0:0:0:0:
448,192,365432,1,0,0:0:0:0:
192,192,365511,1,0,0:0:0:0:
64,192,365511,1,0,0:0:0:0:
320,192,365669,1,0,0:0:0:0:
448,192,365669,1,0,0:0:0:0:
64,192,365669,1,0,0:0:0:0:
192,192,365748,1,0,0:0:0:0:
320,192,365827,1,0,0:0:0:0:
64,192,365984,1,0,0:0:0:0:
192,192,366063,1,0,0:0:0:0:
448,192,366142,1,0,0:0:0:0:
320,192,366300,1,0,0:0:0:0:
192,192,366379,1,0,0:0:0:0:
320,192,366458,1,0,0:0:0:0:
448,192,366458,1,0,0:0:0:0:
64,192,366458,1,0,0:0:0:0:
448,192,366616,1,0,0:0:0:0:
192,192,366695,1,0,0:0:0:0:
64,192,366774,1,0,0:0:0:0:
64,192,366932,1,0,0:0:0:0:
192,192,366932,1,0,0:0:0:0:
320,192,367011,1,0,0:0:0:0:
448,192,367090,1,0,0:0:0:0:
320,192,367248,1,0,0:0:0:0:
64,192,367248,1,0,0:0:0:0:
192,192,367327,1,0,0:0:0:0:
320,192,367406,1,0,0:0:0:0:
448,192,367406,1,0,0:0:0:0:
64,192,367406,1,0,0:0:0:0:
448,192,367563,1,0,0:0:0:0:
192,192,367563,1,0,0:0:0:0:
320,192,367642,1,0,0:0:0:0:
192,192,367721,1,0,0:0:0:0:
448,192,367721,1,0,0:0:0:0:
64,192,367721,1,0,0:0:0:0:
192,192,367879,1,0,0:0:0:0:
320,192,367958,1,0,0:0:0:0:
448,192,368037,1,0,0:0:0:0:
448,192,368195,1,0,0:0:0:0:
320,192,368195,1,0,0:0:0:0:
192,192,368274,1,0,0:0:0:0:
64,192,368353,1,0,0:0:0:0:
320,192,368511,1,0,0:0:0:0:
448,192,368511,1,0,0:0:0:0:
64,192,368511,1,0,0:0:0:0:
192,192,368590,1,0,0:0:0:0:
320,192,368669,1,0,0:0:0:0:
448,192,368669,1,0,0:0:0:0:
192,192,368748,1,0,0:0:0:0:
64,192,368827,1,0,0:0:0:0:
192,192,368906,1,0,0:0:0:0:
320,192,368984,1,0,0:0:0:0:
448,192,368984,1,0,0:0:0:0:
64,192,368984,1,0,0:0:0:0:
192,192,369142,1,0,0:0:0:0:
320,192,369221,1,0,0:0:0:0:
448,192,369300,1,0,0:0:0:0:
448,192,369458,1,0,0:0:0:0:
320,192,369458,1,0,0:0:0:0:
192,192,369537,1,0,0:0:0:0:
320,192,369616,1,0,0:0:0:0:
64,192,369616,1,0,0:0:0:0:
192,192,369774,1,0,0:0:0:0:
64,192,369774,1,0,0:0:0:0:
320,192,369853,1,0,0:0:0:0:
448,192,369932,1,0,0:0:0:0:
64,192,369932,1,0,0:0:0:0:
320,192,370011,1,0,0:0:0:0:
192,192,370090,1,0,0:0:0:0:
320,192,370169,1,0,0:0:0:0:
192,192,370248,1,0,0:0:0:0:
448,192,370248,1,0,0:0:0:0:
64,192,370248,1,0,0:0:0:0:
64,192,370406,1,0,0:0:0:0:
192,192,370484,1,0,0:0:0:0:
320,192,370484,1,0,0:0:0:0:
448,192,370484,1,0,0:0:0:0:
320,192,370563,1,0,0:0:0:0:
448,192,370563,1,0,0:0:0:0:
64,192,370563,1,0,0:0:0:0:
320,192,370721,1,0,0:0:0:0:
448,192,370721,1,0,0:0:0:0:
64,192,370721,1,0,0:0:0:0:
192,192,370800,1,0,0:0:0:0:
320,192,370879,1,0,0:0:0:0:
448,192,370879,1,0,0:0:0:0:
64,192,371037,1,0,0:0:0:0:
192,192,371116,1,0,0:0:0:0:
320,192,371195,1,0,0:0:0:0:
448,192,371195,1,0,0:0:0:0:
448,192,371353,1,0,0:0:0:0:
320,192,371432,1,0,0:0:0:0:
192,192,371511,1,0,0:0:0:0:
64,192,371511,1,0,0:0:0:0:
64,192,371669,1,0,0:0:0:0:
448,192,371748,1,0,0:0:0:0:
192,192,371748,1,0,0:0:0:0:
448,192,371827,1,0,0:0:0:0:
320,192,371827,1,0,0:0:0:0:
64,192,371827,1,0,0:0:0:0:
320,192,371984,1,0,0:0:0:0:
448,192,371984,1,0,0:0:0:0:
192,192,372063,1,0,0:0:0:0:
64,192,372142,1,0,0:0:0:0:
320,192,372142,1,0,0:0:0:0:
64,192,372300,1,0,0:0:0:0:
192,192,372379,1,0,0:0:0:0:
320,192,372458,1,0,0:0:0:0:
448,192,372458,1,0,0:0:0:0:
192,192,372616,1,0,0:0:0:0:
320,192,372695,1,0,0:0:0:0:
448,192,372774,1,0,0:0:0:0:
64,192,372774,1,0,0:0:0:0:
192,192,372932,1,0,0:0:0:0:
448,192,372984,1,0,0:0:0:0:
320,192,373011,1,0,0:0:0:0:
64,192,373090,1,0,0:0:0:0:
320,192,373195,1,0,0:0:0:0:
192,192,373248,1,0,0:0:0:0:
448,192,373327,1,0,0:0:0:0:
320,192,373406,1,0,0:0:0:0:
64,192,373406,1,0,0:0:0:0:
192,192,373563,1,0,0:0:0:0:
320,192,373642,1,0,0:0:0:0:
448,192,373721,1,0,0:0:0:0:
448,192,373879,1,0,0:0:0:0:
192,192,373879,1,0,0:0:0:0:
64,192,373879,1,0,0:0:0:0:
320,192,373958,1,0,0:0:0:0:
448,192,374037,1,0,0:0:0:0:
192,192,374037,1,0,0:0:0:0:
64,192,374037,1,0,0:0:0:0:
192,192,374195,1,0,0:0:0:0:
448,192,374195,1,0,0:0:0:0:
320,192,374274,1,0,0:0:0:0:
192,192,374353,1,0,0:0:0:0:
64,192,374353,1,0,0:0:0:0:
320,192,374511,1,0,0:0:0:0:
64,192,374511,1,0,0:0:0:0:
192,192,374590,1,0,0:0:0:0:
64,192,374669,1,0,0:0:0:0:
320,192,374669,1,0,0:0:0:0:
448,192,374669,1,0,0:0:0:0:
448,192,374827,1,0,0:0:0:0:
192,192,374827,1,0,0:0:0:0:
320,192,374984,1,0,0:0:0:0:
192,192,374984,1,0,0:0:0:0:
64,192,374984,1,0,0:0:0:0:
320,192,375142,1,0,0:0:0:0:
192,192,375142,1,0,0:0:0:0:
64,192,375142,1,0,0:0:0:0:
320,192,375300,1,0,0:0:0:0:
448,192,375300,1,0,0:0:0:0:
64,192,375300,1,0,0:0:0:0:
448,192,375458,1,0,0:0:0:0:
64,192,375458,1,0,0:0:0:0:
192,192,375537,1,0,0:0:0:0:
320,192,375537,1,0,0:0:0:0:
448,192,375616,1,0,0:0:0:0:
64,192,375616,1,0,0:0:0:0:
320,192,375774,1,0,0:0:0:0:
448,192,375774,1,0,0:0:0:0:
64,192,375774,1,0,0:0:0:0:
192,192,375853,1,0,0:0:0:0:
320,192,375932,1,0,0:0:0:0:
448,192,375932,1,0,0:0:0:0:
448,192,376090,1,0,0:0:0:0:
64,192,376090,1,0,0:0:0:0:
192,192,376090,1,0,0:0:0:0:
320,192,376169,1,0,0:0:0:0:
192,192,376248,1,0,0:0:0:0:
64,192,376248,1,0,0:0:0:0:
64,192,376406,1,0,0:0:0:0:
448,192,376406,1,0,0:0:0:0:
192,192,376406,1,0,0:0:0:0:
320,192,376484,1,0,0:0:0:0:
192,192,376563,1,0,0:0:0:0:
448,192,376563,1,0,0:0:0:0:
64,192,376563,1,0,0:0:0:0:
448,192,376721,1,0,0:0:0:0:
64,192,376721,1,0,0:0:0:0:
320,192,376800,1,0,0:0:0:0:
192,192,376800,1,0,0:0:0:0:
448,192,376879,1,0,0:0:0:0:
64,192,376879,1,0,0:0:0:0:
320,192,376958,1,0,0:0:0:0:
448,192,377037,1,0,0:0:0:0:
64,192,377037,1,0,0:0:0:0:
192,192,377116,1,0,0:0:0:0:
320,192,377195,1,0,0:0:0:0:
448,192,377195,1,0,0:0:0:0:
64,192,377195,1,0,0:0:0:0:
448,192,377353,1,0,0:0:0:0:
192,192,377353,1,0,0:0:0:0:
64,192,377353,1,0,0:0:0:0:
320,192,377432,1,0,0:0:0:0:
192,192,377511,1,0,0:0:0:0:
64,192,377511,1,0,0:0:0:0:
64,192,377669,1,0,0:0:0:0:
192,192,377669,1,0,0:0:0:0:
320,192,377748,1,0,0:0:0:0:
64,192,377827,1,0,0:0:0:0:
192,192,377827,1,0,0:0:0:0:
448,192,377827,1,0,0:0:0:0:
448,192,377984,1,0,0:0:0:0:
320,192,377984,1,0,0:0:0:0:
192,192,378063,1,0,0:0:0:0:
64,192,378063,1,0,0:0:0:0:
320,192,378142,1,0,0:0:0:0:
448,192,378142,1,0,0:0:0:0:
64,192,378300,1,0,0:0:0:0:
448,192,378300,1,0,0:0:0:0:
320,192,378300,1,0,0:0:0:0:
192,192,378379,1,0,0:0:0:0:
320,192,378458,1,0,0:0:0:0:
448,192,378458,1,0,0:0:0:0:
64,192,378458,1,0,0:0:0:0:
64,192,378616,1,0,0:0:0:0:
192,192,378616,1,0,0:0:0:0:
320,192,378695,1,0,0:0:0:0:
448,192,378695,1,0,0:0:0:0:
192,192,378774,1,0,0:0:0:0:
64,192,378774,1,0,0:0:0:0:
320,192,378932,1,0,0:0:0:0:
448,192,378932,1,0,0:0:0:0:
64,192,378932,1,0,0:0:0:0:
192,192,379011,1,0,0:0:0:0:
320,192,379090,1,0,0:0:0:0:
448,192,379090,1,0,0:0:0:0:
64,192,379090,1,0,0:0:0:0:
64,192,379248,1,0,0:0:0:0:
448,192,379248,1,0,0:0:0:0:
320,192,379327,1,0,0:0:0:0:
192,192,379327,1,0,0:0:0:0:
448,192,379406,1,0,0:0:0:0:
64,192,379406,1,0,0:0:0:0:
448,192,379563,1,0,0:0:0:0:
64,192,379563,1,0,0:0:0:0:
192,192,379563,1,0,0:0:0:0:
320,192,379642,1,0,0:0:0:0:
192,192,379721,1,0,0:0:0:0:
448,192,379721,1,0,0:0:0:0:
64,192,379721,1,0,0:0:0:0:
448,192,379879,1,0,0:0:0:0:
320,192,379879,1,0,0:0:0:0:
64,192,379879,1,0,0:0:0:0:
192,192,379958,1,0,0:0:0:0:
448,192,379958,1,0,0:0:0:0:
320,192,380037,1,0,0:0:0:0:
64,192,380037,1,0,0:0:0:0:
448,192,380195,1,0,0:0:0:0:
192,192,380195,1,0,0:0:0:0:
320,192,380274,1,0,0:0:0:0:
448,192,380353,1,0,0:0:0:0:
192,192,380353,1,0,0:0:0:0:
64,192,380353,1,0,0:0:0:0:
320,192,380511,1,0,0:0:0:0:
448,192,380511,1,0,0:0:0:0:
64,192,380511,1,0,0:0:0:0:
192,192,380590,1,0,0:0:0:0:
320,192,380669,1,0,0:0:0:0:
448,192,380669,1,0,0:0:0:0:
64,192,380669,1,0,0:0:0:0:
448,192,380827,1,0,0:0:0:0:
192,192,380827,1,0,0:0:0:0:
64,192,380827,1,0,0:0:0:0:
320,192,380984,1,0,0:0:0:0:
192,192,380984,1,0,0:0:0:0:
64,192,380984,1,0,0:0:0:0:
320,192,381142,1,0,0:0:0:0:
192,192,381142,1,0,0:0:0:0:
448,192,381142,1,0,0:0:0:0:
448,192,381300,1,0,0:0:0:0:
192,192,381300,1,0,0:0:0:0:
64,192,381300,1,0,0:0:0:0:
320,192,381379,1,0,0:0:0:0:
448,192,381458,1,0,0:0:0:0:
192,192,381458,1,0,0:0:0:0:
64,192,381458,1,0,0:0:0:0:
320,192,381616,1,0,0:0:0:0:
448,192,381616,1,0,0:0:0:0:
64,192,381616,1,0,0:0:0:0:
192,192,381616,1,0,0:0:0:0:
320,192,381774,1,0,0:0:0:0:
448,192,381774,1,0,0:0:0:0:
64,192,381774,1,0,0:0:0:0:
192,192,381853,1,0,0:0:0:0:
320,192,381932,1,0,0:0:0:0:
448,192,381932,1,0,0:0:0:0:
64,192,381932,1,0,0:0:0:0:
448,192,382090,1,0,0:0:0:0:
192,192,382090,1,0,0:0:0:0:
64,192,382090,1,0,0:0:0:0:
320,192,382248,1,0,0:0:0:0:
448,192,382248,1,0,0:0:0:0:
64,192,382248,1,0,0:0:0:0:
448,192,382406,1,0,0:0:0:0:
192,192,382406,1,0,0:0:0:0:
64,192,382406,1,0,0:0:0:0:
448,192,382563,1,0,0:0:0:0:
320,192,382563,1,0,0:0:0:0:
192,192,382563,1,0,0:0:0:0:
448,192,382721,1,0,0:0:0:0:
192,192,382721,1,0,0:0:0:0:
64,192,382721,1,0,0:0:0:0:
320,192,382879,1,0,0:0:0:0:
448,192,382879,1,0,0:0:0:0:
64,192,382879,1,0,0:0:0:0:
192,192,382879,1,0,0:0:0:0:
320,192,383037,1,0,0:0:0:0:
448,192,383195,1,0,0:0:0:0:
64,192,383195,1,0,0:0:0:0:
320,192,383353,1,0,0:0:0:0:
448,192,383353,1,0,0:0:0:0:
192,192,383432,1,0,0:0:0:0:
320,192,383511,1,0,0:0:0:0:
448,192,383511,1,0,0:0:0:0:
64,192,383511,1,0,0:0:0:0:
320,192,383669,1,0,0:0:0:0:
448,192,383827,1,0,0:0:0:0:
192,192,383827,1,0,0:0:0:0:
64,192,383984,1,0,0:0:0:0:
320,192,383984,1,0,0:0:0:0:
192,192,384063,1,0,0:0:0:0:
320,192,384142,1,0,0:0:0:0:
448,192,384142,1,0,0:0:0:0:
64,192,384142,1,0,0:0:0:0:
320,192,384300,1,0,0:0:0:0:
192,192,384458,1,0,0:0:0:0:
448,192,384458,1,0,0:0:0:0:
64,192,384458,1,0,0:0:0:0:
320,192,384616,1,0,0:0:0:0:
192,192,384774,1,0,0:0:0:0:
448,192,384774,1,0,0:0:0:0:
64,192,384774,1,0,0:0:0:0:
448,192,384932,1,0,0:0:0:0:
192,192,384932,1,0,0:0:0:0:
320,192,385090,1,0,0:0:0:0:
64,192,385090,1,0,0:0:0:0:
192,192,385248,1,0,0:0:0:0:
64,192,385248,1,0,0:0:0:0:
320,192,385327,1,0,0:0:0:0:
192,192,385406,1,0,0:0:0:0:
448,192,385406,1,0,0:0:0:0:
64,192,385406,1,0,0:0:0:0:
192,192,385563,1,0,0:0:0:0:
320,192,385721,1,0,0:0:0:0:
448,192,385721,1,0,0:0:0:0:
64,192,385721,1,0,0:0:0:0:
320,192,385879,1,0,0:0:0:0:
192,192,386037,1,0,0:0:0:0:
448,192,386037,1,0,0:0:0:0:
64,192,386037,1,0,0:0:0:0:
320,192,386195,1,0,0:0:0:0:
192,192,386274,1,0,0:0:0:0:
320,192,386353,1,0,0:0:0:0:
448,192,386353,1,0,0:0:0:0:
64,192,386353,1,0,0:0:0:0:
192,192,386511,1,0,0:0:0:0:
64,192,386511,1,0,0:0:0:0:
320,192,386590,1,0,0:0:0:0:
192,192,386669,1,0,0:0:0:0:
448,192,386669,1,0,0:0:0:0:
64,192,386669,1,0,0:0:0:0:
320,192,386827,1,0,0:0:0:0:
192,192,386984,1,0,0:0:0:0:
448,192,386984,1,0,0:0:0:0:
64,192,386984,1,0,0:0:0:0:
320,192,387142,1,0,0:0:0:0:
448,192,387142,1,0,0:0:0:0:
192,192,387300,1,0,0:0:0:0:
64,192,387300,1,0,0:0:0:0:
320,192,387458,1,0,0:0:0:0:
192,192,387616,1,0,0:0:0:0:
448,192,387616,1,0,0:0:0:0:
64,192,387616,1,0,0:0:0:0:
320,192,387774,1,0,0:0:0:0:
320,192,387932,1,0,0:0:0:0:
448,192,387932,1,0,0:0:0:0:
192,192,387932,1,0,0:0:0:0:
64,192,388090,1,0,0:0:0:0:
320,192,388248,1,0,0:0:0:0:
192,192,388248,1,0,0:0:0:0:
64,192,388406,1,0,0:0:0:0:
448,192,388406,1,0,0:0:0:0:
320,192,388484,1,0,0:0:0:0:
192,192,388563,1,0,0:0:0:0:
448,192,388563,1,0,0:0:0:0:
64,192,388563,1,0,0:0:0:0:
448,192,388721,1,0,0:0:0:0:
192,192,388879,1,0,0:0:0:0:
448,192,388879,1,0,0:0:0:0:
320,192,389037,1,0,0:0:0:0:
64,192,389037,1,0,0:0:0:0:
192,192,389116,1,0,0:0:0:0:
320,192,389195,1,0,0:0:0:0:
448,192,389195,1,0,0:0:0:0:
64,192,389195,1,0,0:0:0:0:
192,192,389353,1,0,0:0:0:0:
320,192,389511,1,0,0:0:0:0:
448,192,389511,1,0,0:0:0:0:
64,192,389511,1,0,0:0:0:0:
192,192,389669,1,0,0:0:0:0:
320,192,389827,1,0,0:0:0:0:
448,192,389827,1,0,0:0:0:0:
192,192,389827,1,0,0:0:0:0:
448,192,389984,1,0,0:0:0:0:
64,192,389984,1,0,0:0:0:0:
320,192,390142,1,0,0:0:0:0:
192,192,390142,1,0,0:0:0:0:
64,192,390300,1,0,0:0:0:0:
448,192,390300,1,0,0:0:0:0:
192,192,390379,1,0,0:0:0:0:
320,192,390458,1,0,0:0:0:0:
448,192,390458,1,0,0:0:0:0:
64,192,390458,1,0,0:0:0:0:
448,192,390616,1,0,0:0:0:0:
320,192,390774,1,0,0:0:0:0:
192,192,390774,1,0,0:0:0:0:
64,192,390774,1,0,0:0:0:0:
64,192,390932,1,0,0:0:0:0:
320,192,391090,1,0,0:0:0:0:
448,192,391090,1,0,0:0:0:0:
192,192,391090,1,0,0:0:0:0:
320,192,391248,1,0,0:0:0:0:
192,192,391327,1,0,0:0:0:0:
320,192,391406,1,0,0:0:0:0:
448,192,391406,1,0,0:0:0:0:
64,192,391406,1,0,0:0:0:0:
192,192,391563,1,0,0:0:0:0:
448,192,391563,1,0,0:0:0:0:
320,192,391642,1,0,0:0:0:0:
192,192,391721,1,0,0:0:0:0:
448,192,391721,1,0,0:0:0:0:
64,192,391721,1,0,0:0:0:0:
192,192,391879,1,0,0:0:0:0:
320,192,392037,1,0,0:0:0:0:
448,192,392037,1,0,0:0:0:0:
64,192,392037,1,0,0:0:0:0:
320,192,392195,1,0,0:0:0:0:
192,192,392353,1,0,0:0:0:0:
448,192,392353,1,0,0:0:0:0:
64,192,392353,1,0,0:0:0:0:
448,192,392511,1,0,0:0:0:0:
320,192,392669,1,0,0:0:0:0:
192,192,392669,1,0,0:0:0:0:
64,192,392669,1,0,0:0:0:0:
64,192,392827,1,0,0:0:0:0:
448,192,392827,1,0,0:0:0:0:
320,192,392984,1,0,0:0:0:0:
448,192,392984,1,0,0:0:0:0:
192,192,392984,1,0,0:0:0:0:
192,192,393142,1,0,0:0:0:0:
448,192,393300,1,0,0:0:0:0:
64,192,393300,1,0,0:0:0:0:
192,192,393458,1,0,0:0:0:0:
320,192,393458,1,0,0:0:0:0:
320,192,393616,1,0,0:0:0:0:
448,192,393616,1,0,0:0:0:0:
64,192,393616,1,0,0:0:0:0:
192,192,393774,1,0,0:0:0:0:
320,192,393932,1,0,0:0:0:0:
448,192,393932,1,0,0:0:0:0:
192,192,394090,1,0,0:0:0:0:
320,192,394248,1,0,0:0:0:0:
448,192,394248,1,0,0:0:0:0:
64,192,394248,1,0,0:0:0:0:
192,192,394406,1,0,0:0:0:0:
320,192,394563,1,0,0:0:0:0:
448,192,394563,1,0,0:0:0:0:
64,192,394721,1,0,0:0:0:0:
192,192,394721,1,0,0:0:0:0:
320,192,394879,1,0,0:0:0:0:
448,192,394879,1,0,0:0:0:0:
192,192,394879,1,0,0:0:0:0:
320,192,395037,1,0,0:0:0:0:
64,192,395037,1,0,0:0:0:0:
448,192,395195,1,0,0:0:0:0:
192,192,395195,1,0,0:0:0:0:
320,192,395353,1,0,0:0:0:0:
192,192,395511,1,0,0:0:0:0:
448,192,395511,1,0,0:0:0:0:
64,192,395511,1,0,0:0:0:0:
320,192,395669,1,0,0:0:0:0:
192,192,395827,1,0,0:0:0:0:
64,192,395827,1,0,0:0:0:0:
320,192,395984,1,0,0:0:0:0:
448,192,395984,1,0,0:0:0:0:
192,192,396142,1,0,0:0:0:0:
448,192,396142,1,0,0:0:0:0:
64,192,396142,1,0,0:0:0:0:
320,192,396300,1,0,0:0:0:0:
448,192,396300,1,0,0:0:0:0:
192,192,396458,1,0,0:0:0:0:
320,192,396458,1,0,0:0:0:0:
64,192,396458,1,0,0:0:0:0:
320,192,396616,1,0,0:0:0:0:
448,192,396616,1,0,0:0:0:0:
192,192,396774,1,0,0:0:0:0:
448,192,396774,1,0,0:0:0:0:
64,192,396774,1,0,0:0:0:0:
192,192,396932,1,0,0:0:0:0:
320,192,397090,1,0,0:0:0:0:
448,192,397090,1,0,0:0:0:0:
64,192,397090,1,0,0:0:0:0:
320,192,397248,1,0,0:0:0:0:
192,192,397248,1,0,0:0:0:0:
320,192,397406,1,0,0:0:0:0:
448,192,397406,1,0,0:0:0:0:
64,192,397406,1,0,0:0:0:0:
192,192,397563,1,0,0:0:0:0:
448,192,397563,1,0,0:0:0:0:
320,192,397721,1,0,0:0:0:0:
192,192,397721,1,0,0:0:0:0:
64,192,397721,1,0,0:0:0:0:
448,192,397879,1,0,0:0:0:0:
320,192,397879,1,0,0:0:0:0:
320,192,398037,1,0,0:0:0:0:
192,192,398037,1,0,0:0:0:0:
64,192,398037,1,0,0:0:0:0:
448,192,398037,1,0,0:0:0:0:
192,192,398195,1,0,0:0:0:0:
320,192,398353,1,0,0:0:0:0:
64,192,398353,1,0,0:0:0:0:
192,192,398511,1,0,0:0:0:0:
448,192,398511,1,0,0:0:0:0:
320,192,398590,1,0,0:0:0:0:
192,192,398669,1,0,0:0:0:0:
448,192,398669,1,0,0:0:0:0:
64,192,398669,1,0,0:0:0:0:
448,192,398827,1,0,0:0:0:0:
192,192,398984,1,0,0:0:0:0:
64,192,398984,1,0,0:0:0:0:
320,192,399142,1,0,0:0:0:0:
448,192,399142,1,0,0:0:0:0:
192,192,399221,1,0,0:0:0:0:
320,192,399300,1,0,0:0:0:0:
448,192,399300,1,0,0:0:0:0:
64,192,399300,1,0,0:0:0:0:
192,192,399463,1,0,0:0:0:0:
448,192,399627,1,0,0:0:0:0:
64,192,399627,1,0,0:0:0:0:
320,192,399627,1,0,0:0:0:0:
192,192,399791,1,0,0:0:0:0:
448,192,399955,1,0,0:0:0:0:
192,192,399955,1,0,0:0:0:0:
320,192,399955,1,0,0:0:0:0:
64,192,400119,1,0,0:0:0:0:
448,192,400119,1,0,0:0:0:0:
320,192,400283,1,0,0:0:0:0:
64,192,400283,1,0,0:0:0:0:
192,192,400283,1,0,0:0:0:0:
320,192,400447,1,0,0:0:0:0:
64,192,400447,1,0,0:0:0:0:
192,192,400529,1,0,0:0:0:0:
320,192,400611,1,0,0:0:0:0:
448,192,400611,1,0,0:0:0:0:
64,192,400611,1,0,0:0:0:0:
192,192,400775,1,0,0:0:0:0:
320,192,400939,1,0,0:0:0:0:
448,192,400939,1,0,0:0:0:0:
64,192,400939,1,0,0:0:0:0:
448,192,401103,1,0,0:0:0:0:
320,192,401267,1,0,0:0:0:0:
192,192,401267,1,0,0:0:0:0:
64,192,401267,1,0,0:0:0:0:
320,192,401431,1,0,0:0:0:0:
192,192,401513,1,0,0:0:0:0:
320,192,401595,1,0,0:0:0:0:
448,192,401595,1,0,0:0:0:0:
64,192,401595,1,0,0:0:0:0:
64,192,401759,1,0,0:0:0:0:
192,192,401759,1,0,0:0:0:0:
320,192,401840,1,0,0:0:0:0:
192,192,401922,1,0,0:0:0:0:
448,192,401922,1,0,0:0:0:0:
64,192,401922,1,0,0:0:0:0:
192,192,402093,1,0,0:0:0:0:
320,192,402264,1,0,0:0:0:0:
448,192,402264,1,0,0:0:0:0:
64,192,402264,1,0,0:0:0:0:
192,192,402436,1,0,0:0:0:0:
320,192,402607,1,0,0:0:0:0:
448,192,402607,1,0,0:0:0:0:
448,192,402779,1,0,0:0:0:0:
192,192,402779,1,0,0:0:0:0:
320,192,402950,1,0,0:0:0:0:
448,192,402950,1,0,0:0:0:0:
64,192,402950,1,0,0:0:0:0:
64,192,403122,1,0,0:0:0:0:
320,192,403293,1,0,0:0:0:0:
448,192,403293,1,0,0:0:0:0:
192,192,403293,1,0,0:0:0:0:
192,192,403466,1,0,0:0:0:0:
320,192,403639,1,0,0:0:0:0:
448,192,403639,1,0,0:0:0:0:
192,192,403813,1,0,0:0:0:0:
64,192,403813,1,0,0:0:0:0:
320,192,403899,1,0,0:0:0:0:
192,192,403986,1,0,0:0:0:0:
448,192,403986,1,0,0:0:0:0:
64,192,403986,1,0,0:0:0:0:
192,192,404160,1,0,0:0:0:0:
448,192,404333,1,0,0:0:0:0:
320,192,404333,1,0,0:0:0:0:
448,192,404506,1,0,0:0:0:0:
320,192,404506,1,0,0:0:0:0:
192,192,404593,1,0,0:0:0:0:
320,192,404680,1,0,0:0:0:0:
448,192,404680,1,0,0:0:0:0:
64,192,404680,1,0,0:0:0:0:
320,192,404853,1,0,0:0:0:0:
192,192,405027,1,0,0:0:0:0:
448,192,405027,1,0,0:0:0:0:
64,192,405027,1,0,0:0:0:0:
320,192,405200,1,0,0:0:0:0:
192,192,405373,1,0,0:0:0:0:
448,192,405373,1,0,0:0:0:0:
64,192,405373,1,0,0:0:0:0:
320,192,405547,1,0,0:0:0:0:
192,192,405547,1,0,0:0:0:0:
448,192,405720,1,0,0:0:0:0:
64,192,405720,1,0,0:0:0:0:
192,192,405894,1,0,0:0:0:0:
448,192,405894,1,0,0:0:0:0:
320,192,405980,1,0,0:0:0:0:
192,192,406075,1,0,0:0:0:0:
448,192,406075,1,0,0:0:0:0:
64,192,406075,1,0,0:0:0:0:
320,192,406165,1,0,0:0:0:0:
448,192,406256,1,0,0:0:0:0:
64,192,406256,1,0,0:0:0:0:
192,192,406347,1,0,0:0:0:0:
320,192,406438,1,0,0:0:0:0:
448,192,406438,1,0,0:0:0:0:
64,192,406438,1,0,0:0:0:0:
192,192,406529,1,0,0:0:0:0:
448,192,406620,1,0,0:0:0:0:
64,192,406620,1,0,0:0:0:0:
320,192,406711,1,0,0:0:0:0:
192,192,406802,1,0,0:0:0:0:
448,192,406802,1,0,0:0:0:0:
64,192,406802,1,0,0:0:0:0:
320,192,406893,1,0,0:0:0:0:
448,192,406984,1,0,0:0:0:0:
64,192,406984,1,0,0:0:0:0:
192,192,407075,1,0,0:0:0:0:
320,192,407075,1,0,0:0:0:0:
320,192,407165,1,0,0:0:0:0:
448,192,407165,1,0,0:0:0:0:
64,192,407165,1,0,0:0:0:0:
192,192,407256,1,0,0:0:0:0:
320,192,407347,1,0,0:0:0:0:
64,192,407347,1,0,0:0:0:0:
448,192,407347,1,0,0:0:0:0:
192,192,407438,1,0,0:0:0:0:
320,192,407438,1,0,0:0:0:0:
192,192,407529,1,0,0:0:0:0:
448,192,407529,1,0,0:0:0:0:
64,192,407529,1,0,0:0:0:0:
320,192,407717,1,0,0:0:0:0:
192,192,407809,1,0,0:0:0:0:
320,192,407901,1,0,0:0:0:0:
64,192,407901,1,0,0:0:0:0:
448,192,407901,1,0,0:0:0:0:
320,192,408085,1,0,0:0:0:0:
192,192,408085,1,0,0:0:0:0:
320,192,408269,1,0,0:0:0:0:
448,192,408269,1,0,0:0:0:0:
64,192,408269,1,0,0:0:0:0:
192,192,408361,1,0,0:0:0:0:
320,192,408453,1,0,0:0:0:0:
448,192,408453,1,0,0:0:0:0:
64,192,408453,1,0,0:0:0:0:
192,192,408637,1,0,0:0:0:0:
448,192,408637,1,0,0:0:0:0:
64,192,408637,1,0,0:0:0:0:
320,192,408729,1,0,0:0:0:0:
192,192,408821,1,0,0:0:0:0:
448,192,408821,1,0,0:0:0:0:
64,192,408821,1,0,0:0:0:0:
320,192,408913,1,0,0:0:0:0:
192,192,408993,1,0,0:0:0:0:
448,192,408993,1,0,0:0:0:0:
64,192,408993,1,0,0:0:0:0:
