osu file format v14

[General]
AudioFilename: audio.mp3
AudioLeadIn: 0
PreviewTime: 227479
Countdown: 0
SampleSet: Soft
StackLeniency: 0.3
Mode: 0
LetterboxInBreaks: 0
WidescreenStoryboard: 1

[Editor]
DistanceSpacing: 0.8
BeatDivisor: 4
GridSize: 4
TimelineZoom: 1

[Metadata]
Title:Destiny Gear (radio edit)
TitleUnicode:Destiny Gear (radio edit)
Artist:hapi
ArtistUnicode:hapi
Creator:Kenterz
Version:Marathon
Source:Pokémon Mystery Dungeon: Explorers of Time, Darkness & Sky
Tags:pokemon i don't want to say goodbye nintendo ds spike chunsoft
BeatmapID:1225181
BeatmapSetID:578675

[Difficulty]
HPDrainRate:7
CircleSize:4.1
OverallDifficulty:8
ApproachRate:9.5
SliderMultiplier:2.4
SliderTickRate:1

[Events]
//Background and Video events
Video,0,"sacrifice.avi"
0,0,"sacrifice.jpg",0,0
//Break Periods
//Storyboard Layer 0 (Background)
//Storyboard Layer 1 (Fail)
//Storyboard Layer 2 (Pass)
//Storyboard Layer 3 (Foreground)
//Storyboard Sound Samples

[TimingPoints]
34652,413.793103448276,4,2,1,100,1,0
35479,-200,4,2,5,40,0,0
35789,-200,4,2,5,0,0,0
35893,-200,4,2,5,40,0,0
36203,-200,4,2,5,0,0,0
36307,-200,4,2,5,40,0,0
36333,-200,4,2,5,30,0,0
37445,-200,4,2,5,0,0,0
37548,-200,4,2,5,40,0,0
37858,-200,4,2,5,0,0,0
37962,-200,4,2,5,40,0,0
38376,-200,4,2,5,0,0,0
38583,-200,4,2,5,40,0,0
39643,-200,4,2,5,30,0,0
41272,-200,4,2,5,0,0,0
42100,-200,4,2,5,40,0,0
42410,-200,4,2,5,0,0,0
42514,-200,4,2,5,40,0,0
42824,-200,4,2,5,0,0,0
42927,-200,4,2,5,40,0,0
42953,-200,4,2,5,30,0,0
44065,-200,4,2,5,0,0,0
44169,-200,4,2,5,40,0,0
44479,-200,4,2,5,0,0,0
44583,-200,4,2,5,40,0,0
44996,-200,4,2,5,0,0,0
45203,-200,4,2,5,40,0,0
46238,-200,4,2,5,40,0,0
46264,-200,4,2,5,30,0,0
47893,-200,4,2,5,0,0,0
48720,-200,4,2,5,40,0,0
49031,-200,4,2,5,0,0,0
49134,-200,4,2,5,40,0,0
49445,-200,4,2,5,0,0,0
49548,-200,4,2,5,40,0,0
49574,-200,4,2,5,30,0,0
50686,-200,4,2,5,0,0,0
50789,-200,4,2,5,40,0,0
51100,-200,4,2,5,0,0,0
51203,-200,4,2,5,40,0,0
51617,-200,4,2,5,0,0,0
51824,-200,4,2,5,40,0,0
52884,-200,4,2,5,30,0,0
54514,-200,4,2,5,0,0,0
55341,-200,4,2,5,40,0,0
55652,-200,4,2,5,0,0,0
55755,-200,4,2,5,40,0,0
56065,-200,4,2,5,0,0,0
56169,-200,4,2,5,40,0,0
56195,-200,4,2,5,30,0,0
61858,-200,4,2,5,0,0,0
61962,-133.333333333333,4,2,1,40,0,0
62272,-133.333333333333,4,2,1,5,0,0
62376,-80,4,2,1,40,0,0
62686,-80,4,2,1,0,0,0
62789,-66.6666666666667,4,1,1,50,0,0
63100,-100,4,1,1,50,0,0
64031,-133.333333333333,4,1,1,50,0,0
64445,-100,4,1,1,50,0,0
66100,-66.6666666666667,4,1,1,50,0,0
66410,-100,4,1,1,50,0,0
68996,-133.333333333333,4,1,1,50,0,0
69410,-66.6666666666667,4,1,1,50,0,0
69720,-100,4,1,1,50,0,0
72720,-66.6666666666667,4,1,1,50,0,0
73031,-100,4,1,1,50,0,0
75203,-133.333333333333,4,1,1,50,0,0
75617,-80,4,1,1,50,0,0
76031,-66.6666666666667,4,1,1,50,0,0
76445,-100,4,1,1,50,0,0
77686,-66.6666666666667,4,1,1,50,0,0
78100,-100,4,1,1,50,0,0
79341,-66.6666666666667,4,1,1,50,0,0
79755,-100,4,1,1,50,0,0
80996,-66.6666666666667,4,1,1,50,0,0
81410,-100,4,1,1,50,0,0
81824,-133.333333333333,4,1,1,50,0,0
82238,-80,4,1,1,50,0,0
82652,-66.6666666666667,4,1,1,60,0,0
83479,-66.6666666666667,4,1,1,60,0,0
84307,-66.6666666666667,4,1,1,60,0,0
85134,-66.6666666666667,4,1,1,60,0,0
85962,-66.6666666666667,4,1,1,60,0,0
88858,-66.6666666666667,4,1,1,40,0,0
89272,-133.333333333333,4,2,1,40,0,0
89298,-133.333333333333,4,2,1,5,0,0
90617,-133.333333333333,4,2,1,25,0,0
90720,-133.333333333333,4,2,6,35,0,0
90824,-133.333333333333,4,2,6,45,0,0
90927,-133.333333333333,4,2,6,65,0,0
91134,-133.333333333333,4,2,6,85,0,0
91548,-133.333333333333,4,2,1,5,0,0
91755,-133.333333333333,4,2,1,50,0,0
92065,-133.333333333333,4,2,1,5,0,0
92169,-80,4,2,1,40,0,0
92479,-80,4,2,1,5,0,0
92583,-80,4,1,2,70,0,1
104996,-80,4,1,2,70,0,0
105824,-80,4,1,2,70,0,1
115755,-80,4,1,1,70,0,1
115962,-80,4,1,2,70,0,1
116169,-80,4,1,1,70,0,1
116376,-80,4,1,2,70,0,1
116583,-80,4,1,1,70,0,1
116789,-80,4,1,2,70,0,1
116996,-80,4,1,1,70,0,1
117203,-80,4,1,2,70,0,1
117410,-80,4,1,1,70,0,1
118445,-80,4,1,2,70,0,1
119065,-90.9090909090909,4,2,2,70,0,0
142238,-90.9090909090909,4,2,1,70,0,0
144927,-90.9090909090909,4,2,2,70,0,0
145238,-90.9090909090909,4,2,1,70,0,0
145548,-100,4,2,1,50,0,0
150410,-100,4,2,1,5,0,0
150514,-100,4,2,1,50,0,0
168720,-100,4,1,2,80,0,0
168824,-100,4,1,1,50,0,0
169548,-100,4,1,2,80,0,0
169652,-100,4,1,1,50,0,0
170376,-100,4,1,2,80,0,0
170479,-100,4,1,1,50,0,0
170789,-100,4,1,2,90,0,0
170893,-100,4,1,1,50,0,0
171203,-100,4,1,2,60,0,0
172031,-80,4,1,2,80,0,1
173686,-80,4,1,2,80,0,0
185272,-80,4,1,2,80,0,1
186927,-80,4,1,2,80,0,0
197169,-80,4,1,2,50,0,0
197479,-80,4,1,2,80,0,0
197583,-80,4,1,2,50,0,0
197893,-80,4,1,2,80,0,0
197996,-80,4,1,2,50,0,0
198100,-80,4,1,2,80,0,0
198514,-66.6666666666667,4,1,2,90,0,1
211341,-66.6666666666667,4,1,2,90,0,0
211755,-66.6666666666667,4,1,2,90,0,1
224376,-66.6666666666667,4,1,2,80,0,1
224996,-100,4,2,1,100,0,0
225022,-100,4,2,5,20,0,0
226341,-100,4,2,6,20,0,0
226445,-100,4,2,6,30,0,0
226548,-100,4,2,6,45,0,0
226755,-100,4,2,6,65,0,0
226962,-100,4,2,6,90,0,0
227376,-100,4,2,6,5,0,0
227479,-100,4,1,6,45,0,0
227893,-66.6666666666667,4,1,1,55,0,0
228307,-71.4285714285714,4,1,2,80,0,1
240927,-71.4285714285714,4,1,2,80,0,0
241548,-71.4285714285714,4,1,2,80,0,1
254789,-71.4285714285714,4,2,1,100,0,0
256445,-200,4,2,1,100,0,0
256858,-200,4,2,1,5,0,0
257065,-133.333333333333,4,2,1,100,0,0
257376,-133.333333333333,4,2,1,5,0,0
257479,-100,4,2,1,100,0,0
257789,-100,4,2,1,5,0,0
257893,-66.6666666666667,4,2,1,100,0,0
257996,-66.6666666666667,4,2,1,5,0,0
258100,-58.8235294117647,4,1,2,100,0,1
270927,-58.8235294117647,4,1,2,100,0,0
271341,-58.8235294117647,4,1,2,100,0,1
284169,-58.8235294117647,4,1,2,100,0,0
284583,-66.6666666666667,4,1,2,80,0,1
311065,-58.8235294117647,4,2,1,100,0,0
311091,-58.8235294117647,4,2,1,10,0,0
313134,779.220779220779,4,2,1,30,1,0
313134,-100,4,2,1,50,0,0
319367,789.473684210526,4,2,1,100,1,0
319367,-100,4,2,1,30,0,0
325698,784.313725490196,4,2,1,100,1,0
325698,-100,4,2,1,30,0,0
335109,-100,4,2,1,25,0,0
335894,-100,4,2,1,20,0,0
337560,784.313725490196,4,2,1,30,1,0
337560,-133.333333333333,4,2,1,15,0,0
338344,-133.333333333333,4,2,1,10,0,0
339520,-133.333333333333,4,2,1,5,0,0

[Colours]
Combo1 : 224,147,95
Combo2 : 212,212,212
Combo3 : 173,173,173
Combo4 : 64,56,199
Combo5 : 91,170,208
Combo6 : 56,148,104
Combo7 : 171,224,139
Combo8 : 211,83,61

[HitObjects]
52,180,35479,5,0,0:0:0:0:
64,188,35531,2,0,P|104:168|132:136,1,75
159,128,35893,2,0,P|140:169|108:200,1,90
120,240,36307,2,0,B|148:220|184:168|184:168|176:216|188:256|188:256|252:192|332:212,1,330
360,248,37548,2,0,L|368:348,1,90
412,320,37962,2,0,L|428:184,1,120
440,116,38583,1,0,0:0:0:0:
412,320,38996,1,0,0:0:0:0:
440,116,39410,1,0,0:0:0:0:
426,200,39617,6,0,B|392:192|364:164|358:124|358:124|318:176|318:176|288:140|244:124|186:132|186:132|160:188|104:208|34:168,1,480
52,176,42100,2,0,P|60:136|108:88,1,90
136,80,42514,2,0,P|176:78|234:114,1,90
256,136,42927,102,0,B|312:184|384:192|440:136|440:136|384:192|392:268,1,330
392,292,44169,2,0,P|400:332|420:384,1,90
448,364,44583,2,0,L|312:336,1,120
248,320,45203,1,0,0:0:0:0:
448,364,45617,1,0,0:0:0:0:
248,320,46031,1,0,0:0:0:0:
330,339,46238,6,0,B|394:327|410:263|366:203|366:203|406:203|446:243|446:243|418:163|438:80|438:80|420:16,1,480
424,32,48720,2,0,L|452:128,1,90
460,160,49134,2,0,L|360:128,1,90
324,116,49548,102,0,B|264:96|264:96|284:152|284:152|240:176|216:240|232:288|232:288|212:344,1,330
176,360,50789,2,0,P|132:364|84:328,1,90
56,304,51203,2,0,P|92:268|100:192,1,120
84,112,51824,1,0,0:0:0:0:
56,304,52238,1,0,0:0:0:0:
84,112,52652,1,0,0:0:0:0:
136,44,52858,6,0,B|176:28|216:52|224:88|224:88|260:64|260:64|252:176|376:220|484:144|444:44,1,480
449,64,55341,2,0,P|480:108|480:164,1,90
475,186,55755,2,0,P|454:225|420:256,1,90
400,300,56169,102,0,B|360:256|252:252|200:324|200:324|208:252|176:180|112:148|64:148|64:148|112:128|164:76|164:76|216:28|304:32|304:32|280:48|280:48|328:68|388:56|448:28|448:28|432:56|432:56|452:68|452:68|496:104|496:176|448:232|448:232|376:184|320:180|260:196|260:196|244:164|216:136|216:136|228:124|240:120|240:120|316:160|416:128,1,1650
392,134,61962,6,0,P|325:142|254:128,1,135.000005149841,0|0,0:0|0:0,0:1:0:0:
259,129,62376,2,0,P|346:115|452:20,1,225,0|0,0:0|0:0,1:1:0:0:
447,27,62789,38,0,B|464:49|464:49|444:65|444:65|460:81|460:81|476:201,1,180.000006866455,4|0,0:0|3:0,0:0:0:0:
481,231,63100,1,0,3:0:0:0:
489,279,63203,1,8,3:1:0:0:
368,312,63410,2,0,L|296:300,2,60,0|0|0,0:0|3:0|3:0,0:0:0:0:
352,196,63720,1,0,3:0:0:0:
312,204,63824,2,0,L|216:220,1,60,0|0,0:0|3:0,0:0:0:0:
112,260,64031,2,0,L|245:238,1,135.000005149841,8|0,0:0|2:0,0:0:0:0:
132,80,64445,6,0,L|112:160,1,60,0|0,0:0|3:0,0:0:0:0:
280,4,64652,1,0,3:0:0:0:
256,24,64755,1,0,3:0:0:0:
232,44,64858,2,0,L|212:124,1,60,8|0,0:1|3:0,0:0:0:0:
320,96,65065,2,0,L|392:80,2,60,0|0|0,0:0|3:0|2:0,0:0:0:0:
368,192,65376,1,0,3:0:0:0:
408,200,65479,2,0,L|472:212,1,60,0|0,0:0|3:0,0:0:0:0:
272,172,65686,1,8,3:1:0:0:
484,104,65893,1,0,0:0:0:0:
496,312,66100,102,0,B|484:298|484:298|458:318|458:318|462:298|462:298|355:275,1,180.000006866455,4|0,0:0|3:0,0:0:0:0:
308,264,66410,1,0,3:0:0:0:
260,252,66514,2,0,L|201:239,1,60,8|0,3:1|3:0,0:0:0:0:
116,256,66720,1,0,3:0:0:0:
100,272,66824,1,0,3:0:0:0:
84,288,66927,2,0,L|96:356,1,60,0|0,3:0|3:0,0:0:0:0:
32,132,67134,2,0,L|16:220,1,60,0|0,3:0|3:0,0:0:0:0:
144,112,67341,2,0,L|216:92,1,60,8|0,3:1|3:0,0:0:0:0:
21,191,67548,2,0,L|78:207,1,60,0|0,3:0|3:0,0:0:0:0:
224,252,67755,5,0,3:0:0:0:
260,240,67858,1,0,3:0:0:0:
300,228,67962,2,0,L|392:244,1,60,0|0,3:0|3:0,0:0:0:0:
400,356,68169,2,0,L|340:345,1,60,8|0,3:1|3:0,0:0:0:0:
224,252,68376,1,0,3:0:0:0:
204,192,68479,1,0,3:0:0:0:
184,132,68583,2,0,L|204:68,2,60,0|0|0,0:0|3:0|3:0,0:0:0:0:
132,32,68893,1,0,3:0:0:0:
132,32,68996,2,0,L|164:200,1,135.000005149841,8|0,0:0|2:0,0:0:0:0:
171,274,69410,102,0,B|147:278|147:278|139:258|139:258|123:266|123:266|103:202|159:162,1,180.000006866455,4|0,0:0|3:0,0:0:0:0:
196,144,69720,1,0,3:0:0:0:
240,136,69824,2,0,L|312:148,1,60,8|0,3:1|3:0,0:0:0:0:
448,32,70031,2,0,L|324:60,1,120,0|0,0:0|3:0,0:0:0:0:
400,196,70341,1,0,3:0:0:0:
446,178,70445,2,0,L|432:120,1,60,0|0,0:0|3:0,0:0:0:0:
320,240,70652,2,0,L|305:298,1,60,8|0,0:0|3:0,0:0:0:0:
440,336,70858,1,0,3:0:0:0:
432,324,70962,1,0,3:0:0:0:
424,311,71065,6,0,L|305:298,1,120,0|0,0:0|3:0,0:0:0:0:
216,256,71376,1,0,3:0:0:0:
172,276,71479,2,0,L|104:264,1,60,8|0,0:0|3:0,0:0:0:0:
44,152,71686,2,0,L|24:80,1,60,0|0,0:0|3:0,0:0:0:0:
126,105,71893,1,0,3:0:0:0:
141,142,71996,1,0,3:0:0:0:
156,180,72099,2,0,L|220:152,1,60,0|0,0:0|3:0,0:0:0:0:
296,112,72307,1,8,3:1:0:0:
27,94,72514,1,0,0:0:0:0:
244,56,72720,102,0,B|256:68|272:72|272:72|256:108|256:108|264:156|248:232,1,180.000006866455,4|0,0:0|3:0,0:0:0:0:
244,272,73031,1,0,3:0:0:0:
240,328,73134,2,0,L|308:352,1,60,8|0,3:1|3:0,0:0:0:0:
408,248,73341,2,0,L|350:265,1,60,0|0,3:0|3:0,0:0:0:0:
440,340,73548,1,0,3:0:0:0:
478,317,73651,1,0,3:0:0:0:
503,280,73754,1,0,3:0:0:0:
507,236,73858,1,0,3:0:0:0:
492,194,73962,2,0,L|504:96,1,60,8|0,3:1|3:0,0:0:0:0:
320,128,74169,2,0,P|384:108|416:40,1,120,0|0,3:0|3:0,0:0:0:0:
228,132,74479,5,0,3:0:0:0:
244,152,74583,2,0,P|309:166|344:144,1,60,0|0,3:0|3:0,0:0:0:0:
156,88,74789,1,8,3:1:0:0:
156,112,74893,1,0,3:0:0:0:
166,134,74996,2,0,P|215:179|256:176,1,60,0|0,3:0|3:0,0:0:0:0:
300,167,75203,2,0,L|320:71,1,90.0000034332277,0|0,0:0|3:0,0:0:0:0:
292,244,75617,2,0,L|252:-4,1,225,8|0,0:0|2:0,0:0:0:0:
256,21,76031,102,0,B|256:44|256:44|231:35|231:35|252:124|136:180|80:88,1,270.000010299683,6|0,0:0|2:0,0:0:0:0:
32,256,76445,2,0,P|76:224|128:224,1,80,10|0,0:0|2:0,0:0:0:0:
136,224,76652,1,0,0:0:0:0:
212,304,76858,2,0,P|248:332|304:336,1,80,2|0,0:0|2:0,0:0:0:0:
320,336,77065,1,0,0:0:0:0:
336,88,77272,2,0,B|331:97|331:97|339:121|339:121|319:141|319:141|331:153|331:153|291:197|291:241,1,180,10|0,0:0|2:0,0:0:0:0:
380,236,77686,6,0,B|296:244|232:200|228:120|228:120|240:96|240:96|260:136|260:136,1,270.000010299683,6|0,0:0|2:0,0:0:0:0:
128,184,78100,2,0,L|140:100,1,80,10|0,0:0|2:0,0:0:0:0:
148,64,78307,1,0,0:0:0:0:
16,168,78514,2,0,L|28:252,1,80,2|0,0:0|2:0,0:0:0:0:
36,288,78721,1,0,0:0:0:0:
160,316,78927,2,0,P|208:300|236:244,1,80,10|0,0:0|2:0,0:0:0:0:
240,240,79134,1,0,0:0:0:0:
232,112,79341,102,0,B|256:120|256:120|240:152|240:152|260:172|260:172|236:252|284:308|352:324,1,270.000010299683,2|0,0:0|2:0,0:0:0:0:
442,247,79755,2,0,B|388:240|347:184|347:184|327:216|364:236,1,180,10|0,0:0|2:0,0:0:0:0:
448,140,80169,2,0,B|397:79|404:21|404:21|440:16|447:83,1,180,2|0,0:0|2:0,0:0:0:0:
363,235,80583,2,0,P|320:280|248:240,1,120,10|0,0:0|2:0,0:0:0:0:
79,243,80996,6,0,B|76:269|96:305|96:305|120:269|120:269|136:285|136:285|200:241|268:269,1,270.000010299683,6|0,0:0|2:0,0:0:0:0:
192,224,81410,2,0,P|148:172|136:96,1,120,10|0,0:0|2:0,0:0:0:0:
287,119,81824,2,0,P|356:95|418:27,1,135.000005149841,2|0,0:0|2:0,0:0:0:0:
402,55,82238,2,0,P|312:68|192:-4,1,225,10|0,0:0|2:0,0:0:0:0:
198,4,82652,102,0,P|196:54|219:95,1,90.0000034332277,6|0,0:0|2:0,0:0:0:0:
248,120,82858,1,2,0:0:0:0:
100,56,83065,1,10,0:0:0:0:
304,32,83272,1,2,0:0:0:0:
144,160,83479,6,0,P|132:204|88:244,1,90.0000034332277,6|0,0:0|2:0,0:0:0:0:
60,256,83686,1,2,0:0:0:0:
244,200,83893,1,10,0:0:0:0:
36,152,84100,1,2,0:0:0:0:
192,324,84307,102,0,L|296:340,1,90.0000034332277,6|0,0:0|2:0,0:0:0:0:
328,348,84514,1,2,0:0:0:0:
244,200,84720,1,10,0:0:0:0:
452,292,84927,1,2,0:0:0:0:
328,84,85134,6,0,L|340:188,1,90.0000034332277,6|0,0:0|2:0,0:0:0:0:
344,228,85341,1,2,0:0:0:0:
432,32,85548,1,10,0:0:0:0:
452,292,85755,1,2,0:0:0:0:
244,200,85962,102,0,P|212:188|128:204,1,90.0000034332277,6|2,0:0|0:0,0:0:0:0:
100,252,86169,1,2,0:0:0:0:
52,240,86272,1,2,0:0:0:0:
20,200,86376,6,0,P|24:164|60:104,1,90.0000034332277,14|2,0:0|0:0,0:0:0:0:
136,64,86583,1,2,0:0:0:0:
192,56,86686,1,2,0:0:0:0:
252,52,86789,102,0,L|352:72,1,90.0000034332277,6|2,0:0|0:0,0:0:0:0:
436,136,86996,1,2,0:0:0:0:
392,176,87100,1,2,0:0:0:0:
352,216,87203,6,0,L|392:328,1,90.0000034332277,14|2,0:0|0:0,0:0:0:0:
284,356,87410,1,2,0:0:0:0:
228,328,87514,1,2,0:0:0:0:
176,308,87617,102,0,P|164:268|188:188,1,90.0000034332277,6|2,0:0|0:0,0:0:0:0:
144,52,87824,6,0,P|141:93|91:160,1,90.0000034332277,6|2,0:0|0:0,0:0:0:0:
118,291,88031,102,0,P|136:250|169:220,1,90.0000034332277,14|2,0:0|0:0,0:0:0:0:
192,87,88238,6,0,P|163:117|82:136,1,90.0000034332277,6|2,0:0|0:0,0:0:0:0:
0,116,88445,101,6,0:0:0:0:
32,64,88548,5,6,0:0:0:0:
88,44,88652,101,6,0:0:0:0:
144,52,88755,5,6,0:0:0:0:
192,87,88858,102,0,L|256:63,6,45.0000017166138,14|6|6|6|6|6|6,0:0|0:0|0:0|0:0|0:0|0:0|0:0,0:0:0:0:
176,112,89272,54,0,B|236:104|292:136|292:136|360:168|424:144|424:144|376:200|400:288|400:288|343:343|264:331|264:331|296:280|300:220|240:112|108:140|16:260|128:388|228:328|196:232,1,990.000037765504,2|0,0:0|0:0,0:0:0:0:
146,211,91755,6,0,P|208:192|272:240,1,135.000005149841
307,331,92169,2,0,P|201:305|145:210,1,225,8|0,2:1|0:0,0:0:0:0:
96,76,92583,6,0,P|116:152|104:276,1,150,6|8,0:0|0:0,0:0:0:0:
116,304,92893,1,0,0:0:0:0:
76,292,92996,2,0,P|32:292|-8:304,1,75,2|0,0:0|2:0,0:0:0:0:
172,352,93203,2,0,P|208:360|245:359,1,75,0|0,0:0|2:0,0:0:0:0:
224,216,93410,2,0,L|216:268,1,37.5,10|0,0:3|3:0,0:0:0:0:
218,253,93617,2,0,L|211:178,1,75,10|0,0:3|3:0,0:0:0:0:
336,52,93824,2,0,L|316:236,1,150,2|8,0:0|0:0,0:0:0:0:
332,276,94134,1,0,0:0:0:0:
376,296,94238,6,0,P|448:292|524:216,1,150,2|8,0:0|0:0,0:0:0:0:
492,96,94548,1,0,0:0:0:0:
448,124,94652,2,0,P|432:160|440:240,1,75,2|0,0:0|3:0,0:0:0:0:
403,364,94859,2,0,P|394:327|375:295,1,75,0|0,0:0|3:0,0:0:0:0:
272,228,95065,2,0,L|216:216,1,37.5,10|0,0:3|3:0,0:0:0:0:
235,220,95272,2,0,L|328:208,1,75,10|0,0:3|3:0,0:0:0:0:
428,195,95479,1,2,0:0:0:0:
256,76,95686,2,0,L|181:66,1,75,8|0,0:0|2:0,0:0:0:0:
104,184,95893,102,0,B|100:192|100:204|100:204|120:212|120:212|116:264|172:308,1,150,6|8,0:0|0:0,0:0:0:0:
248,336,96203,1,0,0:0:0:0:
296,344,96307,2,0,P|336:344|400:320,1,75,2|0,0:0|2:0,0:0:0:0:
472,188,96514,2,0,P|460:216|416:264,1,75,0|0,0:0|2:0,0:0:0:0:
360,156,96720,2,0,L|304:148,1,37.5,10|0,0:3|3:0,0:0:0:0:
322,150,96927,2,0,L|414:128,1,75,10|0,0:3|3:0,0:0:0:0:
508,112,97134,1,2,0:0:0:0:
432,250,97341,2,0,L|358:233,1,75,8|0,0:0|2:0,0:0:0:0:
248,232,97548,6,0,P|188:168|212:88,1,150,2|8,0:0|0:0,0:0:0:0:
268,40,97858,2,0,B|356:60,2,75,0|2|0,3:0|0:0|3:0,0:0:0:0:
104,80,98169,2,0,L|92:176,1,75,0|0,0:0|2:0,0:0:0:0:
77,263,98376,2,0,L|72:324,1,37.5,10|0,0:3|3:0,0:0:0:0:
73,300,98583,2,0,L|51:207,1,75,10|0,0:3|3:0,0:0:0:0:
184,168,98789,2,0,P|220:168|280:192,1,75,2|0,0:0|2:0,0:0:0:0:
372,248,98996,2,0,P|334:281|283:289,1,75,8|0,0:0|2:0,0:0:0:0:
184,168,99203,102,0,B|244:164|296:196|296:196|283:166|304:124,1,150,6|8,0:0|0:0,0:0:0:0:
292,56,99514,1,0,0:0:0:0:
340,76,99617,2,0,L|448:60,1,75,2|0,0:0|2:0,0:0:0:0:
488,196,99823,2,0,L|400:184,1,75,0|0,0:0|2:0,0:0:0:0:
291,164,100031,2,0,L|231:156,1,37.5,10|0,0:3|3:0,0:0:0:0:
253,159,100238,2,0,L|347:145,1,75,10|0,0:3|3:0,0:0:0:0:
488,196,100445,2,0,L|448:348,1,150,2|8,0:0|0:0,0:0:0:0:
368,328,100755,1,0,0:0:0:0:
332,372,100858,6,0,P|248:368|212:260,1,150,2|8,0:0|0:0,0:0:0:0:
254,158,101169,1,0,0:0:0:0:
306,142,101272,2,0,P|354:146|430:182,1,75,2|0,0:0|2:0,0:0:0:0:
292,296,101479,2,0,P|296:248|332:172,1,75,0|0,0:0|2:0,0:0:0:0:
391,66,101686,2,0,L|427:56,1,37.5,10|0,0:3|3:0,0:0:0:0:
427,56,101893,2,0,L|336:40,1,75,10|0,0:3|3:0,0:0:0:0:
232,72,102100,2,0,P|168:88|124:136,1,75,2|0,0:0|2:0,0:0:0:0:
84,184,102307,2,0,P|68:224|72:312,1,75,8|0,0:0|2:0,0:0:0:0:
135,323,102514,102,0,P|118:250|83:184,1,150,6|8,0:0|0:0,0:0:0:0:
20,108,102824,1,0,0:0:0:0:
68,72,102927,2,0,P|104:80|188:116,1,75,2|0,0:0|2:0,0:0:0:0:
256,80,103134,2,0,P|232:172|228:204,1,75,0|0,0:0|2:0,0:0:0:0:
213,251,103341,2,0,L|211:289,1,37.5,2|0,0:0|3:0,0:0:0:0:
211,289,103548,2,0,L|300:276,1,75,10|0,0:3|3:0,0:0:0:0:
492,216,103755,2,0,L|316:196,1,150,2|8,0:0|0:0,0:0:0:0:
264,200,104065,1,0,0:0:0:0:
236,152,104169,6,0,L|224:76,1,75,2|0,0:0|2:0,0:0:0:0:
344,24,104376,2,0,L|332:98,1,75,2|0,0:0|2:0,0:0:0:0:
332,98,104789,2,0,L|344:24,1,75,2|0,0:0|2:0,0:0:0:0:
432,160,104996,2,0,L|448:272,1,75,2|0,0:0|2:0,0:0:0:0:
364,300,105203,2,0,L|308:260,1,37.5,10|0,0:3|3:0,0:0:0:0:
352,316,105307,2,0,L|300:296,1,37.5,8|0,0:0|3:0,0:0:0:0:
344,336,105410,2,0,L|248:324,1,75,0|0,0:3|2:0,0:0:0:0:
116,264,105617,2,0,L|190:254,1,75,8|0,0:0|2:0,0:0:0:0:
264,124,105824,102,0,B|276:144|272:168|272:168|216:120|108:152,1,150,6|8,0:0|0:0,0:0:0:0:
104,184,106134,1,0,0:0:0:0:
48,180,106238,2,0,P|24:144|20:80,1,75,10|0,0:2|2:0,0:0:0:0:
120,44,106445,2,0,P|176:32|232:44,1,75,0|0,0:0|2:0,0:0:0:0:
343,75,106652,2,0,P|357:63|370:49,1,37.5,10|0,0:3|3:0,0:0:0:0:
371,50,106858,2,0,P|376:100|400:148,1,75,10|0,0:3|3:0,0:0:0:0:
480,208,107065,2,0,P|400:160|296:172,1,150,10|8,0:2|0:0,0:0:0:0:
268,208,107376,1,0,0:0:0:0:
248,260,107479,6,0,B|224:332|224:332|332:308,1,150,2|8,0:0|0:0,0:0:0:0:
416,320,107789,1,0,0:0:0:0:
457,279,107892,2,0,L|480:208,1,75,10|0,0:2|2:0,0:0:0:0:
418,141,108100,2,0,L|325:161,1,75,0|0,0:0|2:0,0:0:0:0:
223,120,108307,2,0,P|208:109|196:95,1,37.5,10|0,0:3|3:0,0:0:0:0:
196,95,108514,2,0,P|180:140|148:176,1,75,10|0,0:3|3:0,0:0:0:0:
88,252,108720,2,0,L|12:272,1,75,10|0,0:2|2:0,0:0:0:0:
16,100,108927,2,0,L|32:188,1,75,8|0,0:0|2:0,0:0:0:0:
68,356,109134,102,0,B|140:336|140:336|184:356|228:360,1,150,6|8,0:0|0:0,0:0:0:0:
288,336,109445,1,0,0:0:0:0:
344,276,109548,2,0,P|352:240|340:168,1,75,10|0,0:2|2:0,0:0:0:0:
196,164,109755,2,0,P|194:201|202:237,1,75,0|0,0:0|2:0,0:0:0:0:
296,107,109962,2,0,P|286:92|273:77,1,37.5,10|0,0:3|3:0,0:0:0:0:
273,77,110169,2,0,P|331:91|375:79,1,75,10|0,0:3|3:0,0:0:0:0:
488,32,110376,2,0,B|444:80|440:136|440:136|456:156|468:184,1,150,10|8,0:2|0:0,0:0:0:0:
500,236,110686,1,0,0:0:0:0:
500,288,110789,6,0,P|456:344|360:316,1,150,2|8,0:0|0:0,0:0:0:0:
328,272,111100,2,0,L|316:168,1,75,0|10,3:0|0:2,0:0:0:0:
236,104,111307,1,0,3:0:0:0:
204,144,111410,2,0,L|188:260,1,75,0|0,0:0|2:0,0:0:0:0:
111,303,111617,2,0,P|93:306|75:312,1,37.5,10|0,0:3|3:0,0:0:0:0:
75,312,111824,2,0,P|99:279|111:211,1,75,10|0,0:3|3:0,0:0:0:0:
132,112,112031,2,0,P|128:60|108:28,1,75,10|0,0:2|2:0,0:0:0:0:
24,152,112238,2,0,P|9:186|9:223,1,75,8|0,0:0|2:0,0:0:0:0:
136,384,112445,102,0,P|184:324|200:232,1,150,14|8,0:0|0:0,0:0:0:0:
132,112,112858,1,14,0:2:0:0:
9,223,113065,1,8,0:0:0:0:
99,357,113272,2,0,P|163:314|206:232,1,150,10|8,0:0|0:0,0:0:0:0:
179,97,113685,1,14,0:2:0:0:
27,164,113892,1,8,0:0:0:0:
68,313,114100,6,0,P|143:296|213:235,1,150,10|8,0:0|0:0,0:0:0:0:
235,98,114513,1,14,0:2:0:0:
69,106,114720,1,8,0:0:0:0:
55,261,114927,2,0,P|130:272|218:240,1,150,10|8,0:0|0:0,0:0:0:0:
288,48,115341,2,0,P|215:63|155:108,1,150,14|8,0:2|0:0,0:0:0:0:
55,261,115755,102,0,L|39:345,1,75,6|0,0:0|0:0,0:0:0:0:
199,252,115962,2,0,L|184:178,1,75,10|0,0:0|0:0,0:0:0:0:
160,368,116169,2,0,L|240:356,1,75,6|0,0:0|0:0,0:0:0:0:
408,296,116376,2,0,L|328:284,1,75,10|0,0:0|0:0,0:0:0:0:
184,178,116583,2,0,P|172:130|188:70,1,75,6|0,0:0|0:0,0:0:0:0:
336,20,116789,2,0,P|337:57|326:92,1,75,10|0,0:0|0:0,0:0:0:0:
272,232,116996,2,0,P|304:208|380:212,1,75,6|0,0:0|0:0,0:0:0:0:
472,236,117203,2,0,P|488:268|480:340,1,75,10|0,0:0|0:0,0:0:0:0:
392,376,117410,5,6,0:0:0:0:
336,380,117513,1,2,0:0:0:0:
282,364,117616,1,6,0:0:0:0:
238,330,117720,1,2,0:0:0:0:
209,282,117824,1,2,0:0:0:0:
194,248,117927,1,2,0:0:0:0:
169,221,118030,1,6,0:0:0:0:
136,203,118134,1,2,0:0:0:0:
99,199,118237,1,2,0:0:0:0:
96,228,118341,1,2,0:0:0:0:
104,256,118445,2,0,L|116:316,1,37.5,10|0,0:3|3:0,0:0:0:0:
128,296,118548,2,0,L|160:356,1,37.5,10|0,0:3|3:0,0:0:0:0:
160,324,118652,2,0,L|240:344,1,75,2|0,0:3|3:0,0:0:0:0:
396,264,118858,2,0,L|312:276,1,75,8|0,0:0|2:0,0:0:0:0:
212,156,119065,6,0,P|208:112|256:40,1,132.00000402832,6|8,0:1|0:1,0:0:0:0:
285,31,119375,1,0,0:0:0:0:
318,31,119478,1,2,0:0:0:0:
325,96,119582,1,0,0:0:0:0:
366,145,119685,1,0,0:0:0:0:
429,163,119789,1,0,0:0:0:0:
488,144,119893,2,0,L|496:60,1,66.0000020141602,2|0,0:3|0:0,0:0:0:0:
368,300,120100,2,0,L|376:216,1,66.0000020141602,10|0,0:3|0:0,0:0:0:0:
476,296,120307,2,0,L|328:332,1,132.00000402832,2|8,0:0|0:1,0:0:0:0:
296,340,120617,1,0,0:0:0:0:
228,268,120720,6,0,P|164:232|84:256,1,132.00000402832,2|8,0:0|0:3,0:0:0:0:
79,254,121030,1,0,0:0:0:0:
55,277,121133,1,2,0:0:0:0:
40,306,121237,1,0,0:0:0:0:
34,339,121341,1,0,0:0:0:0:
89,372,121444,1,0,0:0:0:0:
154,369,121547,1,2,0:3:0:0:
206,330,121651,1,0,0:0:0:0:
228,268,121755,1,10,0:3:0:0:
201,249,121858,1,0,0:0:0:0:
182,222,121961,1,2,0:0:0:0:
173,191,122065,1,0,0:0:0:0:
173,158,122170,1,8,0:3:0:0:
108,155,122272,1,0,0:0:0:0:
58,115,122376,101,2,0:0:0:0:
79,89,122479,1,0,0:0:0:0:
106,71,122583,1,8,0:3:0:0:
138,61,122686,1,0,0:0:0:0:
168,60,122789,1,2,0:0:0:0:
195,103,122892,1,0,0:0:0:0:
234,133,122995,1,0,0:0:0:0:
281,146,123099,1,0,0:0:0:0:
330,139,123203,2,0,L|288:64,1,66.0000020141602,2|0,0:3|0:0,0:0:0:0:
488,180,123410,2,0,L|445:104,1,66.0000020141602,10|0,0:3|0:0,0:0:0:0:
384,216,123617,1,2,0:0:0:0:
359,237,123720,1,0,0:0:0:0:
343,266,123824,1,8,0:3:0:0:
337,298,123927,1,0,0:0:0:0:
343,330,124031,5,2,0:0:0:0:
391,330,124134,1,0,0:0:0:0:
424,294,124237,1,8,0:3:0:0:
420,246,124341,1,0,0:0:0:0:
383,215,124444,1,2,0:0:0:0:
318,221,124548,1,0,0:0:0:0:
256,244,124651,1,0,0:0:0:0:
203,283,124755,1,0,0:0:0:0:
163,335,124858,2,0,B|100:356|100:356|40:296,1,132.00000402832,2|10,0:3|0:3,0:0:0:0:
20,264,125169,1,0,0:0:0:0:
116,240,125272,2,0,P|140:216|196:196,1,66.0000020141602,2|0,0:0|0:0,0:0:0:0:
36,148,125479,1,8,0:3:0:0:
84,116,125583,1,0,0:0:0:0:
136,96,125686,102,0,P|220:100|292:156,1,132.00000402832,2|8,0:0|0:3,0:0:0:0:
285,143,125996,1,0,0:0:0:0:
318,146,126099,1,0,0:0:0:0:
347,131,126203,1,0,0:0:0:0:
362,103,126307,1,0,0:0:0:0:
395,74,126410,1,0,0:0:0:0:
437,64,126514,2,0,L|504:104,1,66.0000020141602,2|0,0:3|0:0,0:0:0:0:
408,228,126720,2,0,L|474:267,1,66.0000020141602,10|0,0:3|0:0,0:0:0:0:
432,196,126927,2,0,L|272:232,1,132.00000402832,2|8,0:0|0:3,0:0:0:0:
248,216,127238,1,0,0:0:0:0:
212,296,127341,6,0,P|140:296|60:232,1,132.00000402832,2|8,0:0|0:3,0:0:0:0:
58,228,127651,1,0,0:0:0:0:
46,181,127754,1,2,0:0:0:0:
54,132,127858,1,0,0:0:0:0:
80,90,127961,1,0,0:0:0:0:
102,115,128065,1,0,0:0:0:0:
131,130,128168,1,2,0:3:0:0:
163,134,128272,1,0,0:0:0:0:
195,127,128376,1,10,0:3:0:0:
215,83,128479,1,0,0:0:0:0:
257,57,128582,1,2,0:0:0:0:
305,58,128686,1,0,0:0:0:0:
346,85,128789,1,8,0:3:0:0:
398,49,128892,1,0,0:0:0:0:
462,60,128996,101,2,0:0:0:0:
420,85,129099,1,0,0:0:0:0:
394,127,129202,1,8,0:3:0:0:
389,176,129306,1,0,0:0:0:0:
407,222,129410,1,2,0:0:0:0:
344,207,129513,1,0,0:0:0:0:
283,230,129616,1,0,0:0:0:0:
243,282,129720,1,0,0:0:0:0:
239,347,129824,1,2,0:3:0:0:
270,309,129927,1,0,0:0:0:0:
288,263,130030,1,10,0:3:0:0:
289,214,130134,1,0,0:0:0:0:
275,166,130238,1,2,0:0:0:0:
246,151,130341,1,0,0:0:0:0:
214,144,130444,1,8,0:3:0:0:
181,146,130548,1,0,0:0:0:0:
150,157,130652,5,2,0:0:0:0:
120,196,130755,1,0,0:0:0:0:
77,220,130858,2,0,L|48:152,1,66.0000020141602,6|0,0:0|0:0,0:0:0:0:
104,76,131065,1,0,0:0:0:0:
24,304,131272,1,6,0:0:0:0:
80,324,131376,1,2,0:0:0:0:
292,248,131686,2,0,L|232:228,1,33.0000010070801,14|0,0:3|3:0,0:0:0:0:
276,272,131789,2,0,L|232:264,1,33.0000010070801,2|0,0:3|3:0,0:0:0:0:
272,292,131893,2,0,L|204:300,1,66.0000020141602,2|0,0:0|0:0,0:0:0:0:
356,332,132100,2,0,L|424:340,1,66.0000020141602,4|0,0:0|0:0,0:0:0:0:
488,256,132307,102,0,B|428:208|432:164|432:164|448:140|448:108,1,132.00000402832,6|4,0:1|0:0,0:0:0:0:
455,105,132617,1,0,0:0:0:0:
447,62,132720,1,2,0:0:0:0:
418,30,132824,1,0,0:0:0:0:
377,16,132927,1,0,0:0:0:0:
334,26,133031,1,0,0:0:0:0:
303,56,133134,2,0,L|332:144,1,66.0000020141602,2|0,0:3|0:0,0:0:0:0:
136,20,133341,2,0,L|164:107,1,66.0000020141602,10|0,0:3|0:0,0:0:0:0:
216,184,133548,2,0,P|212:232|152:304,1,132.00000402832,2|4,0:0|0:0,0:0:0:0:
136,260,133858,1,0,0:0:0:0:
44,312,133962,6,0,L|208:352,1,132.00000402832,2|4,0:0|0:0,0:0:0:0:
220,351,134272,1,0,0:0:0:0:
268,339,134375,1,2,0:0:0:0:
307,309,134479,1,0,0:0:0:0:
331,266,134583,1,0,0:0:0:0:
344,296,134686,1,0,0:0:0:0:
365,321,134789,1,2,0:3:0:0:
392,339,134893,1,0,0:0:0:0:
424,348,134996,1,10,0:3:0:0:
426,332,135099,1,0,0:0:0:0:
430,316,135202,1,2,0:0:0:0:
437,301,135306,1,0,0:0:0:0:
446,288,135409,1,4,0:0:0:0:
453,244,135514,1,0,0:0:0:0:
441,202,135616,101,2,0:0:0:0:
408,203,135720,1,0,0:0:0:0:
377,192,135823,1,4,0:0:0:0:
351,171,135927,1,0,0:0:0:0:
334,143,136031,1,2,0:0:0:0:
293,169,136134,1,0,0:0:0:0:
245,167,136237,1,0,0:0:0:0:
207,136,136341,1,0,0:0:0:0:
194,89,136445,1,2,0:3:0:0:
129,98,136548,1,0,0:0:0:0:
78,138,136651,1,10,0:3:0:0:
53,199,136755,1,0,0:0:0:0:
61,263,136858,1,2,0:0:0:0:
92,301,136961,1,0,0:0:0:0:
138,317,137064,1,4,0:0:0:0:
186,307,137168,1,0,0:0:0:0:
222,274,137272,5,2,0:0:0:0:
238,246,137375,1,0,0:0:0:0:
244,213,137478,1,4,0:0:0:0:
238,181,137582,1,0,0:0:0:0:
224,152,137685,1,2,0:0:0:0:
172,194,137789,1,0,0:0:0:0:
149,255,137892,1,0,0:0:0:0:
159,320,137996,1,0,0:0:0:0:
200,370,138100,1,2,0:3:0:0:
238,339,138203,1,0,0:0:0:0:
285,324,138306,1,10,0:3:0:0:
334,327,138410,1,0,0:0:0:0:
376,348,138514,1,2,0:0:0:0:
348,288,138617,1,0,0:0:0:0:
299,244,138720,1,4,0:0:0:0:
238,220,138824,1,0,0:0:0:0:
173,221,138927,1,2,0:0:0:0:
256,192,139031,12,0,142031,0:0:0:0:
408,256,142238,101,6,0:1:0:0:
369,224,142341,1,2,0:1:0:0:
344,182,142444,1,2,0:1:0:0:
335,134,142548,1,2,0:1:0:0:
344,85,142651,5,6,0:1:0:0:
313,123,142755,1,2,0:1:0:0:
270,147,142858,1,2,0:1:0:0:
221,154,142962,1,2,0:1:0:0:
173,142,143065,101,6,0:1:0:0:
159,96,143168,1,2,0:1:0:0:
120,67,143271,1,2,0:1:0:0:
71,66,143375,1,2,0:1:0:0:
31,95,143479,5,6,0:1:0:0:
61,134,143582,1,2,0:1:0:0:
72,181,143685,1,2,0:1:0:0:
62,229,143789,1,2,0:1:0:0:
32,269,143893,102,0,L|108:288,1,66.0000020141602,6|2,0:1|0:1,0:0:0:0:
160,360,144100,2,0,L|240:344,1,66.0000020141602,6|2,0:1|0:1,0:0:0:0:
280,268,144307,6,0,P|296:232|292:168,1,66.0000020141602,2|2,0:1|0:1,0:0:0:0:
176,144,144514,2,0,P|180:176|195:206,1,66.0000020141602,6|2,0:1|0:1,0:0:0:0:
280,268,144720,102,0,L|364:280,1,66.0000020141602,2|2,0:1|0:1,0:0:0:0:
464,148,144927,2,0,L|424:116,1,33.0000010070801,10|0,1:3|3:0,0:1:0:0:
444,148,145031,2,0,L|396:132,1,33.0000010070801,10|0,1:3|0:0,0:1:0:0:
428,156,145134,6,0,L|354:169,1,66.0000020141602,2|2,1:0|0:1,0:0:0:0:
320,64,145341,2,0,L|246:50,1,66.0000020141602,6|2,0:1|0:1,0:0:0:0:
152,112,145548,37,6,0:0:0:0:
132,144,145652,1,0,0:0:0:0:
120,180,145755,2,0,B|112:200|112:216|112:216|68:176|72:132,1,120,2|0,0:0|0:0,0:0:0:0:
116,36,146065,2,0,P|200:40|232:112,1,120,2|0,0:0|0:0,0:0:0:0:
288,160,146376,2,0,B|292:192|288:220|288:220|360:196,1,120,2|0,0:0|0:0,0:0:0:0:
504,344,146686,2,0,L|332:312,1,120,2|0,0:0|0:0,0:0:0:0:
344,312,146997,1,2,0:0:0:0:
480,148,147203,5,0,0:0:0:0:
432,116,147307,2,0,B|432:92|432:92|404:40|404:40|408:0,1,120,2|0,0:0|0:0,0:0:0:0:
304,128,147617,2,0,B|287:145|287:145|271:202|271:202|240:228,1,120,2|0,0:0|0:0,0:0:0:0:
56,128,147927,2,0,B|116:120|116:120|200:148,1,120,2|0,0:0|0:0,0:0:0:0:
128,348,148238,2,0,B|98:295|98:295|102:235,1,120,2|0,0:0|0:0,0:0:0:0:
120,76,148548,2,0,L|128:8,1,60,2|0,0:0|0:0,0:0:0:0:
127,16,148858,101,0,0:0:0:0:
120,76,148962,2,0,P|136:120|228:96,1,120,2|0,0:0|0:0,0:0:0:0:
364,52,149272,2,0,P|312:88|348:148,1,120,2|0,0:0|0:0,0:0:0:0:
384,268,149583,2,0,P|404:212|478:163,1,120,2|0,0:0|0:0,0:0:0:0:
292,264,149893,2,0,P|228:304|152:296,1,120,2|0,0:0|0:0,0:0:0:0:
136,296,150203,1,2,0:0:0:0:
88,272,150307,2,0,P|68:244|56:192,1,60
176,24,150514,5,0,0:0:0:0:
236,80,150617,2,0,L|211:197,1,120,2|0,0:0|0:0,0:0:0:0:
480,128,150927,2,0,L|336:168,1,120,2|0,0:0|0:0,0:0:0:0:
420,316,151238,2,0,L|436:244,1,60,2|0,0:0|0:0,0:0:0:0:
376,36,151445,1,0,0:0:0:0:
293,62,151548,2,0,L|213:86,1,60,2|0,0:0|0:0,0:0:0:0:
72,136,151755,1,0,0:0:0:0:
148,177,151858,2,0,L|221:215,1,60,2|0,0:0|0:0,0:0:0:0:
201,204,152169,101,0,0:0:0:0:
148,177,152272,2,0,B|96:149|96:149|160:93,1,120,2|0,0:0|0:0,0:0:0:0:
248,32,152583,2,0,B|300:-4|300:-4|376:20,1,120,2|0,0:0|0:0,0:0:0:0:
460,44,152893,2,0,B|496:56|496:56|444:72|404:128,1,120,2|0,0:0|0:0,0:0:0:0:
368,196,153203,2,0,B|356:244|376:292|376:292|404:256,1,120,2|0,0:0|0:0,0:0:0:0:
460,204,153514,2,0,L|499:158,1,60,2|0,0:0|0:0,0:0:0:0:
499,158,153824,5,0,0:0:0:0:
464,128,153927,2,0,B|452:120|452:120|436:132|436:132|336:116,1,120,2|0,0:0|0:0,0:0:0:0:
144,84,154238,2,0,B|160:68|160:68|184:84|184:84|260:44,1,120,2|0,0:0|0:0,0:0:0:0:
268,180,154548,2,0,B|256:228|256:228|256:240|256:240|248:252|248:252|232:308,1,120,2|0,0:0|0:0,0:0:0:0:
148,212,154858,2,0,B|144:204|144:204|140:216|140:216|136:208|136:208|40:184,1,120,2|0,0:0|0:0,0:0:0:0:
12,76,155169,1,2,0:0:0:0:
40,36,155272,1,0,0:0:0:0:
192,108,155479,101,0,0:0:0:0:
236,76,155583,2,0,P|288:68|360:116,1,120,2|0,0:0|0:0,0:0:0:0:
416,180,155893,2,0,B|396:236|396:236|488:272,1,120,2|0,0:0|0:0,0:0:0:0:
336,312,156203,2,0,B|304:304|304:304|204:340,1,120,2|0,0:0|0:0,0:0:0:0:
72,304,156514,2,0,L|136:276,1,60,2|0,0:0|0:0,0:0:0:0:
228,204,156720,1,0,0:0:0:0:
264,136,156824,2,0,P|272:104|264:64,1,60,2|0,0:0|0:0,0:0:0:0:
44,36,157134,5,0,0:0:0:0:
75,107,157238,2,0,P|119:144|176:132,1,120,2|0,0:0|0:0,0:0:0:0:
368,60,157548,2,0,B|396:44|428:48|428:48|428:88|400:116,1,120,2|0,0:0|0:0,0:0:0:0:
376,240,157858,2,0,P|376:268|392:316,1,60,2|0,0:0|0:0,0:0:0:0:
493,264,158065,2,0,L|376:240,1,120,2|0,0:0|0:0,0:0:0:0:
264,200,158376,2,0,L|128:232,1,120,2|0,0:0|0:0,0:0:0:0:
36,208,158686,1,2,0:0:0:0:
68,276,158789,102,0,B|92:280|92:280|92:268|92:268|132:236|200:252,1,120,0|0,1:0|0:0,0:0:0:0:
240,304,159100,1,0,0:0:0:0:
288,320,159203,2,0,P|324:344|412:332,1,120,2|0,0:0|0:0,0:0:0:0:
472,232,159514,2,0,P|444:176|456:108,1,120,2|0,0:0|0:0,0:0:0:0:
356,32,159824,2,0,P|340:68|296:96,1,60,2|0,0:0|0:0,0:0:0:0:
208,120,160031,1,0,0:0:0:0:
152,116,160134,2,0,P|124:76|44:56,1,120,2|0,0:0|0:0,0:0:0:0:
4,144,160445,6,0,L|40:268,1,120,2|0,0:0|0:0,0:0:0:0:
148,360,160755,2,0,B|172:284|172:284|160:232,1,120,2|0,0:0|0:0,0:0:0:0:
152,116,161065,2,0,B|144:92|144:92|204:84|252:124,1,120,2|0,0:0|0:0,0:0:0:0:
300,192,161376,2,0,P|368:192|384:140,1,120,2|0,0:0|0:0,0:0:0:0:
460,56,161686,2,0,B|472:52|488:44|488:44|472:160,1,120,2|0,0:0|0:0,0:0:0:0:
456,236,161996,2,0,L|444:308,1,60,2|0,0:0|0:0,0:0:0:0:
344,328,162203,102,0,B|332:320|332:320|244:352|244:352|232:344,1,120,2|0,0:0|0:0,0:0:0:0:
200,184,162514,2,0,B|228:260|228:260|156:248,1,120,2|0,0:0|0:0,0:0:0:0:
72,312,162824,2,0,B|16:300|16:300|68:248,1,120,2|0,0:0|0:0,0:0:0:0:
44,152,163134,2,0,L|84:28,1,120,2|0,0:0|0:0,0:0:0:0:
212,40,163445,2,0,L|184:120,1,60,2|0,0:0|0:0,0:0:0:0:
348,56,163652,1,0,0:0:0:0:
320,128,163755,6,0,L|296:188,1,60,2|0,0:0|0:0,0:0:0:0:
320,356,163962,1,0,0:0:0:0:
392,312,164065,2,0,L|440:176,1,120,2|0,0:0|0:0,0:0:0:0:
320,128,164376,2,0,L|188:160,1,120,2|0,0:0|0:0,0:0:0:0:
88,160,164686,2,0,B|76:164|76:164|64:160|64:160|48:180|48:180|40:236|88:264,1,120,2|0,0:0|0:0,0:0:0:0:
112,368,164996,2,0,B|128:364|128:364|120:352|120:352|172:324|168:256,1,120,2|0,0:0|0:0,0:0:0:0:
252,216,165307,1,2,0:0:0:0:
203,156,165410,102,0,B|196:132|196:132|208:136|208:136|224:80|280:40,1,120,0|0,1:0|0:0,0:0:0:0:
328,32,165720,1,0,0:0:0:0:
328,32,165824,2,0,P|380:24|456:56,1,120,2|0,0:0|0:0,0:0:0:0:
500,112,166134,2,0,P|504:172|468:232,1,120,2|0,0:0|0:0,0:0:0:0:
400,264,166445,2,0,P|364:216|372:136,1,120,2|0,0:0|0:0,0:0:0:0:
477,179,166755,2,0,P|450:232|400:264,1,120,2|0,0:0|0:0,0:0:0:0:
304,328,167065,5,0,1:0:0:0:
240,276,167169,2,0,B|196:236|196:236|172:316,1,120,2|0,0:0|0:0,0:0:0:0:
68,284,167479,2,0,B|88:228|88:228|56:156,1,120,2|0,0:0|0:0,0:0:0:0:
112,60,167789,2,0,B|144:116|144:116|172:52,1,120,2|0,0:0|0:0,0:0:0:0:
276,56,168100,2,0,B|256:112|256:112|300:152|312:196,1,120,2|0,0:0|0:0,0:0:0:0:
392,204,168410,2,0,P|460:184|504:128,1,120,2|0,0:0|0:0,0:0:0:0:
380,92,168720,101,10,0:0:0:0:
345,120,168823,1,2,0:2:0:0:
323,159,168926,1,0,0:0:0:0:
317,203,169030,1,0,0:0:0:0:
328,247,169133,1,2,0:2:0:0:
338,290,169237,1,0,0:0:0:0:
319,329,169340,1,0,0:0:0:0:
280,348,169444,1,2,0:2:0:0:
237,338,169548,5,10,0:0:0:0:
268,306,169651,1,0,0:0:0:0:
285,265,169754,1,2,0:2:0:0:
286,220,169858,1,0,0:0:0:0:
272,178,169961,1,0,0:0:0:0:
244,142,170065,1,2,0:2:0:0:
229,100,170168,1,0,0:0:0:0:
226,56,170272,1,0,0:0:0:0:
236,12,170376,101,10,0:0:0:0:
194,55,170479,1,0,0:0:0:0:
140,79,170582,1,0,0:0:0:0:
80,81,170686,1,2,0:2:0:0:
24,60,170789,5,10,0:0:0:0:
46,116,170892,1,0,0:0:0:0:
80,165,170995,1,2,0:2:0:0:
125,204,171099,1,0,0:0:0:0:
180,232,171203,102,0,L|152:280,3,30,10|0|2|0,0:0|0:0|0:0|0:0,0:0:0:0:
244,260,171410,6,0,L|247:311,3,30,10|0|2|0,0:0|0:0|0:0|0:0,0:0:0:0:
312,231,171617,102,0,L|344:264,3,30,10|0|2|0,0:0|0:0|0:0|0:0,0:0:0:0:
340,164,171824,6,0,L|372:157,3,30,10|0|2|0,0:0|0:0|0:0|0:0,0:0:0:0:
300,101,172031,38,0,P|268:121|231:125,1,75,6|0,0:0|0:0,0:0:0:0:
180,232,172238,2,0,P|148:212|111:208,1,75,8|0,0:0|0:0,0:0:0:0:
109,125,172445,2,0,B|163:116|218:155|218:155|222:135|231:124,1,150,2|8,0:2|0:0,0:0:0:0:
300,88,172755,1,0,0:0:0:0:
380,96,172858,2,0,L|464:112,1,75,2|0,0:0|0:0,0:0:0:0:
400,200,173065,2,0,L|320:220,1,75,8|0,0:0|0:0,0:0:0:0:
372,108,173272,2,0,B|444:124|444:124|404:216,1,150,2|8,0:0|0:0,0:0:0:0:
420,276,173583,1,0,0:0:0:0:
380,344,173686,6,0,P|328:324|300:280,1,75,2|0,0:0|0:0,0:0:0:0:
228,332,173893,2,0,P|192:288|190:236,1,75,8|0,0:0|0:0,0:0:0:0:
104,256,174100,2,0,P|95:200|144:120,1,150,2|8,0:0|0:0,0:0:0:0:
216,92,174410,2,0,L|128:108,1,75,0|2,0:0|0:0,0:0:0:0:
204,176,174617,1,0,0:0:0:0:
284,144,174720,2,0,L|372:160,1,75,8|0,0:0|0:0,0:0:0:0:
503,122,174927,2,0,L|357:157,1,150,2|8,0:0|0:0,0:0:0:0:
312,228,175238,1,0,0:0:0:0:
284,308,175341,102,0,P|368:284|384:232,1,75,2|0,0:0|0:0,0:0:0:0:
232,248,175548,2,0,P|197:233|160:236,1,75,8|0,0:0|0:0,0:0:0:0:
56,267,175755,2,0,B|116:264|136:204|136:204|125:164,1,150,2|8,0:0|0:0,0:0:0:0:
144,88,176065,1,0,0:0:0:0:
76,40,176169,2,0,L|56:128,1,75,2|0,0:0|0:0,0:0:0:0:
208,152,176376,2,0,L|292:132,1,75,8|0,0:0|0:0,0:0:0:0:
400,104,176583,2,0,B|436:96|436:96|304:60,1,150,2|8,0:0|0:0,0:0:0:0:
248,44,176893,1,0,0:0:0:0:
172,76,176996,6,0,L|96:88,1,75,2|0,0:0|0:0,0:0:0:0:
36,208,177203,2,0,L|112:220,1,75,8|0,0:0|0:0,0:0:0:0:
308,240,177410,2,0,P|255:184|180:192,1,150,2|8,0:0|0:0,0:0:0:0:
128,244,177720,1,0,0:0:0:0:
144,320,177824,1,2,0:0:0:0:
212,364,177927,1,0,0:0:0:0:
296,360,178031,2,0,P|348:356|408:324,1,75,8|0,0:0|0:0,0:0:0:0:
440,296,178238,2,0,B|448:284|448:284|436:264|436:264|472:196|460:140,1,150,2|8,0:0|0:0,0:0:0:0:
440,80,178548,1,0,0:0:0:0:
372,28,178652,102,0,B|340:16|340:16|296:20,1,75,6|0,0:0|0:0,0:0:0:0:
248,136,178858,2,0,B|288:139|288:139|320:127,1,75,8|0,0:0|0:0,0:0:0:0:
212,64,179065,2,0,B|192:136|192:136|220:224,1,150,2|8,0:0|0:0,0:0:0:0:
248,284,179376,1,0,0:0:0:0:
168,276,179479,2,0,P|128:276|80:264,1,75,2|0,0:0|0:0,0:0:0:0:
32,128,179686,2,0,P|72:128|120:140,1,75,8|0,0:0|0:0,0:0:0:0:
248,284,179893,2,0,P|168:296|76:280,1,150,2|8,0:0|0:0,0:0:0:0:
24,276,180203,1,0,0:0:0:0:
38,202,180307,6,0,L|32:128,1,75,2|0,0:0|0:0,0:0:0:0:
176,16,180514,2,0,L|169:90,1,75,8|0,0:0|0:0,0:0:0:0:
264,288,180720,2,0,L|278:138,1,150,2|8,0:0|0:0,0:0:0:0:
348,88,181031,2,0,P|312:60|264:56,1,75,0|2,0:0|0:0,0:0:0:0:
356,172,181238,1,0,0:0:0:0:
424,124,181341,2,0,P|456:104|508:104,1,75,8|0,0:0|0:0,0:0:0:0:
504,224,181548,2,0,P|480:324|440:376,1,150,2|8,0:0|0:0,0:0:0:0:
372,280,181858,1,0,0:0:0:0:
312,332,181962,102,0,L|184:360,1,75,2|0,0:0|0:0,0:0:0:0:
168,288,182169,2,0,L|40:316,1,75,8|0,0:0|0:0,0:0:0:0:
20,216,182376,2,0,B|94:200|94:200|54:160|34:88,1,150,2|8,0:0|0:0,0:0:0:0:
68,16,182686,1,0,0:0:0:0:
124,72,182789,2,0,P|136:104|196:160,1,75,2|0,0:0|0:0,0:0:0:0:
252,192,182996,2,0,P|288:200|356:180,1,75,8|0,0:0|0:0,0:0:0:0:
424,96,183203,2,0,P|358:129|325:195,1,150,2|8,0:0|0:0,0:0:0:0:
344,272,183514,1,0,0:0:0:0:
416,320,183617,6,0,L|524:300,1,75,2|0,0:0|0:0,0:0:0:0:
268,248,183824,2,0,L|194:261,1,75,2|0,0:0|2:0,0:0:0:0:
194,261,184238,2,0,L|120:274,1,75,2|0,0:0|2:0,0:0:0:0:
120,274,184652,2,0,L|40:288,1,75,2|0,0:0|2:0,0:0:0:0:
128,144,184858,2,0,L|208:157,1,75,0|0,0:0|2:0,0:0:0:0:
289,319,185065,2,0,L|268:248,1,75,8|0,0:0|0:0,0:0:0:0:
284,92,185272,102,0,P|324:64|384:64,1,75,6|0,0:0|0:0,0:0:0:0:
424,188,185479,2,0,P|388:178|358:155,1,75,8|0,0:0|0:0,0:0:0:0:
480,92,185686,2,0,P|512:172|480:264,1,150,2|8,0:0|0:0,0:0:0:0:
452,296,185996,1,0,0:0:0:0:
384,332,186100,2,0,B|348:344|348:344|308:336,1,75,2|0,0:0|0:0,0:0:0:0:
208,256,186307,2,0,B|244:244|244:244|284:252,1,75,8|0,0:0|0:0,0:0:0:0:
184,352,186514,2,0,B|112:372|112:372|48:300,1,150,2|8,0:0|0:0,0:0:0:0:
16,252,186824,1,0,0:0:0:0:
52,176,186927,6,0,L|56:88,1,75,2|0,0:0|0:0,0:0:0:0:
172,48,187134,2,0,L|168:122,1,75,8|0,0:0|0:0,0:0:0:0:
280,192,187341,2,0,L|288:24,1,150,2|8,0:0|0:0,0:0:0:0:
364,8,187652,2,0,P|408:24|452:76,2,75,0|2|0,0:0|0:0|0:0,0:0:0:0:
392,128,187962,2,0,P|400:160|456:220,1,75,8|0,0:0|0:0,0:0:0:0:
504,276,188169,2,0,P|408:240|312:240,1,150,2|8,0:0|0:0,0:0:0:0:
292,272,188479,1,0,0:0:0:0:
236,340,188583,102,0,L|160:348,1,75,2|0,0:0|0:0,0:0:0:0:
20,272,188789,2,0,L|94:279,1,75,8|0,0:0|0:0,0:0:0:0:
192,188,188996,2,0,B|116:180|116:180|188:128,1,150,2|8,0:0|0:0,0:0:0:0:
244,96,189307,1,0,0:0:0:0:
324,84,189410,2,0,P|364:96|400:152,1,75,2|0,0:0|0:0,0:0:0:0:
472,132,189617,2,0,P|488:170|468:233,1,75,8|0,0:0|0:0,0:0:0:0:
512,280,189824,2,0,P|493:317|380:344,1,150,2|8,0:0|0:0,0:0:0:0:
340,296,190134,1,0,0:0:0:0:
266,262,190238,6,0,B|214:270|214:270|199:286,1,75,2|0,0:0|0:0,0:0:0:0:
48,312,190445,2,0,B|63:327|63:327|115:335,1,75,8|0,0:0|0:0,0:0:0:0:
199,286,190652,2,0,B|223:190|223:190|198:146,1,150,2|8,0:0|0:0,0:0:0:0:
160,76,190962,2,0,P|116:84|76:96,1,75,0|2,0:0|0:0,0:0:0:0:
116,176,191169,1,0,0:0:0:0:
198,146,191272,2,0,P|234:155|271:162,1,75,8|0,0:0|0:0,0:0:0:0:
488,80,191479,2,0,P|400:96|312:136,1,150,2|8,0:0|0:0,0:0:0:0:
271,162,191789,1,0,0:0:0:0:
232,232,191893,102,0,L|224:328,1,75,2|0,0:0|0:0,0:0:0:0:
344,284,192100,2,0,L|336:380,1,75,8|0,0:0|0:0,0:0:0:0:
468,188,192307,2,0,L|456:340,1,150,2|8,0:0|0:0,0:0:0:0:
344,284,192617,1,0,0:0:0:0:
344,284,192720,2,0,P|324:248|324:168,1,75,2|0,0:0|0:0,0:0:0:0:
324,112,192927,2,0,P|338:73|400:22,1,75,8|0,0:0|0:0,0:0:0:0:
457,48,193134,2,0,P|395:90|324:112,1,150,2|8,0:0|0:0,0:0:0:0:
248,124,193445,1,0,0:0:0:0:
192,72,193548,6,0,P|156:56|100:88,1,75,2|0,0:0|0:0,0:0:0:0:
0,180,193755,2,0,P|36:187|69:171,1,75,8|0,0:0|0:0,0:0:0:0:
208,188,193962,2,0,P|128:264|180:328,1,150,2|8,0:0|0:0,0:0:0:0:
184,348,194272,1,0,0:0:0:0:
264,340,194376,2,0,L|368:320,1,75,2|0,0:0|0:0,0:0:0:0:
504,288,194583,2,0,L|400:268,1,75,8|0,0:0|0:0,0:0:0:0:
264,356,194789,2,0,B|360:340|360:340|388:360|428:368,1,150,2|8,0:0|0:0,0:0:0:0:
480,360,195100,1,0,0:0:0:0:
504,288,195203,102,0,P|508:236|472:156,1,75,10|0,0:0|0:0,0:0:0:0:
400,100,195410,1,8,0:0:0:0:
348,120,195514,1,0,0:0:0:0:
336,173,195617,2,0,P|358:220|429:271,1,75,10|0,0:0|0:0,0:0:0:0:
488,124,195824,1,8,0:0:0:0:
488,64,195927,1,0,0:0:0:0:
452,20,196031,2,0,L|364:8,1,75,10|0,0:0|0:0,0:0:0:0:
288,64,196238,1,8,0:0:0:0:
244,100,196341,1,0,0:0:0:0:
192,96,196445,2,0,L|104:108,1,75,10|0,0:0|0:0,0:0:0:0:
44,212,196652,1,8,0:0:0:0:
84,260,196755,1,0,0:0:0:0:
140,276,196858,6,0,P|172:244|188:184,1,75,10|0,0:0|0:0,0:0:0:0:
260,264,197065,2,0,P|269:299|293:328,1,75,10|8,0:0|2:1,0:0:0:0:
304,340,197272,1,8,2:1:0:0:
304,340,197376,1,8,2:1:0:0:
304,340,197479,2,0,P|294:304|270:275,1,75,10|8,0:0|2:1,0:0:0:0:
283,287,197686,1,8,2:1:0:0:
283,287,197789,1,8,2:1:0:0:
284,288,197893,2,0,P|292:320|344:368,1,75,10|8,0:0|2:1,0:0:0:0:
460,276,198100,2,0,L|385:281,1,75,10|8,0:0|0:0,0:0:0:0:
160,216,198307,2,0,L|44:208,1,75,8|8,0:0|0:0,0:0:0:0:
84,88,198514,6,0,B|108:84|108:84|116:116|116:116|204:100|252:160,1,180.000006866455,6|8,0:0|0:0,0:0:0:0:
280,208,198824,1,0,0:0:0:0:
284,288,198927,1,10,0:2:0:0:
332,40,199134,2,0,B|312:68|312:68|312:104|312:104|280:156|280:208,1,180.000006866455,8|2,0:0|0:0,0:0:0:0:
284,288,199445,1,0,0:0:0:0:
320,364,199548,1,8,0:0:0:0:
480,236,199755,2,0,L|456:36,1,180.000006866455,10|8,0:2|0:0,0:0:0:0:
284,288,200169,5,2,0:0:0:0:
224,344,200272,1,0,0:0:0:0:
148,328,200376,2,0,P|108:312|40:332,1,90.0000034332277,8|0,0:0|0:0,0:0:0:0:
12,164,200583,2,0,P|52:184|84:232,1,90.0000034332277,10|0,0:2|0:0,0:0:0:0:
208,232,200789,2,0,P|224:184|208:116,1,90.0000034332277,8|0,0:0|0:0,0:0:0:0:
248,40,200996,1,2,0:0:0:0:
168,12,201100,1,0,0:0:0:0:
92,48,201203,2,0,L|128:160,1,90.0000034332277,8|0,0:0|0:0,0:0:0:0:
312,228,201410,2,0,L|408:208,1,90.0000034332277,10|0,0:2|0:0,0:0:0:0:
336,57,201617,2,0,L|248:40,1,90.0000034332277,8|0,0:0|0:0,0:0:0:0:
12,164,201824,102,0,B|24:172|60:180|60:180|76:208|76:208|160:196|200:236,1,180.000006866455,6|8,0:0|0:0,0:0:0:0:
236,256,202134,1,0,0:0:0:0:
288,320,202238,1,10,0:2:0:0:
389,178,202445,2,0,B|375:204|347:220|347:220|283:216|236:256,1,180.000006866455,8|2,0:0|0:0,0:0:0:0:
192,324,202755,1,0,0:0:0:0:
112,336,202858,1,8,0:0:0:0:
24,72,203065,2,0,L|240:88,1,180.000006866455,10|8,0:2|0:0,0:0:0:0:
428,52,203479,5,2,0:0:0:0:
476,120,203583,1,0,0:0:0:0:
484,200,203686,2,0,P|484:256|456:328,1,90.0000034332277,8|0,0:0|0:0,0:0:0:0:
376,156,203893,2,0,P|348:104|308:60,1,90.0000034332277,10|0,0:2|0:0,0:0:0:0:
316,276,204100,2,0,P|284:312|216:352,1,90.0000034332277,8|0,0:0|0:0,0:0:0:0:
200,216,204307,2,0,P|148:204|80:208,1,90.0000034332277,2|0,0:0|0:0,0:0:0:0:
48,260,204514,1,12,0:2:0:0:
80,340,204617,1,8,0:0:0:0:
164,360,204720,2,0,P|250:336|316:276,1,180.000006866455,10|8,0:2|0:0,0:0:0:0:
488,52,205134,102,0,B|468:80|468:80|448:64|448:64|408:148|292:140,1,180.000006866455,6|8,0:0|0:0,0:0:0:0:
276,128,205445,1,0,0:0:0:0:
212,80,205548,1,10,0:2:0:0:
102,168,205755,2,0,P|186:137|276:128,1,180.000006866455,8|2,0:0|0:0,0:0:0:0:
357,135,206065,1,0,0:0:0:0:
428,176,206169,1,8,0:0:0:0:
272,340,206376,2,0,L|508:312,1,180.000006866455,10|8,0:2|0:0,0:0:0:0:
240,244,206789,5,2,0:0:0:0:
168,284,206893,1,0,0:0:0:0:
88,264,206996,2,0,B|80:244|64:224|64:224|48:160,1,90.0000034332277,8|0,0:0|0:0,0:0:0:0:
216,56,207203,2,0,B|200:84|184:104|184:104|173:145,1,90.0000034332277,10|0,0:2|0:0,0:0:0:0:
240,244,207410,2,0,B|260:268|292:280|292:280|376:264,1,90.0000034332277,8|0,0:0|0:0,0:0:0:0:
460,236,207617,2,0,L|484:124,1,90.0000034332277,2|0,0:0|0:0,0:0:0:0:
344,76,207824,2,0,B|352:148|352:148|344:188,1,90.0000034332277,8|0,0:0|0:0,0:0:0:0:
317,275,208031,1,10,0:2:0:0:
261,344,208134,1,0,0:0:0:0:
176,364,208237,1,8,0:0:0:0:
96,324,208341,1,0,0:0:0:0:
59,243,208445,102,0,B|56:204|56:204|72:136,1,90.0000034332277,2|0,0:0|0:0,0:0:0:0:
236,116,208652,2,0,B|217:151|217:151|166:199,1,90.0000034332277,8|0,0:0|0:0,0:0:0:0:
59,243,208858,2,0,P|24:172|100:52,1,180.000006866455,10|8,0:2|0:0,0:0:0:0:
128,32,209169,1,0,0:0:0:0:
212,32,209272,2,0,L|356:44,1,90.0000034332277,2|0,0:0|0:0,0:0:0:0:
484,112,209479,2,0,P|441:113|340:124,1,90.0000034332277,8|0,0:0|0:0,0:0:0:0:
181,186,209686,2,0,P|273:198|405:262,1,180.000006866455,10|8,0:2|0:0,0:0:0:0:
424,280,209996,1,0,0:0:0:0:
462,198,210100,6,0,P|467:153|484:112,1,90.0000034332277,2|0,0:0|0:0,0:0:0:0:
301,39,210307,2,0,P|317:80|322:125,1,90.0000034332277,2|0,0:0|2:0,0:0:0:0:
322,125,210720,2,0,P|306:83|301:39,1,90.0000034332277,2|0,0:0|2:0,0:0:0:0:
301,39,211134,2,0,P|317:80|322:125,1,90.0000034332277,10|0,0:2|2:0,0:0:0:0:
320,240,211341,2,0,P|292:288|240:332,1,90.0000034332277
164,344,211548,2,0,P|128:344|44:320,1,90.0000034332277,8|0,0:0|0:0,0:0:0:0:
20,188,211755,102,0,B|28:168|28:168|44:176|44:176|80:116|160:108,1,180.000006866455,6|8,0:0|0:0,0:0:0:0:
244,100,212065,1,0,0:0:0:0:
322,125,212169,1,10,0:2:0:0:
77,52,212376,2,0,B|108:44|108:44|176:88|244:100,1,180.000006866455,8|2,0:0|0:0,0:0:0:0:
328,104,212686,1,0,0:0:0:0:
400,64,212789,1,8,0:0:0:0:
497,268,212996,2,0,L|320:240,1,180.000006866455,10|8,0:2|0:0,0:0:0:0:
172,288,213410,6,0,P|136:312|56:316,1,90.0000034332277,2|0,0:0|0:0,0:0:0:0:
96,104,213617,2,0,P|124:136|136:216,1,90.0000034332277,8|0,0:0|0:0,0:0:0:0:
12,280,213824,2,0,P|10:237|32:184,1,90.0000034332277,10|0,0:2|0:0,0:0:0:0:
96,104,214031,2,0,P|144:88|204:96,1,90.0000034332277,8|0,0:0|0:0,0:0:0:0:
256,120,214238,1,2,0:0:0:0:
340,108,214341,1,0,0:0:0:0:
400,52,214445,1,8,0:0:0:0:
448,120,214548,1,0,0:0:0:0:
468,200,214652,2,0,P|468:244|440:336,1,90.0000034332277,10|0,0:2|0:0,0:0:0:0:
320,376,214858,2,0,P|344:332|360:240,1,90.0000034332277,8|0,0:0|0:0,0:0:0:0:
400,52,215065,102,0,B|384:68|384:68|396:88|396:88|372:156|324:220,1,180.000006866455,6|8,0:0|0:0,0:0:0:0:
268,260,215376,1,0,0:0:0:0:
188,288,215479,1,10,0:2:0:0:
68,108,215686,2,0,B|88:128|116:120|116:120|140:180|188:196|188:196|202:209,1,180.000006866455,8|2,0:0|0:0,0:0:0:0:
268,260,215996,1,0,0:0:0:0:
348,288,216100,1,8,0:0:0:0:
488,80,216307,2,0,L|276:104,1,180.000006866455,10|8,0:2|0:0,0:0:0:0:
68,108,216720,5,2,0:0:0:0:
32,188,216823,1,0,0:0:0:0:
59,272,216926,1,8,0:0:0:0:
134,316,217030,1,0,0:0:0:0:
221,299,217134,2,0,L|328:320,1,90.0000034332277,10|0,0:2|0:0,0:0:0:0:
512,260,217341,2,0,L|405:280,1,90.0000034332277,8|0,0:0|0:0,0:0:0:0:
184,232,217548,2,0,P|220:244|300:296,1,90.0000034332277,2|0,0:0|0:0,0:0:0:0:
460,220,217755,2,0,P|424:232|344:284,1,90.0000034332277,12|8,0:2|0:0,0:0:0:0:
114,358,217962,2,0,P|206:322|286:238,1,180.000006866455,10|8,0:2|0:0,0:0:0:0:
444,64,218376,102,0,B|384:96|323:62|323:62|282:105|216:102,1,180.000006866455,14|8,0:0|0:0,0:0:0:0:
204,120,218686,1,0,0:0:0:0:
124,96,218789,1,14,0:2:0:0:
377,167,218996,2,0,L|204:120,1,180.000006866455,8|10,0:0|0:0,0:0:0:0:
124,96,219307,1,0,0:0:0:0:
48,72,219410,1,8,0:0:0:0:
104,320,219617,2,0,P|132:260|52:308,1,180.000006866455,14|8,0:2|0:0,0:0:0:0:
268,308,220031,6,0,B|312:320|312:320|376:368,1,90.0000034332277,10|0,0:0|0:0,0:0:0:0:
488,336,220238,1,8,0:0:0:0:
512,256,220341,1,0,0:0:0:0:
448,200,220445,2,0,B|404:212|404:212|340:260,1,90.0000034332277,14|0,0:2|0:0,0:0:0:0:
264,216,220652,1,8,0:0:0:0:
240,136,220755,1,0,0:0:0:0:
292,72,220858,2,0,P|336:84|372:112,1,90.0000034332277,10|0,0:0|0:0,0:0:0:0:
448,200,221065,2,0,P|404:212|368:240,1,90.0000034332277,8|0,0:0|0:0,0:0:0:0:
268,308,221272,2,0,P|312:320|348:348,1,90.0000034332277,14|0,0:2|0:0,0:0:0:0:
468,332,221479,2,0,P|497:298|512:256,1,90.0000034332277,8|0,0:0|0:0,0:0:0:0:
504,120,221686,101,10,0:0:0:0:
473,61,221789,1,8,0:0:0:0:
413,31,221892,1,8,0:0:0:0:
348,43,221996,1,8,0:0:0:0:
303,91,222099,1,14,0:2:0:0:
247,57,222203,1,8,0:0:0:0:
183,71,222306,1,8,0:0:0:0:
147,127,222410,1,8,0:0:0:0:
161,191,222514,1,10,0:0:0:0:
121,243,222617,1,8,0:0:0:0:
131,308,222720,1,8,0:0:0:0:
184,345,222824,1,8,0:0:0:0:
249,332,222927,1,14,0:2:0:0:
239,267,223030,1,8,0:0:0:0:
270,208,223133,1,8,0:0:0:0:
331,181,223238,1,8,0:0:0:0:
395,196,223341,6,0,L|510:218,1,90.0000034332277,10|8,0:0|0:0,0:0:0:0:
420,40,223548,2,0,L|316:56,3,90.0000034332277,10|8|12|8,0:0|0:0|0:2|0:0,0:0:0:0:
248,128,223962,2,0,L|152:108,3,90.0000034332277,10|8|8|8,0:0|0:0|0:0|0:0,0:0:0:0:
48,116,224376,2,0,P|52:144|68:176,11,45.0000017166138,10|8|8|12|8|8|8|8|8|8|8|8,0:2|0:0|0:0|0:2|0:0|0:0|0:0|0:0|0:0|0:0|0:0|0:0,0:0:0:0:
80,80,224996,6,0,B|40:224|160:276|160:276|208:292|244:312|244:312|224:264|240:216|240:216|124:192|160:108|160:108|228:148|300:128|300:128|448:80|496:120|556:292|508:416|272:408|208:324|268:136|384:160|440:180|364:272,1,1380,0|0,0:0|0:0,2:0:0:0:
420,312,227479,6,0,P|468:256|452:152,1,180,0|0,0:0|2:0,0:0:0:0:
455,156,227893,2,0,P|408:260|248:252,1,270.000010299683,8|0,0:0|2:0,0:0:0:0:
196,204,228307,6,0,B|184:184|184:184|184:216|184:216|136:176|80:184,1,167.999994873047,6|8,0:0|0:0,0:0:0:0:
4,252,228617,1,0,0:0:0:0:
24,324,228720,2,0,P|59:349|140:368,1,83.9999974365235,2|0,0:0|2:0,0:0:0:0:
266,266,228927,2,0,P|224:300|160:328,1,83.9999974365235,0|0,0:0|2:0,0:0:0:0:
79,184,229134,2,0,L|68:112,1,41.9999987182618,10|0,0:3|3:0,0:0:0:0:
316,40,229341,2,0,L|300:128,1,83.9999974365235,10|0,0:3|3:0,0:0:0:0:
360,204,229548,2,0,B|420:204|480:156|480:156|465:183|460:212,1,167.999994873047,2|8,0:0|0:0,0:0:0:0:
500,308,229858,1,0,0:0:0:0:
432,348,229962,6,0,L|244:312,1,167.999994873047,2|8,0:0|0:0,0:0:0:0:
108,184,230272,1,0,0:0:0:0:
56,244,230376,2,0,L|84:348,1,83.9999974365235,2|0,0:0|2:0,0:0:0:0:
208,144,230583,2,0,L|229:62,1,83.9999974365235,0|0,0:0|2:0,0:0:0:0:
60,72,230789,2,0,P|89:82|128:80,1,41.9999987182618,10|0,0:3|3:0,0:0:0:0:
472,104,230996,2,0,P|424:112|388:120,1,83.9999974365235,10|0,0:3|3:0,0:0:0:0:
300,176,231203,1,2,0:0:0:0:
431,347,231410,2,0,L|447:265,1,83.9999974365235,8|0,0:0|0:0,0:0:0:0:
476,88,231617,102,0,B|416:92|372:76|372:76|392:108|396:136,1,167.999994873047,6|8,0:0|0:0,0:0:0:0:
332,264,231927,1,0,0:0:0:0:
272,320,232031,2,0,P|244:336|152:344,1,83.9999974365235,2|0,0:0|2:0,0:0:0:0:
4,240,232238,2,0,P|32:256|124:264,1,83.9999974365235,0|0,0:0|2:0,0:0:0:0:
212,192,232445,2,0,B|204:212|204:212|212:232,1,41.9999987182618,10|0,0:3|3:0,0:0:0:0:
72,36,232652,2,0,B|84:72|84:72|68:116,1,83.9999974365235,10|0,0:3|3:0,0:0:0:0:
316,32,232858,2,0,B|196:68|196:68|260:108,1,167.999994873047,2|8,0:0|0:0,0:0:0:0:
288,168,233169,1,0,0:0:0:0:
384,164,233272,6,0,P|432:176|432:80,1,167.999994873047,2|8,0:0|0:0,0:0:0:0:
288,168,233583,2,0,P|296:216|324:264,1,83.9999974365235,0|2,0:0|0:0,0:0:0:0:
396,340,233789,2,0,P|428:316|508:312,2,83.9999974365235
232,336,234100,2,0,L|276:344,1,41.9999987182618,10|0,0:3|3:0,0:0:0:0:
232,90,234307,2,0,L|112:106,1,83.9999974365235,10|0,0:3|3:0,0:0:0:0:
68,180,234514,2,0,B|64:228|92:264|92:264|40:260|40:200,1,167.999994873047,2|8,0:0|0:0,0:0:0:0:
40,36,234824,1,0,0:0:0:0:
112,80,234927,102,0,L|308:104,1,167.999994873047,6|8,0:0|0:0,0:0:0:0:
512,88,235238,1,0,0:0:0:0:
448,37,235341,2,0,P|408:46|372:68,1,83.9999974365235,2|0,0:0|2:0,0:0:0:0:
408,252,235548,2,0,P|423:213|426:171,1,83.9999974365235,0|0,0:0|2:0,0:0:0:0:
236,94,235755,2,0,L|278:100,1,41.9999987182618,10|0,0:3|3:0,0:0:0:0:
340,348,235962,2,0,L|240:368,1,83.9999974365235,10|0,0:3|3:0,0:0:0:0:
152,320,236169,2,0,B|120:288|120:288|76:280|76:280|60:320|60:320|112:308,1,167.999994873047,2|8,0:0|0:0,0:0:0:0:
96,140,236479,1,0,0:0:0:0:
152,212,236583,6,0,B|164:184|120:112|120:112|152:96|168:56,1,167.999994873047,2|8,0:0|0:0,0:0:0:0:
80,24,236893,1,0,0:0:0:0:
16,64,236996,2,0,L|-4:188,1,83.9999974365235,2|0,0:0|2:0,0:0:0:0:
236,132,237203,2,0,L|364:112,1,83.9999974365235,0|0,0:0|2:0,0:0:0:0:
436,40,237410,2,0,P|415:45|397:56,1,41.9999987182618,10|0,0:3|3:0,0:0:0:0:
404,260,237617,2,0,P|428:288|500:304,1,83.9999974365235,10|0,0:3|3:0,0:0:0:0:
484,216,237824,1,0,0:0:0:0:
320,348,238031,2,0,L|212:328,1,83.9999974365235,8|0,0:0|2:0,0:0:0:0:
144,264,238238,102,0,B|124:256|124:256|92:288|92:288|24:248|48:192,1,167.999994873047,6|8,0:0|0:0,0:0:0:0:
128,140,238548,1,0,0:0:0:0:
184,80,238652,2,0,P|200:48|200:-16,1,83.9999974365235,2|0,0:0|2:0,0:0:0:0:
23,127,238858,2,0,P|25:168|42:206,1,83.9999974365235,0|0,0:0|2:0,0:0:0:0:
144,264,239065,2,0,L|264:280,1,83.9999974365235,2|0,0:0|2:0,0:0:0:0:
328,140,239272,2,0,L|208:156,1,83.9999974365235,10|0,0:3|3:0,0:0:0:0:
96,272,239479,2,0,L|280:296,1,167.999994873047,2|8,0:0|0:0,0:0:0:0:
340,264,239789,1,0,0:0:0:0:
262,294,239893,6,0,L|124:276,1,83.9999974365235,2|0,0:0|2:0,0:0:0:0:
42,206,240100,2,0,L|180:187,1,83.9999974365235,2|0,0:0|2:0,0:0:0:0:
16,144,240514,2,0,L|145:197,1,83.9999974365235,2|0,0:0|2:0,0:0:0:0:
24,77,240927,2,0,L|56:116,1,41.9999987182618,14|0,0:3|3:0,0:0:0:0:
40,48,241031,2,0,L|64:100,1,41.9999987182618,10|0,0:3|3:0,0:0:0:0:
64,23,241134,2,0,L|82:161,1,83.9999974365235,2|0,0:0|2:0,0:0:0:0:
16,236,241341,2,0,P|24:264|116:312,1,83.9999974365235,8|0,0:0|2:0,0:0:0:0:
179,283,241548,102,0,B|198:301|198:301|208:283|208:283|224:297|224:297|280:288|321:312,1,167.999994873047,6|8,0:0|0:0,0:0:0:0:
492,376,241858,1,0,0:0:0:0:
440,316,241962,2,0,B|420:280|420:280|408:212,1,83.9999974365235,10|0,0:2|2:0,0:0:0:0:
508,80,242169,2,0,B|500:122|500:122|480:158,1,83.9999974365235,8|0,0:0|0:0,0:0:0:0:
368,64,242376,2,0,B|392:72|392:72|408:84,1,41.9999987182618,10|0,0:3|3:0,0:0:0:0:
321,312,242583,2,0,B|284:292|284:292|236:276,1,83.9999974365235,10|0,0:3|3:0,0:0:0:0:
52,276,242789,2,0,B|136:256|136:256|208:176,1,167.999994873047,10|8,0:2|0:0,0:0:0:0:
180,48,243100,1,0,0:0:0:0:
104,40,243203,6,0,P|40:116|88:208,1,167.999994873047,2|8,0:0|0:0,0:0:0:0:
204,288,243514,1,0,0:0:0:0:
129,304,243617,2,0,P|87:297|51:275,1,83.9999974365235,10|0,0:2|2:0,0:0:0:0:
124,124,243824,2,0,P|159:102|201:95,1,83.9999974365235,0|0,0:0|2:0,0:0:0:0:
336,64,244031,2,0,P|316:56|284:32,1,41.9999987182618,10|0,0:3|3:0,0:0:0:0:
460,192,244238,2,0,P|412:208|356:248,1,83.9999974365235,10|0,0:3|3:0,0:0:0:0:
320,304,244445,2,0,B|300:328|296:348|296:348|392:328|392:328|372:312|352:304,1,167.999994873047,10|8,0:2|0:0,0:0:0:0:
252,224,244755,1,0,0:0:0:0:
204,288,244858,102,0,B|192:312|184:340|184:340|108:288|120:196,1,167.999994873047,6|8,0:0|0:0,0:0:0:0:
112,76,245169,1,0,0:0:0:0:
40,104,245272,2,0,L|20:228,1,83.9999974365235,10|0,0:2|2:0,0:0:0:0:
236,96,245479,2,0,L|222:13,1,83.9999974365235,0|0,0:0|2:0,0:0:0:0:
236,96,245686,2,0,L|248:160,1,41.9999987182618,10|0,0:3|3:0,0:0:0:0:
320,352,245893,2,0,L|336:244,1,83.9999974365235,10|0,0:3|3:0,0:0:0:0:
344,80,246100,2,0,B|357:55|357:55|380:72|380:72|417:42|471:58|471:58|437:92,1,167.999994873047,10|8,0:2|0:0,0:0:0:0:
368,172,246410,1,0,0:0:0:0:
296,196,246514,6,0,P|224:180|124:104,1,167.999994873047,2|8,0:0|0:0,0:0:0:0:
36,44,246824,1,0,0:0:0:0:
16,120,246927,2,0,P|20:168|68:248,1,83.9999974365235,10|0,0:2|2:0,0:0:0:0:
104,296,247134,2,0,P|143:323|235:338,1,83.9999974365235,0|0,0:0|2:0,0:0:0:0:
320,292,247341,2,0,P|296:304|264:340,1,41.9999987182618,10|0,0:3|3:0,0:0:0:0:
420,124,247548,2,0,P|404:164|408:232,1,83.9999974365235,10|0,0:3|3:0,0:0:0:0:
360,16,247755,2,0,P|412:80|528:56,1,167.999994873047,10|8,0:2|0:0,0:0:0:0:
468,244,248065,1,0,0:0:0:0:
401,204,248169,102,0,L|253:184,1,83.9999974365235,6|0,0:0|2:0,0:0:0:0:
220,80,248376,1,8,0:0:0:0:
401,204,248583,1,10,0:2:0:0:
220,80,248789,1,8,0:0:0:0:
212,272,248996,2,0,P|180:288|112:288,1,83.9999974365235,2|0,0:0|2:0,0:0:0:0:
24,240,249203,1,8,0:0:0:0:
212,272,249410,2,0,P|176:269|117:235,1,83.9999974365235,10|0,0:2|2:0,0:0:0:0:
65,150,249617,1,8,0:0:0:0:
220,80,249824,6,0,B|260:64|260:64|300:64,1,83.9999974365235,2|0,0:0|2:0,0:0:0:0:
384,136,250031,1,8,0:0:0:0:
220,80,250238,1,10,0:2:0:0:
384,136,250445,1,8,0:0:0:0:
232,272,250652,2,0,B|204:304|204:304|260:328,1,83.9999974365235,2|0,0:0|2:0,0:0:0:0:
316,280,250858,1,8,0:0:0:0:
464,96,251065,2,0,B|501:115|501:115|457:158,1,83.9999974365235,10|0,0:2|2:0,0:0:0:0:
384,136,251272,1,8,0:0:0:0:
216,172,251479,101,10,0:0:0:0:
174,170,251582,1,8,0:0:0:0:
135,155,251685,1,8,0:0:0:0:
103,128,251789,1,8,0:0:0:0:
82,92,251893,1,14,0:2:0:0:
90,133,251996,1,8,0:0:0:0:
89,175,252099,1,8,0:0:0:0:
78,215,252203,1,8,0:0:0:0:
55,249,252307,1,10,0:0:0:0:
58,186,252410,1,8,0:0:0:0:
90,133,252513,1,8,0:0:0:0:
144,101,252617,1,8,0:0:0:0:
206,99,252720,1,14,0:2:0:0:
192,160,252823,1,8,0:0:0:0:
212,218,252926,1,8,0:0:0:0:
262,257,253030,1,8,0:0:0:0:
322,257,253134,5,10,0:0:0:0:
267,194,253237,1,8,0:0:0:0:
192,160,253340,1,10,0:0:0:0:
108,161,253444,1,8,0:0:0:0:
33,197,253548,1,12,0:2:0:0:
111,226,253651,1,8,0:0:0:0:
191,208,253754,1,10,0:0:0:0:
248,147,253858,1,8,0:0:0:0:
260,64,253962,1,8,0:0:0:0:
184,130,254065,1,8,0:0:0:0:
192,232,254169,2,0,P|208:250|229:265,1,41.9999987182618,10|0,0:3|3:0,0:0:0:0:
276,284,254272,2,0,P|307:284|335:272,1,41.9999987182618,10|0,0:3|3:0,0:0:0:0:
370,245,254376,101,10,0:0:0:0:
414,155,254479,1,8,0:0:0:0:
334,93,254582,1,2,0:0:0:0:
248,147,254686,1,8,0:0:0:0:
248,147,256445,86,0,P|320:160|344:228,1,150
344,225,257065,2,0,L|428:112,1,135.000005149841
425,117,257479,6,0,L|248:146,1,180
248,146,257893,2,0,L|164:112,1,90.0000034332277
83,191,258100,70,0,B|103:187|103:187|111:203|111:203|135:183|135:183|147:195|147:195|203:179|183:119|183:119|151:107,1,204.000003890991,6|8,0:0|0:0,0:0:0:0:
64,88,258410,1,0,0:0:0:0:
56,288,258514,2,0,L|176:304,1,102.000001945496,10|0,0:2|2:0,0:0:0:0:
480,188,258720,2,0,B|463:191|423:179|423:179|279:207,1,204.000003890991,8|2,0:0|0:0,0:0:0:0:
416,280,259031,1,0,0:0:0:0:
304,104,259134,2,0,L|314:2,1,102.000001945496,8|0,0:0|2:0,0:0:0:0:
176,188,259341,2,0,B|176:164|200:136|200:136|148:116|104:176|152:240,1,204.000003890991,10|8,0:2|0:0,0:0:0:0:
232,292,259652,1,0,0:0:0:0:
56,288,259755,22,0,P|94:321|143:332,1,102.000001945496,2|0,0:0|0:0,0:0:0:0:
378,183,259962,2,0,L|278:206,1,102.000001945496,8|0,0:0|0:0,0:0:0:0:
324,304,260169,1,10,0:2:0:0:
376,88,260272,1,0,0:0:0:0:
472,140,260376,2,0,P|476:196|448:252,1,102.000001945496,8|0,0:0|0:0,0:0:0:0:
324,304,260583,2,0,B|368:316|368:316|416:368,1,102.000001945496,2|0,0:0|0:0,0:0:0:0:
184,260,260789,2,0,B|172:215|172:215|193:148,1,102.000001945496,8|0,0:0|0:0,0:0:0:0:
278,206,260996,1,10,0:2:0:0:
224,356,261100,1,0,0:0:0:0:
83,241,261203,2,0,L|184:260,1,102.000001945496,8|0,0:0|0:0,0:0:0:0:
440,100,261410,102,0,B|403:113|387:150|387:150|333:91|275:96,1,204.000003890991,6|8,0:0|0:0,0:0:0:0:
376,24,261720,1,0,0:0:0:0:
484,192,261824,2,0,P|456:244|440:332,1,102.000001945496,10|0,0:2|2:0,0:0:0:0:
196,312,262031,2,0,B|340:300|340:300|344:264|360:212,1,204.000003890991,8|2,0:0|0:0,0:0:0:0:
408,376,262341,1,0,0:0:0:0:
244,212,262445,2,0,L|120:200,1,102.000001945496,8|0,0:0|2:0,0:0:0:0:
128,40,262652,2,0,B|103:43|83:19|99:-12|175:-24|199:67|185:117,1,204.000003890991,10|8,0:2|0:0,0:0:0:0:
142,201,262962,1,0,0:0:0:0:
96,340,263065,22,0,B|81:307|81:307|80:295|80:295|73:298|73:298|71:285|71:285|53:246,1,102.000001945496,2|0,0:0|0:0,0:0:0:0:
244,212,263272,2,0,B|236:243|236:243|236:257|236:257|229:255|229:255|231:267|231:267|222:301,1,102.000001945496,8|0,0:0|0:0,0:0:0:0:
31,115,263479,2,0,B|117:112|163:63|163:63|207:175,1,204.000003890991,10|8,0:2|0:0,0:0:0:0:
142,201,263789,1,0,0:0:0:0:
344,204,263893,2,0,B|318:130|318:130|309:123|309:123|321:118|321:118|311:109|311:109|279:6,1,204.000003890991,2|12,0:0|0:2,0:0:0:0:
244,212,264203,1,8,0:0:0:0:
444,180,264307,2,0,B|432:148|432:148|472:144|472:144|494:184|494:184|468:224|468:224|404:200,1,204.000003890991,10|8,0:2|0:0,0:0:0:0:
40,252,264720,70,0,P|104:264|240:360,1,204.000003890991,6|8,0:0|0:0,0:0:0:0:
88,368,265031,1,0,0:0:0:0:
100,152,265134,2,0,P|80:116|72:32,1,102.000001945496,10|0,0:2|2:0,0:0:0:0:
251,161,265341,2,0,B|229:213|229:213|159:215|97:149,1,204.000003890991,8|2,0:0|0:0,0:0:0:0:
248,56,265652,1,0,0:0:0:0:
344,88,265755,2,0,L|360:216,1,102.000001945496,8|0,0:0|2:0,0:0:0:0:
284,320,265962,2,0,B|304:305|309:273|309:273|331:329|300:378|233:351|244:300,1,204.000003890991,10|8,0:2|0:0,0:0:0:0:
356,189,266272,1,0,0:0:0:0:
412,284,266376,22,0,P|412:332|392:384,1,102.000001945496,2|0,0:0|0:0,0:0:0:0:
172,148,266583,2,0,P|186:196|217:237,1,102.000001945496,8|0,0:0|0:0,0:0:0:0:
273,152,266789,1,10,0:2:0:0:
107,241,266893,1,0,0:0:0:0:
112,72,266996,2,0,L|244:52,1,102.000001945496,8|0,0:0|0:0,0:0:0:0:
332,56,267203,1,2,0:0:0:0:
406,150,267307,1,0,0:0:0:0:
352,44,267410,1,8,0:0:0:0:
432,152,267514,1,0,0:0:0:0:
448,324,267617,2,0,B|452:258|347:232|347:232|390:254|377:309,1,204.000003890991,10|8,0:2|0:0,0:0:0:0:
284,316,267927,1,0,0:0:0:0:
154,194,268031,102,0,L|256:184,1,102.000001945496,2|0,0:0|0:0,0:0:0:0:
8,100,268238,2,0,L|109:110,1,102.000001945496,8|0,0:0|0:0,0:0:0:0:
96,280,268445,2,0,B|32:308|32:308|40:268|28:196|28:196|64:200,1,204.000003890991,10|8,0:2|0:0,0:0:0:0:
216,80,268755,1,0,0:0:0:0:
216,80,268858,2,0,P|196:40|136:0,1,102.000001945496,2|0,0:0|0:0,0:0:0:0:
255,184,269065,2,0,P|297:198|368:185,1,102.000001945496,8|0,0:0|0:0,0:0:0:0:
312,104,269272,1,10,0:2:0:0:
200,256,269376,1,0,0:0:0:0:
399,279,269479,2,0,P|387:231|351:191,1,102.000001945496,8|0,0:0|0:0,0:0:0:0:
104,248,269686,22,0,L|84:364,1,102.000001945496,2|0,0:0|2:0,0:0:0:0:
40,32,269893,2,0,L|60:148,1,102.000001945496,2|0,0:0|2:0,0:0:0:0:
454,132,270307,2,0,L|472:32,1,102.000001945496,2|0,0:0|2:0,0:0:0:0:
40,32,270720,2,0,L|60:148,1,102.000001945496,10|0,0:2|2:0,0:0:0:0:
144,72,270927,1,0,0:0:0:0:
240,120,271031,1,0,0:0:0:0:
152,168,271134,1,8,0:0:0:0:
232,24,271238,1,0,0:0:0:0:
328,72,271341,70,0,B|352:72|352:72|356:88|356:88|396:80|396:80|456:112|484:176,1,204.000003890991,6|8,0:0|0:0,0:0:0:0:
464,352,271652,1,0,0:0:0:0:
380,300,271755,2,0,P|372:249|377:187,1,102.000001945496,10|0,0:2|2:0,0:0:0:0:
244,148,271962,2,0,P|280:232|248:344,1,204.000003890991,8|2,0:0|0:0,0:0:0:0:
132,212,272272,2,0,P|172:220|164:284,2,102.000001945496,0|8|0,0:0|0:0|2:0,0:0:0:0:
12,236,272583,2,0,B|110:196|110:196|152:160|146:67,1,204.000003890991,10|8,0:2|0:0,0:0:0:0:
24,112,272893,1,0,0:0:0:0:
76,320,272996,22,0,L|180:372,1,102.000001945496,2|0,0:0|0:0,0:0:0:0:
267,228,273203,2,0,L|163:280,1,102.000001945496,8|0,0:0|0:0,0:0:0:0:
268,336,273410,1,10,0:2:0:0:
176,168,273514,1,0,0:0:0:0:
348,280,273617,2,0,B|364:232|364:232|356:168,1,102.000001945496,8|0,0:0|0:0,0:0:0:0:
488,20,273824,2,0,B|472:56|448:88|448:88|468:212,1,204.000003890991,2|8,0:0|0:0,0:0:0:0:
440,324,274134,1,0,0:0:0:0:
357,180,274238,2,0,P|285:148|225:144,1,102.000001945496,10|0,0:2|0:0,0:0:0:0:
48,112,274445,2,0,P|120:80|180:76,1,102.000001945496,8|0,0:0|0:0,0:0:0:0:
419,85,274652,102,0,B|414:96|414:96|382:76|382:76|370:104|370:104|350:96|350:96|310:136|262:144,1,204.000003890991,6|8,0:0|0:0,0:0:0:0:
124,180,274962,1,0,0:0:0:0:
48,112,275065,2,0,P|40:68|64:0,1,102.000001945496,10|0,0:2|2:0,0:0:0:0:
212,240,275272,2,0,B|224:292|196:336|196:336|308:312,1,204.000003890991,8|2,0:0|0:0,0:0:0:0:
364,232,275583,1,0,0:0:0:0:
120,272,275686,2,0,L|8:256,1,102.000001945496,8|0,0:0|2:0,0:0:0:0:
168,144,275893,2,0,B|144:152|124:180|124:180|96:88|208:104,1,204.000003890991,10|8,0:2|0:0,0:0:0:0:
280,144,276203,1,0,0:0:0:0:
376,104,276307,22,0,P|424:96|492:52,1,102.000001945496,2|0,0:0|0:0,0:0:0:0:
308,72,276514,1,8,0:0:0:0:
352,180,276617,1,0,0:0:0:0:
432,256,276720,2,0,P|456:300|464:380,1,102.000001945496,10|0,0:2|0:0,0:0:0:0:
248,320,276927,2,0,B|297:336|297:336|364:340,1,102.000001945496,8|0,0:0|0:0,0:0:0:0:
451,160,277134,2,0,B|400:164|400:164|351:179,1,102.000001945496,2|0,0:0|0:0,0:0:0:0:
224,244,277341,1,12,0:2:0:0:
304,104,277445,1,8,0:0:0:0:
451,160,277548,2,0,B|436:148|436:148|423:176|423:176|400:164|400:164|351:180|351:180|288:204|248:160,1,204.000003890991,10|8,0:2|0:0,0:0:0:0:
40,52,277962,70,0,B|52:64|52:64|44:96|44:96|56:112|56:112|100:260,1,204.000003890991,6|8,0:0|0:0,0:0:0:0:
160,104,278272,1,0,0:0:0:0:
276,181,278376,2,0,B|264:193|264:193|236:193|236:193|144:225,1,102.000001945496,10|0,0:2|2:0,0:0:0:0:
8,316,278583,2,0,B|180:352|180:352|136:304,1,204.000003890991,8|2,0:0|0:0,0:0:0:0:
160,104,278893,1,0,0:0:0:0:
276,181,278996,2,0,B|284:201|284:201|256:321,1,102.000001945496,8|0,0:0|2:0,0:0:0:0:
424,320,279203,2,0,B|418:289|398:265|398:265|430:126,1,204.000003890991,10|8,0:2|0:0,0:0:0:0:
508,252,279514,1,0,0:0:0:0:
336,48,279617,22,0,L|208:32,1,102.000001945496,2|0,0:0|0:0,0:0:0:0:
40,128,279824,2,0,L|168:112,1,102.000001945496,8|0,0:0|0:0,0:0:0:0:
268,60,280031,2,0,L|396:44,1,102.000001945496,10|0,0:2|0:0,0:0:0:0:
188,156,280238,2,0,L|86:143,1,102.000001945496,8|0,0:0|0:0,0:0:0:0:
344,12,280445,2,0,P|324:36|296:152,1,102.000001945496,2|0,0:0|0:0,0:0:0:0:
144,184,280652,2,0,P|127:135|97:95,1,102.000001945496,8|0,0:0|0:0,0:0:0:0:
216,88,280858,1,10,0:2:0:0:
44,176,280962,1,0,0:0:0:0:
252,200,281065,1,8,0:0:0:0:
80,288,281169,1,0,0:0:0:0:
172,352,281272,102,0,P|236:328|212:268,1,102.000001945496,2|0,0:0|0:0,0:0:0:0:
97,95,281479,2,0,P|100:143|145:162,1,102.000001945496,8|0,0:0|0:0,0:0:0:0:
357,111,281686,2,0,P|305:91|293:227,1,204.000003890991,10|8,0:2|0:0,0:0:0:0:
464,156,281996,2,0,B|476:108|476:108|468:48,1,102.000001945496,0|2,0:0|0:0,0:0:0:0:
248,80,282203,1,0,0:0:0:0:
372,224,282307,2,0,B|365:276|365:276|377:324,1,102.000001945496,8|0,0:0|0:0,0:0:0:0:
464,276,282514,2,0,B|332:252|332:252|220:300,1,204.000003890991,10|8,0:2|0:0,0:0:0:0:
184,348,282824,1,0,0:0:0:0:
48,208,282927,22,0,L|72:306,1,102.000001945496,2|0,0:0|2:0,0:0:0:0:
124,32,283134,2,0,L|99:130,1,102.000001945496,2|0,0:0|2:0,0:0:0:0:
412,130,283548,2,0,L|388:32,1,102.000001945496,2|0,0:0|2:0,0:0:0:0:
124,32,283962,2,0,L|99:130,1,102.000001945496,10|0,0:2|2:0,0:0:0:0:
76,216,284169,1,0,0:0:0:0:
12,148,284272,1,0,0:0:0:0:
164,192,284376,1,8,0:0:0:0:
52,300,284479,1,0,0:0:0:0:
43,64,284583,38,0,P|79:38|124:32,1,90.0000034332277,6|0,0:0|0:0,0:0:0:0:
324,164,284789,2,0,P|279:157|242:132,1,90.0000034332277,8|0,0:0|0:0,0:0:0:0:
408,40,284996,2,0,L|432:236,1,180.000006866455,10|8,0:2|0:0,0:0:0:0:
384,304,285307,1,0,0:0:0:0:
304,356,285410,2,0,L|196:344,1,90.0000034332277,2|0,0:0|0:0,0:0:0:0:
72,248,285617,2,0,L|180:236,1,90.0000034332277,8|0,0:0|0:0,0:0:0:0:
384,304,285824,2,0,B|360:320|360:320|324:316|324:316|252:344|208:332,1,180.000006866455,10|8,0:2|0:0,0:0:0:0:
112,344,286134,1,0,0:0:0:0:
72,248,286238,6,0,B|56:208|56:208|60:144,1,90.0000034332277,2|0,0:0|0:0,0:0:0:0:
156,196,286445,1,8,0:0:0:0:
156,196,286548,1,0,0:0:0:0:
216,92,286652,2,0,B|252:176|252:176|244:284,1,180.000006866455,10|8,0:2|0:0,0:0:0:0:
152,296,286962,1,0,0:0:0:0:
340,236,287065,1,2,0:0:0:0:
308,332,287169,1,0,0:0:0:0:
245,264,287272,2,0,L|256:128,1,90.0000034332277,8|0,0:0|0:0,0:0:0:0:
382,125,287479,2,0,L|404:304,1,180.000006866455,10|8,0:2|0:0,0:0:0:0:
504,272,287789,1,0,0:0:0:0:
480,168,287893,102,0,P|480:120|512:56,1,90.0000034332277,2|0,0:0|0:0,0:0:0:0:
272,104,288100,2,0,P|293:143|299:187,1,90.0000034332277,8|0,0:0|0:0,0:0:0:0:
60,248,288307,2,0,P|108:184|224:192,1,180.000006866455,10|8,0:2|0:0,0:0:0:0:
156,264,288617,1,0,0:0:0:0:
40,136,288720,2,0,B|24:96|24:96|28:48,1,90.0000034332277,2|0,0:0|0:0,0:0:0:0:
215,92,288927,2,0,B|218:138|218:138|202:178,1,90.0000034332277,8|0,0:0|0:0,0:0:0:0:
60,248,289134,2,0,P|128:264|212:336,1,180.000006866455,10|8,0:2|0:0,0:0:0:0:
312,360,289445,1,0,0:0:0:0:
396,300,289548,6,0,L|408:184,1,90.0000034332277,2|0,0:0|0:0,0:0:0:0:
300,136,289755,2,0,L|309:225,1,90.0000034332277,8|0,0:0|0:0,0:0:0:0:
488,328,289962,2,0,L|508:88,1,180.000006866455,10|8,0:2|0:0,0:0:0:0:
496,64,290272,1,0,0:0:0:0:
380,28,290376,2,0,P|389:72|417:105,1,90.0000034332277,2|0,0:0|0:0,0:0:0:0:
300,136,290583,2,0,P|252:104|184:112,1,90.0000034332277,12|0,0:2|0:0,0:0:0:0:
88,216,290789,2,0,B|136:256|212:232|212:232|236:160,1,180.000006866455,2|0,0:0|0:0,0:0:0:0:
220,101,291100,1,0,0:0:0:0:
308,228,291203,102,0,L|276:332,1,90.0000034332277,2|0,0:0|0:0,0:0:0:0:
472,272,291410,2,0,L|348:308,1,90.0000034332277,8|0,0:0|0:0,0:0:0:0:
432,192,291617,2,0,B|392:204|392:204|408:96|408:96|444:112,1,180.000006866455,10|8,0:2|0:0,0:0:0:0:
512,156,291927,1,0,0:0:0:0:
424,8,292031,2,0,P|356:16|312:72,1,90.0000034332277,2|0,0:0|0:0,0:0:0:0:
304,120,292238,2,0,P|236:112|192:56,1,90.0000034332277,8|0,0:0|0:0,0:0:0:0:
72,40,292445,2,0,B|116:72|124:148|124:148|96:168|84:200,1,180.000006866455,10|8,0:2|0:0,0:0:0:0:
172,232,292755,1,0,0:0:0:0:
16,304,292858,6,0,B|60:308|60:308|100:280,1,90.0000034332277,2|0,0:0|0:0,0:0:0:0:
260,344,293065,2,0,B|222:317|222:317|178:321,1,90.0000034332277,8|0,0:0|0:0,0:0:0:0:
271,136,293272,2,0,B|264:236|264:236|328:284,1,180.000006866455,10|8,0:2|0:0,0:0:0:0:
424,244,293583,1,0,0:0:0:0:
404,332,293686,1,2,0:0:0:0:
348,196,293789,1,0,0:0:0:0:
424,152,293893,2,0,P|468:160|516:220,1,90.0000034332277,8|0,0:0|0:0,0:0:0:0:
480,20,294100,2,0,P|400:72|252:44,1,180.000006866455,10|8,0:2|0:0,0:0:0:0:
240,28,294410,1,0,0:0:0:0:
229,204,294514,102,0,L|244:116,1,90.0000034332277,2|0,0:0|0:0,0:0:0:0:
112,144,294720,2,0,L|126:55,1,90.0000034332277,8|0,0:0|0:0,0:0:0:0:
116,276,294927,2,0,L|145:98,1,180.000006866455,10|8,0:2|0:0,0:0:0:0:
240,28,295238,1,0,0:0:0:0:
240,28,295341,2,0,P|282:16|326:27,1,90.0000034332277,2|0,0:0|0:0,0:0:0:0:
328,208,295548,2,0,P|285:220|241:208,1,90.0000034332277,8|0,0:0|0:0,0:0:0:0:
112,184,295755,2,0,B|92:144|92:144|96:80,1,90.0000034332277,8|0,0:2|0:0,0:0:0:0:
288,136,295962,2,0,B|275:182|275:182|240:212,1,90.0000034332277,8|0,0:0|0:0,0:0:0:0:
104,204,296169,6,0,L|72:104,1,90.0000034332277,2|0,0:0|0:0,0:0:0:0:
160,36,296376,2,0,B|192:120|192:120|268:28,1,180.000006866455,8|10,0:0|0:2,0:0:0:0:
380,24,296686,1,0,0:0:0:0:
420,112,296789,2,0,B|364:184|364:184|440:232,1,180.000006866455,8|2,0:0|0:0,0:0:0:0:
512,168,297100,1,0,0:0:0:0:
512,296,297203,2,0,P|468:324|408:320,1,90.0000034332277,12|0,0:2|0:0,0:0:0:0:
316,264,297410,2,0,P|272:236|212:240,1,90.0000034332277,2|0,0:0|0:0,0:0:0:0:
248,312,297617,1,8,0:0:0:0:
300,164,297720,1,0,0:0:0:0:
168,80,297824,102,0,L|72:104,1,90.0000034332277,2|0,0:0|0:0,0:0:0:0:
240,32,298031,2,0,L|336:60,1,90.0000034332277,8|0,0:0|0:0,0:0:0:0:
256,260,298238,2,0,B|219:190|251:126|251:126|291:138,1,180.000006866455,10|8,0:2|0:0,0:0:0:0:
456,176,298548,1,0,0:0:0:0:
464,92,298652,2,0,P|417:99|384:128,1,90.0000034332277,2|0,0:0|0:0,0:0:0:0:
440,336,298858,2,0,P|440:300|396:236,1,90.0000034332277,8|0,0:0|0:0,0:0:0:0:
256,260,299065,2,0,P|192:248|108:352,1,180.000006866455,10|8,0:2|0:0,0:0:0:0:
12,268,299376,1,0,0:0:0:0:
88,184,299479,6,0,P|100:136|112:48,1,90.0000034332277,2|0,0:0|0:0,0:0:0:0:
228,36,299686,2,0,P|235:80|247:123,1,90.0000034332277,8|0,0:0|0:0,0:0:0:0:
512,96,299893,2,0,P|423:80|333:73,1,180.000006866455,10|8,0:2|0:0,0:0:0:0:
247,123,300203,1,0,0:0:0:0:
336,172,300307,1,0,0:0:0:0:
333,73,300410,1,0,0:0:0:0:
236,28,300514,2,0,L|128:44,1,90.0000034332277,8|0,0:0|0:0,0:0:0:0:
92,136,300720,2,0,B|148:152|148:152|160:228|108:280,1,180.000006866455,10|8,0:2|0:0,0:0:0:0:
40,212,301031,1,0,0:0:0:0:
232,208,301134,102,0,P|272:216|316:248,1,90.0000034332277,2|0,0:0|0:0,0:0:0:0:
464,136,301341,2,0,P|424:144|380:176,1,90.0000034332277,8|0,0:0|0:0,0:0:0:0:
220,104,301548,2,0,P|307:124|383:171,1,180.000006866455,10|8,0:2|0:0,0:0:0:0:
464,248,301858,1,0,0:0:0:0:
464,136,301962,2,0,B|476:92|476:92|468:32,1,90.0000034332277
220,104,302169,2,0,B|214:148|214:148|226:192,1,90.0000034332277,8|0,0:0|0:0,0:0:0:0:
300,72,302376,2,0,B|212:56|212:56|116:112,1,180.000006866455,10|8,0:2|0:0,0:0:0:0:
36,164,302686,6,0,P|20:124|28:56,1,90.0000034332277,0|2,0:0|0:0,0:0:0:0:
136,208,302893,1,0,0:0:0:0:
104,304,302996,2,0,P|68:324|0:316,1,90.0000034332277,8|0,0:0|0:0,0:0:0:0:
200,284,303203,2,0,P|268:288|356:376,1,180.000006866455,10|8,0:2|0:0,0:0:0:0:
448,324,303514,1,0,0:0:0:0:
380,244,303617,2,0,L|360:112,1,90.0000034332277,2|0,0:0|0:0,0:0:0:0:
228,72,303824,2,0,L|214:160,1,90.0000034332277,12|0,0:2|0:0,0:0:0:0:
136,32,304031,2,0,L|364:16,1,180.000006866455,2|8,0:0|0:0,0:0:0:0:
456,320,304445,102,0,P|412:348|328:336,1,90.0000034332277,2|0,0:0|0:0,0:0:0:0:
305,196,304652,2,0,P|347:212|378:244,1,90.0000034332277,8|0,0:0|0:0,0:0:0:0:
128,304,304858,2,0,B|153:340|217:332|217:332|249:296|289:296,1,180.000006866455,10|8,0:2|0:0,0:0:0:0:
375,352,305169,1,0,0:0:0:0:
188,232,305272,2,0,L|168:132,1,90.0000034332277,2|0,0:0|0:0,0:0:0:0:
48,100,305479,2,0,L|30:188,1,90.0000034332277,8|0,0:0|0:0,0:0:0:0:
228,256,305686,2,0,B|208:168|208:168|248:124|256:52,1,180.000006866455,10|8,0:2|0:0,0:0:0:0:
172,20,305996,1,0,0:0:0:0:
304,192,306100,6,0,P|344:204|440:196,1,90.0000034332277,2|0,0:0|0:0,0:0:0:0:
360,120,306307,1,8,0:0:0:0:
324,284,306410,1,0,0:0:0:0:
480,224,306514,2,0,P|464:136|404:36,1,180.000006866455,10|8,0:2|0:0,0:0:0:0:
332,24,306824,1,0,0:0:0:0:
244,28,306927,1,2,0:0:0:0:
168,80,307031,1,0,0:0:0:0:
128,164,307134,2,0,P|128:200|168:296,1,90.0000034332277,8|0,0:0|0:0,0:0:0:0:
243,296,307341,2,0,P|197:218|127:163,1,180.000006866455,10|8,0:2|0:0,0:0:0:0:
40,212,307652,1,0,0:0:0:0:
168,80,307755,102,0,B|212:68|212:68|264:28,1,90.0000034332277,2|0,0:0|0:0,0:0:0:0:
260,172,307962,2,0,B|292:139|292:139|317:78,1,90.0000034332277,8|0,0:0|0:0,0:0:0:0:
384,208,308169,2,0,B|395:163|395:163|386:98,1,90.0000034332277,10|0,0:2|0:0,0:0:0:0:
508,168,308376,2,0,B|496:123|496:123|456:72,1,90.0000034332277,8|0,0:0|0:0,0:0:0:0:
78,72,308583,2,0,L|168:80,1,90.0000034332277,2|0,0:0|0:0,0:0:0:0:
178,210,308789,2,0,L|259:171,1,90.0000034332277,8|0,0:0|0:0,0:0:0:0:
332,281,308996,2,0,L|383:207,1,90.0000034332277,10|0,0:2|0:0,0:0:0:0:
499,257,309203,2,0,L|508:168,1,90.0000034332277,8|0,0:0|0:0,0:0:0:0:
159,38,309410,6,0,P|115:48|77:72,1,90.0000034332277,2|0,0:0|0:0,0:0:0:0:
160,152,309617,2,0,P|127:182|106:222,1,90.0000034332277,2|0,0:0|0:0,0:0:0:0:
224,244,309824,2,0,P|210:286|212:331,1,90.0000034332277,8|0,0:2|0:0,0:0:0:0:
323,300,310031,2,0,P|333:343|357:381,1,90.0000034332277,2|0,0:0|0:0,0:0:0:0:
488,316,310238,2,0,P|477:272|453:234,1,90.0000034332277
352,208,310445,69,12,0:2:0:0:
236,70,310548,1,0,0:0:0:0:
264,224,310652,1,2,0:0:0:0:
325,54,310755,1,0,0:0:0:0:
205,154,310858,1,8,0:0:0:0:
383,122,310962,1,0,0:0:0:0:
256,192,311065,12,0,313031,0:0:0:0:
60,220,313134,38,0,P|96:184|180:192,1,120,2|0,0:0|0:0,0:0:0:0:
316,56,313718,2,0,P|280:92|196:84,1,120
256,192,314302,1,2,0:0:0:0:
468,92,314692,5,0,0:0:0:0:
460,168,315082,1,0,0:0:0:0:
452,244,315471,1,2,0:0:0:0:
148,88,316250,102,0,B|60:112|60:112|92:148,1,120,2|0,0:0|0:0,0:0:0:0:
68,236,316835,2,0,B|132:300|132:300|148:256,1,120,2|0,0:0|0:0,0:0:0:0:
168,184,317419,1,0,0:0:0:0:
468,92,317809,5,0,0:0:0:0:
460,168,318199,1,0,0:0:0:0:
452,244,318588,1,2,0:0:0:0:
444,320,318978,101,0,0:0:0:0:
8,176,319367,2,0,L|128:184,1,120
304,112,319959,2,0,L|184:104,1,120,2|0,0:0|0:0,0:0:0:0:
220,232,320551,1,2,0:0:0:0:
468,92,320945,5,0,0:0:0:0:
452,244,321340,101,2,0:0:0:0:
460,168,321735,1,0,0:0:0:0:
444,320,322130,1,2,0:0:0:0:
476,12,322327,1,0,0:0:0:0:
468,92,322524,5,0,0:0:0:0:
460,168,322919,1,0,0:0:0:0:
452,244,323314,1,2,0:0:0:0:
444,320,324103,1,6,0:0:0:0:
156,288,325698,102,0,P|124:256|116:180,1,120,2|0,0:0|0:0,0:0:0:0:
272,120,326286,2,0,P|260:163|198:208,1,120
176,116,326874,1,2,0:0:0:0:
468,92,327266,5,0,0:0:0:0:
460,168,327658,1,0,0:0:0:0:
452,244,328050,1,2,0:0:0:0:
240,88,328835,102,0,B|180:84|180:84|132:152,1,120,2|0,0:0|0:0,0:0:0:0:
192,248,329423,2,0,B|252:252|252:252|300:184,1,120,2|0,0:0|0:0,0:0:0:0:
216,168,330011,1,0,0:0:0:0:
468,92,330403,5,0,0:0:0:0:
460,168,330796,1,0,0:0:0:0:
452,244,331188,1,2,0:0:0:0:
444,320,331580,101,0,0:0:0:0:
224,112,331972,2,0,L|104:96,1,120
248,200,332560,2,0,L|128:184,1,120,2|0,0:0|0:0,0:0:0:0:
272,288,333148,1,2,0:0:0:0:
468,92,333541,5,0,0:0:0:0:
452,244,333933,101,2,0:0:0:0:
460,168,334325,1,0,0:0:0:0:
444,320,334717,1,2,0:0:0:0:
476,16,334913,1,0,0:0:0:0:
444,320,335109,5,2,0:0:0:0:
452,244,335501,1,0,0:0:0:0:
460,168,335894,1,0,0:0:0:0:
468,92,336286,1,0,0:0:0:0:
72,288,336482,1,6,0:0:0:0:
72,288,337560,102,0,P|44:228|48:184,1,90.0000034332277,2|2,0:0|0:0,0:0:0:0:
68,128,338148,1,2,0:0:0:0:
468,92,338344,5,0,0:0:0:0:
460,168,338736,1,0,0:0:0:0:
452,244,339129,1,2,0:0:0:0:
444,320,339521,101,2,0:0:0:0:
468,92,339716,1,0,0:0:0:0:
