osu file format v14

[General]
AudioFilename: Yaezakura.mp3
AudioLeadIn: 0
PreviewTime: 31449
Countdown: 0
SampleSet: Soft
StackLeniency: 0.7
Mode: 0
LetterboxInBreaks: 0
WidescreenStoryboard: 0

[Editor]
DistanceSpacing: 1.4
BeatDivisor: 4
GridSize: 4
TimelineZoom: 0.9

[Metadata]
Title:Yaezakura
TitleUnicode:八重樱
Artist:hanser
ArtistUnicode:hanser
Creator:Gaia
Version:Special
Source:崩壊学園
Tags:八重桜 櫻 崩坏学园2 崩壞學園 Houkai Gakuen MiHoYo Guns Girl School DayZ ggz Honkai Impact Collapse of the school Double Cherry Blossoms 緋櫻篇 sakura
BeatmapID:1141034
BeatmapSetID:538712

[Difficulty]
HPDrainRate:5
CircleSize:4
OverallDifficulty:7
ApproachRate:8
SliderMultiplier:1.4
SliderTickRate:2

[Events]
//Background and Video events
0,0,"yaezakura.jpg",0,0
//Break Periods
//Storyboard Layer 0 (Background)
//Storyboard Layer 1 (Fail)
//Storyboard Layer 2 (Pass)
//Storyboard Layer 3 (Foreground)
//Storyboard Sound Samples

[TimingPoints]
1895,594.059405940594,3,2,1,10,1,0
32192,-76.9230769230769,3,2,1,20,0,0
37835,-76.9230769230769,3,2,2,15,0,0
38726,-76.9230769230769,3,2,1,20,0,0
44964,-76.9230769230769,3,2,2,15,0,0
45855,-76.9230769230769,3,2,1,20,0,0
46449,-71.4285714285714,3,2,1,30,0,0
59518,-100,3,2,1,30,0,0
60112,-100,3,2,2,30,0,0
60706,-100,3,2,1,10,0,0
68429,571.428571428571,4,2,1,10,1,0
69000,731.707317073171,4,2,1,10,1,0
69000,-76.9230769230769,4,2,1,10,0,0
69731,594.059405940594,4,2,1,10,1,0
72107,-100,4,2,1,7,0,0
74483,-100,4,2,1,5,0,0

[Colours]
Combo1 : 214,214,214
Combo2 : 255,128,192
Combo3 : 255,164,164
Combo4 : 255,70,70
Combo5 : 255,0,0

[HitObjects]
104,80,3677,5,2,0:0:0:0:
189,117,3974,1,2,0:0:0:0:
109,174,4271,1,2,0:0:0:0:
109,174,5459,5,2,0:0:0:0:
189,117,5756,1,2,0:0:0:0:
274,164,6053,1,2,0:0:0:0:
274,164,7241,5,2,0:0:0:0:
264,260,7538,1,2,0:0:0:0:
252,356,7835,1,2,0:0:0:0:
331,43,9023,5,2,0:0:0:0:
361,118,10805,21,2,0:0:0:0:
275,165,11101,1,2,0:0:0:0:
276,66,11398,1,2,0:0:0:0:
276,66,12588,5,2,0:0:0:0:
181,93,12885,1,2,0:0:0:0:
87,121,13182,1,2,0:0:0:0:
87,121,14370,5,2,0:0:0:0:
48,234,14667,1,2,0:0:0:0:
161,275,14964,1,2,0:0:0:0:
356,90,15855,21,2,0:0:0:0:
412,277,16152,1,2,0:0:0:0:
356,90,16746,1,2,0:0:0:0:
101,62,17934,5,2,0:0:0:0:
47,174,18231,1,2,0:0:0:0:
202,155,18528,1,2,0:0:0:0:
75,64,18825,1,2,0:0:0:0:
139,253,19122,2,0,P|173:248|234:241,1,70,2|0,0:0|0:0,0:0:0:0:
373,123,19716,5,2,0:0:0:0:
292,280,20013,1,2,0:0:0:0:
202,155,20310,1,2,0:0:0:0:
192,336,20607,1,2,0:0:0:0:
384,272,20904,1,2,0:0:0:0:
176,345,21201,1,2,0:0:0:0:
301,221,21497,6,0,L|288:309,1,70,2|2,0:0|0:0,0:0:0:0:
216,129,22093,2,0,P|241:108|283:89,1,70,2|2,0:0|0:0,0:0:0:0:
164,234,22687,2,0,L|83:220,1,70,2|2,0:0|0:0,0:0:0:0:
309,198,23281,37,2,0:0:0:0:
128,104,23578,1,2,0:0:0:0:
180,252,23875,1,2,0:0:0:0:
268,116,24172,1,2,0:0:0:0:
104,132,24469,2,0,L|23:118,1,70,2|0,0:0|0:0,0:0:0:0:
283,35,25063,5,2,0:0:0:0:
267,131,25360,1,2,0:0:0:0:
252,227,25657,1,2,0:0:0:0:
254,233,26845,5,2,0:0:0:0:
269,137,27142,1,2,0:0:0:0:
285,41,27439,1,2,0:0:0:0:
289,46,28627,37,2,0:0:0:0:
315,186,28924,1,2,0:0:0:0:
196,109,29221,1,2,0:0:0:0:
388,133,29518,1,2,0:0:0:0:
219,272,29815,1,2,0:0:0:0:
93,79,30112,1,2,0:0:0:0:
233,133,30409,53,6,0:0:0:0:
251,123,32191,5,6,3:2:0:0:
129,40,32489,1,0,0:0:0:0:
168,220,32786,2,0,P|257:206|356:192,1,181.999991668702,4|0,0:3|0:0,0:0:0:0:
456,65,33677,1,2,0:0:0:0:
239,114,33974,6,0,P|191:107|119:99,1,90.9999958343508,6|0,0:3|0:0,0:0:0:0:
346,74,34568,1,2,0:0:0:0:
272,225,34865,1,2,0:0:0:0:
357,71,35162,1,2,0:0:0:0:
136,176,35459,1,2,3:2:0:0:
441,171,35756,6,0,P|444:223|422:264,1,90.9999958343508,2|0,3:2|0:0,0:0:0:0:
199,276,36350,2,0,P|228:205|337:200,1,181.999991668702
136,176,37241,1,0,0:0:0:0:
290,279,37538,38,0,P|283:323|272:381,1,90.9999958343508,12|2,3:2|0:3,0:0:0:0:
248,117,38132,1,2,0:3:0:0:
376,300,38429,1,2,0:3:0:0:
96,304,38726,2,0,P|143:293|206:280,1,90.9999958343508,2|2,0:0|0:0,0:0:0:0:
331,195,39320,5,6,3:2:0:0:
164,104,39617,1,2,0:0:0:0:
331,195,39914,2,0,P|287:242|192:229,1,136.499993751526,4|0,0:3|0:0,0:0:0:0:
161,192,40508,1,0,0:0:0:0:
228,36,40805,1,0,0:0:0:0:
161,192,41102,6,0,L|181:295,1,90.9999958343508,12|2,0:3|0:0,0:0:0:0:
387,203,41696,2,0,B|389:144|395:109|395:109|384:90|367:57,1,136.499993751526,4|0,0:3|0:0,0:0:0:0:
305,16,42291,1,2,0:0:0:0:
489,144,42588,1,2,3:2:0:0:
305,16,42885,38,0,P|287:63|299:119,1,90.9999958343508,0|0,3:2|0:0,0:0:0:0:
286,333,43479,1,2,0:0:0:0:
194,103,43776,1,2,0:0:0:0:
353,244,44073,1,2,0:0:0:0:
76,209,44370,1,2,0:0:0:0:
381,247,44667,6,0,L|493:227,1,90.9999958343508,6|2,3:2|0:3,0:0:0:0:
95,217,45261,2,0,L|207:197,1,90.9999958343508,2|2,0:3|0:3,0:0:0:0:
369,72,45855,1,0,3:3:0:0:
239,311,46152,1,0,3:0:0:0:
217,92,46449,22,0,P|258:115|291:187,1,97.9999970092774,4|0,3:2|0:0,0:0:0:0:
277,346,47043,1,8,0:0:0:0:
368,123,47339,1,0,3:0:0:0:
156,203,47637,2,0,L|47:191,1,97.9999970092774,0|0,0:0|3:0,0:0:0:0:
239,311,48231,5,6,0:3:0:0:
381,192,48528,1,0,3:0:0:0:
126,120,48825,1,8,0:0:0:0:
361,208,49122,1,0,3:3:0:0:
215,66,49419,2,0,L|237:173,1,97.9999970092774,12|0,0:0|0:0,0:0:0:0:
382,352,50013,53,4,3:2:0:0:
355,116,50310,1,0,0:0:0:0:
192,224,50607,1,8,0:0:0:0:
404,228,50904,1,0,3:2:0:0:
279,46,51201,2,0,P|267:95|267:157,1,97.9999970092774,0|0,0:0|3:3,0:0:0:0:
301,348,51795,5,2,0:3:0:0:
355,116,52092,1,0,3:3:0:0:
94,235,52389,2,0,L|207:222,1,97.9999970092774,8|0,3:0|0:0,0:0:0:0:
389,124,52983,2,0,P|380:159|371:189,1,48.9999985046387,8|0,0:0|3:0,0:0:0:0:
357,281,53280,2,0,L|415:269,2,32.6666656697591,8|8|8,0:0|0:0|0:0,0:0:0:0:
261,203,53577,53,6,3:2:0:0:
336,16,53875,1,0,0:0:0:0:
165,154,54172,2,0,L|187:268,1,97.9999970092774,4|0,0:3|3:0,0:0:0:0:
232,75,54766,1,0,0:0:0:0:
48,136,55063,1,0,3:0:0:0:
236,81,55360,5,6,0:3:0:0:
52,142,55657,1,0,0:0:0:0:
187,256,55954,2,0,L|169:160,1,97.9999970092774,12|0,0:3|3:0,0:0:0:0:
93,327,56548,1,0,0:0:0:0:
256,171,56845,1,0,0:0:0:0:
374,321,57142,54,0,P|326:347|267:346,1,97.9999970092774,6|0,3:2|0:0,0:0:0:0:
56,177,57736,2,0,L|173:192,1,97.9999970092774,8|0,0:0|0:0,0:0:0:0:
408,55,58330,2,0,P|368:30|290:46,1,97.9999970092774,0|0,0:0|3:3,0:0:0:0:
366,244,58924,5,6,3:3:0:0:
487,157,59221,1,0,3:0:0:0:
225,144,59518,2,0,L|251:237,1,70,8|0,3:0|0:0,0:0:0:0:
378,275,60112,1,8,0:3:0:0:
143,220,60409,1,8,0:3:0:0:
296,59,60706,5,6,0:2:0:0:
362,131,61003,1,2,0:0:0:0:
394,38,61300,1,2,0:0:0:0:
216,59,62488,5,6,0:3:0:0:
150,131,62785,1,2,0:0:0:0:
118,38,63082,1,2,0:0:0:0:
166,329,64271,5,2,0:0:0:0:
256,292,64568,1,2,0:0:0:0:
346,329,64865,1,2,0:0:0:0:
462,204,66053,37,2,0:0:0:0:
382,147,66350,1,2,0:0:0:0:
284,154,66647,1,2,0:0:0:0:
219,228,66944,1,2,0:0:0:0:
122,244,67241,1,2,0:0:0:0:
52,174,67538,1,2,0:0:0:0:
99,88,67835,5,2,0:2:0:0:
221,330,68429,1,2,0:2:0:0:
402,117,69000,1,2,0:2:0:0:
184,160,69731,21,6,0:3:0:0:
256,192,69879,12,0,74483,0:0:0:0:
