osu file format v14

[General]
AudioFilename: Yaezakura.mp3
AudioLeadIn: 0
PreviewTime: 31449
Countdown: 0
SampleSet: Soft
StackLeniency: 0.7
Mode: 0
LetterboxInBreaks: 0
WidescreenStoryboard: 0

[Editor]
DistanceSpacing: 1
BeatDivisor: 2
GridSize: 4
TimelineZoom: 1.2

[Metadata]
Title:Yaezakura
TitleUnicode:八重樱
Artist:hanser
ArtistUnicode:hanser
Creator:Gaia
Version:Normal
Source:崩壊学園
Tags:八重桜 櫻 崩坏学园2 崩壞學園 Houkai Gakuen MiHoYo Guns Girl School DayZ ggz Honkai Impact Collapse of the school Double Cherry Blossoms 緋櫻篇 sakura
BeatmapID:1141033
BeatmapSetID:538712

[Difficulty]
HPDrainRate:3
CircleSize:3.2
OverallDifficulty:3
ApproachRate:4
SliderMultiplier:1
SliderTickRate:1

[Events]
//Background and Video events
0,0,"yaezakura.jpg",0,0
//Break Periods
//Storyboard Layer 0 (Background)
//Storyboard Layer 1 (Fail)
//Storyboard Layer 2 (Pass)
//Storyboard Layer 3 (Foreground)
//Storyboard Sound Samples

[TimingPoints]
1895,594.059405940594,3,2,1,10,1,0
17934,-90.9090909090909,3,2,1,10,0,0
32192,-83.3333333333333,3,2,1,20,0,0
37835,-83.3333333333333,3,2,2,15,0,0
38726,-83.3333333333333,3,2,1,20,0,0
44964,-83.3333333333333,3,2,2,15,0,0
45855,-83.3333333333333,3,2,1,20,0,0
46449,-83.3333333333333,3,2,1,30,0,0
60112,-83.3333333333333,3,2,2,30,0,0
60706,-100,3,2,1,10,0,0
68429,571.428571428571,4,2,1,10,1,0
69000,731.707317073171,4,2,1,10,1,0
69000,-76.9230769230769,4,2,1,10,0,0
69731,594.059405940594,4,2,1,10,1,0
72107,-83.3333333333333,4,2,1,7,0,0
74483,-83.3333333333333,4,2,1,5,0,0

[Colours]
Combo1 : 214,214,214
Combo2 : 255,128,192
Combo3 : 255,164,164
Combo4 : 255,70,70
Combo5 : 255,0,0

[HitObjects]
115,69,3677,6,0,L|97:125,1,50,2|2,0:0|0:0,0:0:0:0:
70,157,4271,2,0,P|96:220|114:270,1,100,2|0,0:0|0:0,0:0:0:0:
180,318,5459,2,0,P|204:313|246:298,1,50,2|2,0:0|0:0,0:0:0:0:
263,270,6053,2,0,P|324:282|404:289,1,100,2|0,0:0|0:0,0:0:0:0:
424,209,7241,6,0,P|417:182|412:143,1,50,2|2,0:0|0:0,0:0:0:0:
432,113,7835,2,0,P|380:101|293:87,1,100,2|0,0:0|0:0,0:0:0:0:
251,36,9023,1,2,0:0:0:0:
31,240,10805,6,0,L|110:224,1,50,2|2,0:0|0:0,0:0:0:0:
121,202,11399,2,0,P|175:242|181:288,1,100,2|0,0:0|0:0,0:0:0:0:
252,342,12588,2,0,P|266:320|279:285,1,50,2|2,0:0|0:0,0:0:0:0:
303,256,13182,2,0,L|284:138,1,100,2|0,0:0|0:0,0:0:0:0:
226,77,14370,38,0,L|162:66,1,50,2|2,0:0|0:0,0:0:0:0:
129,84,14964,2,0,P|70:124|109:216,1,150,2|2,0:0|0:0,0:0:0:0:
117,226,16152,1,2,0:0:0:0:
213,201,16746,1,2,0:0:0:0:
392,73,17934,6,0,L|375:14,2,55.0000016784668,2|2|2,0:0|0:0|0:0,0:0:0:0:
427,115,18825,2,0,L|412:179,1,55.0000016784668,2|2,0:0|0:0,0:0:0:0:
370,257,19716,2,0,P|404:265|435:269,2,55.0000016784668,2|2|2,0:0|0:0|0:0,0:0:0:0:
325,234,20607,1,2,0:0:0:0:
325,234,20904,2,0,L|251:263,1,55.0000016784668,2|2,0:0|0:0,0:0:0:0:
243,299,21498,6,0,L|186:288,1,55.0000016784668,2|0,0:0|0:0,0:0:0:0:
135,273,22093,1,0,0:0:0:0:
75,180,22687,2,0,L|62:112,1,55.0000016784668,2|2,0:0|0:0,0:0:0:0:
77,72,23281,2,0,L|89:12,2,55.0000016784668,2|2|2,0:0|0:0|0:0,0:0:0:0:
129,88,24172,1,2,0:0:0:0:
129,88,24469,2,0,P|170:80|199:71,1,55.0000016784668,2|0,0:0|0:0,0:0:0:0:
225,41,25063,38,0,L|292:58,1,55.0000016784668,2|2,0:0|0:0,0:0:0:0:
331,40,25657,2,0,P|393:58|402:119,1,110.000003356934,2|0,0:0|0:0,0:0:0:0:
447,195,26845,2,0,P|410:207|369:212,1,55.0000016784668,2|2,0:0|0:0,0:0:0:0:
345,199,27439,2,0,L|380:314,1,110.000003356934,2|0,0:0|0:0,0:0:0:0:
308,375,28627,6,0,P|285:367|223:342,1,55.0000016784668,2|2,0:0|0:0,0:0:0:0:
216,327,29221,2,0,P|181:334|152:338,1,55.0000016784668,2|2,0:0|0:0,0:0:0:0:
120,311,29815,2,0,L|61:296,1,55.0000016784668,2|2,0:0|0:0,0:0:0:0:
32,261,30409,1,6,0:0:0:0:
94,60,32192,5,6,3:2:0:0:
195,97,32786,2,0,P|276:84|389:69,1,179.999994506836,4|2,0:3|0:0,0:0:0:0:
425,85,33974,2,0,P|452:148|411:221,1,119.999996337891,6|2,0:3|0:0,0:0:0:0:
330,201,35162,2,0,L|354:278,1,59.9999981689454,2|2,0:0|3:2,0:0:0:0:
363,309,35756,37,2,3:2:0:0:
262,349,36350,2,0,P|196:304|84:318,1,179.999994506836,0|0,0:0|0:0,0:0:0:0:
45,305,37538,2,0,P|30:345|23:373,2,59.9999981689454,12|2|2,3:2|0:3|0:3,0:0:0:0:
36,251,38429,2,0,L|25:182,1,59.9999981689454,2|2,0:3|0:0,0:0:0:0:
62,89,39320,5,6,3:2:0:0:
159,42,39914,2,0,L|292:64,1,119.999996337891,4|0,0:3|0:0,0:0:0:0:
385,65,41102,1,12,0:3:0:0:
339,163,41696,2,0,P|277:173|201:183,1,119.999996337891,4|0,0:3|0:0,0:0:0:0:
176,213,42588,1,2,3:2:0:0:
176,213,42885,6,0,P|154:290|194:343,1,119.999996337891,0|2,3:2|0:0,0:0:0:0:
273,350,44073,2,0,L|369:330,1,59.9999981689454,2|2,0:0|0:0,0:0:0:0:
365,295,44667,2,0,L|431:316,2,59.9999981689454,6|2|2,3:2|0:3|0:3,0:0:0:0:
319,197,45855,2,0,P|321:171|331:128,1,59.9999981689454,0|0,3:0|3:0,0:0:0:0:
316,91,46449,6,0,P|263:48|201:68,1,119.999996337891,4|8,3:2|0:0,0:0:0:0:
174,80,47340,2,0,L|97:67,1,59.9999981689454,0|0,3:0|0:0,0:0:0:0:
72,93,47934,1,0,3:0:0:0:
72,93,48231,2,0,L|100:185,1,59.9999981689454,6|0,0:3|3:0,0:0:0:0:
106,195,48825,1,8,0:0:0:0:
70,284,49419,1,12,0:0:0:0:
145,343,50013,6,0,L|278:326,1,119.999996337891,4|8,3:2|0:0,0:0:0:0:
300,296,50904,2,0,P|294:268|276:209,1,59.9999981689454,0|0,3:2|0:0,0:0:0:0:
264,194,51498,1,0,3:3:0:0:
264,194,51795,2,0,P|273:160|291:116,2,59.9999981689454,2|0|8,0:3|3:3|3:0,0:0:0:0:
185,249,52984,2,0,P|175:222|164:169,1,59.9999981689454,8|8,0:0|0:0,0:0:0:0:
143,150,53578,54,0,P|82:132|27:185,1,119.999996337891,6|4,3:2|0:3,0:0:0:0:
16,203,54469,1,0,3:0:0:0:
39,295,55063,1,0,3:0:0:0:
39,295,55360,2,0,P|102:286|175:275,1,119.999996337891,6|12,0:3|0:3,0:0:0:0:
195,248,56251,2,0,P|261:259|335:268,1,119.999996337891,0|0,3:0|0:0,0:0:0:0:
358,248,57142,5,6,3:2:0:0:
423,177,57736,2,0,L|486:192,2,59.9999981689454,8|0|0,0:0|0:0|0:0,0:0:0:0:
403,133,58627,1,0,3:3:0:0:
403,133,58924,2,0,L|326:147,1,59.9999981689454,6|0,3:3|3:0,0:0:0:0:
298,155,59518,1,8,3:0:0:0:
205,128,60112,2,0,P|173:120|132:109,1,59.9999981689454,8|8,0:3|0:3,0:0:0:0:
97,118,60706,6,0,L|123:199,1,50,6|2,0:2|0:0,0:0:0:0:
135,209,61300,2,0,L|118:335,1,100,2|0,0:0|0:0,0:0:0:0:
209,356,62489,2,0,L|290:337,1,50,6|2,0:3|0:0,0:0:0:0:
297,314,63083,2,0,P|354:323|403:306,1,100,2|0,0:0|0:0,0:0:0:0:
437,221,64271,6,0,L|426:158,1,50,2|2,0:0|0:0,0:0:0:0:
386,143,64865,2,0,P|329:134|280:151,1,100,2|0,0:0|0:0,0:0:0:0:
203,94,66053,2,0,P|176:87|146:83,1,50,2|2,0:0|0:0,0:0:0:0:
105,73,66647,2,0,P|74:84|51:96,1,50,2|2,0:0|0:0,0:0:0:0:
10,104,67241,2,0,P|5:140|4:183,1,50,2|2,0:0|0:0,0:0:0:0:
19,201,67835,5,2,0:2:0:0:
57,293,68429,1,2,0:2:0:0:
150,316,69000,2,0,L|284:292,1,129.999994049073,2|6,2:2|0:3,2:0:0:0:
256,192,70028,12,0,74483,0:0:0:0:
