osu file format v14

[General]
AudioFilename: audio.mp3
AudioLeadIn: 0
PreviewTime: 76179
Countdown: 0
SampleSet: None
StackLeniency: 0.7
Mode: 1
LetterboxInBreaks: 0
WidescreenStoryboard: 1

[Editor]
Bookmarks: 14559,23752,38175,61066,65681,81893,99914,102991,109145,115247,118222
DistanceSpacing: 0.8
BeatDivisor: 8
GridSize: 8
TimelineZoom: 1

[Metadata]
Title:Seimei no wa wo tsumuide
TitleUnicode:生命の環を紡いで
Artist:hana@*omori
ArtistUnicode:hana@*omori
Creator:Ozu
Version:F Inner Oni (TWC Ver.)
Source:pop'n music sunny park
Tags:
BeatmapID:2893294
BeatmapSetID:707622

[Difficulty]
HPDrainRate:5
CircleSize:5
OverallDifficulty:6
ApproachRate:5
SliderMultiplier:1.4
SliderTickRate:1

[Events]
//Background and Video events
0,0,"Wiki-background.png",0,0
//Break Periods
//Storyboard Layer 0 (Background)
//Storyboard Layer 1 (Fail)
//Storyboard Layer 2 (Pass)
//Storyboard Layer 3 (Foreground)
//Storyboard Layer 4 (Overlay)
//Storyboard Sound Samples

[TimingPoints]
475,444.444444444444,4,1,0,100,1,0
9808,-101.010101010101,4,1,0,100,0,0
9956,-102.040816326531,4,1,0,100,0,0
10104,-103.092783505155,4,1,0,100,0,0
10252,454.545454545455,3,1,0,100,1,0
10555,-102.040816326531,3,1,0,100,0,0
10706,-103.092783505155,3,1,0,100,0,0
10858,-104.166666666667,3,1,0,100,0,0
11161,500,3,1,0,100,1,0
11494,-101.010101010101,3,1,0,100,0,0
11661,-102.040816326531,3,1,0,100,0,0
11827,-103.092783505155,3,1,0,100,0,0
11994,-104.166666666667,3,1,0,100,0,0
12161,521.739130434783,3,1,0,100,1,0
12334,-102.040816326531,3,1,0,100,0,0
12508,-104.166666666667,3,1,0,100,0,0
12682,-106.382978723404,3,1,0,100,0,0
12856,571.428571428571,4,1,0,100,1,0
13046,-102.040816326531,4,1,0,100,0,0
13236,422.535211267606,3,1,0,100,1,0
13236,-138.888888888889,3,1,0,100,0,0
14081,422.535211267606,4,1,0,100,1,0
14522,384.615384615385,3,1,0,100,1,0
23752,384.615384615385,5,1,0,100,1,0
23752,-71.4285714285714,5,1,0,100,0,0
26636,384.615384615385,7,1,0,100,1,0
26636,-71.4285714285714,7,1,0,100,0,0
28945,384.615384615385,3,1,0,100,1,0
28945,-71.4285714285714,3,1,0,100,0,0
29137,-100,3,1,0,100,0,0
38175,384.615384615385,5,1,0,100,1,0
38175,-71.4285714285714,5,1,0,100,0,0
41059,384.615384615385,6,1,0,100,1,0
41059,-71.4285714285714,6,1,0,100,0,0
45289,348.837209302326,4,1,0,100,1,0
53893,-101.010101010101,4,1,0,100,0,0
54126,-103.092783505155,4,1,0,100,0,0
54358,-104.166666666667,4,1,0,100,0,0
54591,-106.382978723404,4,1,0,100,0,0
54823,-107.52688172043,4,1,0,100,0,0
55056,-109.89010989011,4,1,0,100,0,0
55289,-112.359550561798,4,1,0,100,0,0
55405,-113.636363636364,4,1,0,100,0,0
55521,-114.942528735632,4,1,0,100,0,0
55754,-117.647058823529,4,1,0,100,0,0
55986,-121.951219512195,4,1,0,100,0,0
56219,-125,4,1,0,100,0,0
56451,384.615384615385,3,1,0,100,1,0
65681,-71.4285714285714,3,1,0,100,0,1
74912,422.535211267606,3,1,0,100,1,0
74912,-65.0195058517555,3,1,0,100,0,0
76179,476.190476190476,3,1,0,100,1,0
87607,256.410256410256,3,1,0,100,1,1
113760,247.933884297521,3,1,0,100,1,1
118222,238.095238095238,3,1,0,100,1,1
121079,350.877192982456,4,1,0,100,1,1
121079,-66.6666666666667,4,1,0,100,0,1
123886,-66.6666666666667,4,1,0,100,0,0
124910,346.020761245675,3,1,0,100,1,0

[HitObjects]
328,240,475,5,0,0:0:0:0:
296,256,771,1,0,0:0:0:0:
296,256,1215,1,8,0:0:0:0:
296,256,1363,1,0,0:0:0:0:
296,256,1660,1,8,0:0:0:0:
296,256,2104,1,0,0:0:0:0:
296,256,2252,1,0,0:0:0:0:
80,216,3141,1,8,0:0:0:0:
80,216,3437,1,0,0:0:0:0:
88,200,3734,1,0,0:0:0:0:
256,184,3882,1,8,0:0:0:0:
88,200,4030,1,0,0:0:0:0:
256,184,4326,1,0,0:0:0:0:
248,184,4474,1,0,0:0:0:0:
248,184,4623,1,8,0:0:0:0:
248,184,4771,1,8,0:0:0:0:
248,184,4919,1,8,0:0:0:0:
248,184,5215,1,0,0:0:0:0:
248,184,5808,1,0,0:0:0:0:
248,184,6104,1,0,0:0:0:0:
248,184,6252,1,0,0:0:0:0:
248,184,6400,1,8,0:0:0:0:
248,184,6549,1,8,0:0:0:0:
248,184,6697,1,0,0:0:0:0:
248,184,7141,1,8,0:0:0:0:
248,184,7437,1,8,0:0:0:0:
248,184,7586,1,0,0:0:0:0:
248,184,8030,1,0,0:0:0:0:
248,184,8178,1,0,0:0:0:0:
248,184,8326,1,8,0:0:0:0:
248,184,8474,1,0,0:0:0:0:
248,184,8771,1,8,0:0:0:0:
248,184,8919,1,0,0:0:0:0:
224,88,9067,1,8,0:0:0:0:
248,184,9363,1,4,0:0:0:0:
256,208,9808,1,0,0:0:0:0:
256,208,9956,1,8,0:0:0:0:
256,208,10104,1,8,0:0:0:0:
256,208,10252,1,4,0:0:0:0:
176,176,10555,1,8,0:0:0:0:
168,176,10706,1,0,0:0:0:0:
168,176,10858,1,8,0:0:0:0:
176,176,11161,1,4,0:0:0:0:
240,216,11494,1,8,0:0:0:0:
240,216,11661,1,8,0:0:0:0:
240,216,11827,1,0,0:0:0:0:
240,216,11994,1,8,0:0:0:0:
240,216,12161,1,0,0:0:0:0:
240,208,12334,1,0,0:0:0:0:
240,208,12508,1,8,0:0:0:0:
240,208,12682,1,0,0:0:0:0:
240,208,12856,1,0,0:0:0:0:
240,208,13046,1,8,0:0:0:0:
240,208,13236,1,4,0:0:0:0:
0,264,14081,1,8,0:0:0:0:
40,256,14186,1,8,0:0:0:0:
48,256,14292,1,0,0:0:0:0:
48,256,14522,1,12,0:0:0:0:
208,256,14714,1,0,0:0:0:0:
208,256,14906,1,8,0:0:0:0:
208,256,15098,1,0,0:0:0:0:
216,112,15195,1,0,0:0:0:0:
208,256,15291,1,8,0:0:0:0:
208,256,15483,1,0,0:0:0:0:
208,256,15675,1,0,0:0:0:0:
368,240,15739,1,0,0:0:0:0:
368,240,15804,1,8,0:0:0:0:
208,256,15868,1,0,0:0:0:0:
368,240,15932,1,8,0:0:0:0:
208,256,16060,1,8,0:0:0:0:
240,208,16252,1,8,0:0:0:0:
216,136,16316,1,8,0:0:0:0:
216,136,16380,1,8,0:0:0:0:
240,208,16445,1,0,0:0:0:0:
240,200,16637,1,8,0:0:0:0:
208,128,16733,1,0,0:0:0:0:
240,200,16829,1,8,0:0:0:0:
248,240,17022,1,0,0:0:0:0:
232,120,17118,1,0,0:0:0:0:
248,240,17214,1,8,0:0:0:0:
248,240,17406,1,0,0:0:0:0:
248,240,17598,1,8,0:0:0:0:
288,192,17791,1,0,0:0:0:0:
288,192,17887,1,0,0:0:0:0:
248,240,17983,1,0,0:0:0:0:
256,240,18079,1,8,0:0:0:0:
256,240,18175,1,8,0:0:0:0:
256,240,18272,1,8,0:0:0:0:
256,240,18368,1,0,0:0:0:0:
256,240,18464,1,0,0:0:0:0:
256,240,18560,1,8,0:0:0:0:
256,240,18656,1,0,0:0:0:0:
256,240,18752,1,8,0:0:0:0:
256,240,18848,1,8,0:0:0:0:
240,192,18945,1,0,0:0:0:0:
288,144,19009,1,0,0:0:0:0:
288,144,19073,1,0,0:0:0:0:
256,240,19137,1,8,0:0:0:0:
248,256,19329,1,0,0:0:0:0:
304,152,19425,1,0,0:0:0:0:
256,256,19522,1,0,0:0:0:0:
256,256,19714,1,8,0:0:0:0:
256,256,19906,1,0,0:0:0:0:
256,256,20098,1,8,0:0:0:0:
177,138,20195,1,0,0:0:0:0:
256,256,20291,1,0,0:0:0:0:
336,176,20355,1,0,0:0:0:0:
336,176,20419,1,8,0:0:0:0:
336,176,20483,1,8,0:0:0:0:
336,176,20547,1,0,0:0:0:0:
320,192,20675,1,8,0:0:0:0:
320,192,20772,1,0,0:0:0:0:
304,168,20868,1,8,0:0:0:0:
304,168,20932,1,0,0:0:0:0:
304,168,20996,1,0,0:0:0:0:
320,192,21060,1,8,0:0:0:0:
312,208,21252,1,8,0:0:0:0:
192,128,21348,1,8,0:0:0:0:
312,208,21445,1,0,0:0:0:0:
312,208,21637,1,0,0:0:0:0:
208,104,21733,1,0,0:0:0:0:
312,208,21829,1,8,0:0:0:0:
320,208,22022,1,0,0:0:0:0:
320,208,22214,1,8,0:0:0:0:
312,208,22406,1,0,0:0:0:0:
416,144,22470,1,0,0:0:0:0:
416,144,22534,1,0,0:0:0:0:
320,208,22598,1,8,0:0:0:0:
352,160,22695,1,8,0:0:0:0:
352,160,22791,1,0,0:0:0:0:
352,160,22887,1,8,0:0:0:0:
352,160,22983,1,8,0:0:0:0:
352,160,23079,1,0,0:0:0:0:
352,160,23175,1,8,0:0:0:0:
352,160,23272,1,0,0:0:0:0:
352,160,23368,1,8,0:0:0:0:
352,160,23464,1,8,0:0:0:0:
352,160,23560,1,0,0:0:0:0:
352,160,23752,1,12,0:0:0:0:
136,160,23944,1,0,0:0:0:0:
136,160,24040,1,8,0:0:0:0:
136,160,24136,1,8,0:0:0:0:
136,160,24328,1,4,0:0:0:0:
224,176,24521,1,12,0:0:0:0:
248,232,24713,1,4,0:0:0:0:
240,216,24905,1,8,0:0:0:0:
240,216,25002,1,0,0:0:0:0:
240,216,25098,1,8,0:0:0:0:
288,152,25194,1,8,0:0:0:0:
240,224,25290,1,0,0:0:0:0:
264,144,25386,1,0,0:0:0:0:
264,144,25482,1,8,0:0:0:0:
240,224,25675,1,4,0:0:0:0:
224,152,25867,1,8,0:0:0:0:
224,152,25963,1,8,0:0:0:0:
216,160,26059,1,8,0:0:0:0:
240,192,26252,1,4,0:0:0:0:
240,192,26444,1,12,0:0:0:0:
240,200,26636,1,0,0:0:0:0:
256,144,26732,1,0,0:0:0:0:
256,144,26828,1,0,0:0:0:0:
256,144,26924,1,8,0:0:0:0:
256,144,27020,1,0,0:0:0:0:
256,144,27116,1,8,0:0:0:0:
256,144,27212,1,0,0:0:0:0:
256,160,27309,1,0,0:0:0:0:
272,160,27405,1,0,0:0:0:0:
248,160,27597,1,8,0:0:0:0:
152,184,27621,1,8,0:0:0:0:
248,160,27789,1,0,0:0:0:0:
248,160,27886,1,0,0:0:0:0:
256,160,27982,1,0,0:0:0:0:
256,160,28078,1,8,0:0:0:0:
256,160,28174,1,0,0:0:0:0:
256,160,28270,1,0,0:0:0:0:
256,160,28366,1,8,0:0:0:0:
256,160,28462,1,0,0:0:0:0:
256,160,28559,1,8,0:0:0:0:
256,160,28655,1,8,0:0:0:0:
256,160,28751,1,0,0:0:0:0:
232,144,28847,1,8,0:0:0:0:
232,152,28945,1,4,0:0:0:0:
336,280,29137,1,8,0:0:0:0:
320,152,29233,1,0,0:0:0:0:
336,280,29329,1,8,0:0:0:0:
336,280,29521,1,0,0:0:0:0:
240,208,29618,1,0,0:0:0:0:
336,280,29714,1,8,0:0:0:0:
320,232,29810,1,0,0:0:0:0:
336,280,29906,1,8,0:0:0:0:
320,232,30002,1,8,0:0:0:0:
336,280,30098,1,0,0:0:0:0:
424,136,30162,1,0,0:0:0:0:
424,136,30227,1,8,0:0:0:0:
416,144,30291,1,8,0:0:0:0:
272,176,30387,1,0,0:0:0:0:
272,176,30483,1,8,0:0:0:0:
344,128,30675,1,8,0:0:0:0:
344,128,30739,1,8,0:0:0:0:
344,128,30803,1,0,0:0:0:0:
344,128,30868,1,0,0:0:0:0:
344,128,31060,1,8,0:0:0:0:
80,168,31156,1,8,0:0:0:0:
320,120,31252,1,0,0:0:0:0:
224,200,31445,1,0,0:0:0:0:
360,168,31509,1,8,0:0:0:0:
360,168,31573,1,0,0:0:0:0:
224,200,31637,1,8,0:0:0:0:
328,144,31829,1,0,0:0:0:0:
328,144,32021,1,8,0:0:0:0:
232,104,32214,1,0,0:0:0:0:
232,104,32310,1,0,0:0:0:0:
328,144,32406,1,0,0:0:0:0:
368,192,32502,1,8,0:0:0:0:
376,200,32550,1,8,0:0:0:0:
376,200,32598,1,0,0:0:0:0:
384,208,32695,1,8,0:0:0:0:
384,208,32791,1,0,0:0:0:0:
352,240,32839,1,0,0:0:0:0:
352,240,32887,1,0,0:0:0:0:
336,232,32983,1,8,0:0:0:0:
336,232,33079,1,0,0:0:0:0:
336,232,33175,1,8,0:0:0:0:
336,232,33271,1,8,0:0:0:0:
336,232,33368,1,0,0:0:0:0:
336,232,33464,1,8,0:0:0:0:
336,232,33560,1,0,0:0:0:0:
256,248,33752,1,8,0:0:0:0:
248,128,33848,1,8,0:0:0:0:
256,248,33945,1,0,0:0:0:0:
256,248,34137,1,8,0:0:0:0:
256,248,34233,1,0,0:0:0:0:
256,248,34329,1,8,0:0:0:0:
256,248,34425,1,8,0:0:0:0:
256,248,34521,1,8,0:0:0:0:
256,248,34714,1,0,0:0:0:0:
280,232,34778,1,8,0:0:0:0:
288,232,34842,1,8,0:0:0:0:
288,232,34906,1,0,0:0:0:0:
288,232,34970,1,0,0:0:0:0:
288,232,35098,1,8,0:0:0:0:
328,200,35195,1,0,0:0:0:0:
328,200,35291,1,8,0:0:0:0:
304,176,35355,1,8,0:0:0:0:
304,176,35419,1,0,0:0:0:0:
328,200,35483,1,0,0:0:0:0:
344,152,35675,1,8,0:0:0:0:
352,160,35771,1,0,0:0:0:0:
352,160,35868,1,8,0:0:0:0:
176,256,36060,1,0,0:0:0:0:
176,112,36156,1,0,0:0:0:0:
176,256,36252,1,8,0:0:0:0:
176,256,36445,1,0,0:0:0:0:
176,256,36637,1,8,0:0:0:0:
200,136,36733,1,0,0:0:0:0:
176,256,36829,1,8,0:0:0:0:
360,176,36893,1,8,0:0:0:0:
368,160,36957,1,0,0:0:0:0:
176,256,37021,1,8,0:0:0:0:
200,176,37118,1,8,0:0:0:0:
200,176,37214,1,0,0:0:0:0:
200,176,37310,1,8,0:0:0:0:
165,174,37406,1,0,0:0:0:0:
165,174,37502,1,0,0:0:0:0:
165,174,37598,1,8,0:0:0:0:
165,174,37695,1,8,0:0:0:0:
174,175,37791,1,0,0:0:0:0:
174,175,37887,1,8,0:0:0:0:
174,175,37983,1,0,0:0:0:0:
173,176,38175,1,8,0:0:0:0:
272,246,38271,1,8,0:0:0:0:
272,246,38367,1,0,0:0:0:0:
272,246,38463,1,8,0:0:0:0:
272,246,38559,1,0,0:0:0:0:
272,246,38655,1,0,0:0:0:0:
272,246,38751,1,0,0:0:0:0:
272,246,38944,1,8,0:0:0:0:
272,246,39136,1,8,0:0:0:0:
272,246,39232,1,8,0:0:0:0:
272,246,39328,1,0,0:0:0:0:
272,246,39425,1,8,0:0:0:0:
272,246,39521,1,0,0:0:0:0:
272,246,39617,1,8,0:0:0:0:
272,246,39713,1,8,0:0:0:0:
272,246,39809,1,0,0:0:0:0:
272,246,39905,1,8,0:0:0:0:
272,246,40098,1,0,0:0:0:0:
272,246,40194,1,0,0:0:0:0:
272,246,40290,1,8,0:0:0:0:
272,246,40386,1,0,0:0:0:0:
272,246,40482,1,8,0:0:0:0:
272,246,40578,1,8,0:0:0:0:
272,246,40675,1,0,0:0:0:0:
272,246,40867,1,8,0:0:0:0:
303,232,41059,1,0,0:0:0:0:
303,232,41155,1,0,0:0:0:0:
303,232,41251,1,0,0:0:0:0:
303,232,41347,1,8,0:0:0:0:
303,232,41443,1,0,0:0:0:0:
303,232,41539,1,0,0:0:0:0:
303,232,41635,1,8,0:0:0:0:
303,232,41732,1,8,0:0:0:0:
303,232,41828,1,0,0:0:0:0:
303,232,42020,1,8,0:0:0:0:
164,236,42044,1,8,0:0:0:0:
303,232,42212,1,0,0:0:0:0:
303,232,42309,1,0,0:0:0:0:
303,232,42405,1,0,0:0:0:0:
303,232,42501,1,8,0:0:0:0:
303,232,42597,1,0,0:0:0:0:
303,232,42693,1,0,0:0:0:0:
303,232,42789,1,8,0:0:0:0:
303,232,42885,1,0,0:0:0:0:
303,232,42982,1,0,0:0:0:0:
303,232,43078,1,8,0:0:0:0:
303,232,43174,1,0,0:0:0:0:
303,232,43270,1,8,0:0:0:0:
303,232,43366,1,8,0:0:0:0:
303,232,43462,1,0,0:0:0:0:
303,232,43559,1,8,0:0:0:0:
303,232,43655,1,8,0:0:0:0:
303,232,43751,1,0,0:0:0:0:
303,232,43847,1,8,0:0:0:0:
303,232,43943,1,8,0:0:0:0:
303,232,44135,1,0,0:0:0:0:
303,232,44328,1,8,0:0:0:0:
283,236,44424,1,8,0:0:0:0:
256,192,44520,12,0,45193,0:0:0:0:
253,208,45289,5,4,0:0:0:0:
201,182,45463,1,0,0:0:0:0:
201,182,45550,1,0,0:0:0:0:
201,182,45637,1,8,0:0:0:0:
201,182,45725,1,0,0:0:0:0:
201,182,45812,1,8,0:0:0:0:
201,182,46161,1,0,0:0:0:0:
201,182,46335,1,8,0:0:0:0:
201,182,46422,1,8,0:0:0:0:
201,182,46509,1,0,0:0:0:0:
201,182,46597,1,8,0:0:0:0:
201,182,46684,1,0,0:0:0:0:
201,182,46771,1,0,0:0:0:0:
201,182,46858,1,8,0:0:0:0:
201,182,46945,1,0,0:0:0:0:
201,182,47033,1,8,0:0:0:0:
201,182,47120,1,8,0:0:0:0:
201,182,47207,1,0,0:0:0:0:
201,182,47556,1,0,0:0:0:0:
201,182,47643,1,0,0:0:0:0:
201,182,47730,1,8,0:0:0:0:
201,182,47905,1,0,0:0:0:0:
201,182,48079,1,8,0:0:0:0:
183,235,48166,1,0,0:0:0:0:
201,182,48254,1,0,0:0:0:0:
201,182,48341,1,8,0:0:0:0:
201,182,48428,1,0,0:0:0:0:
201,182,48515,1,0,0:0:0:0:
201,182,48602,1,8,0:0:0:0:
201,182,48690,1,0,0:0:0:0:
201,182,48777,1,8,0:0:0:0:
201,182,48864,1,8,0:0:0:0:
201,182,48951,1,0,0:0:0:0:
201,182,49039,1,8,0:0:0:0:
201,182,49126,1,0,0:0:0:0:
201,182,49213,1,0,0:0:0:0:
201,182,49300,1,8,0:0:0:0:
201,182,49387,1,0,0:0:0:0:
201,184,49475,1,8,0:0:0:0:
208,208,49562,1,8,0:0:0:0:
208,208,49649,1,0,0:0:0:0:
208,208,49736,1,0,0:0:0:0:
208,208,49823,1,8,0:0:0:0:
208,208,49998,1,0,0:0:0:0:
203,96,50085,1,0,0:0:0:0:
208,208,50172,1,8,0:0:0:0:
79,204,50230,1,8,0:0:0:0:
79,204,50289,1,8,0:0:0:0:
208,208,50347,1,0,0:0:0:0:
208,208,50521,1,8,0:0:0:0:
208,82,50695,1,0,0:0:0:0:
131,138,50783,1,0,0:0:0:0:
208,208,50870,1,8,0:0:0:0:
208,208,51044,1,0,0:0:0:0:
208,208,51132,1,0,0:0:0:0:
208,208,51219,1,8,0:0:0:0:
208,208,51306,1,0,0:0:0:0:
208,208,51393,1,8,0:0:0:0:
208,208,51742,1,0,0:0:0:0:
208,208,51916,1,8,0:0:0:0:
136,259,51975,1,8,0:0:0:0:
152,270,52033,1,0,0:0:0:0:
175,260,52091,1,0,0:0:0:0:
332,156,52178,1,8,0:0:0:0:
332,156,52265,1,0,0:0:0:0:
299,212,52352,1,0,0:0:0:0:
299,212,52440,1,8,0:0:0:0:
299,212,52527,1,0,0:0:0:0:
299,212,52614,1,8,0:0:0:0:
299,212,52701,1,8,0:0:0:0:
299,212,52789,1,0,0:0:0:0:
299,212,53137,1,0,0:0:0:0:
299,212,53312,1,8,0:0:0:0:
299,212,53399,1,8,0:0:0:0:
299,212,53486,1,8,0:0:0:0:
299,212,53573,1,0,0:0:0:0:
299,212,53661,1,8,0:0:0:0:
411,149,53893,1,0,0:0:0:0:
411,149,54126,1,0,0:0:0:0:
411,149,54358,1,8,0:0:0:0:
411,149,54591,1,0,0:0:0:0:
411,149,54823,1,8,0:0:0:0:
411,149,55056,1,8,0:0:0:0:
411,149,55289,5,0,0:0:0:0:
411,149,55405,1,0,0:0:0:0:
383,164,55521,1,0,0:0:0:0:
383,164,55754,1,8,0:0:0:0:
382,170,55986,1,0,0:0:0:0:
382,170,56219,1,0,0:0:0:0:
240,272,56451,5,4,0:0:0:0:
272,240,56643,1,8,0:0:0:0:
280,248,56835,1,8,0:0:0:0:
280,224,57027,1,0,0:0:0:0:
280,224,57220,1,8,0:0:0:0:
280,224,57412,1,0,0:0:0:0:
280,224,57604,1,8,0:0:0:0:
360,144,57668,1,0,0:0:0:0:
360,144,57733,1,0,0:0:0:0:
280,224,57797,1,8,0:0:0:0:
280,224,57989,1,8,0:0:0:0:
280,224,58181,1,0,0:0:0:0:
280,224,58374,1,0,0:0:0:0:
280,224,58566,1,8,0:0:0:0:
280,224,58758,1,0,0:0:0:0:
320,200,58951,1,0,0:0:0:0:
320,200,59143,1,8,0:0:0:0:
320,200,59335,1,8,0:0:0:0:
320,200,59527,1,0,0:0:0:0:
320,200,59720,1,8,0:0:0:0:
320,200,59912,1,0,0:0:0:0:
320,200,60104,1,8,0:0:0:0:
240,176,60201,1,0,0:0:0:0:
320,200,60297,1,0,0:0:0:0:
216,88,60393,1,8,0:0:0:0:
408,176,60489,1,0,0:0:0:0:
408,176,60553,1,8,0:0:0:0:
400,176,60617,1,8,0:0:0:0:
400,168,60681,1,0,0:0:0:0:
280,184,60874,1,8,0:0:0:0:
224,232,61066,1,4,0:0:0:0:
200,144,61451,1,0,0:0:0:0:
200,152,61643,1,8,0:0:0:0:
200,152,62027,1,0,0:0:0:0:
200,152,62220,1,0,0:0:0:0:
208,120,62316,1,8,0:0:0:0:
208,120,62412,1,8,0:0:0:0:
176,232,62508,1,0,0:0:0:0:
224,144,62604,1,0,0:0:0:0:
224,144,62701,1,8,0:0:0:0:
192,232,62797,1,0,0:0:0:0:
208,40,62893,1,0,0:0:0:0:
208,40,62989,1,8,0:0:0:0:
208,40,63085,1,0,0:0:0:0:
200,72,63181,1,8,0:0:0:0:
192,96,63277,1,8,0:0:0:0:
192,232,63374,1,0,0:0:0:0:
128,200,63758,1,0,0:0:0:0:
128,200,63951,1,8,0:0:0:0:
128,200,64143,1,0,0:0:0:0:
128,200,64335,1,0,0:0:0:0:
128,200,64527,1,8,0:0:0:0:
208,168,64624,1,8,0:0:0:0:
208,168,64720,1,0,0:0:0:0:
240,192,64816,1,8,0:0:0:0:
208,168,64912,1,0,0:0:0:0:
240,192,65008,1,0,0:0:0:0:
240,192,65104,1,8,0:0:0:0:
240,192,65297,1,0,0:0:0:0:
208,168,65393,1,8,0:0:0:0:
208,168,65489,1,8,0:0:0:0:
200,216,65681,5,4,0:0:0:0:
248,264,65874,1,8,0:0:0:0:
256,272,65970,1,0,0:0:0:0:
258,141,66018,1,0,0:0:0:0:
256,272,66066,1,8,0:0:0:0:
256,272,66162,1,8,0:0:0:0:
256,272,66258,1,0,0:0:0:0:
256,272,66451,1,8,0:0:0:0:
416,152,66515,1,8,0:0:0:0:
416,152,66579,1,0,0:0:0:0:
416,152,66643,1,8,0:0:0:0:
218,184,66707,1,8,0:0:0:0:
218,184,66771,1,0,0:0:0:0:
376,200,66835,1,0,0:0:0:0:
336,248,66931,1,8,0:0:0:0:
336,248,67027,1,8,0:0:0:0:
336,248,67124,1,0,0:0:0:0:
336,248,67220,1,8,0:0:0:0:
408,136,67284,1,8,0:0:0:0:
408,136,67348,1,0,0:0:0:0:
408,136,67412,1,0,0:0:0:0:
328,216,67508,1,8,0:0:0:0:
328,216,67604,1,0,0:0:0:0:
328,224,67701,1,8,0:0:0:0:
208,136,67797,1,0,0:0:0:0:
200,144,67893,1,0,0:0:0:0:
200,144,67989,1,8,0:0:0:0:
200,144,68181,1,8,0:0:0:0:
200,144,68277,1,8,0:0:0:0:
200,144,68374,1,0,0:0:0:0:
200,144,68470,1,8,0:0:0:0:
200,144,68566,1,0,0:0:0:0:
200,144,68662,1,8,0:0:0:0:
200,144,68758,1,8,0:0:0:0:
200,144,68854,1,0,0:0:0:0:
200,144,68951,1,8,0:0:0:0:
200,144,69015,1,0,0:0:0:0:
116,153,69079,1,0,0:0:0:0:
200,144,69143,1,0,0:0:0:0:
200,144,69239,1,8,0:0:0:0:
200,144,69335,1,0,0:0:0:0:
200,144,69431,1,8,0:0:0:0:
200,144,69527,1,8,0:0:0:0:
200,144,69624,1,0,0:0:0:0:
200,144,69720,1,8,0:0:0:0:
440,120,69784,1,0,0:0:0:0:
440,112,69848,1,0,0:0:0:0:
200,144,69912,1,8,0:0:0:0:
296,176,70104,1,8,0:0:0:0:
296,176,70297,1,0,0:0:0:0:
304,240,70361,1,0,0:0:0:0:
304,240,70425,1,8,0:0:0:0:
304,240,70489,1,8,0:0:0:0:
304,240,70553,1,0,0:0:0:0:
304,240,70617,1,8,0:0:0:0:
304,240,70681,1,0,0:0:0:0:
304,240,70745,1,0,0:0:0:0:
304,240,70809,1,8,0:0:0:0:
304,240,70874,1,0,0:0:0:0:
304,240,70938,1,0,0:0:0:0:
304,240,71002,1,8,0:0:0:0:
304,240,71066,1,0,0:0:0:0:
320,176,71162,1,0,0:0:0:0:
320,176,71258,1,8,0:0:0:0:
320,176,71354,1,8,0:0:0:0:
320,176,71451,1,0,0:0:0:0:
368,192,71547,1,0,0:0:0:0:
368,192,71643,1,0,0:0:0:0:
368,192,71739,1,8,0:0:0:0:
368,192,71835,1,8,0:0:0:0:
368,192,71931,1,0,0:0:0:0:
368,192,72027,1,8,0:0:0:0:
368,192,72124,1,8,0:0:0:0:
368,192,72220,1,8,0:0:0:0:
175,146,72316,1,0,0:0:0:0:
368,192,72412,1,8,0:0:0:0:
236,73,72476,1,8,0:0:0:0:
118,128,72540,1,8,0:0:0:0:
464,176,72604,1,0,0:0:0:0:
142,90,72701,1,8,0:0:0:0:
328,208,72797,1,0,0:0:0:0:
239,121,72893,1,0,0:0:0:0:
114,116,72941,1,0,0:0:0:0:
172,98,72989,1,8,0:0:0:0:
328,208,73085,1,8,0:0:0:0:
328,208,73181,1,0,0:0:0:0:
328,208,73277,1,8,0:0:0:0:
328,208,73374,1,0,0:0:0:0:
328,208,73470,1,8,0:0:0:0:
336,208,73566,1,8,0:0:0:0:
336,208,73662,1,0,0:0:0:0:
336,208,73758,1,8,0:0:0:0:
261,125,73854,1,0,0:0:0:0:
261,125,73902,1,0,0:0:0:0:
261,125,73951,1,8,0:0:0:0:
261,125,74047,1,0,0:0:0:0:
261,125,74143,1,8,0:0:0:0:
261,125,74191,1,8,0:0:0:0:
261,125,74239,1,0,0:0:0:0:
261,125,74335,1,8,0:0:0:0:
97,140,74431,1,0,0:0:0:0:
105,119,74479,1,0,0:0:0:0:
97,140,74527,1,8,0:0:0:0:
97,140,74624,1,0,0:0:0:0:
97,140,74720,1,8,0:0:0:0:
97,140,74816,1,8,0:0:0:0:
224,176,74912,1,4,0:0:0:0:
232,192,76179,1,12,0:0:0:0:
240,192,77607,1,0,0:0:0:0:
224,208,78321,1,8,0:0:0:0:
240,200,79036,1,0,0:0:0:0:
136,224,79750,1,0,0:0:0:0:
136,224,79988,1,0,0:0:0:0:
136,224,80226,1,8,0:0:0:0:
128,208,80464,1,8,0:0:0:0:
192,184,80702,1,0,0:0:0:0:
192,184,80940,1,8,0:0:0:0:
192,184,81179,1,8,0:0:0:0:
216,152,81893,1,4,0:0:0:0:
184,152,82607,1,0,0:0:0:0:
184,152,83321,1,0,0:0:0:0:
184,152,84036,1,0,0:0:0:0:
184,152,84750,1,0,0:0:0:0:
184,176,85464,1,8,0:0:0:0:
184,176,85940,1,0,0:0:0:0:
184,176,86179,1,0,0:0:0:0:
216,208,86417,1,8,0:0:0:0:
216,208,86655,1,0,0:0:0:0:
216,208,86893,1,0,0:0:0:0:
208,216,87131,1,0,0:0:0:0:
208,216,87250,1,0,0:0:0:0:
208,216,87369,1,8,0:0:0:0:
216,216,87488,1,0,0:0:0:0:
208,216,87607,1,12,0:0:0:0:
64,192,87735,1,0,0:0:0:0:
64,192,87799,1,0,0:0:0:0:
128,120,87863,1,8,0:0:0:0:
224,232,87991,1,0,0:0:0:0:
224,232,88119,1,8,0:0:0:0:
224,232,88248,1,0,0:0:0:0:
224,232,88376,1,8,0:0:0:0:
224,232,88504,1,0,0:0:0:0:
224,232,88568,1,0,0:0:0:0:
224,232,88632,1,8,0:0:0:0:
224,232,88760,1,0,0:0:0:0:
224,232,88889,1,8,0:0:0:0:
224,232,89017,1,0,0:0:0:0:
224,232,89145,1,8,0:0:0:0:
224,232,89273,1,0,0:0:0:0:
160,208,89316,1,8,0:0:0:0:
160,208,89359,1,8,0:0:0:0:
224,232,89401,1,0,0:0:0:0:
80,128,89530,1,8,0:0:0:0:
184,208,89594,1,8,0:0:0:0:
128,144,89658,1,8,0:0:0:0:
192,48,89786,1,0,0:0:0:0:
216,232,89914,1,8,0:0:0:0:
216,232,90042,1,0,0:0:0:0:
376,152,90085,1,0,0:0:0:0:
392,144,90128,1,8,0:0:0:0:
216,232,90171,1,8,0:0:0:0:
216,240,90299,1,0,0:0:0:0:
216,240,90427,1,8,0:0:0:0:
216,240,90555,1,0,0:0:0:0:
216,240,90683,1,8,0:0:0:0:
176,80,90812,1,0,0:0:0:0:
248,118,90876,1,0,0:0:0:0:
216,184,90940,1,8,0:0:0:0:
176,88,91068,1,0,0:0:0:0:
216,184,91196,1,8,0:0:0:0:
176,88,91324,1,0,0:0:0:0:
136,160,91389,1,0,0:0:0:0:
216,184,91453,1,8,0:0:0:0:
91,136,91517,1,0,0:0:0:0:
304,184,91581,1,8,0:0:0:0:
280,208,91709,1,0,0:0:0:0:
216,184,91837,1,8,0:0:0:0:
224,80,91901,1,0,0:0:0:0:
216,184,91965,1,8,0:0:0:0:
232,192,92030,1,8,0:0:0:0:
208,184,92094,1,0,0:0:0:0:
208,184,92222,1,8,0:0:0:0:
248,184,92286,1,8,0:0:0:0:
208,184,92350,1,8,0:0:0:0:
208,184,92478,1,0,0:0:0:0:
208,184,92606,5,8,0:0:0:0:
272,144,92671,1,8,0:0:0:0:
208,184,92735,1,0,0:0:0:0:
96,128,92799,1,8,0:0:0:0:
208,184,92863,1,0,0:0:0:0:
56,176,92927,1,0,0:0:0:0:
208,184,92991,1,8,0:0:0:0:
208,184,93119,1,0,0:0:0:0:
152,48,93183,1,8,0:0:0:0:
208,184,93248,1,0,0:0:0:0:
208,184,93376,1,0,0:0:0:0:
208,184,93504,1,8,0:0:0:0:
192,56,93568,1,8,0:0:0:0:
200,32,93632,1,0,0:0:0:0:
176,112,93760,1,8,0:0:0:0:
224,208,93824,1,8,0:0:0:0:
224,208,93889,1,0,0:0:0:0:
224,208,93953,1,0,0:0:0:0:
224,208,94017,1,8,0:0:0:0:
224,208,94081,1,8,0:0:0:0:
224,208,94145,1,0,0:0:0:0:
224,208,94209,1,0,0:0:0:0:
224,208,94273,1,8,0:0:0:0:
224,208,94337,1,8,0:0:0:0:
224,208,94401,1,0,0:0:0:0:
224,208,94465,1,0,0:0:0:0:
224,208,94530,1,8,0:0:0:0:
224,208,94594,1,8,0:0:0:0:
224,208,94658,1,0,0:0:0:0:
224,208,94722,1,0,0:0:0:0:
224,208,94786,1,8,0:0:0:0:
288,136,94914,1,0,0:0:0:0:
328,200,94957,1,0,0:0:0:0:
328,200,95000,1,0,0:0:0:0:
288,136,95042,1,8,0:0:0:0:
288,144,95171,1,0,0:0:0:0:
288,144,95299,1,8,0:0:0:0:
280,152,95363,1,8,0:0:0:0:
280,160,95427,1,0,0:0:0:0:
280,160,95491,1,0,0:0:0:0:
280,160,95555,1,8,0:0:0:0:
280,160,95619,1,8,0:0:0:0:
280,160,95683,1,0,0:0:0:0:
280,160,95748,1,0,0:0:0:0:
280,160,95812,1,8,0:0:0:0:
280,160,95876,1,8,0:0:0:0:
280,160,95940,1,0,0:0:0:0:
280,160,96004,1,0,0:0:0:0:
280,144,96068,1,8,0:0:0:0:
280,192,96196,1,0,0:0:0:0:
190,170,96239,1,8,0:0:0:0:
190,170,96282,1,8,0:0:0:0:
272,200,96324,1,0,0:0:0:0:
272,208,96453,1,0,0:0:0:0:
280,208,96581,1,8,0:0:0:0:
280,216,96709,1,0,0:0:0:0:
40,152,96773,1,0,0:0:0:0:
280,216,96837,1,8,0:0:0:0:
248,224,96965,1,8,0:0:0:0:
248,224,97094,1,0,0:0:0:0:
248,224,97222,1,0,0:0:0:0:
248,224,97286,1,0,0:0:0:0:
248,224,97350,1,8,0:0:0:0:
248,224,97414,1,8,0:0:0:0:
248,224,97478,1,8,0:0:0:0:
248,224,97542,1,8,0:0:0:0:
248,224,97606,1,0,0:0:0:0:
248,224,97735,1,8,0:0:0:0:
248,224,97863,1,0,0:0:0:0:
248,224,97991,1,0,0:0:0:0:
248,224,98055,1,0,0:0:0:0:
248,224,98119,1,8,0:0:0:0:
248,224,98183,1,8,0:0:0:0:
248,224,98248,1,8,0:0:0:0:
248,224,98312,1,0,0:0:0:0:
248,224,98376,1,8,0:0:0:0:
152,160,98504,1,0,0:0:0:0:
352,168,98547,1,0,0:0:0:0:
328,152,98589,1,8,0:0:0:0:
248,232,98632,1,0,0:0:0:0:
248,232,98760,1,8,0:0:0:0:
184,209,98824,1,8,0:0:0:0:
248,232,98889,1,0,0:0:0:0:
240,248,98953,1,8,0:0:0:0:
248,232,99017,1,0,0:0:0:0:
206,75,99081,1,0,0:0:0:0:
248,232,99145,1,8,0:0:0:0:
270,175,99188,1,8,0:0:0:0:
270,175,99230,1,0,0:0:0:0:
240,248,99273,1,0,0:0:0:0:
240,248,99401,1,8,0:0:0:0:
240,248,99530,1,0,0:0:0:0:
6,133,99594,1,0,0:0:0:0:
240,248,99658,1,8,0:0:0:0:
240,248,99786,1,0,0:0:0:0:
240,248,99914,1,8,0:0:0:0:
240,248,100171,1,8,0:0:0:0:
240,248,100427,1,8,0:0:0:0:
240,248,100683,1,0,0:0:0:0:
240,248,100940,1,0,0:0:0:0:
240,248,101196,1,0,0:0:0:0:
240,248,101453,1,8,0:0:0:0:
240,248,101709,1,8,0:0:0:0:
240,248,101965,1,0,0:0:0:0:
216,224,102222,5,8,0:0:0:0:
216,224,102350,1,0,0:0:0:0:
256,232,102414,1,0,0:0:0:0:
256,232,102478,1,0,0:0:0:0:
256,232,102606,1,0,0:0:0:0:
256,232,102735,1,8,0:0:0:0:
256,232,102863,1,0,0:0:0:0:
320,312,102991,5,12,0:0:0:0:
320,312,103248,1,12,0:0:0:0:
240,184,103504,1,0,0:0:0:0:
240,184,103632,1,0,0:0:0:0:
240,184,103760,1,8,0:0:0:0:
240,184,103889,1,0,0:0:0:0:
240,184,103953,1,0,0:0:0:0:
240,184,104017,1,8,0:0:0:0:
240,184,104145,1,0,0:0:0:0:
240,192,104273,1,8,0:0:0:0:
232,192,104401,1,0,0:0:0:0:
261,184,104465,1,0,0:0:0:0:
304,304,104530,1,8,0:0:0:0:
281,229,104572,1,8,0:0:0:0:
278,233,104615,1,8,0:0:0:0:
304,224,104658,1,0,0:0:0:0:
304,224,104722,1,0,0:0:0:0:
304,224,104786,1,8,0:0:0:0:
304,224,104850,1,8,0:0:0:0:
304,224,104914,1,0,0:0:0:0:
304,224,104978,1,0,0:0:0:0:
304,224,105042,1,8,0:0:0:0:
304,224,105106,1,8,0:0:0:0:
304,224,105171,1,0,0:0:0:0:
304,224,105235,1,0,0:0:0:0:
304,224,105299,1,8,0:0:0:0:
206,150,105342,1,0,0:0:0:0:
206,150,105384,1,0,0:0:0:0:
304,224,105427,1,8,0:0:0:0:
304,224,105491,1,0,0:0:0:0:
304,224,105555,1,8,0:0:0:0:
304,224,105619,1,8,0:0:0:0:
304,224,105683,1,0,0:0:0:0:
304,224,105748,1,0,0:0:0:0:
304,224,105812,1,8,0:0:0:0:
304,224,105876,1,0,0:0:0:0:
304,224,105940,1,0,0:0:0:0:
328,200,106068,1,12,0:0:0:0:
216,224,106324,1,12,0:0:0:0:
216,224,106581,1,0,0:0:0:0:
216,224,106709,1,0,0:0:0:0:
216,224,106837,1,8,0:0:0:0:
216,128,106965,1,0,0:0:0:0:
216,128,107030,1,0,0:0:0:0:
216,224,107094,1,8,0:0:0:0:
216,128,107222,1,0,0:0:0:0:
216,224,107350,1,8,0:0:0:0:
216,136,107478,1,0,0:0:0:0:
162,138,107542,1,0,0:0:0:0:
296,232,107606,1,8,0:0:0:0:
182,257,107649,1,0,0:0:0:0:
182,257,107692,1,0,0:0:0:0:
242,142,107735,1,8,0:0:0:0:
296,232,107799,1,0,0:0:0:0:
296,232,107863,1,8,0:0:0:0:
296,232,107927,1,8,0:0:0:0:
296,232,107991,1,0,0:0:0:0:
296,232,108055,1,0,0:0:0:0:
296,232,108119,1,8,0:0:0:0:
296,232,108183,1,8,0:0:0:0:
296,232,108248,1,0,0:0:0:0:
296,232,108312,1,0,0:0:0:0:
296,232,108376,1,8,0:0:0:0:
175,154,108418,1,8,0:0:0:0:
175,154,108461,1,0,0:0:0:0:
296,232,108504,1,0,0:0:0:0:
296,232,108568,1,0,0:0:0:0:
296,232,108632,1,8,0:0:0:0:
296,232,108696,1,8,0:0:0:0:
296,232,108760,1,0,0:0:0:0:
296,232,108824,1,0,0:0:0:0:
296,232,108889,1,8,0:0:0:0:
296,232,109017,1,0,0:0:0:0:
296,232,109145,1,12,0:0:0:0:
5,191,109401,1,8,0:0:0:0:
15,194,109658,1,0,0:0:0:0:
332,244,109786,1,0,0:0:0:0:
38,182,109914,1,8,0:0:0:0:
43,188,110171,1,8,0:0:0:0:
34,198,110427,1,8,0:0:0:0:
316,277,110555,1,0,0:0:0:0:
87,206,110683,1,8,0:0:0:0:
145,230,110940,1,8,0:0:0:0:
127,230,111196,1,0,0:0:0:0:
155,230,111324,1,0,0:0:0:0:
137,204,111453,1,8,0:0:0:0:
42,193,111581,1,8,0:0:0:0:
58,202,111624,1,0,0:0:0:0:
59,202,111666,1,0,0:0:0:0:
155,230,111709,1,8,0:0:0:0:
25,209,111837,1,0,0:0:0:0:
155,230,111965,1,8,0:0:0:0:
316,277,112094,1,0,0:0:0:0:
163,246,112222,1,8,0:0:0:0:
165,247,112350,1,8,0:0:0:0:
163,248,112478,1,0,0:0:0:0:
163,248,112606,1,8,0:0:0:0:
163,248,112735,1,0,0:0:0:0:
163,248,112863,1,0,0:0:0:0:
163,248,112991,1,8,0:0:0:0:
163,246,113119,1,8,0:0:0:0:
163,246,113248,1,0,0:0:0:0:
165,247,113376,1,0,0:0:0:0:
163,248,113504,1,0,0:0:0:0:
163,248,113632,1,0,0:0:0:0:
163,248,113760,1,8,0:0:0:0:
218,155,113883,1,0,0:0:0:0:
323,185,113945,1,0,0:0:0:0:
218,155,114007,1,8,0:0:0:0:
311,220,114131,1,0,0:0:0:0:
311,220,114255,1,8,0:0:0:0:
311,220,114379,1,0,0:0:0:0:
314,234,114503,1,8,0:0:0:0:
301,231,114627,1,0,0:0:0:0:
228,171,114669,1,0,0:0:0:0:
228,171,114710,1,0,0:0:0:0:
290,224,114751,1,8,0:0:0:0:
148,149,114875,1,0,0:0:0:0:
292,221,114999,1,8,0:0:0:0:
292,221,115123,1,0,0:0:0:0:
292,221,115247,1,8,0:0:0:0:
274,176,115371,1,0,0:0:0:0:
195,197,115433,1,0,0:0:0:0:
292,274,115495,1,8,0:0:0:0:
177,125,115619,1,8,0:0:0:0:
238,125,115743,1,0,0:0:0:0:
284,274,115867,1,0,0:0:0:0:
186,76,115929,1,0,0:0:0:0:
284,274,115991,1,8,0:0:0:0:
146,166,116115,1,0,0:0:0:0:
296,269,116239,1,8,0:0:0:0:
173,128,116363,1,0,0:0:0:0:
173,128,116425,1,0,0:0:0:0:
257,182,116487,1,0,0:0:0:0:
257,182,116611,1,8,0:0:0:0:
297,268,116735,1,0,0:0:0:0:
257,182,116859,1,0,0:0:0:0:
130,141,116921,1,0,0:0:0:0:
297,268,116983,1,8,0:0:0:0:
257,182,117107,1,8,0:0:0:0:
297,268,117231,1,0,0:0:0:0:
297,268,117355,1,8,0:0:0:0:
257,182,117417,1,8,0:0:0:0:
297,268,117479,1,8,0:0:0:0:
221,174,117602,1,0,0:0:0:0:
227,131,117664,1,0,0:0:0:0:
221,174,117726,1,8,0:0:0:0:
207,115,117850,1,0,0:0:0:0:
221,174,117974,1,8,0:0:0:0:
221,174,118098,1,8,0:0:0:0:
221,174,118222,1,0,0:0:0:0:
276,235,118341,1,0,0:0:0:0:
257,156,118400,1,0,0:0:0:0:
276,235,118460,1,8,0:0:0:0:
276,235,118579,1,8,0:0:0:0:
276,235,118698,1,0,0:0:0:0:
276,235,118817,1,0,0:0:0:0:
103,167,118876,1,0,0:0:0:0:
276,235,118936,1,8,0:0:0:0:
276,235,119055,1,0,0:0:0:0:
276,235,119174,1,8,0:0:0:0:
276,235,119293,1,0,0:0:0:0:
226,116,119352,1,8,0:0:0:0:
276,235,119412,1,0,0:0:0:0:
203,97,119472,1,0,0:0:0:0:
221,104,119531,1,8,0:0:0:0:
276,235,119650,1,0,0:0:0:0:
276,235,119769,1,8,0:0:0:0:
203,97,119829,1,8,0:0:0:0:
276,235,119888,1,8,0:0:0:0:
276,235,120007,1,0,0:0:0:0:
276,235,120126,1,8,0:0:0:0:
276,235,120245,1,0,0:0:0:0:
86,148,120305,1,0,0:0:0:0:
203,97,120364,1,8,0:0:0:0:
203,97,120483,1,0,0:0:0:0:
276,235,120602,1,8,0:0:0:0:
203,97,120722,1,8,0:0:0:0:
162,41,120781,1,8,0:0:0:0:
140,83,120841,1,0,0:0:0:0:
276,235,120960,1,8,0:0:0:0:
276,235,121079,1,0,0:0:0:0:
334,180,121195,1,12,0:0:0:0:
334,180,121312,1,12,0:0:0:0:
310,183,121429,1,0,0:0:0:0:
334,180,121546,1,12,0:0:0:0:
334,180,121663,1,12,0:0:0:0:
319,184,121780,1,0,0:0:0:0:
334,180,121897,1,12,0:0:0:0:
334,180,122014,1,12,0:0:0:0:
326,186,122131,1,0,0:0:0:0:
334,180,122248,1,12,0:0:0:0:
334,180,122365,1,12,0:0:0:0:
284,190,122482,1,0,0:0:0:0:
334,180,122599,1,12,0:0:0:0:
334,180,122716,1,12,0:0:0:0:
268,188,122833,1,0,0:0:0:0:
334,180,122950,1,12,0:0:0:0:
334,180,123067,1,12,0:0:0:0:
268,188,123184,1,0,0:0:0:0:
334,180,123301,1,12,0:0:0:0:
334,180,123418,1,12,0:0:0:0:
268,188,123535,1,0,0:0:0:0:
334,180,123652,1,12,0:0:0:0:
334,180,123769,1,12,0:0:0:0:
323,188,124911,1,0,0:0:0:0:
