osu file format v14

[General]
AudioFilename: audio.ogg
AudioLeadIn: 0
PreviewTime: 35454
Countdown: 0
SampleSet: Soft
StackLeniency: 0.7
Mode: 3
LetterboxInBreaks: 0
SpecialStyle: 0
WidescreenStoryboard: 1

[Editor]
Bookmarks: 12392,24392,36392,48392,60392
DistanceSpacing: 0.8
BeatDivisor: 4
GridSize: 32
TimelineZoom: 1.6

[Metadata]
Title:Fukanzen Lover
TitleUnicode:不完全Lover
Artist:hana
ArtistUnicode:hana
Creator:MCPXiaoBai
Version:Normal
Source:カサブランカの蕾
Tags:Casablanca no Tsubomi opening short version More Dolce visual novel eroge galgame video game pop jpop j-pop japanese
BeatmapID:3890090
BeatmapSetID:1888861

[Difficulty]
HPDrainRate:7.5
CircleSize:4
OverallDifficulty:7.5
ApproachRate:5
SliderMultiplier:1.4
SliderTickRate:1

[Events]
//Background and Video events
0,0,"yur_ev_02_03.jpg",0,0
//Break Periods
//Storyboard Layer 0 (Background)
//Storyboard Layer 1 (Fail)
//Storyboard Layer 2 (Pass)
//Storyboard Layer 3 (Foreground)
//Storyboard Layer 4 (Overlay)
//Storyboard Sound Samples

[TimingPoints]
392,375,4,2,1,45,1,0
36392,-100,4,2,1,35,0,1
60392,-100,4,2,1,45,0,0

[HitObjects]
64,192,392,5,4,0:0:0:90:
448,192,392,128,0,767:0:0:0:0:
192,192,767,1,0,0:0:0:0:
320,192,954,128,0,1329:0:0:0:0:
64,192,1329,128,0,1704:0:0:0:0:
448,192,1704,128,0,2267:0:0:0:0:
64,192,1892,1,0,0:0:0:0:
192,192,2267,1,0,0:0:0:0:
320,192,2454,128,0,2829:0:0:0:0:
192,192,2829,128,0,3204:0:0:0:0:
64,192,3392,128,0,3767:0:0:0:0:
192,192,3392,1,0,0:0:0:0:
448,192,3767,1,0,0:0:0:0:
192,192,3954,128,0,4329:0:0:0:0:
320,192,4329,128,0,4892:0:0:0:0:
64,192,4892,1,0,0:0:0:0:
448,192,4892,128,0,5454:0:0:0:0:
192,192,5454,128,0,5829:0:0:0:0:
320,192,5829,1,0,0:0:0:0:
64,192,6017,128,0,6392:0:0:0:0:
320,192,6392,1,4,0:0:0:90:
448,192,6392,128,2,6767:0:0:0:60:
64,192,6767,1,0,0:0:0:0:
320,192,6954,128,0,7329:0:0:0:0:
64,192,7329,128,0,7704:0:0:0:0:
320,192,7517,1,4,0:0:0:90:
448,192,7704,128,0,8267:0:0:0:0:
64,192,7892,1,4,0:0:0:90:
192,192,7892,1,2,0:0:0:60:
64,192,8267,1,0,0:0:0:0:
320,192,8454,128,0,8829:0:0:0:0:
192,192,8829,128,0,9204:0:0:0:0:
64,192,9392,128,4,9767:0:0:0:90:
192,192,9392,1,2,0:0:0:60:
448,192,9767,1,0,0:0:0:0:
192,192,9954,128,0,10329:0:0:0:0:
320,192,10329,128,0,10892:0:0:0:0:
64,192,10892,1,4,0:0:0:90:
448,192,10892,128,2,11454:0:0:0:60:
192,192,11454,128,0,11829:0:0:0:0:
448,192,11642,1,8,0:0:0:30:
64,192,11829,1,0,0:0:0:45:RimShot.wav
320,192,12017,1,0,0:0:0:45:RimShot.wav
320,192,12204,1,0,0:0:0:45:RimShot.wav
64,192,12392,1,4,0:0:0:90:
192,192,12392,128,2,12767:0:0:0:60:
448,192,12579,128,0,12954:0:0:0:0:
64,192,12767,128,8,12954:0:0:0:30:
320,192,12954,128,0,13329:0:0:0:0:
192,192,13142,1,8,0:0:0:30:
64,192,13329,128,2,13704:0:0:0:60:
192,192,13517,1,8,0:0:0:30:
320,192,13704,1,2,0:0:0:60:
192,192,13892,128,2,14267:0:0:0:60:
448,192,13892,1,0,0:0:0:0:
64,192,14267,1,8,0:0:0:30:
320,192,14454,128,0,14829:0:0:0:0:
192,192,14642,1,8,0:0:0:30:
448,192,14829,1,2,0:0:0:60:
64,192,15017,128,8,15392:0:0:0:30:
320,192,15204,128,2,15392:0:0:0:60:
192,192,15392,128,2,15579:0:0:0:60:
448,192,15392,128,0,15767:0:0:0:0:
64,192,15767,1,8,0:0:0:30:
320,192,15954,128,0,16329:0:0:0:0:
192,192,16142,1,8,0:0:0:30:
64,192,16329,128,2,16704:0:0:0:60:
448,192,16517,1,8,0:0:0:30:
192,192,16704,1,2,0:0:0:60:
320,192,16892,128,2,17267:0:0:0:60:
448,192,16892,1,0,0:0:0:0:
192,192,17079,1,0,0:0:0:0:
64,192,17267,1,8,0:0:0:30:
448,192,17454,128,0,18204:0:0:0:0:
192,192,17642,1,8,0:0:0:30:
320,192,17829,1,2,0:0:0:60:
64,192,18017,1,8,0:0:0:30:
64,192,18204,1,2,0:0:0:60:
320,192,18392,128,4,18767:0:0:0:90:
448,192,18392,1,2,0:0:0:60:
64,192,18579,128,0,18954:0:0:0:0:
448,192,18767,128,8,18954:0:0:0:30:
192,192,18954,128,0,19329:0:0:0:0:
320,192,19142,1,8,0:0:0:30:
448,192,19329,128,2,19704:0:0:0:60:
64,192,19517,128,8,19704:0:0:0:30:
192,192,19704,1,2,0:0:0:60:
64,192,19892,1,2,0:0:0:60:
320,192,19892,128,0,20267:0:0:0:0:
448,192,20267,1,8,0:0:0:30:
192,192,20454,128,0,20829:0:0:0:0:
320,192,20642,1,8,0:0:0:30:
64,192,20829,1,2,0:0:0:60:
448,192,21017,128,8,21392:0:0:0:30:
192,192,21204,128,2,21392:0:0:0:60:
64,192,21392,128,2,21767:0:0:0:60:
320,192,21392,128,0,21579:0:0:0:0:
320,192,21767,1,8,0:0:0:30:
192,192,21954,128,0,22329:0:0:0:0:
448,192,22142,1,8,0:0:0:30:
320,192,22329,128,2,22704:0:0:0:60:
192,192,22517,1,8,0:0:0:30:
64,192,22704,1,2,0:0:0:60:
320,192,22892,1,2,0:0:0:60:
448,192,22892,128,0,23829:0:0:0:0:
192,192,23079,1,0,0:0:0:0:
64,192,23267,1,8,0:0:0:30:
320,192,23454,1,0,0:0:0:0:
192,192,23642,1,8,0:0:0:30:
64,192,23829,1,2,0:0:0:60:
320,192,24017,1,2,0:0:0:60:
320,192,24204,1,2,0:0:0:60:
64,192,24392,128,4,24767:0:0:0:90:
448,192,24392,1,2,0:0:0:60:
320,192,24579,128,0,24954:0:0:0:0:
192,192,24767,128,0,24954:0:0:0:0:
64,192,24954,1,2,0:0:0:60:
448,192,24954,1,0,0:0:0:0:
320,192,25142,1,8,0:0:0:30:
448,192,25142,128,0,25704:0:0:0:0:
64,192,25517,128,0,26267:0:0:0:0:
192,192,25517,1,0,0:0:0:0:
320,192,25892,128,2,26267:0:0:0:60:
448,192,25892,1,0,0:0:0:0:
192,192,26267,1,0,0:0:0:0:
64,192,26454,1,2,0:0:0:60:
192,192,26454,128,0,26829:0:0:0:0:
448,192,26642,1,8,0:0:0:30:
64,192,26829,128,0,27204:0:0:0:45:RimShot.wav
320,192,26829,1,0,0:0:0:0:
320,192,27017,128,0,27204:0:0:0:45:RimShot.wav
448,192,27204,1,0,0:0:0:45:RimShot.wav
64,192,27392,1,4,0:0:0:90:
448,192,27392,128,2,27767:0:0:0:60:
192,192,27579,128,0,27954:0:0:0:0:
320,192,27767,128,0,27954:0:0:0:0:
64,192,27954,1,2,0:0:0:60:
448,192,27954,1,0,0:0:0:0:
64,192,28142,128,8,28704:0:0:0:30:
192,192,28142,1,0,0:0:0:0:
320,192,28517,1,0,0:0:0:0:
448,192,28517,128,0,29267:0:0:0:0:
64,192,28892,1,2,0:0:0:60:
192,192,28892,128,0,29267:0:0:0:0:
320,192,29267,1,0,0:0:0:0:
320,192,29454,128,2,29829:0:0:0:60:
448,192,29454,1,0,0:0:0:0:
192,192,29642,1,8,0:0:0:30:
448,192,29829,128,0,30204:0:0:0:0:
64,192,30017,1,8,0:0:0:30:
192,192,30017,128,0,30204:0:0:0:0:
320,192,30204,128,8,30392:0:0:0:30:
64,192,30392,128,4,30767:0:0:0:90:
192,192,30392,1,2,0:0:0:60:
448,192,30579,128,0,30767:0:0:0:0:
192,192,30767,1,8,0:0:0:30:
320,192,30767,128,0,31142:0:0:0:0:
192,192,30954,128,0,31142:0:0:0:0:
64,192,31142,1,2,0:0:0:60:
448,192,31142,1,0,0:0:0:0:
320,192,31329,128,2,31517:0:0:0:60:
64,192,31517,1,8,0:0:0:30:
192,192,31517,1,0,0:0:0:0:
64,192,31704,128,0,32079:0:0:0:0:
320,192,31892,1,2,0:0:0:60:
448,192,31892,128,0,32267:0:0:0:0:
192,192,32079,1,0,0:0:0:0:
64,192,32267,1,8,0:0:0:30:
192,192,32267,1,0,0:0:0:0:
320,192,32454,128,0,32642:0:0:0:0:
64,192,32642,1,2,0:0:0:60:
448,192,32642,1,0,0:0:0:0:
64,192,32829,1,2,0:0:0:60:
320,192,33017,1,8,0:0:0:30:
448,192,33017,1,0,0:0:0:0:
448,192,33204,128,0,33392:0:0:0:0:
64,192,33392,128,4,33767:0:0:0:90:
320,192,33392,1,2,0:0:0:60:
320,192,33579,1,0,0:0:0:0:
192,192,33767,1,8,0:0:0:30:
448,192,33767,1,0,0:0:0:0:
448,192,33954,128,2,34329:0:0:0:60:
64,192,34142,1,8,0:0:0:30:
192,192,34142,1,0,0:0:0:0:
192,192,34329,128,2,34704:0:0:0:60:
320,192,34517,1,8,0:0:0:30:
448,192,34517,128,0,34704:0:0:0:0:
64,192,34704,1,8,0:0:0:30:
192,192,34892,1,2,0:0:0:60:
448,192,34892,1,0,0:0:0:0:
320,192,35079,1,2,0:0:0:60:
448,192,35079,1,0,0:0:0:0:
320,192,35267,1,2,0:0:0:60:
448,192,35267,1,0,0:0:0:0:
320,192,35642,128,0,36017:0:0:0:0:
192,192,36017,128,0,36392:0:0:0:0:
448,192,36204,128,0,36392:0:0:0:0:
64,192,36392,128,4,36767:0:0:0:90:
320,192,36392,128,2,36579:0:0:0:60:
192,192,36767,1,8,0:0:0:30:
320,192,36767,128,0,37142:0:0:0:0:
64,192,36954,128,0,37142:0:0:0:0:
192,192,37142,1,2,0:0:0:60:
448,192,37142,1,0,0:0:0:0:
192,192,37329,128,2,37704:0:0:0:60:
320,192,37517,1,8,0:0:0:30:
448,192,37517,1,0,0:0:0:0:
64,192,37704,1,0,0:0:0:0:
64,192,37892,128,2,38079:0:0:0:60:
448,192,37892,128,0,38267:0:0:0:0:
192,192,38267,128,8,38454:0:0:0:30:
320,192,38267,1,0,0:0:0:0:
64,192,38454,128,0,38829:0:0:0:0:
320,192,38642,1,2,0:0:0:60:
448,192,38642,1,0,0:0:0:0:
448,192,38829,128,2,39017:0:0:0:60:
64,192,39017,1,8,0:0:0:30:
192,192,39017,1,0,0:0:0:0:
192,192,39204,128,0,39392:0:0:0:0:
64,192,39392,128,2,39579:0:0:0:60:
448,192,39392,128,0,39767:0:0:0:0:
64,192,39767,1,8,0:0:0:30:
192,192,39767,128,0,40142:0:0:0:0:
448,192,39954,128,0,40329:0:0:0:0:
320,192,40142,1,2,0:0:0:60:
192,192,40329,128,2,40517:0:0:0:60:
64,192,40517,1,8,0:0:0:30:
448,192,40517,1,0,0:0:0:0:
320,192,40704,128,0,40892:0:0:0:0:
64,192,40892,128,2,41267:0:0:0:60:
192,192,40892,1,0,0:0:0:0:
192,192,41267,1,8,0:0:0:30:
448,192,41267,128,0,41454:0:0:0:0:
192,192,41454,128,0,41829:0:0:0:0:
320,192,41642,1,2,0:0:0:60:
448,192,41642,1,0,0:0:0:0:
320,192,41829,128,2,42204:0:0:0:60:
64,192,42017,1,8,0:0:0:30:
192,192,42017,1,0,0:0:0:0:
64,192,42204,1,8,0:0:0:30:
448,192,42204,1,0,0:0:0:0:
320,192,42392,1,2,0:0:0:60:
448,192,42392,128,0,42767:0:0:0:0:
192,192,42579,128,0,42767:0:0:0:0:
64,192,42767,1,8,0:0:0:30:
320,192,42767,128,0,42954:0:0:0:0:
64,192,42954,128,0,43329:0:0:0:0:
320,192,43142,1,2,0:0:0:60:
448,192,43142,1,0,0:0:0:0:
192,192,43329,128,2,43704:0:0:0:60:
320,192,43517,1,8,0:0:0:30:
448,192,43517,128,0,43704:0:0:0:0:
64,192,43704,1,0,0:0:0:0:
192,192,43892,1,2,0:0:0:60:
320,192,43892,128,0,44267:0:0:0:0:
64,192,44267,128,8,44642:0:0:0:30:
448,192,44267,1,0,0:0:0:0:
448,192,44454,128,0,44829:0:0:0:0:
192,192,44642,1,2,0:0:0:60:
64,192,44829,1,2,0:0:0:60:
320,192,44829,1,0,0:0:0:0:
64,192,45017,128,8,45392:0:0:0:30:
448,192,45017,1,0,0:0:0:0:
320,192,45204,128,0,45392:0:0:0:0:
192,192,45392,128,4,45579:0:0:0:90:
448,192,45392,128,2,45767:0:0:0:60:
64,192,45767,128,8,46142:0:0:0:30:
192,192,45767,1,0,0:0:0:0:
320,192,45954,128,0,46142:0:0:0:0:
192,192,46142,1,4,0:0:0:90:
448,192,46142,128,2,46517:0:0:0:60:
192,192,46329,128,2,46704:0:0:0:60:
320,192,46517,1,8,0:0:0:30:
64,192,46704,1,8,0:0:0:30:
448,192,46704,1,0,0:0:0:0:
64,192,46892,128,4,47079:0:0:0:90:
320,192,46892,128,2,47267:0:0:0:60:
64,192,47267,1,8,0:0:0:30:
192,192,47267,128,0,47642:0:0:0:0:
448,192,47454,128,0,47642:0:0:0:0:
64,192,47642,1,4,0:0:0:90:
320,192,47642,128,2,48017:0:0:0:60:
64,192,47829,128,8,48017:0:0:0:30:
192,192,47829,1,0,0:0:0:0:
448,192,48017,128,8,48204:0:0:0:30:
64,192,48204,1,0,0:0:0:45:RimShot.wav
192,192,48204,1,0,0:0:0:0:
192,192,48392,128,4,48579:0:0:0:90:
448,192,48392,128,2,48767:0:0:0:60:
192,192,48767,128,8,49142:0:0:0:30:
320,192,48767,1,0,0:0:0:0:
448,192,48954,128,0,49142:0:0:0:0:
64,192,49142,1,2,0:0:0:60:
320,192,49142,1,0,0:0:0:0:
320,192,49329,128,2,49704:0:0:0:60:
64,192,49517,1,8,0:0:0:30:
192,192,49517,1,0,0:0:0:0:
448,192,49704,1,0,0:0:0:0:
64,192,49892,128,2,50267:0:0:0:60:
448,192,49892,128,0,50079:0:0:0:0:
192,192,50267,1,8,0:0:0:30:
320,192,50267,128,0,50454:0:0:0:0:
448,192,50454,128,2,50829:0:0:0:60:
64,192,50642,1,0,0:0:0:0:
192,192,50642,1,0,0:0:0:0:
64,192,50829,128,2,51017:0:0:0:60:
320,192,51017,1,8,0:0:0:30:
448,192,51017,1,0,0:0:0:0:
320,192,51204,128,0,51392:0:0:0:0:
64,192,51392,128,2,51767:0:0:0:60:
448,192,51392,128,0,51579:0:0:0:0:
320,192,51767,128,8,52142:0:0:0:30:
448,192,51767,1,0,0:0:0:0:
64,192,51954,128,8,52142:0:0:0:30:
192,192,52142,128,2,52329:0:0:0:60:
448,192,52142,1,0,0:0:0:0:
320,192,52329,128,2,52517:0:0:0:60:
64,192,52517,1,8,0:0:0:30:
448,192,52517,128,0,52704:0:0:0:0:
192,192,52704,128,8,52892:0:0:0:30:
64,192,52892,128,4,53079:0:0:0:90:
448,192,52892,128,2,53454:0:0:0:60:
64,192,53267,128,8,53829:0:0:0:30:
192,192,53267,1,0,0:0:0:0:
320,192,53454,1,2,0:0:0:60:
448,192,53642,128,0,54017:0:0:0:0:
192,192,53829,1,2,0:0:0:60:
64,192,54017,128,8,54392:0:0:0:30:
320,192,54017,1,0,0:0:0:0:
448,192,54204,128,8,54392:0:0:0:30:
192,192,54392,128,4,54767:0:0:0:90:
320,192,54392,1,2,0:0:0:60:
320,192,54767,1,0,0:0:0:0:
192,192,54954,1,2,0:0:0:60:
64,192,55142,1,8,0:0:0:30:
448,192,55142,1,0,0:0:0:0:
320,192,55329,1,0,0:0:0:0:
192,192,55517,128,0,55704:0:0:0:0:
320,192,55704,128,2,55892:0:0:0:60:
64,192,55892,128,2,56267:0:0:0:60:
192,192,55892,1,0,0:0:0:0:
320,192,56079,1,8,0:0:0:30:
448,192,56267,1,0,0:0:0:0:
64,192,56454,1,2,0:0:0:60:
192,192,56454,128,0,56829:0:0:0:0:
320,192,56642,1,8,0:0:0:30:
448,192,56642,128,0,56829:0:0:0:0:
64,192,57017,1,8,0:0:0:30:
448,192,57017,128,0,57204:0:0:0:0:
192,192,57204,128,8,57392:0:0:0:30:
64,192,57392,128,6,57767:0:0:0:60:
320,192,57392,128,8,57579:0:0:0:30:
448,192,57579,1,2,0:0:0:60:
192,192,57767,1,6,0:0:0:60:
448,192,57767,128,8,58142:0:0:0:30:
192,192,57954,128,2,58142:0:0:0:60:
64,192,58142,1,6,0:0:0:60:
320,192,58142,1,8,0:0:0:30:
320,192,58329,128,2,58704:0:0:0:60:
448,192,58329,1,0,0:0:0:0:
64,192,58517,1,6,0:0:0:60:
192,192,58517,1,8,0:0:0:30:
448,192,58704,1,2,0:0:0:60:
64,192,58892,128,2,59079:0:0:0:60:
320,192,58892,128,8,59267:0:0:0:30:
448,192,59079,1,8,0:0:0:30:
64,192,59267,1,8,0:0:0:30:
192,192,59267,128,0,59454:0:0:0:0:
320,192,59454,1,8,0:0:0:30:
448,192,59454,128,0,59642:0:0:0:0:
64,192,59642,128,8,59829:0:0:0:30:
192,192,59642,1,0,0:0:0:0:
320,192,59829,128,8,60017:0:0:0:30:
64,192,60017,1,4,0:0:0:90:
448,192,60017,1,2,0:0:0:60:
448,192,60204,128,0,61704:0:0:0:0:
64,192,60392,1,4,0:0:0:90:
192,192,60392,1,2,0:0:0:60:
320,192,60579,1,0,0:0:0:0:
192,192,60767,1,2,0:0:0:60:
64,192,60954,1,0,0:0:0:0:
320,192,61142,1,2,0:0:0:60:
192,192,61329,1,0,0:0:0:0:
64,192,61517,1,8,0:0:0:30:
320,192,61704,1,0,0:0:0:0:
64,192,61892,1,2,0:0:0:60:
192,192,61892,128,0,63204:0:0:0:0:
448,192,62079,1,0,0:0:0:0:
320,192,62267,1,2,0:0:0:60:
64,192,62454,1,0,0:0:0:0:
448,192,62642,1,2,0:0:0:60:
320,192,62829,1,0,0:0:0:0:
64,192,63017,1,8,0:0:0:30:
448,192,63204,1,0,0:0:0:0:
64,192,63392,1,4,0:0:0:90:
320,192,63392,128,2,64704:0:0:0:60:
448,192,63579,1,0,0:0:0:0:
64,192,63767,1,2,0:0:0:60:
192,192,63954,1,0,0:0:0:0:
448,192,64142,1,2,0:0:0:60:
64,192,64329,1,0,0:0:0:0:
192,192,64517,1,8,0:0:0:30:
448,192,64704,1,0,0:0:0:0:
64,192,64892,128,2,65267:0:0:0:60:
192,192,64892,1,0,0:0:0:0:
320,192,65079,1,0,0:0:0:0:
448,192,65267,1,2,0:0:0:60:
64,192,65454,1,0,0:0:0:0:
192,192,65454,128,0,65829:0:0:0:0:
320,192,65642,1,2,0:0:0:60:
448,192,65829,1,0,0:0:0:0:
192,192,66017,1,8,0:0:0:30:
320,192,66017,128,0,66392:0:0:0:0:
64,192,66392,1,4,0:0:0:90:
448,192,66392,128,0,66767:0:0:0:0:
192,192,66767,1,0,0:0:0:0:
320,192,66954,128,0,67329:0:0:0:0:
64,192,67329,128,0,67704:0:0:0:0:
448,192,67704,128,0,68267:0:0:0:0:
64,192,67892,1,0,0:0:0:0:
192,192,68267,1,0,0:0:0:0:
320,192,68454,128,0,68829:0:0:0:0:
192,192,68829,128,0,69204:0:0:0:0:
64,192,69392,128,0,69767:0:0:0:0:
192,192,69392,1,0,0:0:0:0:
448,192,69767,1,0,0:0:0:0:
192,192,69954,128,0,70329:0:0:0:0:
320,192,70329,128,0,70892:0:0:0:0:
64,192,70892,1,0,0:0:0:0:
448,192,71079,128,0,72392:0:0:0:0:
