osu file format v14

[General]
AudioFilename: audio.mp3
AudioLeadIn: 0
PreviewTime: 7923
Countdown: 0
SampleSet: Normal
StackLeniency: 0.8
Mode: 1
LetterboxInBreaks: 0
WidescreenStoryboard: 1

[Editor]
Bookmarks: 483,8042,19380,26939,34498,42057,49616,58973,71384,83795,96206
DistanceSpacing: 1.3
BeatDivisor: 4
GridSize: 32
TimelineZoom: 1

[Metadata]
Title:Snowman
TitleUnicode:スノーマン
Artist:halyosy
ArtistUnicode:halyosy
Creator:Noffy
Version:Chilled Muzukashii
Source:初音ミク Project mirai 2
Tags:KAITO Vocaloid Ayyri 1Her0 hatsune miku Deluxe DX ARCADE Future Tone Colorful Sound SEGA Christmas winter merry santa Initial D. BURNIGN melting edit song mix eurobeat Niko Night of Fire
BeatmapID:1466507
BeatmapSetID:688590

[Difficulty]
HPDrainRate:7
CircleSize:3
OverallDifficulty:4
ApproachRate:0
SliderMultiplier:1.4
SliderTickRate:1

[Events]
//Background and Video events
0,0,"snow.jpg",0,60
//Break Periods
//Storyboard Layer 0 (Background)
Sprite,Background,TopLeft,"snow.jpg",0,0
Sprite,Background,Centre,"notsnow.jpg",320,400 S,0,58979,,0.534 F,0,96212,100866,1,0
Sprite,Background,Centre,"snow.jpg",320,400 S,0,0,,0.534 F,0,0,4245,0,1 F,0,58979,59366,1,0 S,0,58979,59366,0.534,1
//Storyboard Layer 1 (Fail)
Sprite,Fail,TopRight,"SB\taiko-sliderFIREf.jpg",320,0 L,58973,3 MX,0,0,20000,747,-107 F,0,58973,,1 F,0,96206,100860,1,0
Sprite,Fail,TopLeft,"SB\taiko-sliderFIREf.jpg",320,0 L,58973,3 MX,0,0,20000,747,-107 F,0,58973,,1 F,0,96206,100860,1,0
Sprite,Fail,TopRight,"SB\taiko-sliderf.jpg",320,0 L,0,3 MX,0,0,20000,747,-107 F,0,0,4245,0,1 F,0,58593,58973,1,0
Sprite,Fail,TopLeft,"SB\taiko-sliderf.jpg",320,0 L,0,3 MX,0,0,20000,747,-107 F,0,0,4245,0,1 F,0,58593,58973,1,0
Sprite,Fail,Centre,"SB\scaredboi.png",320,370 S,0,0,,0.8 F,0,483,4245,0,1 M,0,96206,96594,320,370,320,650
Sprite,Fail,Centre,"SB\scaredkai.png",220,370 S,0,59263,,0.8 M,0,58973,59166,500,650,500,362 M,0,96206,96594,500,362,500,650
Sprite,Fail,Centre,"SB\scaredlen.png",220,370 S,0,71675,,0.8 M,0,96206,96594,140,380,140,650 M,0,71384,71578,140,650,140,380
//Storyboard Layer 2 (Pass)
Sprite,Pass,TopRight,"SB\taiko-sliderFIRE.jpg",320,0 L,58973,3 MX,0,0,20000,747,-107 F,0,58973,,1 F,0,96206,100860,1,0
Sprite,Pass,TopLeft,"SB\taiko-sliderFIRE.jpg",320,0 L,58973,3 MX,0,0,20000,747,-107 F,0,58973,,1 F,0,96206,100860,1,0
Sprite,Pass,TopRight,"SB\taiko-slider.jpg",320,0 L,0,3 MX,0,0,20000,747,-107 F,0,0,4245,0,1 F,0,58593,58973,1,0
Sprite,Pass,TopLeft,"SB\taiko-slider.jpg",320,0 L,0,3 MX,0,0,20000,747,-107 F,0,0,4245,0,1 F,0,58593,58973,1,0
Sprite,Pass,Centre,"SB\happyboi.png",320,370 S,0,0,,0.8 F,0,483,,0 F,0,97757,,0 T,HitSoundFinish,4262,96109 F,0,0,,1 M,30,0,472,320,370,320,350 F,0,472,,0 T,HitSoundFinish,96109,96400 F,0,0,,1 M,30,0,472,320,370,320,350 M,2,472,900,320,350,320,650 F,0,1000,,0
Sprite,Pass,Centre,"SB\snowboi.png",320,370 L,0,31 R,0,0,,0 R,0,472,,0.2 R,0,944,,0 R,0,1416,,-0.2 R,0,1888,,0 L,58973,23 R,0,0,,0.2 R,0,387,,0 R,0,774,,-0.2 R,0,1161,,0 R,0,1548,,0.2 S,0,0,,0.8 F,0,483,4245,0,1 R,0,94945,,0 R,0,95236,,-0.2 R,0,95527,,0 R,0,95818,,0.2 R,0,96012,,0 F,0,96206,,0 T,HitSoundFinish,4262,96109 F,0,0,,0 F,0,472,,1
Sprite,Pass,Centre,"SB\happykai.png",320,370 F,0,59263,,0 S,0,59263,,0.8 F,0,97757,,0 T,HitSoundFinish,59166,96109 F,0,0,,1 M,30,0,472,500,362,500,340 F,0,472,,0 T,HitSoundFinish,96109,96400 F,0,0,,1 M,30,0,472,500,362,500,340 M,2,472,900,500,340,500,650 F,0,1000,,0
Sprite,Pass,Centre,"SB\snowkai.png",320,370 L,58973,23 R,0,0,,0.2 R,0,387,,0 R,0,774,,-0.2 R,0,1161,,0 R,0,1548,,0.2 F,0,58973,,1 S,0,58973,,0.8 M,0,58973,59166,500,650,500,362 R,0,94945,,0 R,0,95236,,-0.2 R,0,95527,,0 R,0,95818,,0.2 R,0,96012,,0 F,0,96206,,0 T,HitSoundFinish,59166,96109 F,0,0,,0 F,0,472,,1
Sprite,Pass,Centre,"SB\happylen.png",320,370 F,0,71675,,0 S,0,71675,,0.8 F,0,97757,,0 T,HitSoundFinish,71578,96109 F,0,0,,1 M,30,0,472,140,380,140,360 F,0,472,,0 T,HitSoundFinish,96109,96400 F,0,0,,1 M,30,0,472,140,380,140,360 M,2,472,900,140,360,140,650 F,0,1000,,0
Sprite,Pass,Centre,"SB\snowlen.png",320,370 L,58973,23 R,0,0,,0.2 R,0,387,,0 R,0,774,,-0.2 R,0,1161,,0 R,0,1548,,0.2 F,0,58973,,0 F,0,71384,,1 S,0,71384,,0.8 M,0,71384,71578,140,650,140,380 R,0,94945,,0 R,0,95236,,-0.2 R,0,95527,,0 R,0,95818,,0.2 R,0,96012,,0 F,0,96206,,0 T,HitSoundFinish,71578,96109 F,0,0,,0 F,0,472,,1
//Storyboard Layer 3 (Foreground)
//Storyboard Sound Samples

[TimingPoints]
483,472.44094488189,4,1,0,75,1,0
8042,-100,4,1,0,75,0,1
19380,-100,4,1,0,75,0,0
58973,387.847446670976,4,1,0,100,1,1
83795,-100,4,1,0,100,0,0
96206,-100,4,1,0,100,0,0

[Colours]
Combo1 : 240,122,15
Combo2 : 168,179,253
Combo3 : 65,131,180
Combo4 : 255,11,11

[HitObjects]
160,96,483,5,0,0:0:0:0:
160,96,837,1,0,0:0:0:0:
160,96,1191,1,0,0:0:0:0:
160,96,1427,5,8,0:0:0:0:
160,96,1782,1,8,0:0:0:0:
160,96,2136,1,8,0:0:0:0:
160,96,2372,5,0,0:0:0:0:
160,96,2727,1,0,0:0:0:0:
160,96,3081,1,0,0:0:0:0:
352,96,3317,1,12,0:0:0:0:
160,96,4262,5,8,0:0:0:0:
160,96,4616,1,8,0:0:0:0:
160,96,4971,1,8,0:0:0:0:
160,96,5207,5,0,0:0:0:0:
160,96,5561,1,0,0:0:0:0:
160,96,6152,5,8,0:0:0:0:
160,96,6506,1,8,0:0:0:0:
160,96,6860,1,8,0:0:0:0:
160,96,7097,1,0,0:0:0:0:
160,96,7569,1,0,0:0:0:0:
160,96,8042,5,8,0:0:0:0:
160,96,8160,1,8,0:0:0:0:
160,96,8396,1,8,0:0:0:0:
160,96,8514,1,0,0:0:0:0:
160,96,8750,1,0,0:0:0:0:
160,96,8986,1,8,0:0:0:0:
160,96,9105,1,8,0:0:0:0:
160,96,9341,1,8,0:0:0:0:
160,96,9459,1,0,0:0:0:0:
160,96,9695,1,0,0:0:0:0:
160,96,9931,1,8,0:0:0:0:
160,96,10049,1,8,0:0:0:0:
160,96,10286,1,8,0:0:0:0:
160,96,10404,1,0,0:0:0:0:
160,96,10640,1,0,0:0:0:0:
160,96,10876,1,8,0:0:0:0:
160,96,11112,1,8,0:0:0:0:
160,96,11349,1,0,0:0:0:0:
160,96,11821,5,0,0:0:0:0:
160,96,11939,1,0,0:0:0:0:
160,96,12175,1,8,0:0:0:0:
160,96,12530,1,0,0:0:0:0:
160,96,12766,1,0,0:0:0:0:
160,96,12884,1,0,0:0:0:0:
160,96,13120,1,8,0:0:0:0:
160,96,13475,1,0,0:0:0:0:
160,96,13711,1,8,0:0:0:0:
160,96,13947,1,8,0:0:0:0:
160,96,14183,1,0,0:0:0:0:
160,96,14420,1,0,0:0:0:0:
352,96,14656,1,12,0:0:0:0:
160,96,15128,1,0,0:0:0:0:
352,96,15601,1,12,0:0:0:0:
160,96,16309,5,0,0:0:0:0:
160,96,16545,1,8,0:0:0:0:
160,96,16782,1,8,0:0:0:0:
160,96,17018,1,0,0:0:0:0:
160,96,17254,1,0,0:0:0:0:
352,96,17490,1,12,0:0:0:0:
160,96,17963,5,0,0:0:0:0:
352,96,18435,1,12,0:0:0:0:
160,96,18908,1,0,0:0:0:0:
352,96,19380,5,12,0:0:0:0:
160,96,19734,1,0,0:0:0:0:
160,96,20089,1,0,0:0:0:0:
160,96,20325,1,8,0:0:0:0:
160,96,20679,1,0,0:0:0:0:
160,96,21034,1,0,0:0:0:0:
160,96,21270,1,8,0:0:0:0:
160,96,21624,1,0,0:0:0:0:
160,96,21979,1,0,0:0:0:0:
160,96,22215,1,8,0:0:0:0:
160,96,23160,5,8,0:0:0:0:
160,96,23514,1,0,0:0:0:0:
160,96,23868,1,0,0:0:0:0:
160,96,24105,1,8,0:0:0:0:
160,96,24459,1,0,0:0:0:0:
160,96,24813,1,0,0:0:0:0:
352,96,25049,1,12,0:0:0:0:
160,96,25404,1,0,0:0:0:0:
160,96,25758,1,8,0:0:0:0:
352,96,25994,1,12,0:0:0:0:
352,96,26939,5,12,0:0:0:0:
160,96,27294,1,0,0:0:0:0:
160,96,27648,1,0,0:0:0:0:
160,96,27884,1,8,0:0:0:0:
160,96,28238,1,0,0:0:0:0:
160,96,28593,1,0,0:0:0:0:
160,96,28829,1,8,0:0:0:0:
160,96,29183,1,0,0:0:0:0:
160,96,29538,1,0,0:0:0:0:
160,96,29774,1,8,0:0:0:0:
160,96,30719,5,8,0:0:0:0:
160,96,31073,1,0,0:0:0:0:
160,96,31427,1,0,0:0:0:0:
160,96,31664,1,8,0:0:0:0:
160,96,32018,1,0,0:0:0:0:
160,96,32372,1,0,0:0:0:0:
352,96,32608,1,12,0:0:0:0:
160,96,32963,1,0,0:0:0:0:
160,96,33317,1,8,0:0:0:0:
352,96,33553,1,12,0:0:0:0:
160,96,34262,5,0,0:0:0:0:
160,96,34380,1,0,0:0:0:0:
160,96,34498,1,8,0:0:0:0:
160,96,34734,1,0,0:0:0:0:
160,96,34971,1,8,0:0:0:0:
160,96,35207,1,8,0:0:0:0:
160,96,35443,1,0,0:0:0:0:
160,96,35679,1,8,0:0:0:0:
160,96,35797,1,8,0:0:0:0:
160,96,36152,1,0,0:0:0:0:
160,96,36270,1,0,0:0:0:0:
160,96,36388,1,0,0:0:0:0:
160,96,36624,1,8,0:0:0:0:
160,96,36742,1,8,0:0:0:0:
160,96,36979,1,0,0:0:0:0:
160,96,37215,1,0,0:0:0:0:
160,96,37333,1,8,0:0:0:0:
160,96,38042,5,8,0:0:0:0:
160,96,38160,1,8,0:0:0:0:
160,96,38278,1,8,0:0:0:0:
160,96,38514,1,0,0:0:0:0:
160,96,38750,1,8,0:0:0:0:
160,96,38986,1,0,0:0:0:0:
160,96,39223,1,8,0:0:0:0:
160,96,39459,1,0,0:0:0:0:
160,96,39695,1,8,0:0:0:0:
160,96,39931,1,8,0:0:0:0:
160,96,40168,1,0,0:0:0:0:
160,96,40404,1,8,0:0:0:0:
160,96,40522,1,8,0:0:0:0:
160,96,40758,1,0,0:0:0:0:
160,96,40994,1,0,0:0:0:0:
160,96,41112,1,8,0:0:0:0:
160,96,41821,5,0,0:0:0:0:
160,96,41939,1,0,0:0:0:0:
160,96,42057,1,8,0:0:0:0:
160,96,42294,1,0,0:0:0:0:
160,96,42530,1,8,0:0:0:0:
160,96,42766,1,8,0:0:0:0:
160,96,43002,1,0,0:0:0:0:
160,96,43238,1,8,0:0:0:0:
160,96,43357,1,8,0:0:0:0:
160,96,43593,1,0,0:0:0:0:
160,96,43711,1,0,0:0:0:0:
160,96,43947,1,0,0:0:0:0:
160,96,44183,1,8,0:0:0:0:
160,96,44301,1,8,0:0:0:0:
160,96,44538,1,0,0:0:0:0:
160,96,44774,1,0,0:0:0:0:
160,96,44892,1,8,0:0:0:0:
160,96,45601,5,8,0:0:0:0:
160,96,45719,1,8,0:0:0:0:
160,96,45837,1,8,0:0:0:0:
160,96,46073,1,0,0:0:0:0:
160,96,46309,1,8,0:0:0:0:
160,96,46545,1,0,0:0:0:0:
160,96,46782,1,8,0:0:0:0:
160,96,47018,1,0,0:0:0:0:
160,96,47254,1,8,0:0:0:0:
160,96,47490,1,8,0:0:0:0:
160,96,47727,1,0,0:0:0:0:
160,96,47963,1,8,0:0:0:0:
160,96,48081,1,8,0:0:0:0:
160,96,48317,1,0,0:0:0:0:
160,96,48553,1,8,0:0:0:0:
160,96,48671,1,8,0:0:0:0:
160,96,48908,1,8,0:0:0:0:
160,96,49144,1,0,0:0:0:0:
160,96,49616,5,0,0:0:0:0:
160,96,49853,1,0,0:0:0:0:
160,96,50089,1,8,0:0:0:0:
160,96,50325,1,0,0:0:0:0:
160,96,50561,1,8,0:0:0:0:
160,96,50797,1,8,0:0:0:0:
160,96,51034,1,0,0:0:0:0:
160,96,51270,1,0,0:0:0:0:
160,96,51506,1,8,0:0:0:0:
160,96,51742,1,0,0:0:0:0:
160,96,51979,1,8,0:0:0:0:
160,96,52215,1,0,0:0:0:0:
160,96,52451,1,8,0:0:0:0:
160,96,53160,5,8,0:0:0:0:
160,96,53396,1,0,0:0:0:0:
160,96,53632,1,0,0:0:0:0:
160,96,53868,1,8,0:0:0:0:
160,96,54105,1,0,0:0:0:0:
160,96,54341,1,8,0:0:0:0:
160,96,54577,1,8,0:0:0:0:
160,96,54813,1,0,0:0:0:0:
160,96,55049,1,0,0:0:0:0:
160,96,55286,1,8,0:0:0:0:
160,96,55994,1,8,0:0:0:0:
160,96,56231,1,0,0:0:0:0:
352,96,56703,1,12,0:0:0:0:
160,96,57175,5,8,0:0:0:0:
160,96,57530,1,8,0:0:0:0:
160,96,57884,1,8,0:0:0:0:
160,96,58120,1,0,0:0:0:0:
160,96,58238,1,0,0:0:0:0:
160,96,58357,1,0,0:0:0:0:
160,96,58593,1,0,0:0:0:0:
352,96,58973,5,4,0:0:0:0:
352,96,59360,1,4,0:0:0:0:
352,96,59748,1,4,0:0:0:0:
352,96,59942,1,12,0:0:0:0:
160,96,60718,5,0,0:0:0:0:
160,96,60912,1,8,0:0:0:0:
160,96,61106,1,0,0:0:0:0:
160,96,61300,1,8,0:0:0:0:
160,96,61494,1,8,0:0:0:0:
160,96,61687,1,0,0:0:0:0:
160,96,62269,5,0,0:0:0:0:
160,96,62463,1,8,0:0:0:0:
160,96,62657,1,0,0:0:0:0:
160,96,62851,1,8,0:0:0:0:
160,96,63045,1,8,0:0:0:0:
160,96,63239,1,0,0:0:0:0:
160,96,63433,1,8,0:0:0:0:
160,96,63821,1,0,0:0:0:0:
160,96,64015,1,8,0:0:0:0:
160,96,64402,1,8,0:0:0:0:
160,96,64790,1,8,0:0:0:0:
352,96,65178,5,4,0:0:0:0:
352,96,65566,1,4,0:0:0:0:
352,96,65954,1,4,0:0:0:0:
352,96,66148,1,12,0:0:0:0:
160,96,66923,5,0,0:0:0:0:
160,96,67117,1,0,0:0:0:0:
160,96,67311,1,8,0:0:0:0:
160,96,67505,1,0,0:0:0:0:
160,96,67699,1,8,0:0:0:0:
160,96,67893,1,0,0:0:0:0:
160,96,68475,5,0,0:0:0:0:
160,96,68669,1,0,0:0:0:0:
160,96,68863,1,8,0:0:0:0:
160,96,69057,1,0,0:0:0:0:
160,96,69250,1,0,0:0:0:0:
160,96,69444,1,0,0:0:0:0:
160,96,69638,1,8,0:0:0:0:
160,96,70026,1,8,0:0:0:0:
160,96,70220,1,0,0:0:0:0:
160,96,70414,1,0,0:0:0:0:
160,96,70608,1,8,0:0:0:0:
160,96,70996,1,8,0:0:0:0:
352,96,71384,5,4,0:0:0:0:
352,96,71771,1,4,0:0:0:0:
352,96,72159,1,4,0:0:0:0:
352,96,72353,1,12,0:0:0:0:
160,96,73129,5,0,0:0:0:0:
160,96,73323,1,0,0:0:0:0:
160,96,73517,1,8,0:0:0:0:
160,96,73711,1,0,0:0:0:0:
160,96,73905,1,8,0:0:0:0:
160,96,74099,1,0,0:0:0:0:
160,96,74680,5,0,0:0:0:0:
160,96,74874,1,0,0:0:0:0:
160,96,75068,1,8,0:0:0:0:
160,96,75262,1,0,0:0:0:0:
160,96,75456,1,8,0:0:0:0:
160,96,75650,1,0,0:0:0:0:
160,96,75844,1,8,0:0:0:0:
160,96,76232,1,0,0:0:0:0:
160,96,76426,1,8,0:0:0:0:
160,96,76813,1,8,0:0:0:0:
160,96,77201,1,8,0:0:0:0:
352,96,77589,5,4,0:0:0:0:
352,96,77977,1,4,0:0:0:0:
352,96,78365,1,4,0:0:0:0:
352,96,78559,1,12,0:0:0:0:
160,96,79334,5,0,0:0:0:0:
160,96,79528,1,0,0:0:0:0:
160,96,79722,1,8,0:0:0:0:
160,96,79916,1,0,0:0:0:0:
160,96,80110,1,8,0:0:0:0:
160,96,80304,1,0,0:0:0:0:
160,96,80886,5,0,0:0:0:0:
160,96,81080,1,0,0:0:0:0:
160,96,81274,1,8,0:0:0:0:
160,96,81468,1,0,0:0:0:0:
160,96,81662,1,0,0:0:0:0:
160,96,81855,1,0,0:0:0:0:
160,96,82049,1,8,0:0:0:0:
160,96,82437,1,8,0:0:0:0:
160,96,82631,1,0,0:0:0:0:
160,96,82825,1,0,0:0:0:0:
160,96,83019,1,8,0:0:0:0:
160,96,83407,1,8,0:0:0:0:
160,96,83795,1,0,0:0:0:0:
160,96,84183,1,0,0:0:0:0:
160,96,84570,1,8,0:0:0:0:
160,96,84764,1,0,0:0:0:0:
160,96,84958,1,0,0:0:0:0:
160,96,85346,1,8,0:0:0:0:
160,96,85540,1,0,0:0:0:0:
160,96,85637,1,0,0:0:0:0:
160,96,85831,1,0,0:0:0:0:
160,96,85928,1,0,0:0:0:0:
160,96,86122,1,0,0:0:0:0:
160,96,86219,1,0,0:0:0:0:
160,96,86413,1,0,0:0:0:0:
160,96,86510,1,0,0:0:0:0:
160,96,86704,1,0,0:0:0:0:
160,96,86898,1,8,0:0:0:0:
160,96,87285,1,8,0:0:0:0:
160,96,87673,1,0,0:0:0:0:
160,96,87867,1,8,0:0:0:0:
160,96,88061,1,8,0:0:0:0:
160,96,88449,1,0,0:0:0:0:
160,96,88643,1,8,0:0:0:0:
160,96,88740,1,8,0:0:0:0:
160,96,88934,1,8,0:0:0:0:
160,96,89031,1,8,0:0:0:0:
160,96,89225,1,8,0:0:0:0:
160,96,89322,1,8,0:0:0:0:
160,96,89515,1,8,0:0:0:0:
160,96,89612,1,8,0:0:0:0:
160,96,89806,1,8,0:0:0:0:
160,96,90000,1,0,0:0:0:0:
160,96,90388,1,0,0:0:0:0:
160,96,90776,1,8,0:0:0:0:
160,96,90970,1,0,0:0:0:0:
160,96,91164,1,0,0:0:0:0:
160,96,91552,1,8,0:0:0:0:
160,96,91746,1,0,0:0:0:0:
160,96,91843,1,0,0:0:0:0:
160,96,92036,1,0,0:0:0:0:
160,96,92133,1,0,0:0:0:0:
160,96,92327,1,0,0:0:0:0:
160,96,92424,1,0,0:0:0:0:
160,96,92618,1,0,0:0:0:0:
160,96,92715,1,0,0:0:0:0:
160,96,92909,1,0,0:0:0:0:
160,96,93103,1,8,0:0:0:0:
160,96,93491,1,8,0:0:0:0:
160,96,93879,1,0,0:0:0:0:
160,96,94073,1,8,0:0:0:0:
160,96,94267,1,0,0:0:0:0:
160,96,94654,1,8,0:0:0:0:
160,96,94945,1,8,0:0:0:0:
160,96,95236,1,8,0:0:0:0:
160,96,95527,1,8,0:0:0:0:
160,96,95818,1,8,0:0:0:0:
160,96,96012,1,0,0:0:0:0:
352,96,96206,1,12,0:0:0:0:
