osu file format v14

[General]
AudioFilename: audio.mp3
AudioLeadIn: 0
PreviewTime: 7923
Countdown: 0
SampleSet: Normal
StackLeniency: 0.2
Mode: 0
LetterboxInBreaks: 0
WidescreenStoryboard: 0

[Editor]
Bookmarks: 483,8042,19380,26939,34498,42057,49616,57175,58973,70996,71384,96206
DistanceSpacing: 1.8
BeatDivisor: 4
GridSize: 32
TimelineZoom: 1.7

[Metadata]
Title:Snowman
TitleUnicode:スノーマン
Artist:halyosy
ArtistUnicode:halyosy
Creator:Noffy
Version:Ayyri's Flame
Source:初音ミク Project mirai 2
Tags:KAITO Vocaloid Ayyri 1Her0 hatsune miku Deluxe DX ARCADE Future Tone Colorful Sound SEGA Christmas winter merry santa Initial D. BURNIGN melting edit song mix eurobeat Niko Night of Fire
BeatmapID:1457177
BeatmapSetID:688590

[Difficulty]
HPDrainRate:6
CircleSize:4.5
OverallDifficulty:8
ApproachRate:9
SliderMultiplier:1.6
SliderTickRate:1

[Events]
//Background and Video events
0,0,"notsnow.jpg",0,0
Video,0,"attempt 2.avi"
//Break Periods
//Storyboard Layer 0 (Background)
//Storyboard Layer 1 (Fail)
//Storyboard Layer 2 (Pass)
//Storyboard Layer 3 (Foreground)
//Storyboard Sound Samples

[TimingPoints]
483,472.44094488189,4,2,1,75,1,0
8042,-100,4,2,1,75,0,1
19380,-100,4,2,1,75,0,0
58973,387.847446670976,4,1,1,100,1,1
70996,-100,4,1,1,100,0,0
71384,-100,4,1,1,100,0,1
83795,-100,4,1,1,100,0,0
94945,-100,4,1,1,75,0,0
95818,-100,4,1,1,50,0,0

[Colours]
Combo1 : 240,122,15
Combo2 : 168,179,253
Combo3 : 65,131,180
Combo4 : 255,11,11

[HitObjects]
224,320,483,6,0,P|169:343|93:335,2,120,2|2|2,0:0|0:0|0:0,0:0:0:0:
288,224,1427,2,0,P|343:247|419:239,2,120,2|2|2,0:0|0:0|0:0,0:0:0:0:
223,128,2372,2,0,P|169:150|109:148,2,120,2|2|2,0:0|0:0|0:0,0:0:0:0:
288,32,3317,2,0,P|343:55|447:32,1,160,2|2,0:0|0:0,0:0:0:0:
480,150,4026,5,2,0:0:0:0:
483,169,4144,1,2,0:0:0:0:
486,189,4262,38,0,P|451:228|370:243,1,120,2|2,0:0|0:0,0:0:0:0:
278,164,4971,2,0,L|291:68,1,80,2|2,0:0|0:0,0:0:0:0:
367,88,5561,2,0,B|288:84|288:84|230:26,1,160,2|0,0:0|0:0,0:0:0:0:
221,18,6152,6,0,P|172:31|132:19,1,80,6|0,0:0|0:0,0:0:0:0:
28,121,6506,1,2,0:0:0:0:
48,142,6624,2,0,P|75:177|90:227,1,80,6|2,0:0|0:0,0:0:0:0:
92,354,7097,37,6,0:0:0:0:
256,288,7333,1,2,0:0:0:0:
272,288,7451,1,2,0:0:0:0:
288,288,7569,2,0,P|319:311|369:318,1,80,6|0,0:0|0:0,0:0:0:0:
446,244,8042,6,0,L|455:109,2,120,6|2|0,0:0|0:0|0:0,0:0:0:0:
463,24,8986,2,0,P|408:33|357:104,1,120,2|0,0:0|0:0,0:0:0:0:
350,101,9459,1,10,0:0:0:0:
285,217,9695,2,0,P|254:226|234:226,1,40,2|0,0:0|0:0,0:0:0:0:
147,221,9931,2,0,P|121:269|45:297,2,120,2|2|2,0:0|0:0|0:0,0:0:0:0:
164,98,10876,37,2,0:0:0:0:
256,0,11112,1,2,0:0:0:0:
348,98,11349,2,0,P|370:138|446:162,1,120,10|0,0:0|0:0,0:0:0:0:
469,161,11821,6,0,L|488:295,2,120,2|2|2,0:0|0:0|0:0,0:0:0:0:
402,347,12766,2,0,L|385:228,2,120,2|2|2,0:0|0:0|0:0,0:0:0:0:
371,127,13711,38,0,P|325:149|276:144,1,80,6|0,0:0|0:0,0:0:0:0:
212,124,14065,1,0,0:0:0:0:
194,112,14183,2,0,P|168:81|157:43,1,80,2|2,0:0|0:0,0:0:0:0:
188,225,14538,1,0,0:0:0:0:
194,202,14656,2,0,L|211:124,1,80,6|0,0:0|0:0,0:0:0:0:
296,149,15010,1,0,0:0:0:0:
302,171,15128,2,0,L|318:249,1,80,2|0,0:0|0:0,0:0:0:0:
332,342,15483,1,0,0:0:0:0:
354,356,15601,6,0,P|412:370|465:317,1,120,6|0,0:0|0:0,0:0:0:0:
473,311,16073,1,10,0:0:0:0:
512,192,16309,1,0,0:0:0:0:
473,73,16545,2,0,L|381:65,1,80,2|2,0:0|0:0,0:0:0:0:
320,162,17018,2,0,L|399:155,1,80,10|2,0:0|0:0,0:0:0:0:
285,248,17490,38,0,P|240:210|225:164,1,80,6|0,0:0|0:0,0:0:0:0:
256,32,17845,1,2,0:0:0:0:
253,63,17963,2,0,P|231:96|199:119,1,80,10|0,0:0|0:0,0:0:0:0:
30,166,18435,2,0,L|112:148,1,80,6|0,0:0|0:0,0:0:0:0:
97,268,18790,1,2,0:0:0:0:
120,263,18908,2,0,L|198:245,1,80,10|0,0:0|0:0,0:0:0:0:
256,128,19262,1,2,0:0:0:0:
276,153,19380,6,0,P|331:175|390:172,2,120,6|2|2,0:0|0:0|0:0,0:0:0:0:
210,248,20325,2,0,P|155:270|95:268,2,120,2|2|2,0:0|0:0|0:0,0:0:0:0:
274,344,21270,2,0,P|328:366|388:364,2,120,2|2|2,0:0|0:0|0:0,0:0:0:0:
210,248,22215,2,0,P|155:270|95:268,1,120,2|0,0:0|0:0,0:0:0:0:
68,259,22687,1,10,0:0:0:0:
0,160,22923,1,0,0:0:0:0:
78,68,23160,38,0,P|132:62|207:82,2,120,2|2|2,0:0|0:0|0:0,0:0:0:0:
357,159,24105,2,0,P|298:173|239:167,2,120,2|2|2,0:0|0:0|0:0,0:0:0:0:
76,266,25049,2,0,P|130:260|205:280,2,120,6|2|2,0:0|0:0|0:0,0:0:0:0:
357,158,25994,2,0,P|298:171|239:165,1,120,6|0,0:0|0:0,0:0:0:0:
214,153,26467,1,10,0:0:0:0:
193,274,26703,1,2,0:0:0:0:
191,293,26821,1,2,0:0:0:0:
188,313,26939,6,0,P|133:335|74:334,2,120,6|2|2,0:0|0:0|0:0,0:0:0:0:
233,191,27884,2,0,P|211:136|212:77,2,120,2|2|2,0:0|0:0|0:0,0:0:0:0:
324,313,28829,2,0,P|379:335|438:333,2,120,2|2|2,0:0|0:0|0:0,0:0:0:0:
279,190,29774,2,0,P|301:135|299:76,1,120,2|2,0:0|0:0,0:0:0:0:
269,33,30246,1,10,0:0:0:0:
168,122,30483,1,0,0:0:0:0:
145,239,30719,38,0,P|114:287|35:318,2,120,2|2|2,0:0|0:0|0:0,0:0:0:0:
259,276,31664,2,0,P|290:324|369:355,2,120,2|2|2,0:0|0:0|0:0,0:0:0:0:
223,161,32608,2,0,P|192:113|113:82,2,120,6|2|2,0:0|0:0|0:0,0:0:0:0:
337,124,33553,2,0,P|368:76|447:45,1,120,6|0,0:0|0:0,0:0:0:0:
456,40,34026,1,10,0:0:0:0:
495,153,34262,1,2,0:0:0:0:
497,172,34380,1,2,0:0:0:0:
499,192,34498,6,0,P|450:185|395:199,1,80,4|0,0:0|0:0,0:0:0:0:
350,257,34971,2,0,P|354:296|347:335,1,80,4|4,0:3|0:3,0:0:0:0:
236,334,35443,1,2,0:0:0:0:
220,222,35679,1,2,0:0:0:0:
199,234,35797,2,0,P|160:241|121:237,1,80,2|0,0:0|0:0,0:0:0:0:
26,158,36152,37,4,0:3:0:0:
42,207,36270,1,4,0:3:0:0:
52,257,36388,2,0,P|46:295|19:352,1,80,4|2,0:3|0:0,0:0:0:0:
4,378,36742,1,4,0:3:0:0:
155,340,36979,2,0,P|161:300|176:263,1,80,2|0,0:0|0:0,0:0:0:0:
199,234,37333,1,4,0:3:0:0:
199,234,37805,5,0,0:0:0:0:
243,325,38042,2,0,P|262:327|282:326,1,40,2|2,0:0|0:0,0:0:0:0:
364,287,38278,2,0,P|375:239|368:189,1,80,4|2,0:3|0:0,0:0:0:0:
312,104,38750,2,0,P|301:56|308:6,1,80,4|4,0:3|0:3,0:0:0:0:
333,142,39223,37,2,0:0:0:0:
224,192,39459,1,0,0:0:0:0:
120,131,39695,2,0,P|131:83|124:33,1,80,4|4,0:3|0:3,0:0:0:0:
99,169,40168,5,2,0:0:0:0:
87,288,40404,2,0,L|79:330,1,40,2|4,0:0|0:3,0:0:0:0:
176,260,40758,2,0,L|284:266,1,80,4|4,0:3|0:3,0:0:0:0:
285,267,41112,1,4,0:3:0:0:
285,267,41585,37,0,0:0:0:0:
354,183,41821,2,0,P|355:140|352:125,1,40,2|2,0:0|0:0,0:0:0:0:
328,53,42057,6,0,P|280:42|230:49,1,80,6|0,0:0|0:0,0:0:0:0:
190,149,42530,2,0,P|150:150|111:139,1,80,4|4,0:3|0:3,0:0:0:0:
34,48,43002,1,2,0:0:0:0:
0,192,43238,1,4,0:3:0:0:
0,192,43357,1,4,0:3:0:0:
86,275,43593,38,0,P|124:264|164:265,1,80,4|0,0:3|0:0,0:0:0:0:
197,271,43947,1,4,0:3:0:0:
313,300,44183,1,4,0:3:0:0:
313,300,44301,1,4,0:3:0:0:
256,192,44538,1,2,0:0:0:0:
313,84,44774,1,4,0:3:0:0:
313,84,44892,1,4,0:3:0:0:
313,84,45364,5,0,0:0:0:0:
382,168,45601,2,0,P|383:211|380:226,1,40,2|2,0:0|0:0,0:0:0:0:
356,298,45837,2,0,P|308:309|258:302,1,80,4|2,0:3|0:0,0:0:0:0:
195,219,46309,2,0,P|172:266|130:291,1,80,2|4,0:0|0:3,0:0:0:0:
54,210,46782,2,0,P|68:173|98:146,1,80,2|2,0:0|0:0,0:0:0:0:
192,72,47254,37,4,0:3:0:0:
256,192,47490,1,4,0:3:0:0:
320,72,47727,1,2,0:0:0:0:
414,146,47963,1,2,0:0:0:0:
414,146,48081,1,2,0:0:0:0:
350,266,48317,1,2,0:0:0:0:
332,243,48435,1,2,0:0:0:0:
315,221,48553,1,2,0:0:0:0:
256,128,48671,6,0,L|256:192,1,40,4|4,0:3|0:3,0:0:0:0:
192,296,48908,2,0,L|192:256,1,40,4|4,0:3|0:3,0:0:0:0:
128,160,49144,1,4,0:3:0:0:
183,39,49380,1,4,0:3:0:0:
213,58,49498,1,4,0:3:0:0:
248,64,49616,38,0,L|347:55,1,80,6|2,0:0|0:0,0:0:0:0:
408,146,50089,2,0,L|328:153,1,80,2|2,0:0|0:0,0:0:0:0:
256,256,50561,2,0,P|234:300|197:330,2,80,2|2|0,0:0|0:0|0:0,0:0:0:0:
256,128,51270,1,2,0:0:0:0:
331,34,51506,6,0,P|367:51|406:57,1,80,2|0,0:0|0:0,0:0:0:0:
477,154,51979,1,2,0:0:0:0:
381,226,52215,1,0,0:0:0:0:
449,324,52451,2,0,P|389:324|333:346,1,120,2|0,0:0|0:0,0:0:0:0:
310,362,52923,1,2,0:0:0:0:
256,264,53160,2,0,L|256:200,1,40
256,192,53396,37,2,0:0:0:0:
255,64,53632,2,0,P|223:86|184:96,1,80,2|2,0:0|0:0,0:0:0:0:
65,81,54105,1,2,0:0:0:0:
105,193,54341,2,0,L|89:296,1,80,2|0,0:0|0:0,0:0:0:0:
206,311,54813,2,0,L|193:231,1,80,2|0,0:0|0:0,0:0:0:0:
135,149,55286,6,0,P|201:107|224:32,1,160,2|0,0:0|0:0,0:0:0:0:
337,71,55994,1,2,0:0:0:0:
425,188,56231,2,0,P|359:145|337:71,1,160,2|4,0:0|0:0,0:0:0:0:
337,71,57175,37,4,0:0:0:0:
266,177,57412,1,0,0:0:0:0:
425,149,57648,1,4,0:0:0:0:
328,293,57884,1,0,0:0:0:0:
266,177,58120,5,2,0:0:0:0:
231,194,58238,1,0,0:0:0:0:
191,197,58357,1,2,0:0:0:0:
153,184,58475,1,0,0:0:0:0:
123,158,58593,1,2,0:0:0:0:
84,47,58829,1,0,0:0:0:0:
57,122,58973,6,0,L|86:41,1,80,12|0,0:0|0:0,0:0:0:0:
211,129,59360,2,0,L|237:204,1,80,8|0,0:0|0:0,0:0:0:0:
283,316,59748,1,8,0:0:0:0:
353,218,59942,1,0,0:0:0:0:
411,384,60136,1,8,0:0:0:0:
466,277,60330,1,0,0:0:0:0:
467,237,60427,1,0,0:0:0:0:
468,197,60524,1,8,0:0:0:0:
466,68,60718,5,0,0:0:0:0:
350,134,60912,1,8,0:0:0:0:
350,0,61106,1,0,0:0:0:0:
426,134,61300,37,8,0:0:0:0:
311,67,61494,1,0,0:0:0:0:
427,0,61687,2,0,L|387:70,1,80,8|0,0:0|0:0,0:0:0:0:
329,168,62075,1,8,0:0:0:0:
256,64,62269,5,0,0:0:0:0:
224,224,62463,2,0,L|144:227,1,80,8|0,0:0|0:0,0:0:0:0:
79,125,62851,2,0,L|158:128,1,80,8|0,0:0|0:0,0:0:0:0:
256,64,63239,1,8,0:0:0:0:
304,191,63433,38,0,P|361:183|397:156,1,80,0|8,0:0|0:0,0:0:0:0:
433,64,63821,1,0,0:0:0:0:
460,253,64015,2,0,L|499:327,1,80,8|0,0:0|0:0,0:0:0:0:
379,172,64402,2,0,P|343:188|304:191,1,80,8|0,0:0|0:0,0:0:0:0:
184,174,64790,1,8,0:0:0:0:
102,262,64984,1,8,0:0:0:0:
256,352,65178,6,0,L|256:256,1,80,8|0,0:0|0:0,0:0:0:0:
379,172,65566,2,0,L|379:252,1,80,8|0,0:0|0:0,0:0:0:0:
444,343,65954,1,8,0:0:0:0:
322,286,66148,1,0,0:0:0:0:
450,232,66342,1,8,0:0:0:0:
379,137,66536,1,0,0:0:0:0:
343,154,66632,1,0,0:0:0:0:
303,155,66729,1,8,0:0:0:0:
190,116,66923,37,0,0:0:0:0:
158,231,67117,1,8,0:0:0:0:
200,84,67311,1,0,0:0:0:0:
150,263,67505,5,8,0:0:0:0:
303,155,67699,1,0,0:0:0:0:
71,171,67893,2,0,P|36:124|24:80,1,80,8|0,0:0|0:0,0:0:0:0:
171,200,68281,1,8,0:0:0:0:
174,96,68475,37,0,0:0:0:0:
274,259,68669,1,8,0:0:0:0:
174,166,68863,1,0,0:0:0:0:
344,224,69057,5,8,0:0:0:0:
224,352,69250,1,0,0:0:0:0:
259,182,69444,1,8,0:0:0:0:
142,274,69638,38,0,L|38:277,1,80,0|8,0:0|0:0,0:0:0:0:
19,163,70026,1,8,0:0:0:0:
115,91,70220,1,8,0:0:0:0:
200,228,70414,1,8,0:0:0:0:
256,121,70608,6,0,P|304:100|357:108,1,80,8|8,0:0|0:0,0:0:0:0:
376,212,70996,1,8,0:0:0:0:
365,250,71093,1,8,0:0:0:0:
341,281,71190,1,8,0:0:0:0:
305,299,71287,1,8,0:0:0:0:
266,302,71384,38,0,L|237:221,1,80,8|0,0:0|0:0,0:0:0:0:
119,298,71771,2,0,L|93:373,1,80,8|0,0:0|0:0,0:0:0:0:
135,260,72159,1,8,0:0:0:0:
277,330,72353,1,0,0:0:0:0:
321,218,72547,1,8,0:0:0:0:
450,323,72741,1,0,0:0:0:0:
466,286,72838,1,0,0:0:0:0:
472,247,72935,1,8,0:0:0:0:
468,121,73129,5,0,0:0:0:0:
321,218,73323,1,8,0:0:0:0:
383,101,73517,1,0,0:0:0:0:
472,247,73711,37,8,0:0:0:0:
297,153,73905,1,0,0:0:0:0:
256,310,74099,2,0,L|150:316,1,80,8|0,0:0|0:0,0:0:0:0:
113,222,74486,1,8,0:0:0:0:
32,376,74680,1,0,0:0:0:0:
176,314,74874,2,0,L|256:310,1,80,8|0,0:0|0:0,0:0:0:0:
321,218,75262,2,0,L|241:213,1,80,8|0,0:0|0:0,0:0:0:0:
199,100,75650,1,8,0:0:0:0:
84,64,75844,6,0,P|96:119|85:168,1,80,0|8,0:0|0:0,0:0:0:0:
48,254,76232,1,0,0:0:0:0:
176,314,76426,2,0,P|174:274|185:235,1,80,8|0,0:0|0:0,0:0:0:0:
238,128,76813,2,0,P|290:146|343:142,1,80,8|0,0:0|0:0,0:0:0:0:
411,74,77201,1,8,0:0:0:0:
448,256,77395,1,8,0:0:0:0:
309,348,77589,38,0,L|352:256,1,80,8|0,0:0|0:0,0:0:0:0:
169,275,77977,2,0,L|203:348,1,80,8|0,0:0|0:0,0:0:0:0:
320,192,78365,1,8,0:0:0:0:
192,128,78559,1,0,0:0:0:0:
320,32,78753,1,8,0:0:0:0:
239,237,78947,1,0,0:0:0:0:
203,255,79044,1,0,0:0:0:0:
168,274,79141,1,8,0:0:0:0:
84,183,79334,5,0,0:0:0:0:
168,274,79528,1,8,0:0:0:0:
198,168,79722,1,0,0:0:0:0:
62,292,79916,37,8,0:0:0:0:
135,126,80110,1,0,0:0:0:0:
245,270,80304,2,0,P|283:262|316:239,1,80,8|0,0:0|0:0,0:0:0:0:
349,132,80692,1,8,0:0:0:0:
485,170,80886,5,0,0:0:0:0:
443,289,81080,2,0,P|404:296|371:319,1,80,8|0,0:0|0:0,0:0:0:0:
485,170,81468,2,0,P|452:192|413:200,1,80,8|0,0:0|0:0,0:0:0:0:
295,176,81855,1,8,0:0:0:0:
256,32,82049,1,8,0:0:0:0:
256,352,82437,37,8,0:0:0:0:
396,315,82631,1,8,0:0:0:0:
219,212,82825,1,8,0:0:0:0:
359,175,83019,1,8,0:0:0:0:
359,176,83407,5,8,0:0:0:0:
361,144,83504,1,8,0:0:0:0:
364,112,83601,1,8,0:0:0:0:
367,80,83698,1,8,0:0:0:0:
370,48,83795,38,0,P|325:23|309:-13,1,80,8|0,0:0|0:0,0:0:0:0:
200,0,84183,1,8,0:0:0:0:
178,31,84280,1,0,0:0:0:0:
142,47,84377,1,0,0:0:0:0:
67,151,84570,5,8,0:0:0:0:
64,182,84667,1,0,0:0:0:0:
62,214,84764,1,8,0:0:0:0:
60,246,84861,1,0,0:0:0:0:
58,278,84958,2,0,L|117:293,1,40,8|0,0:0|0:0,0:0:0:0:
225,355,85152,2,0,L|186:345,1,40,8|0,0:0|0:0,0:0:0:0:
274,273,85346,38,0,P|319:270|365:241,1,80,8|0,0:0|0:0,0:0:0:0:
376,231,85637,1,8,0:0:0:0:
409,115,85831,1,0,0:0:0:0:
409,115,85928,1,8,0:0:0:0:
256,192,86122,5,0,0:0:0:0:
256,192,86219,1,8,0:0:0:0:
103,115,86413,1,0,0:0:0:0:
103,115,86510,2,0,L|73:164,1,40
39,217,86704,1,0,0:0:0:0:
52,254,86801,1,0,0:0:0:0:
65,292,86898,38,0,L|165:304,1,80,8|8,0:0|0:0,0:0:0:0:
218,207,87285,1,8,0:0:0:0:
231,169,87382,1,0,0:0:0:0:
252,135,87479,1,0,0:0:0:0:
355,72,87673,5,8,0:0:0:0:
363,102,87770,1,0,0:0:0:0:
372,133,87867,1,8,0:0:0:0:
380,164,87964,1,0,0:0:0:0:
389,195,88061,2,0,L|451:191,1,40,8|0,0:0|0:0,0:0:0:0:
377,295,88255,2,0,L|337:297,1,40,8|0,0:0|0:0,0:0:0:0:
202,307,88449,38,0,P|162:333|123:339,1,80,8|0,0:0|0:0,0:0:0:0:
94,341,88740,1,8,0:0:0:0:
32,224,88934,1,0,0:0:0:0:
32,224,89031,1,8,0:0:0:0:
96,96,89225,5,0,0:0:0:0:
96,96,89322,1,8,0:0:0:0:
224,160,89515,1,0,0:0:0:0:
224,160,89612,2,0,L|254:111,1,40
287,58,89806,1,0,0:0:0:0:
326,59,89903,1,0,0:0:0:0:
366,61,90000,38,0,P|410:49|444:17,1,80,8|8,0:0|0:0,0:0:0:0:
478,139,90388,1,8,0:0:0:0:
480,178,90485,1,0,0:0:0:0:
483,218,90582,1,0,0:0:0:0:
406,335,90776,5,8,0:0:0:0:
382,313,90873,1,0,0:0:0:0:
354,297,90970,1,8,0:0:0:0:
324,287,91067,1,0,0:0:0:0:
292,284,91164,2,0,L|277:231,1,40,8|0,0:0|0:0,0:0:0:0:
208,329,91358,2,0,L|196:367,1,40,8|0,0:0|0:0,0:0:0:0:
124,234,91552,38,0,P|158:203|177:140,1,80,8|0,0:0|0:0,0:0:0:0:
179,143,91843,1,8,0:0:0:0:
155,19,92036,1,0,0:0:0:0:
155,19,92133,1,8,0:0:0:0:
256,128,92327,5,0,0:0:0:0:
256,128,92424,1,8,0:0:0:0:
357,19,92618,1,0,0:0:0:0:
357,19,92715,2,0,L|357:77,1,40
359,184,92909,1,0,0:0:0:0:
367,223,93006,1,0,0:0:0:0:
375,262,93103,38,0,L|299:317,1,80,8|0,0:0|0:0,0:0:0:0:
185,370,93491,1,8,0:0:0:0:
199,332,93588,1,0,0:0:0:0:
201,293,93685,1,0,0:0:0:0:
159,153,93879,5,8,0:0:0:0:
197,160,93976,1,0,0:0:0:0:
236,151,94073,1,8,0:0:0:0:
267,126,94170,1,0,0:0:0:0:
285,91,94267,2,0,L|339:76,1,40,8|0,0:0|0:0,0:0:0:0:
397,173,94461,2,0,L|358:183,1,40,8|0,0:0|0:0,0:0:0:0:
269,368,94654,38,0,P|229:340|186:331,1,80,8|0,0:0|0:0,0:0:0:0:
171,278,94945,2,0,P|208:266|240:241,1,80,8|0,0:0|0:0,0:0:0:0:
283,198,95236,6,0,P|243:170|200:161,1,80,8|0,0:0|0:0,0:0:0:0:
185,108,95527,2,0,P|222:96|254:71,1,80,8|0,0:0|0:0,0:0:0:0:
286,20,95818,37,8,0:0:0:0:
283,198,96012,1,8,0:0:0:0:
185,108,96206,1,8,0:0:0:0:
