osu file format v14

[General]
AudioFilename: audio.mp3
AudioLeadIn: 0
PreviewTime: 7923
Countdown: 0
SampleSet: Soft
StackLeniency: 0.8
Mode: 0
LetterboxInBreaks: 0
WidescreenStoryboard: 1

[Editor]
Bookmarks: 483,58973,96206
DistanceSpacing: 1.3
BeatDivisor: 4
GridSize: 32
TimelineZoom: 1.6

[Metadata]
Title:Snowman
TitleUnicode:スノーマン
Artist:halyosy
ArtistUnicode:halyosy
Creator:Noffy
Version:Ayyffy's Difficult
Source:初音ミク Project mirai 2
Tags:KAITO Vocaloid Ayyri 1Her0 hatsune miku Deluxe DX ARCADE Future Tone Colorful Sound SEGA Christmas winter merry santa Initial D. BURNIGN melting edit song mix eurobeat Niko Night of Fire
BeatmapID:1457176
BeatmapSetID:688590

[Difficulty]
HPDrainRate:5
CircleSize:4
OverallDifficulty:6
ApproachRate:7
SliderMultiplier:1.6
SliderTickRate:1

[Events]
//Background and Video events
0,0,"semisnow.jpg",0,0
Video,0,"attempt 2.avi"
//Break Periods
//Storyboard Layer 0 (Background)
//Storyboard Layer 1 (Fail)
//Storyboard Layer 2 (Pass)
//Storyboard Layer 3 (Foreground)
Sprite,Foreground,Centre,"SB\ayyri.png",490,420 S,0,58979,,0.3 F,0,96212,100866,1,0
Sprite,Foreground,Centre,"SB\noffy.png",500,420 S,0,0,,0.3 F,0,0,4245,0,1 F,0,58979,59366,1,0 S,0,58979,59366,0.3,0.5
//Storyboard Sound Samples

[TimingPoints]
483,472.44094488189,4,2,4,100,1,0
8042,-100,4,2,4,100,0,1
19380,-100,4,2,4,100,0,0
58973,387.847446670976,4,2,20,90,1,1
70996,-100,4,2,20,90,0,0
71384,-100,4,2,20,90,0,1
83795,-100,4,2,20,85,0,0
96206,-100,4,2,20,70,0,0

[Colours]
Combo1 : 240,122,15
Combo2 : 168,179,253
Combo3 : 65,131,180
Combo4 : 255,11,11

[HitObjects]
162,203,483,6,0,P|215:229|242:291,2,120,2|2|2,0:1|0:0|0:3,0:0:0:0:
59,233,1427,2,0,P|54:172|94:118,2,120,2|2|2,0:1|0:0|0:3,0:0:0:0:
137,309,2372,2,0,P|86:341|20:334,2,120,2|2|2,0:1|0:0|0:3,0:0:0:0:
162,203,3317,1,4,0:3:0:0:
375,75,4262,6,0,P|425:42|491:49,2,120,2|2|2,0:1|0:0|0:1,0:0:0:0:
453,151,5207,2,0,P|457:211|417:265,2,120,2|2|2,0:1|0:0|0:1,0:0:0:0:
351,176,6152,37,0,0:0:0:0:
262,121,6388,1,0,0:0:0:0:
177,181,6624,1,0,0:0:0:0:
89,125,6860,1,0,0:0:0:0:
25,207,7097,2,0,P|18:247|30:285,1,80,4|0,0:1|0:0,0:0:0:0:
108,351,7569,1,0,0:0:0:0:
316,351,8042,5,12,0:1:0:0:
316,351,8160,1,0,0:0:0:0:
410,308,8396,2,0,P|440:251|433:183,1,120,2|2,0:0|0:3,0:0:0:0:
395,102,8986,1,8,0:1:0:0:
395,102,9105,1,0,0:0:0:0:
294,126,9341,2,0,P|235:129|183:102,1,120,2|2,0:0|0:3,0:0:0:0:
114,21,9931,37,8,0:1:0:0:
114,21,10049,1,0,0:0:0:0:
72,116,10286,2,0,L|24:231,1,120,2|2,0:0|0:3,0:0:0:0:
102,297,10876,2,0,L|71:370,2,80,8|0|8,0:1|0:0|0:2,0:0:0:0:
222,127,11821,6,0,P|252:135|273:149,1,40,8|0,0:1|0:0,0:0:0:0:
328,216,12175,1,2,0:0:0:0:
194,296,12530,1,2,0:3:0:0:
96,261,12766,38,0,P|70:243|55:222,1,40,8|0,0:1|0:0,0:0:0:0:
29,142,13120,1,2,0:0:0:0:
180,112,13475,1,2,0:3:0:0:
256,42,13711,5,8,0:1:0:0:
332,112,13947,1,0,0:0:0:0:
256,183,14183,1,10,0:0:0:0:
180,254,14420,1,0,0:0:0:0:
255,324,14656,2,0,P|292:334|342:318,1,80,2|0,0:0|0:0,0:0:0:0:
398,243,15128,2,0,P|401:204|385:168,1,80,10|0,0:0|0:0,0:0:0:0:
326,80,15601,38,0,P|283:145|296:223,1,160,4|8,0:1|0:2,0:0:0:0:
367,297,16309,1,2,0:3:0:0:
276,347,16545,2,0,L|180:317,1,80,8|0,0:1|0:0,0:0:0:0:
187,219,17018,2,0,L|78:255,1,80,8|0,0:2|0:0,0:0:0:0:
12,278,17490,5,8,0:1:0:0:
2,69,17963,1,8,0:2:0:0:
111,244,18435,1,4,0:1:0:0:
111,35,18908,1,8,0:2:0:0:
301,118,19380,38,0,P|354:92|381:30,2,120,14|2|2,0:1|0:0|0:3,0:0:0:0:
225,190,20325,2,0,P|275:221|334:216,2,120,10|2|2,0:1|0:0|0:3,0:0:0:0:
154,114,21270,2,0,P|122:165|129:231,2,120,10|2|2,0:1|0:0|0:3,0:0:0:0:
230,42,22215,1,4,0:3:0:0:
199,268,23160,6,0,P|146:242|119:180,2,120,10|2|2,0:1|0:0|0:3,0:0:0:0:
274,340,24105,2,0,P|224:371|165:365,2,120,10|2|2,0:1|0:0|0:3,0:0:0:0:
346,264,25049,2,0,P|378:315|371:381,2,120,10|2|2,0:1|0:0|0:3,0:0:0:0:
270,192,25994,1,4,0:3:0:0:
108,81,26939,38,0,B|49:69|49:69|7:12,2,120,14|2|2,0:1|0:0|0:3,0:0:0:0:
212,88,27884,2,0,B|251:42|251:42|322:35,2,120,10|2|2,0:1|0:0|0:3,0:0:0:0:
157,177,28829,2,0,B|178:240|178:240|153:287,2,120,10|2|2,0:1|0:0|0:3,0:0:0:0:
108,81,29774,1,4,0:3:0:0:
404,81,30719,6,0,B|463:69|463:69|505:12,2,120,10|2|2,0:1|0:0|0:3,0:0:0:0:
300,88,31664,2,0,B|260:42|260:42|189:35,2,120,10|2|2,0:1|0:0|0:3,0:0:0:0:
355,177,32608,2,0,B|333:240|333:240|358:287,2,120,10|2|2,0:1|0:0|0:3,0:0:0:0:
404,81,33553,1,4,0:3:0:0:
194,312,34262,37,0,0:0:0:0:
194,312,34380,1,0,0:0:0:0:
194,312,34498,2,0,P|160:355|112:375,1,80,4|2,0:1|0:3,0:0:0:0:
107,267,34971,2,0,P|52:259|11:227,1,80,0|2,0:0|0:0,0:0:0:0:
93,163,35443,1,8,0:0:0:0:
158,82,35679,1,2,0:0:0:0:
158,82,35797,1,2,0:0:0:0:
293,182,36152,5,2,0:0:0:0:
293,182,36270,1,0,0:0:0:0:
293,182,36388,2,0,L|306:286,1,80,8|2,0:1|0:3,0:0:0:0:
310,312,36742,1,2,0:3:0:0:
396,369,36979,1,2,0:0:0:0:
483,312,37215,1,0,0:0:0:0:
483,312,37333,2,0,L|459:138,1,160,8|0,0:0|0:0,0:0:0:0:
445,50,38042,37,2,0:0:0:0:
445,50,38160,1,0,0:0:0:0:
445,50,38278,2,0,P|404:72|351:69,1,80,10|2,0:1|0:3,0:0:0:0:
269,50,38750,2,0,P|226:44|168:65,1,80,10|2,0:2|0:0,0:0:0:0:
97,98,39223,1,8,0:0:0:0:
70,198,39459,1,2,0:3:0:0:
104,295,39695,2,0,P|65:301|26:292,1,80,10|8,0:2|0:1,0:0:0:0:
70,198,40168,6,0,P|112:189|160:202,1,80,8|2,0:1|0:3,0:0:0:0:
196,214,40522,1,2,0:3:0:0:
293,250,40758,2,0,L|308:156,1,80,2|0,0:0|0:0,0:0:0:0:
316,120,41112,2,0,P|378:75|449:104,1,160,8|8,0:0|0:0,0:0:0:0:
475,205,41821,37,0,0:0:0:0:
475,205,41939,1,0,0:0:0:0:
475,205,42057,2,0,L|462:284,1,80,4|2,0:1|0:3,0:0:0:0:
378,346,42530,2,0,P|323:338|282:306,1,80,0|2,0:0|0:0,0:0:0:0:
263,229,43002,1,8,0:0:0:0:
366,219,43238,1,2,0:0:0:0:
366,219,43357,1,2,0:0:0:0:
353,115,43593,5,2,0:0:0:0:
250,125,43829,1,0,0:0:0:0:
250,125,43947,2,0,P|207:109|185:76,1,80,8|2,0:1|0:3,0:0:0:0:
160,38,44301,1,2,0:3:0:0:
71,93,44538,1,2,0:0:0:0:
73,196,44774,1,0,0:0:0:0:
73,196,44892,2,0,P|163:221|193:292,1,160,8|0,0:0|0:0,0:0:0:0:
259,354,45601,37,2,0:0:0:0:
259,354,45719,1,0,0:0:0:0:
259,354,45837,2,0,L|348:345,1,80,10|2,0:1|0:3,0:0:0:0:
388,254,46309,2,0,L|308:262,1,80,10|2,0:2|0:0,0:0:0:0:
223,201,46782,1,8,0:0:0:0:
146,271,47018,1,2,0:3:0:0:
75,194,47254,2,0,P|70:147|86:114,1,80,10|8,0:2|0:1,0:0:0:0:
153,41,47727,5,8,0:1:0:0:
257,72,47963,1,2,0:3:0:0:
257,72,48081,2,0,L|366:67,1,80,2|2,0:3|0:0,0:0:0:0:
441,72,48553,1,0,0:0:0:0:
441,72,48671,2,0,P|401:150|318:163,1,160,8|8,0:0|0:0,0:0:0:0:
126,185,49616,37,4,0:1:0:0:
140,288,49853,1,0,0:0:0:0:
227,344,50089,2,0,P|259:315|269:272,1,80,2|2,0:0|0:3,0:0:0:0:
268,176,50561,1,2,0:1:0:0:
255,73,50797,1,0,0:0:0:0:
324,0,51034,2,0,P|362:19|383:58,1,80,2|2,0:0|0:3,0:0:0:0:
408,150,51506,5,2,0:1:0:0:
418,253,51742,1,0,0:0:0:0:
359,338,51979,2,0,P|321:355|261:347,1,80,2|2,0:0|0:3,0:0:0:0:
298,251,52451,2,0,L|279:78,1,160,2|0,0:1|0:0,0:0:0:0:
200,24,53160,1,0,0:0:0:0:
130,101,53396,37,2,0:1:0:0:
27,121,53632,1,0,0:0:0:0:
31,224,53868,2,0,P|72:244|108:242,1,80,2|2,0:0|0:3,0:0:0:0:
205,215,54341,1,2,0:1:0:0:
226,317,54577,1,0,0:0:0:0:
329,325,54813,2,0,P|374:304|395:260,1,80,2|2,0:0|0:3,0:0:0:0:
422,180,55286,6,0,P|372:163|363:46,1,160,2|2,0:1|0:0,0:0:0:0:
256,20,55994,1,2,0:3:0:0:
163,67,56231,2,0,P|157:143|90:180,1,160,2|4,0:1|0:2,0:0:0:0:
256,303,57175,37,8,0:1:0:0:
256,198,57412,1,0,0:0:0:0:
309,108,57648,2,0,P|320:70|309:32,1,80,0|8,0:0|0:1,0:0:0:0:
205,32,58120,2,0,P|194:69|205:107,1,80,4|0,0:2|0:0,0:0:0:0:
256,198,58593,1,8,0:1:0:0:
447,298,58973,22,0,L|471:212,1,80,4|2,0:2|0:0,0:0:0:0:
499,121,59360,2,0,L|421:98,1,80,8|2,0:0|0:0,0:0:0:0:
328,51,59748,1,8,0:3:0:0:
255,126,59942,2,0,L|265:227,1,80,2|8,0:0|0:0,0:0:0:0:
208,294,60330,1,2,0:0:0:0:
111,255,60524,5,8,0:3:0:0:
48,338,60718,1,2,0:0:0:0:
8,241,60912,2,0,L|15:161,1,80,8|2,0:0|0:0,0:0:0:0:
99,100,61300,2,0,L|110:180,1,80,8|2,0:3|0:0,0:0:0:0:
204,232,61687,1,8,0:0:0:0:
337,72,62075,37,8,0:3:0:0:
433,111,62269,1,2,0:0:0:0:
345,167,62463,2,0,L|296:247,1,80,8|2,0:0|0:0,0:0:0:0:
204,232,62851,2,0,L|245:300,1,80,8|2,0:3|0:0,0:0:0:0:
340,339,63239,1,8,0:0:0:0:
428,283,63433,6,0,P|443:236|437:201,1,80,2|8,0:0|0:3,0:0:0:0:
383,117,63821,1,2,0:0:0:0:
284,82,64015,2,0,P|269:44|273:5,1,80,8|2,0:0|0:0,0:0:0:0:
185,60,64402,1,8,0:3:0:0:
297,235,64790,1,8,0:0:0:0:
222,308,64984,1,2,0:0:0:0:
127,264,65178,38,0,L|103:178,1,80,4|2,0:2|0:0,0:0:0:0:
33,110,65566,2,0,L|109:87,1,80,8|2,0:0|0:0,0:0:0:0:
177,7,65954,1,8,0:3:0:0:
240,89,66148,2,0,P|278:100|317:93,1,80,2|8,0:0|0:0,0:0:0:0:
386,14,66536,1,2,0:0:0:0:
442,101,66729,5,8,0:3:0:0:
376,181,66923,1,2,0:0:0:0:
277,208,67117,2,0,L|264:301,1,80,8|2,0:0|0:0,0:0:0:0:
354,363,67505,2,0,L|365:283,1,80,8|2,0:3|0:0,0:0:0:0:
376,181,67893,1,8,0:0:0:0:
198,71,68281,37,8,0:3:0:0:
296,105,68475,1,2,0:0:0:0:
220,176,68669,2,0,L|171:256,1,80,8|2,0:0|0:0,0:0:0:0:
74,234,69057,2,0,L|25:314,1,80,8|2,0:3|0:0,0:0:0:0:
118,361,69444,1,8,0:0:0:0:
222,355,69638,6,0,L|263:286,1,80,2|8,0:0|0:3,0:0:0:0:
318,197,70026,1,2,0:0:0:0:
369,287,70220,2,0,L|410:355,1,80,8|2,0:0|0:0,0:0:0:0:
486,283,70608,1,8,0:3:0:0:
486,283,70996,1,8,0:0:0:0:
354,121,71384,38,0,L|251:132,1,80,4|2,0:2|0:0,0:0:0:0:
201,204,71771,2,0,L|304:215,1,80,8|2,0:0|0:0,0:0:0:0:
364,274,72159,1,8,0:3:0:0:
296,352,72353,2,0,P|258:363|219:356,1,80,2|8,0:0|0:0,0:0:0:0:
151,276,72741,1,2,0:0:0:0:
85,356,72935,5,8,0:3:0:0:
46,259,73129,1,2,0:0:0:0:
116,182,73323,2,0,L|127:102,1,80,8|2,0:0|0:0,0:0:0:0:
52,29,73711,2,0,L|41:109,1,80,8|2,0:3|0:0,0:0:0:0:
22,210,74099,1,8,0:0:0:0:
206,294,74486,37,8,0:3:0:0:
264,207,74680,1,2,0:0:0:0:
253,103,74874,2,0,P|309:88|354:90,1,80,8|2,0:0|0:0,0:0:0:0:
386,175,75262,2,0,P|371:231|373:276,1,80,8|2,0:3|0:0,0:0:0:0:
389,355,75650,1,8,0:0:0:0:
287,331,75844,6,0,L|189:335,1,80,2|8,0:0|0:3,0:0:0:0:
130,263,76232,1,2,0:0:0:0:
179,171,76426,2,0,P|190:113|180:75,1,80,8|2,0:0|0:0,0:0:0:0:
128,6,76813,1,8,0:3:0:0:
324,73,77201,1,8,0:0:0:0:
273,164,77395,1,2,0:0:0:0:
184,219,77589,38,0,L|195:312,1,80,4|2,0:2|0:0,0:0:0:0:
288,334,77977,2,0,L|297:254,1,80,8|2,0:0|0:0,0:0:0:0:
338,159,78365,1,8,0:3:0:0:
374,250,78559,2,0,P|336:261|297:254,1,80,2|8,0:0|0:0,0:0:0:0:
246,164,78947,1,2,0:0:0:0:
211,262,79141,5,8,0:3:0:0:
147,179,79334,1,2,0:0:0:0:
85,262,79528,2,0,L|72:355,1,80,8|2,0:0|0:0,0:0:0:0:
173,374,79916,2,0,L|162:294,1,80,8|2,0:3|0:0,0:0:0:0:
205,200,80304,1,8,0:0:0:0:
406,147,80692,37,8,0:3:0:0:
375,246,80886,1,2,0:0:0:0:
301,171,81080,2,0,P|289:126|300:85,1,80,8|2,0:0|0:0,0:0:0:0:
206,40,81468,2,0,P|212:79|200:116,1,80,8|2,0:3|0:0,0:0:0:0:
119,180,81855,1,8,0:0:0:0:
94,281,82049,6,0,L|206:277,1,80,2|8,0:0|0:3,0:0:0:0:
246,203,82437,1,2,0:0:0:0:
280,301,82631,2,0,L|392:297,1,80,8|2,0:0|0:0,0:0:0:0:
432,223,83019,1,8,0:3:0:0:
333,40,83407,1,8,0:0:0:0:
322,144,83601,1,2,0:0:0:0:
253,222,83795,38,0,P|205:235|159:221,1,80,4|2,0:2|0:0,0:0:0:0:
99,157,84183,1,8,0:0:0:0:
93,196,84280,1,0,0:0:0:0:
88,236,84377,1,2,0:0:0:0:
43,330,84570,2,0,L|-11:335,2,40,8|0|2,0:3|0:0|0:0,0:0:0:0:
142,362,84958,1,8,0:0:0:0:
196,273,85152,1,2,0:0:0:0:
274,341,85346,6,2,P|319:315|336:283,1,80,8|0,0:3|0:0,0:1:0:0:
374,284,85637,2,2,P|387:234|376:199,1,80,8|0,0:3|0:0,0:1:0:0:
404,174,85928,2,2,P|379:129|346:112,1,80,8|0,0:3|0:0,0:1:0:0:
348,73,86219,2,2,P|298:60|263:71,1,80,8|0,0:3|0:0,0:1:0:0:
238,43,86510,2,2,P|192:69|176:101,1,80,8|0,0:3|0:0,0:1:0:0:
135,187,86898,38,0,L|167:283,1,80,8|2,0:3|0:0,0:0:0:0:
206,355,87285,1,8,0:0:0:0:
245,352,87382,1,0,0:0:0:0:
285,349,87479,1,2,0:0:0:0:
344,263,87673,2,0,L|337:209,2,40,8|0|2,0:3|0:0|0:0,0:0:0:0:
408,345,88061,1,8,0:0:0:0:
466,259,88255,1,2,0:0:0:0:
411,170,88449,6,2,P|371:146|332:147,1,80,8|0,0:3|0:0,0:1:0:0:
322,95,88740,2,2,P|276:106|249:134,1,80,8|0,0:3|0:0,0:1:0:0:
203,112,89031,2,2,P|179:151|180:190,1,80,8|0,0:3|0:0,0:1:0:0:
128,201,89322,2,2,P|139:246|167:273,1,80,8|0,0:3|0:0,0:1:0:0:
154,321,89612,2,2,P|193:345|232:343,1,80,8|0,0:3|0:0,0:1:0:0:
319,297,90000,38,0,L|334:205,1,80,4|2,0:2|0:0,0:0:0:0:
339,113,90388,1,8,0:0:0:0:
299,114,90485,1,0,0:0:0:0:
259,116,90582,1,2,0:0:0:0:
191,194,90776,2,0,L|187:253,2,40,8|0|2,0:3|0:0|0:0,0:0:0:0:
123,114,91164,1,8,0:0:0:0:
196,40,91358,1,2,0:0:0:0:
259,116,91552,6,2,P|286:160|282:195,1,80,8|0,0:3|0:0,0:1:0:0:
334,205,91843,2,2,P|322:256|294:278,1,80,8|0,0:3|0:0,0:1:0:0:
329,318,92133,2,2,P|284:345|249:341,1,80,8|0,0:3|0:0,0:1:0:0:
230,384,92424,2,2,P|178:372|156:344,1,80,8|0,0:3|0:0,0:1:0:0:
110,367,92715,2,2,P|82:322|86:287,1,80,8|0,0:3|0:0,0:1:0:0:
116,197,93103,38,0,L|100:102,1,80,8|2,0:3|0:0,0:0:0:0:
148,23,93491,1,8,0:0:0:0:
187,19,93588,1,0,0:0:0:0:
227,15,93685,1,2,0:0:0:0:
314,72,93879,2,0,L|379:62,2,40,8|0|2,0:3|0:0|0:0,0:0:0:0:
256,158,94267,1,8,0:0:0:0:
167,104,94461,1,2,0:0:0:0:
161,207,94654,6,2,P|112:212|75:195,1,80,8|0,0:3|0:0,0:1:0:0:
31,205,94945,2,2,P|43:242|36:281,1,80,8|0,0:3|0:0,0:1:0:0:
70,321,95236,2,2,P|119:316|156:333,1,80,8|0,0:3|0:0,0:1:0:0:
200,323,95527,2,2,P|187:285|194:246,1,80,8|0,0:3|0:0,0:1:0:0:
161,207,95818,2,2,P|112:212|75:195,1,80,8|8,0:3|0:3,0:1:0:0:
56,100,96206,37,4,0:2:0:0:
