osu file format v14

[General]
AudioFilename: audio.mp3
AudioLeadIn: 0
PreviewTime: 7923
Countdown: 0
SampleSet: Soft
StackLeniency: 0.7
Mode: 0
LetterboxInBreaks: 0
WidescreenStoryboard: 0

[Editor]
Bookmarks: 8042,19380,26939,34498,42057,49616,58973,71384,83795,96206
DistanceSpacing: 1.2
BeatDivisor: 2
GridSize: 32
TimelineZoom: 0.6999999

[Metadata]
Title:Snowman
TitleUnicode:スノーマン
Artist:halyosy
ArtistUnicode:halyosy
Creator:Noffy
Version:Advanced
Source:初音ミク Project mirai 2
Tags:KAITO Vocaloid Ayyri 1Her0 hatsune miku Deluxe DX ARCADE Future Tone Colorful Sound SEGA Christmas winter merry santa Initial D. BURNIGN melting edit song mix eurobeat Niko Night of Fire
BeatmapID:1457175
BeatmapSetID:688590

[Difficulty]
HPDrainRate:3.5
CircleSize:3.3
OverallDifficulty:4
ApproachRate:5
SliderMultiplier:1.3
SliderTickRate:1

[Events]
//Background and Video events
0,0,"snow.jpg",0,0
Video,0,"attempt 2.avi"
//Break Periods
//Storyboard Layer 0 (Background)
//Storyboard Layer 1 (Fail)
//Storyboard Layer 2 (Pass)
//Storyboard Layer 3 (Foreground)
//Storyboard Sound Samples

[TimingPoints]
483,472.44094488189,4,2,4,100,1,0
8042,-100,4,2,4,100,0,1
19380,-100,4,2,4,100,0,0
58973,387.847446670976,4,2,20,90,1,1
83795,-100,4,2,20,85,0,0
96206,-100,4,2,20,70,0,0

[Colours]
Combo1 : 240,122,15
Combo2 : 168,179,253
Combo3 : 65,131,180
Combo4 : 255,11,11

[HitObjects]
480,307,483,6,0,P|390:333|326:266,1,195,2|2,0:1|0:3,0:0:0:0:
306,192,1427,2,0,B|256:108|256:108|205:192,1,195,2|2,0:1|0:3,0:0:0:0:
185,267,2372,2,0,P|121:334|32:309,1,195,2|2,0:1|0:3,0:0:0:0:
2,235,3317,1,4,0:3:0:0:
183,92,4262,6,0,B|211:74|299:74|237:132|329:132|364:106,1,195,2|2,0:1|0:1,0:0:0:0:
430,63,5207,2,0,B|454:96|455:182|392:140|392:217|414:243,1,195,2|2,0:1|0:1,0:0:0:0:
467,300,6152,1,0,0:0:0:0:
332,379,6624,1,0,0:0:0:0:
187,319,7097,1,4,0:1:0:0:
190,163,7569,1,0,0:0:0:0:
49,231,8042,38,0,P|22:182|55:104,1,130,12|8,0:1|0:2,0:0:0:0:
99,60,8750,1,2,0:3:0:0:
151,117,8986,2,0,L|235:221,1,130,8|8,0:1|0:2,0:0:0:0:
283,277,9695,1,2,0:3:0:0:
353,242,9931,2,0,P|386:168|360:102,1,130,8|8,0:1|0:0,0:0:0:0:
331,58,10640,1,2,0:3:0:0:
267,12,10876,1,8,0:1:0:0:
186,145,11349,1,8,0:2:0:0:
39,92,11821,6,0,P|11:148|18:225,1,130,8|8,0:1|0:2,0:0:0:0:
54,281,12530,1,2,0:3:0:0:
128,304,12766,2,0,P|155:256|148:168,1,130,8|8,0:1|0:2,0:0:0:0:
141,106,13475,1,2,0:3:0:0:
197,52,13711,2,0,P|282:13|367:55,1,195,8|0,0:1|0:0,0:0:0:0:
427,104,14656,1,2,0:0:0:0:
482,249,15128,1,10,0:0:0:0:
388,373,15601,37,4,0:1:0:0:
246,187,16309,1,2,0:3:0:0:
200,250,16545,2,0,P|137:272|74:246,1,130,8|8,0:1|0:2,0:0:0:0:
26,105,17490,5,8,0:1:0:0:
149,9,17963,1,8,0:2:0:0:
278,97,18435,1,4,0:1:0:0:
236,247,18908,1,8,0:2:0:0:
80,252,19380,38,0,P|26:176|68:94,1,195,14|2,0:1|0:3,0:0:0:0:
126,37,20325,2,0,B|182:71|245:54|245:54|227:97|256:136,1,195,10|2,0:1|0:3,0:0:0:0:
320,91,21270,2,0,B|336:119|322:159|322:159|385:142|441:176,1,195,10|2,0:1|0:3,0:0:0:0:
499,227,22215,1,4,0:3:0:0:
269,349,23160,6,0,P|177:365|128:289,1,195,10|2,0:1|0:3,0:0:0:0:
133,210,24105,2,0,B|207:186|207:186|203:114|271:70,1,195,10|2,0:1|0:3,0:0:0:0:
327,115,25049,2,0,B|332:172|286:219|286:219|327:305,1,195,10|2,0:1|0:3,0:0:0:0:
360,358,25994,1,4,0:3:0:0:
430,96,26939,38,0,P|382:20|261:19,1,195,14|2,0:1|0:3,0:0:0:0:
246,76,27884,2,0,B|223:171|223:171|153:101,1,195,10|2,0:1|0:3,0:0:0:0:
95,50,28829,2,0,P|16:102|6:196,1,195,10|2,0:1|0:3,0:0:0:0:
40,265,29774,1,4,0:3:0:0:
288,341,30719,6,0,P|364:293|365:172,1,195,10|2,0:1|0:3,0:0:0:0:
302,168,31664,2,0,B|214:211|214:211|223:112,1,195,10|2,0:1|0:3,0:0:0:0:
165,61,32608,2,0,P|89:109|88:230,1,195,10|2,0:1|0:3,0:0:0:0:
103,280,33553,1,4,0:3:0:0:
285,348,34262,37,0,0:0:0:0:
285,348,34498,2,0,P|307:282|279:210,1,130,4|0,0:1|0:0,0:0:0:0:
232,173,35207,1,2,0:0:0:0:
166,214,35443,2,0,B|71:236|71:236|28:204,1,130,8|0,0:0|0:0,0:0:0:0:
57,139,36152,5,2,0:0:0:0:
57,139,36388,2,0,L|188:103,1,130,8|0,0:1|0:0,0:0:0:0:
257,82,37097,1,2,0:0:0:0:
324,122,37333,2,0,P|345:180|321:247,1,130,8|0,0:0|0:0,0:0:0:0:
184,312,38278,37,10,0:1:0:0:
45,241,38750,1,10,0:2:0:0:
174,154,39223,1,8,0:0:0:0:
313,223,39695,1,10,0:2:0:0:
184,312,40168,5,8,0:1:0:0:
325,377,40640,1,2,0:0:0:0:
454,289,41112,1,8,0:0:0:0:
222,320,41821,37,0,0:0:0:0:
222,320,42057,2,0,P|181:251|196:193,1,130,4|0,0:1|0:0,0:0:0:0:
231,135,42766,1,2,0:0:0:0:
286,189,43002,2,0,B|331:236|331:236|386:169,1,130,8|0,0:0|0:0,0:0:0:0:
424,127,43711,1,2,0:0:0:0:
386,58,43947,6,0,P|319:40|250:72,1,130,8|0,0:1|0:0,0:0:0:0:
212,119,44656,1,2,0:0:0:0:
149,165,44892,2,0,P|82:183|13:151,1,130,8|0,0:0|0:0,0:0:0:0:
93,21,45837,37,10,0:1:0:0:
247,40,46309,1,10,0:2:0:0:
150,165,46782,1,8,0:0:0:0:
304,184,47254,1,10,0:2:0:0:
211,309,47727,5,8,0:1:0:0:
365,328,48199,1,2,0:0:0:0:
304,184,48671,1,8,0:0:0:0:
97,75,49616,38,0,P|202:75|206:157,1,195,4|2,0:1|0:3,0:0:0:0:
185,219,50561,2,0,P|211:304|300:289,1,195,2|2,0:1|0:3,0:0:0:0:
341,223,51506,1,2,0:1:0:0:
332,67,51979,1,2,0:0:0:0:
183,112,52451,2,0,P|130:124|76:195,1,130,2|0,0:1|0:0,0:0:0:0:
60,254,53160,5,0,0:0:0:0:
130,286,53396,2,0,B|202:309|202:309|243:299|243:299|323:328,1,195,2|2,0:1|0:3,0:0:0:0:
388,354,54341,1,2,0:1:0:0:
466,219,54813,1,2,0:0:0:0:
403,75,55286,2,0,P|298:75|294:157,1,195,2|2,0:1|0:3,0:0:0:0:
315,219,56231,2,0,P|288:304|199:289,1,195,2|0,0:1|0:0,0:0:0:0:
151,228,57175,37,8,0:1:0:0:
151,71,57648,1,0,0:0:0:0:
40,181,58120,1,4,0:2:0:0:
40,24,58593,1,8,0:1:0:0:
171,118,58973,21,4,0:2:0:0:
83,246,59360,1,8,0:0:0:0:
241,241,59748,2,0,B|308:241|308:241|316:283|359:323|407:307,1,195,8|2,0:3|0:0,0:0:0:0:
434,156,60718,1,2,0:0:0:0:
359,132,60912,2,0,L|283:132,1,65,8|2,0:0|0:0,0:0:0:0:
238,76,61300,2,0,B|116:76|116:76|64:76|40:128,1,195,8|2,0:3|0:0,0:0:0:0:
54,259,62269,5,2,0:0:0:0:
106,316,62463,2,0,L|180:316,1,65,8|2,0:0|0:0,0:0:0:0:
249,316,62851,2,0,P|303:272|318:208,1,130,8|8,0:3|0:0,0:0:0:0:
300,139,63433,2,0,B|263:83|263:83|180:208,1,195,2|8,0:0|0:0,0:0:0:0:
45,243,64402,2,0,B|43:245|117:136,1,130,8|8,0:3|0:0,0:0:0:0:
211,9,65178,37,4,0:2:0:0:
323,105,65566,1,8,0:0:0:0:
478,121,65954,2,0,B|411:121|411:121|403:163|360:203|312:187,1,195,8|2,0:3|0:0,0:0:0:0:
161,197,66923,1,2,0:0:0:0:
132,124,67117,2,0,L|67:124,1,65,8|2,0:0|0:0,0:0:0:0:
1,80,67505,2,0,B|24:44|73:44|73:44|187:44,1,195,8|2,0:3|0:0,0:0:0:0:
340,44,68475,5,2,0:0:0:0:
362,118,68669,2,0,P|388:141|422:148,1,65,8|2,0:0|0:0,0:0:0:0:
491,170,69057,2,0,P|472:231|421:270,1,130,8|8,0:3|0:0,0:0:0:0:
345,289,69638,2,0,B|308:345|308:345|225:220,1,195,2|8,0:0|0:0,0:0:0:0:
92,177,70608,2,0,B|173:298,1,130,8|8,0:3|0:0,0:0:0:0:
269,159,71384,37,4,0:2:0:0:
424,159,71771,1,8,0:0:0:0:
417,315,72159,2,0,B|370:299|341:256|341:256|316:302|262:317,1,195,8|2,0:3|0:0,0:0:0:0:
237,161,73129,1,2,0:0:0:0:
305,123,73323,2,0,P|336:117|370:123,1,65,8|2,0:0|0:0,0:0:0:0:
403,51,73711,2,0,P|310:41|216:86,1,195,8|2,0:3|0:0,0:0:0:0:
160,221,74680,5,2,0:0:0:0:
228,259,74874,2,0,P|259:265|293:259,1,65,8|2,0:0|0:0,0:0:0:0:
327,330,75262,2,0,P|237:345|181:325,1,130,8|8,0:3|0:0,0:0:0:0:
124,317,75844,2,0,B|87:373|87:373|4:248,1,195,2|8,0:0|0:0,0:0:0:0:
40,112,76813,2,0,B|114:221,1,130,8|8,0:3|0:0,0:0:0:0:
207,344,77589,37,4,0:2:0:0:
257,196,77977,1,8,0:0:0:0:
391,275,78365,2,0,B|425:220|402:148|402:148|427:181|481:177,1,195,8|2,0:3|0:0,0:0:0:0:
495,27,79334,1,2,0:0:0:0:
417,16,79528,2,0,P|382:24|353:42,1,65,8|2,0:0|0:0,0:0:0:0:
293,84,79916,2,0,B|201:116|201:116|96:86,1,195,8|2,0:3|0:0,0:0:0:0:
14,214,80886,5,2,0:0:0:0:
86,243,81080,2,0,L|151:262,1,65,8|2,0:0|0:0,0:0:0:0:
227,261,81468,2,0,L|351:224,1,130,8|8,0:3|0:0,0:0:0:0:
346,146,82049,2,0,P|426:195|402:283,1,195,2|8,0:0|0:0,0:0:0:0:
259,339,83019,1,8,0:3:0:0:
201,193,83407,1,8,0:0:0:0:
47,165,83795,38,0,L|98:284,1,130,4|8,0:2|0:0,0:0:0:0:
158,335,84377,1,2,0:0:0:0:
216,284,84570,2,0,L|267:164,1,130,8|8,0:3|0:0,0:0:0:0:
157,53,85346,1,8,0:3:0:0:
46,163,85734,1,8,0:0:0:0:
5,12,86122,1,8,0:3:0:0:
157,53,86510,1,8,0:0:0:0:
306,98,86898,6,0,L|438:98,1,130,8|8,0:3|0:0,0:0:0:0:
469,168,87479,1,2,0:0:0:0:
406,213,87673,2,0,L|267:213,1,130,8|8,0:3|0:0,0:0:0:0:
119,213,88449,1,8,0:3:0:0:
198,78,88837,1,8,0:0:0:0:
276,213,89225,1,8,0:3:0:0:
198,348,89612,1,8,0:0:0:0:
42,337,90000,38,0,L|93:218,1,130,4|8,0:2|0:0,0:0:0:0:
153,167,90582,1,2,0:0:0:0:
211,218,90776,2,0,L|262:338,1,130,8|8,0:3|0:0,0:0:0:0:
408,282,91552,1,8,0:3:0:0:
337,142,91940,1,8,0:0:0:0:
438,23,92327,1,8,0:3:0:0:
509,163,92715,1,8,0:0:0:0:
408,282,93103,6,0,L|276:282,1,130,8|8,0:3|0:0,0:0:0:0:
231,218,93685,1,2,0:0:0:0:
254,143,93879,2,0,L|384:143,1,130,8|8,0:3|0:0,0:0:0:0:
505,241,94654,38,0,P|515:299|488:350,1,97.5,8|8,0:3|0:3,0:0:0:0:
392,378,95236,2,0,P|377:332|388:285,1,97.5,8|8,0:3|0:3,0:0:0:0:
351,173,95818,2,0,P|316:194|297:222,1,65,8|8,0:3|0:3,0:0:0:0:
274,286,96206,1,4,0:2:0:0:
