osu file format v14

[General]
AudioFilename: audio.mp3
AudioLeadIn: 0
PreviewTime: 56015
Countdown: 0
SampleSet: Soft
StackLeniency: 0.7
Mode: 0
LetterboxInBreaks: 0
WidescreenStoryboard: 1

[Editor]
Bookmarks: 1290,11840,22389,32939,43488,54037,56675,77774,88323
DistanceSpacing: 1
BeatDivisor: 4
GridSize: 4
TimelineZoom: 1.7

[Metadata]
Title:Toki toshite Violence (TV Size)
TitleUnicode:時としてバイオレンス (TV Size)
Artist:halca
ArtistUnicode:halca
Creator:Yorita Yoshino
Version:Normal
Source:邪神ちゃんドロップキック’
Tags:anime japanese jashin-chan opening op -nanako- firika oiso apis035 -claris- dropkick on my devil!! dash pop jpop
BeatmapID:2590168
BeatmapSetID:1207987

[Difficulty]
HPDrainRate:3
CircleSize:3
OverallDifficulty:4
ApproachRate:5
SliderMultiplier:1.2
SliderTickRate:1

[Events]
//Background and Video events
0,0,"bg.jpg",0,0
//Break Periods
//Storyboard Layer 0 (Background)
//Storyboard Layer 1 (Fail)
//Storyboard Layer 2 (Pass)
//Storyboard Layer 3 (Foreground)
//Storyboard Layer 4 (Overlay)
//Storyboard Sound Samples

[TimingPoints]
-20,329.67032967033,4,2,1,60,1,0
804,-100,4,2,2,60,0,0
10529,-100,4,2,1,60,0,0
11848,-100,4,2,1,75,0,0
21078,-100,4,2,1,60,0,0
22397,-100,4,2,1,60,0,0
22562,-100,4,2,2,60,0,0
32617,-100,4,2,1,60,0,0
32947,-100,4,2,1,75,0,0
56353,-100,4,2,1,60,0,0
56683,-100,4,2,1,80,0,1
77782,-100,4,2,1,80,0,1
87012,-100,4,2,1,60,0,0
87177,-100,4,2,1,60,0,0

[Colours]
Combo1 : 192,192,192
Combo2 : 217,51,84
Combo3 : 152,203,255
Combo4 : 255,255,89

[HitObjects]
11,340,1298,6,0,L|208:328,1,180,2|2,0:0|0:0,0:0:0:0:
232,353,1958,2,0,P|246:296|371:256,1,180,2|2,0:0|0:0,0:0:0:0:
391,271,2617,5,2,0:0:0:0:
453,198,2947,1,2,0:0:0:0:
425,106,3276,1,0,0:0:0:0:
391,72,3441,2,0,L|258:87,1,120,2|2,0:0|0:0,0:0:0:0:
235,53,3936,6,0,B|218:23|180:19|180:19|150:65|165:141,1,180,2|2,0:0|0:0,0:0:0:0:
128,161,4595,2,0,B|174:141|213:170|213:170|255:198|326:172,1,180,2|2,0:0|0:0,0:0:0:0:
328,218,5254,5,2,0:0:0:0:
271,295,5584,1,2,0:0:0:0:
176,314,5914,2,0,L|186:248,2,60,0|0|2,0:0|0:0|0:0,0:0:0:0:
86,348,6573,6,0,P|53:261|64:225,1,120,2|2,0:0|0:0,0:0:0:0:
77,144,7232,2,0,P|44:123|15:121,2,60,2|0|2,0:0|0:0|0:0,0:0:0:0:
147,209,7892,2,0,L|292:213,1,120,2|2,0:0|0:0,0:0:0:0:
346,266,8551,2,0,P|347:308|330:331,2,60,2|0|2,0:0|0:0|0:0,0:0:0:0:
420,205,9210,6,0,L|394:84,1,120,2|0,0:0|0:0,0:0:0:0:
410,41,9705,1,2,0:0:0:0:
410,41,9870,2,0,P|347:89|241:74,1,180,2|0,0:0|0:0,0:0:0:0:
220,42,10529,1,0,0:0:0:0:
36,338,11518,6,0,P|70:324|98:328,1,60,2|0,0:0|0:0,0:0:0:0:
143,358,11848,6,0,L|130:226,1,120,6|8,3:2|0:0,0:0:0:0:
171,205,12342,1,2,0:0:0:0:
171,205,12507,2,0,L|305:238,1,120,2|8,3:2|0:0,0:0:0:0:
340,341,13166,5,2,3:2:0:0:
460,324,13496,1,10,0:0:0:0:
481,206,13826,1,0,3:0:0:0:
373,149,14155,2,0,P|366:98|378:73,1,60,10|0,0:0|0:0,0:0:0:0:
350,33,14485,6,0,B|304:72|304:72|244:55,1,120,2|8,3:2|0:0,0:0:0:0:
197,91,14980,1,2,0:0:0:0:
197,91,15144,2,0,B|151:52|151:52|91:68,1,120,2|8,3:2|0:0,0:0:0:0:
24,166,15804,5,2,3:2:0:0:
41,284,16133,1,10,0:0:0:0:
144,345,16463,1,0,3:0:0:0:
263,339,16793,2,0,P|268:289|263:273,1,60,10|0,0:0|0:0,0:0:0:0:
315,246,17122,6,0,P|352:271|427:256,1,120,6|10,3:2|0:0,0:0:0:0:
388,143,17782,2,0,P|413:106|398:31,1,120,2|10,3:2|0:0,0:0:0:0:
288,75,18441,2,0,P|251:50|176:65,1,120,2|10,3:2|0:0,0:0:0:0:
215,178,19100,1,2,3:2:0:0:
138,270,19430,2,0,L|74:262,1,60,10|8,0:0|0:0,0:0:0:0:
18,270,19760,6,0,B|-8:226|20:181|20:181|46:139|31:80,1,180,6|0,3:2|0:0,0:0:0:0:
27,38,20419,2,0,P|84:84|126:78,1,120,2|8,3:2|0:0,0:0:0:0:
176,44,20914,1,0,0:0:0:0:
176,43,21078,6,0,L|310:35,1,120,10|10,3:2|0:0,0:0:0:0:
413,60,21738,2,0,P|420:88|416:118,1,60,10|10,3:2|3:2,0:0:0:0:
387,170,22067,2,0,L|307:161,1,60,10|10,0:0|0:0,0:0:0:0:
253,258,22562,6,0,L|260:327,1,60,2|2,0:0|0:0,0:0:0:0:
163,322,23056,2,0,L|170:391,1,60,2|2,0:0|0:0,0:0:0:0:
75,356,23551,6,0,L|69:219,1,120,2|2,0:0|0:0,0:0:0:0:
69,188,24045,1,2,0:0:0:0:
122,107,24375,2,0,P|160:124|227:86,1,120,2|2,0:0|0:0,0:0:0:0:
261,58,24870,6,0,B|238:109|268:147|268:147|289:189|262:257,1,180,2|2,0:0|0:0,0:0:0:0:
350,285,25694,1,2,0:0:0:0:
415,215,26023,1,2,0:0:0:0:
368,130,26353,6,0,L|242:155,1,120,2|2,0:0|0:0,0:0:0:0:
171,97,27012,2,0,L|183:19,2,60,2|0|0,0:0|1:0|1:0,0:0:0:0:
77,118,27672,5,0,0:0:0:0:
70,213,28001,1,2,0:0:0:0:
59,308,28331,2,0,L|126:299,1,60,2|2,0:0|0:0,0:0:0:0:
195,242,28826,6,0,P|251:229|299:261,1,120,2|2,0:0|0:0,0:0:0:0:
305,310,29320,2,0,P|361:323|409:291,1,120,2|2,0:0|0:0,0:0:0:0:
470,214,29980,6,0,P|426:203|415:175,1,60,2|2,0:0|0:0,0:0:0:0:
388,156,30309,2,0,B|407:96|407:96|379:26,1,120,2|2,0:0|0:0,0:0:0:0:
344,18,30804,2,0,L|204:39,1,120,2|2,0:0|0:0,0:0:0:0:
166,111,31463,6,0,L|26:90,1,120,2|2,0:0|0:0,0:0:0:0:
17,131,31958,1,2,0:0:0:0:
59,216,32287,2,0,L|-15:220,2,60,2|0|8,0:0|3:0|0:0,0:0:0:0:
121,318,32947,6,0,P|185:326|227:281,1,120,4|10,3:2|0:0,0:0:0:0:
343,291,33606,2,0,P|372:288|397:303,2,60,2|2|8,3:2|0:0|0:0,0:0:0:0:
280,188,34265,6,0,P|269:99|282:59,1,120,0|10,3:0|0:0,0:0:0:0:
177,3,34925,2,0,L|117:18,1,60,2|0,3:2|3:0,0:0:0:0:
99,74,35254,2,0,L|39:59,1,60,10|2,0:0|0:0,0:0:0:0:
2,105,35584,6,0,P|4:168|55:220,1,120,0|10,3:0|0:0,0:0:0:0:
43,330,36243,1,2,3:2:0:0:
153,282,36573,2,0,P|183:277|214:293,1,60,10|2,0:0|0:0,0:0:0:0:
223,347,36903,6,0,B|243:363|243:363|348:349,1,120,0|10,3:0|0:0,0:0:0:0:
435,283,37562,2,0,L|510:292,2,60,2|8|8,3:2|0:0|0:0,0:0:0:0:
351,197,38221,6,0,P|284:219|222:190,1,120,0|10,3:0|0:0,0:0:0:0:
180,99,38881,2,0,L|189:24,2,60,2|2|8,3:2|0:0|0:0,0:0:0:0:
83,170,39540,6,0,P|47:118|63:46,2,120,0|10|2,3:0|0:0|3:2,0:0:0:0:
65,288,40529,2,0,P|95:295|124:288,1,60,10|2,0:0|0:0,0:0:0:0:
172,252,40859,5,10,0:0:0:0:
172,252,41023,1,8,0:0:0:0:
313,364,41518,5,10,0:0:0:0:
313,364,41682,1,10,0:0:0:0:
430,352,42012,6,0,B|448:332|448:332|438:225,1,120,4|0,3:2|3:0,0:0:0:0:
469,186,42507,1,10,0:0:0:0:
366,122,42837,2,0,L|292:132,1,60,2|8,3:2|0:0,0:0:0:0:
246,136,43166,2,0,P|226:106|230:75,1,60,8|8,0:0|0:0,0:0:0:0:
216,23,43496,6,0,P|189:12|108:72,1,120,6|2,3:2|3:2,0:0:0:0:
55,155,44155,2,0,P|32:131|1:130,2,60,2|0|2,3:2|0:0|3:2,0:0:0:0:
106,263,44815,6,0,L|225:247,1,120,0|2,3:0|3:2,0:0:0:0:
311,330,45474,2,0,L|386:338,1,60,8|8,3:0|0:3,0:0:0:0:
429,348,45804,2,0,L|419:260,1,60,2|2,3:2|0:0,0:0:0:0:
448,234,46133,6,0,L|461:92,1,120,2|2,3:2|3:2,0:0:0:0:
377,25,46793,1,2,3:2:0:0:
257,34,47122,1,2,3:2:0:0:
179,125,47452,6,0,L|191:248,1,120,2|2,3:2|3:2,0:0:0:0:
122,343,48111,1,8,3:0:0:0:
20,280,48441,2,0,L|34:215,1,60,2|2,3:2|3:2,0:0:0:0:
83,188,48771,6,0,L|77:62,1,120,6|2,3:2|3:2,0:0:0:0:
183,12,49430,2,0,L|244:19,1,60,10|0,0:0|0:0,0:0:0:0:
302,26,49760,1,10,0:0:0:0:
290,145,50089,6,0,P|336:173|410:151,1,120,2|10,3:2|0:0,0:0:0:0:
448,270,50749,2,0,L|440:334,1,60,8|8,3:0|3:0,0:0:0:0:
390,362,51078,1,10,0:0:0:0:
286,300,51408,6,0,L|152:325,1,120,6|8,3:2|0:0,0:0:0:0:
52,356,52067,1,2,3:2:0:0:
70,237,52397,1,8,0:0:0:0:
87,121,52727,6,0,P|125:140|200:129,1,120,2|10,3:2|0:0,0:0:0:0:
287,47,53386,2,0,L|293:113,1,60,2|8,3:2|0:0,0:0:0:0:
352,115,53716,2,0,L|358:181,1,60,8|8,0:0|0:0,0:0:0:0:
414,192,54045,6,0,B|421:255|421:255|391:311,1,120,2|8,3:2|0:0,0:0:0:0:
281,346,54705,2,0,B|222:320|222:320|189:266,1,120,2|8,3:2|0:0,0:0:0:0:
215,154,55364,6,0,L|129:162,1,60,10|8,0:0|0:0,0:0:0:0:
110,199,55694,2,0,L|24:191,1,60,8|8,0:0|0:0,0:0:0:0:
7,235,56023,1,0,3:0:0:0:
54,345,56353,1,14,0:0:0:0:
168,379,56683,6,0,B|149:318|149:318|180:246,1,120,6|8,3:2|0:0,0:0:0:0:
226,242,57177,1,2,0:0:0:0:
275,276,57342,2,0,P|330:298|395:276,1,120,2|8,3:2|0:0,0:0:0:0:
457,186,58001,6,0,P|448:126|397:80,1,120,2|10,3:2|0:0,0:0:0:0:
291,54,58661,2,0,P|294:21|312:-5,2,60,0|2|8,3:0|3:2|0:0,0:0:0:0:
199,132,59320,6,0,P|131:144|87:120,1,120,2|8,3:2|0:0,0:0:0:0:
28,126,59815,1,2,0:0:0:0:
6,182,59980,2,0,L|23:305,1,120,2|8,3:2|0:0,0:0:0:0:
140,324,60639,6,0,L|132:385,2,60,2|2|10,3:2|0:0|0:0,0:0:0:0:
260,318,61298,2,0,P|254:288|263:259,1,60,0|2,3:2|3:2,0:0:0:0:
305,218,61628,2,0,P|310:188|302:159,1,60,10|8,0:0|0:0,0:0:0:0:
276,105,61958,6,0,B|296:87|296:87|394:106,1,120,6|10,3:2|0:0,0:0:0:0:
504,132,62617,2,0,B|522:152|522:152|503:250,1,120,2|10,3:2|0:0,0:0:0:0:
481,361,63276,2,0,B|461:379|461:379|363:360,1,120,2|10,3:2|0:0,0:0:0:0:
253,334,63935,2,0,B|235:314|235:314|254:216,1,120,2|10,3:2|0:0,0:0:0:0:
214,176,64430,1,8,0:0:0:0:
171,132,64595,6,0,P|114:145|60:122,1,120,6|8,3:2|0:0,0:0:0:0:
8,230,65254,2,0,P|56:250|78:240,1,60,2|0,0:2|0:0,0:0:0:0:
117,271,65584,2,0,L|102:348,2,60,8|0|4,0:0|0:0|3:2,0:0:0:0:
233,298,66243,5,4,3:2:0:0:
350,323,66573,1,4,3:2:0:0:
434,238,66903,1,4,3:2:0:0:
408,118,67232,6,0,P|379:137|274:130,1,120,6|8,3:2|0:0,0:0:0:0:
252,98,67727,1,2,0:0:0:0:
204,60,67892,2,0,P|144:55|91:82,1,120,2|8,3:2|0:0,0:0:0:0:
35,188,68551,6,0,P|87:214|147:210,1,120,2|10,3:2|0:0,0:0:0:0:
238,288,69210,2,0,P|235:318|244:352,2,60,0|2|10,3:0|3:2|0:0,0:0:0:0:
337,356,69870,6,0,L|355:227,1,120,6|8,3:2|0:0,0:0:0:0:
411,253,70364,1,2,0:0:0:0:
468,271,70529,2,0,L|453:149,1,120,6|8,3:2|0:0,0:0:0:0:
427,34,71188,6,0,P|357:100|325:98,1,120,6|10,3:2|0:0,0:0:0:0:
226,58,71848,2,0,P|223:28|230:-6,2,60,0|0|10,3:0|3:0|0:0,0:0:0:0:
171,84,72342,1,8,0:0:0:0:
118,113,72507,6,0,P|116:165|129:233,1,120,6|10,3:2|0:0,0:0:0:0:
151,349,73166,2,0,P|203:351|271:338,1,120,2|10,3:2|0:0,0:0:0:0:
387,315,73826,2,0,P|389:263|376:195,1,120,2|10,3:2|0:0,0:0:0:0:
354,79,74485,2,0,P|302:77|234:90,1,120,2|10,3:2|0:0,0:0:0:0:
183,57,74980,1,8,0:0:0:0:
133,23,75144,6,0,P|146:80|123:134,1,120,6|8,3:2|0:0,0:0:0:0:
82,180,75639,1,10,0:2:0:0:
82,180,75804,2,0,P|33:174|14:148,1,60,10|0,0:2|0:0,0:0:0:0:
4,223,76133,2,0,P|23:267|10:296,1,60,8|0,0:0|0:0,0:0:0:0:
110,358,76628,6,0,P|135:343|165:346,1,60,10|2,0:0|0:0,0:0:0:0:
216,372,76958,1,10,0:0:0:0:
216,372,77122,1,2,3:2:0:0:
334,355,77452,2,0,P|377:361|410:345,1,60,10|8,0:0|0:0,0:0:0:0:
441,322,77782,6,0,L|425:194,1,120,6|8,3:2|0:0,0:0:0:0:
378,166,78276,1,0,3:0:0:0:
336,210,78441,2,0,P|285:235|219:217,1,120,0|8,3:2|3:2,0:0:0:0:
149,128,79100,6,0,B|136:68|136:68|170:3,2,120,2|8|0,1:2|0:0|1:2,0:0:0:0:
105,239,80089,2,0,P|66:259|49:282,1,60,8|0,0:0|0:0,0:0:0:0:
62,330,80419,6,0,P|119:350|187:330,1,120,2|8,3:2|0:0,0:0:0:0:
211,288,80914,1,0,3:2:0:0:
251,244,81078,2,0,P|308:231|364:251,1,120,0|8,3:2|3:2,0:0:0:0:
395,134,81738,6,0,P|450:114|508:126,2,120,2|8|0,1:2|0:2|1:2,0:0:0:0:
276,112,82727,2,0,P|269:70|279:48,1,60,8|8,0:2|0:0,0:0:0:0:
218,32,83056,6,0,P|144:21|100:46,1,120,6|10,3:2|0:0,0:0:0:0:
4,68,83716,2,0,P|-7:142|18:186,1,120,2|10,3:2|0:0,0:0:0:0:
35,295,84375,2,0,P|109:306|153:281,1,120,2|10,3:2|0:0,0:0:0:0:
260,259,85035,2,0,P|271:185|246:141,1,120,2|10,3:2|0:0,0:0:0:0:
221,94,85529,1,8,0:0:0:0:
240,37,85694,6,0,L|385:44,1,120,6|8,3:2|0:0,0:0:0:0:
444,127,86353,2,0,P|424:164|401:175,1,60,6|8,3:2|0:0,0:0:0:0:
369,217,86683,2,0,P|388:254|411:265,1,60,8|8,0:0|0:0,0:0:0:0:
451,297,87012,5,4,3:2:0:0:
