osu file format v14

[General]
AudioFilename: audio.mp3
AudioLeadIn: 0
PreviewTime: 56015
Countdown: 0
SampleSet: Soft
StackLeniency: 0.7
Mode: 0
LetterboxInBreaks: 0
WidescreenStoryboard: 1

[Editor]
Bookmarks: 1290,11840,22389,32939,43488,54037,56675,77774,88323
DistanceSpacing: 1.3
BeatDivisor: 4
GridSize: 4
TimelineZoom: 1.8

[Metadata]
Title:Toki toshite Violence (TV Size)
TitleUnicode:時としてバイオレンス (TV Size)
Artist:halca
ArtistUnicode:halca
Creator:Yorita Yoshino
Version:Nanako's Hard
Source:邪神ちゃんドロップキック’
Tags:anime japanese jashin-chan opening op -nanako- firika oiso apis035 -claris- dropkick on my devil!! dash pop jpop
BeatmapID:2581702
BeatmapSetID:1207987

[Difficulty]
HPDrainRate:5
CircleSize:4
OverallDifficulty:6
ApproachRate:7.5
SliderMultiplier:1.6
SliderTickRate:1

[Events]
//Background and Video events
0,0,"bg.jpg",0,0
//Break Periods
//Storyboard Layer 0 (Background)
//Storyboard Layer 1 (Fail)
//Storyboard Layer 2 (Pass)
//Storyboard Layer 3 (Foreground)
//Storyboard Layer 4 (Overlay)
//Storyboard Sound Samples

[TimingPoints]
-20,329.67032967033,4,2,1,60,1,0
804,-199.999999999999,4,2,2,60,0,0
10529,-199.999999999999,4,2,1,60,0,0
11848,-90.9090909090909,4,2,1,75,0,0
21078,-90.9090909090909,4,2,1,60,0,0
22397,-125,4,2,1,60,0,0
22562,-125,4,2,2,60,0,0
32617,-100,4,2,1,60,0,0
32947,-100,4,2,1,75,0,0
48771,-111.111111111111,4,2,1,75,0,0
56023,-166.666666666666,4,2,1,75,0,0
56353,-66.6666666666667,4,2,1,60,0,0
56683,-90.9090909090909,4,2,1,80,0,1
77782,-90.9090909090909,4,2,1,80,0,1
87012,-66.6666666666667,4,2,1,60,0,0
87177,-66.6666666666667,4,2,1,60,0,0

[Colours]
Combo1 : 192,192,192
Combo2 : 217,51,84
Combo3 : 152,203,255
Combo4 : 255,255,89

[HitObjects]
49,90,1298,6,0,P|84:107|133:105,1,80,2|0,0:0|0:0,0:0:0:0:
191,37,1958,2,0,P|226:20|275:22,1,80,2|0,0:0|0:0,0:0:0:0:
318,100,2617,2,0,L|307:196,2,80,2|2|0,0:0|0:0|0:0,0:0:0:0:
400,51,3606,1,0,0:0:0:0:
451,131,3936,6,0,L|440:227,1,80,2|0,0:0|0:0,0:0:0:0:
481,297,4595,2,0,L|386:304,1,80,2|0,0:0|0:0,0:0:0:0:
310,272,5254,2,0,L|320:365,2,80,2|2|0,0:0|0:0|0:0,0:0:0:0:
256,192,6243,1,2,0:0:0:0:
195,269,6573,6,0,P|154:269|108:250,2,80,2|2|2,0:0|0:0|0:0,0:0:0:0:
256,192,7562,1,2,0:0:0:0:
317,115,7892,2,0,P|358:115|404:134,2,80,2|2|2,0:0|0:0|0:0,0:0:0:0:
256,192,8881,1,2,0:0:0:0:
169,150,9210,6,0,P|167:106|183:57,1,80,2|0,0:0|0:0,0:0:0:0:
273,49,9870,2,0,P|301:78|317:115,1,80,2|0,0:0|0:0,0:0:0:0:
256,192,10529,5,0,0:0:0:0:
271,219,11518,2,0,L|283:245,3,20,2|0|0|0,0:0|0:0|0:0|0:0,0:0:0:0:
256,192,11848,5,6,3:2:0:0:
256,192,12012,2,0,L|156:205,1,88.000002685547,0|8,0:0|0:0,0:0:0:0:
107,127,12342,1,2,0:0:0:0:
170,54,12507,1,2,3:2:0:0:
170,54,12672,2,0,L|270:67,1,88.000002685547,0|8,0:0|0:0,0:0:0:0:
330,128,13001,1,2,0:0:0:0:
420,92,13166,6,0,P|438:53|433:1,2,88.000002685547,2|2|10,3:2|0:0|0:0,0:0:0:0:
330,128,13661,2,0,B|287:173|287:173|316:291,1,176.000005371094,2|0,0:0|0:0,0:0:0:0:
298,373,14155,2,0,P|341:374|379:353,1,88.000002685547,10|0,0:0|0:0,0:0:0:0:
230,311,14485,5,2,3:2:0:0:
230,311,14650,2,0,L|136:318,1,88.000002685547,0|8,0:0|0:0,0:0:0:0:
68,381,14980,1,2,0:0:0:0:
22,302,15144,1,2,3:2:0:0:
22,302,15309,2,0,L|35:207,1,88.000002685547,0|8,0:0|0:0,0:0:0:0:
118,166,15639,1,2,0:0:0:0:
74,79,15804,6,0,P|35:62|-10:66,2,88.000002685547,2|2|10,3:2|0:0|0:0,0:0:0:0:
118,166,16298,2,0,B|160:140|206:157|206:157|241:191|295:180,1,176.000005371094,2|0,0:0|0:0,0:0:0:0:
362,125,16793,2,0,P|379:162|379:215,1,88.000002685547,10|0,0:0|0:0,0:0:0:0:
270,89,17122,6,0,L|280:0,1,88.000002685547,6|0,3:2|0:0,0:0:0:0:
362,125,17452,2,0,L|371:37,1,88.000002685547,10|0,0:0|0:0,0:0:0:0:
283,181,17782,2,0,L|195:171,1,88.000002685547,2|0,3:2|0:0,0:0:0:0:
358,241,18111,2,0,L|445:231,1,88.000002685547,10|0,0:0|0:0,0:0:0:0:
311,327,18441,6,0,P|250:269|168:289,1,176.000005371094,2|10,3:2|0:0,0:0:0:0:
109,367,18936,1,0,0:0:0:0:
17,336,19100,2,0,P|13:288|29:239,1,88.000002685547,2|0,3:2|0:0,0:0:0:0:
112,210,19430,2,0,P|116:162|100:113,1,88.000002685547,10|8,0:0|0:0,0:0:0:0:
73,87,19677,1,8,0:0:0:0:
73,87,19760,6,0,L|-16:95,1,88.000002685547,6|0,3:2|0:0,0:0:0:0:
26,7,20089,2,0,L|113:-1,1,88.000002685547,8|0,0:0|0:0,0:0:0:0:
200,42,20419,2,0,L|287:34,1,88.000002685547,2|0,3:2|0:0,0:0:0:0:
248,123,20749,2,0,L|152:131,1,88.000002685547,8|0,0:0|0:0,0:0:0:0:
77,181,21078,6,0,P|62:226|71:276,2,88.000002685547,10|0|10,3:2|0:0|0:0,0:0:0:0:
160,130,21573,1,0,0:0:0:0:
217,208,21738,2,0,P|271:211|308:190,1,88.000002685547,10|10,3:2|3:2,0:0:0:0:
341,108,22067,1,10,0:0:0:0:
433,151,22232,1,10,0:0:0:0:
433,151,22397,6,0,L|420:285,1,128,0|2,0:0|0:0,0:0:0:0:
266,340,23056,2,0,L|279:206,1,128,2|0,0:0|0:0,0:0:0:0:
363,69,23716,6,0,P|317:109|241:94,1,128,0|2,0:0|0:0,0:0:0:0:
212,30,24210,1,2,0:0:0:0:
143,76,24375,2,0,L|152:139,1,64,2|0,0:0|0:0,0:0:0:0:
60,63,24705,2,0,L|67:126,1,64,2|2,0:0|0:0,0:0:0:0:
98,203,25034,6,0,P|144:163|220:178,1,128,0|2,0:0|0:0,0:0:0:0:
169,244,25529,1,0,0:0:0:0:
240,287,25694,2,0,L|309:279,1,64,2|0,0:0|0:0,0:0:0:0:
379,313,26023,2,0,L|387:244,1,64,2|2,0:0|0:0,0:0:0:0:
323,193,26353,5,2,0:0:0:0:
400,162,26518,2,0,L|469:154,2,64,2|2|2,0:0|0:0|0:0,0:0:0:0:
323,193,27012,1,2,0:0:0:0:
336,113,27177,1,0,1:0:0:0:
336,113,27342,1,0,1:0:0:0:
180,53,27672,6,0,P|133:95|133:157,1,128,0|2,0:0|0:0,0:0:0:0:
220,298,28331,2,0,B|235:203|235:203|207:156,1,128,2|0,0:0|0:0,0:0:0:0:
63,235,28990,2,0,L|194:220,1,128,0|2,0:0|0:0,0:0:0:0:
276,212,29485,1,2,0:0:0:0:
327,277,29650,2,0,L|318:349,1,64,2|0,0:0|0:0,0:0:0:0:
276,212,29980,2,0,L|285:140,1,64,2|2,0:0|0:0,0:0:0:0:
325,76,30309,6,0,B|420:58|420:58|465:80,1,128,2|2,0:0|0:0,0:0:0:0:
490,143,30804,1,2,0:0:0:0:
406,142,30969,2,0,L|411:207,1,64,0|2,0:0|0:0,0:0:0:0:
375,281,31298,2,0,P|343:283|313:271,1,64,0|2,0:0|0:0,0:0:0:0:
240,311,31628,6,0,P|227:281|229:249,1,64,0|2,0:0|0:0,0:0:0:0:
291,192,31958,2,0,P|303:162|301:130,1,64,2|0,0:0|0:0,0:0:0:0:
233,82,32287,1,2,0:0:0:0:
257,2,32452,1,0,3:0:0:0:
233,82,32617,2,0,B|200:113|165:103|165:103|114:90,1,120,8|0,0:0|0:0,0:0:0:0:
66,30,32947,6,0,B|80:198,1,160,4|10,3:2|0:0,0:0:0:0:
151,252,33441,1,0,0:0:0:0:
215,181,33606,2,0,P|256:175|295:189,1,80,2|2,3:2|0:0,0:0:0:0:
329,276,33936,2,0,P|370:282|409:268,1,80,8|2,0:0|0:0,0:0:0:0:
446,182,34265,6,0,L|435:92,1,80,0|2,3:0|0:0,0:0:0:0:
487,20,34595,2,0,P|445:6|396:15,1,80,10|2,0:0|0:0,0:0:0:0:
351,87,34925,1,2,3:2:0:0:
351,87,35089,1,0,3:0:0:0:
289,160,35254,2,0,P|249:162|212:149,1,80,10|2,0:0|0:0,0:0:0:0:
159,67,35584,6,0,B|117:115|117:115|131:224,1,160,0|10,3:0|0:0,0:0:0:0:
207,266,36078,1,0,0:0:0:0:
150,343,36243,2,0,P|110:355|64:346,1,80,2|2,3:2|0:0,0:0:0:0:
207,266,36573,2,0,L|306:277,1,80,10|2,0:0|0:0,0:0:0:0:
377,306,36903,6,0,L|368:211,1,80,0|2,3:0|0:0,0:0:0:0:
446,169,37232,2,0,L|455:74,1,80,10|2,0:0|0:0,0:0:0:0:
367,44,37562,1,2,3:2:0:0:
452,1,37727,1,8,0:0:0:0:
367,44,37892,2,0,L|276:40,1,80,8|0,0:0|0:0,0:0:0:0:
213,102,38221,6,0,P|168:97|130:65,2,80,0|2|10,3:0|0:0|0:0,0:0:0:0:
287,40,38716,1,0,0:0:0:0:
331,125,38881,2,0,L|323:210,1,80,2|2,3:2|0:0,0:0:0:0:
231,231,39210,2,0,L|238:310,1,80,8|2,0:0|0:0,0:0:0:0:
313,371,39540,6,0,P|358:376|397:356,1,80,0|2,3:0|0:0,0:0:0:0:
484,377,39870,2,0,L|476:297,1,80,10|2,0:0|0:0,0:0:0:0:
400,248,40199,1,2,3:2:0:0:
400,248,40364,1,0,3:0:0:0:
481,197,40529,2,0,P|480:153|454:110,1,80,10|2,0:0|0:0,0:0:0:0:
370,96,40859,5,10,0:0:0:0:
435,29,41023,1,8,0:0:0:0:
154,94,41518,5,10,0:0:0:0:
84,27,41683,1,10,0:0:0:0:
262,96,42012,6,0,L|262:195,1,80,4|2,3:2|3:2,0:0:0:0:
196,247,42342,1,0,3:2:0:0:
260,318,42507,2,0,P|300:319|336:300,1,80,10|0,0:0|0:0,0:0:0:0:
359,207,42837,1,2,3:2:0:0:
429,271,43001,2,0,L|435:313,2,40,8|8|8,0:0|0:0|0:0,0:0:0:0:
468,187,43331,1,8,0:0:0:0:
468,187,43414,1,8,0:0:0:0:
468,187,43496,6,0,B|481:83|481:83|439:24,1,160,6|2,3:2|3:2,0:0:0:0:
390,114,43990,1,2,0:0:0:0:
390,114,44155,2,0,L|309:107,1,80,2|0,3:2|0:0,0:0:0:0:
256,27,44485,1,2,3:2:0:0:
201,107,44650,6,0,L|122:114,1,80,2|0,0:0|0:0,0:0:0:0:
39,163,44980,2,0,P|26:122|38:65,2,80,2|2|2,0:0|3:2|0:0,0:0:0:0:
125,216,45474,1,8,3:0:0:0:
125,216,45639,1,8,0:3:0:0:
70,294,45804,2,0,L|-9:287,1,80,2|2,3:2|0:0,0:0:0:0:
146,352,46133,6,0,B|178:328|225:333|225:333|261:363|305:355,1,160,2|2,3:2|3:2,0:0:0:0:
376,302,46628,1,2,0:0:0:0:
376,302,46793,2,0,P|394:342|388:383,1,80,2|0,3:2|0:0,0:0:0:0:
287,259,47122,1,2,3:2:0:0:
287,259,47287,1,2,0:0:0:0:
361,198,47452,6,0,L|459:205,2,80,2|0|2,3:2|0:0|3:2,0:0:0:0:
287,259,47947,1,2,0:0:0:0:
222,188,48111,2,0,P|217:148|239:99,1,80,8|8,3:0|0:0,0:0:0:0:
315,62,48441,1,2,3:2:0:0:
315,62,48606,1,2,3:2:0:0:
232,17,48771,6,0,B|172:28|172:28|151:45|151:45|91:55,1,143.999995605469,6|2,3:2|3:2,0:0:0:0:
74,229,49430,1,10,0:0:0:0:
74,229,49595,1,0,0:0:0:0:
156,202,49760,2,0,P|157:249|142:281,1,71.9999978027344,10|10,0:0|0:0,0:0:0:0:
75,317,50089,6,0,L|243:296,1,143.999995605469,2|10,3:2|0:0,0:0:0:0:
298,331,50584,1,2,3:2:0:0:
367,279,50749,2,0,P|382:312|382:348,1,71.9999978027344,8|8,3:0|3:0,0:0:0:0:
286,248,51078,2,0,L|292:176,1,71.9999978027344,10|0,0:0|0:0,0:0:0:0:
358,116,51408,6,0,P|295:85|231:113,1,143.999995605469,6|8,3:2|0:0,0:0:0:0:
73,41,52067,2,0,L|89:212,1,143.999995605469,2|8,3:2|0:0,0:0:0:0:
178,331,52727,6,0,P|222:335|265:314,1,71.9999978027344,2|0,3:2|0:0,0:0:0:0:
286,248,53056,2,0,L|292:176,1,71.9999978027344,10|0,0:0|0:0,0:0:0:0:
231,112,53386,1,2,3:2:0:0:
315,92,53551,2,0,L|362:96,2,35.9999989013672,8|8|8,0:0|0:0|0:0,0:0:0:0:
255,28,53881,2,0,L|208:32,2,35.9999989013672,8|8|2,0:0|0:0|3:2,0:0:0:0:
231,112,54210,5,8,0:0:0:0:
315,92,54375,1,8,0:0:0:0:
453,203,54705,5,2,3:2:0:0:
453,203,54870,1,8,0:0:0:0:
369,183,55035,1,8,0:0:0:0:
341,353,55364,5,10,0:0:0:0:
292,281,55529,1,8,0:0:0:0:
213,244,55694,1,8,0:0:0:0:
128,264,55859,1,8,0:0:0:0:
69,327,56023,2,0,L|65:378,1,47.9999985351563,0|2,3:0|3:2,0:0:0:0:
40,253,56353,6,0,B|21:133|21:133|70:186,1,180.000006866455,14|0,0:0|0:0,0:0:0:0:
128,264,56683,6,0,L|227:253,1,88.000002685547,6|0,3:2|0:0,0:0:0:0:
301,297,57012,1,8,0:0:0:0:
381,240,57177,1,2,0:0:0:0:
381,240,57260,1,0,0:0:0:0:
381,240,57342,2,0,P|396:284|385:338,2,88.000002685547,2|0|8,3:2|0:0|0:0,0:0:0:0:
292,199,57837,1,2,0:0:0:0:
215,254,58001,6,0,P|197:207|205:147,1,88.000002685547,2|2,3:2|0:0,0:0:0:0:
268,102,58331,1,10,0:0:0:0:
194,38,58496,2,0,L|106:29,1,88.000002685547,2|0,0:0|3:0,0:0:0:0:
63,47,58743,1,8,0:0:0:0:
63,47,58826,2,0,P|48:91|66:139,1,88.000002685547,2|8,3:2|0:0,0:0:0:0:
138,184,59155,1,2,0:0:0:0:
219,131,59320,6,0,L|324:123,1,88.000002685547,2|0,3:2|0:0,0:0:0:0:
388,177,59650,1,8,0:0:0:0:
307,225,59815,1,2,0:0:0:0:
307,225,59897,1,0,0:0:0:0:
307,225,59980,2,0,P|300:270|315:317,2,88.000002685547,2|0|8,3:2|0:0|0:0,0:0:0:0:
388,177,60474,1,2,0:0:0:0:
306,124,60639,6,0,L|219:131,1,88.000002685547,2|2,3:2|0:0,0:0:0:0:
125,100,60969,1,10,0:0:0:0:
151,192,61133,1,2,0:0:0:0:
56,172,61298,2,0,L|1:168,2,44.0000013427735,0|8|2,3:2|0:0|3:2,0:0:0:0:
98,280,61628,1,10,0:0:0:0:
98,280,61710,1,8,0:0:0:0:
98,280,61793,1,8,0:0:0:0:
98,280,61875,1,8,0:0:0:0:
98,280,61958,6,0,L|106:379,1,88.000002685547,6|0,3:2|0:0,0:0:0:0:
201,365,62287,2,0,L|193:277,1,88.000002685547,10|0,0:0|3:0,0:0:0:0:
151,192,62617,2,0,L|53:182,1,88.000002685547,2|0,3:2|0:0,0:0:0:0:
193,277,62947,2,0,L|291:267,1,88.000002685547,10|0,0:0|0:0,0:0:0:0:
375,249,63276,6,0,P|396:300|391:340,1,88.000002685547,2|0,3:2|0:0,0:0:0:0:
299,350,63606,2,0,P|278:299|283:259,1,88.000002685547,10|0,0:0|3:0,0:0:0:0:
375,249,63936,2,0,L|383:161,1,88.000002685547,2|0,3:2|0:0,0:0:0:0:
280,268,64265,2,0,L|193:277,1,88.000002685547,10|8,0:0|0:0,0:0:0:0:
152,302,64512,1,8,0:0:0:0:
152,302,64595,6,0,B|100:260|100:260|117:138,1,176.000005371094,6|8,3:2|0:0,0:0:0:0:
61,71,65089,1,8,0:2:0:0:
61,71,65172,1,8,0:0:0:0:
61,71,65254,2,0,P|103:55|163:69,1,88.000002685547,10|0,0:2|0:0,0:0:0:0:
204,137,65584,2,0,P|245:153|305:139,1,88.000002685547,8|0,0:0|0:0,0:0:0:0:
329,60,65914,5,4,3:2:0:0:
425,56,66078,1,8,0:0:0:0:
379,141,66243,2,0,L|387:234,1,88.000002685547,4|8,3:2|0:0,0:0:0:0:
465,293,66573,1,4,3:2:0:0:
465,293,66738,1,8,0:0:0:0:
411,374,66903,2,0,P|364:380|320:362,1,88.000002685547,4|8,3:2|0:0,0:0:0:0:
280,281,67232,6,0,P|233:275|189:293,1,88.000002685547,6|0,3:2|0:0,0:0:0:0:
133,364,67562,1,8,0:0:0:0:
59,317,67727,1,2,0:0:0:0:
59,317,67809,1,0,0:0:0:0:
59,317,67892,2,0,L|65:224,2,88.000002685547,2|0|8,3:2|0:0|0:0,0:0:0:0:
133,364,68386,1,2,0:0:0:0:
195,288,68551,6,0,P|242:282|286:300,1,88.000002685547,2|2,3:2|0:0,0:0:0:0:
329,379,68881,1,10,0:0:0:0:
420,349,69045,2,0,L|410:254,1,88.000002685547,2|0,0:0|3:0,0:0:0:0:
373,238,69293,1,8,0:0:0:0:
373,238,69375,2,0,P|365:190|384:149,1,88.000002685547,2|10,3:2|0:0,0:0:0:0:
476,168,69705,1,2,0:0:0:0:
433,80,69870,6,0,B|394:54|345:70|345:70|305:109|251:92,1,176.000005371094,6|8,3:2|0:0,0:0:0:0:
278,0,70364,1,2,0:0:0:0:
193,46,70529,2,0,P|185:136|253:185,1,176.000005371094,6|8,3:2|0:0,0:0:0:0:
341,161,71023,1,2,0:0:0:0:
412,226,71188,6,0,P|418:274|394:322,1,88.000002685547,6|2,3:2|0:0,0:0:0:0:
319,358,71518,1,10,0:0:0:0:
242,298,71683,1,2,0:0:0:0:
154,340,71848,2,0,L|149:395,2,44.0000013427735,0|8|0,3:0|0:0|3:0,0:0:0:0:
95,290,72177,1,10,0:0:0:0:
95,290,72260,1,8,0:0:0:0:
95,290,72342,1,8,0:0:0:0:
95,290,72425,1,8,0:0:0:0:
95,290,72507,6,0,L|87:202,1,88.000002685547,6|0,3:2|0:0,0:0:0:0:
168,157,72837,2,0,L|176:245,1,88.000002685547,10|0,0:0|3:0,0:0:0:0:
95,290,73166,2,0,L|7:282,1,88.000002685547,2|0,3:2|0:0,0:0:0:0:
178,341,73496,2,0,L|266:333,1,88.000002685547,10|0,0:0|0:0,0:0:0:0:
298,240,73826,6,0,P|341:243|378:266,1,88.000002685547,2|0,3:2|0:0,0:0:0:0:
346,359,74156,2,0,P|302:355|265:332,1,88.000002685547,10|0,0:0|3:0,0:0:0:0:
298,240,74485,2,0,L|290:152,1,88.000002685547,2|0,3:2|0:0,0:0:0:0:
266,333,74815,2,0,L|178:341,1,88.000002685547,10|8,0:0|0:0,0:0:0:0:
129,341,75062,1,8,0:0:0:0:
129,341,75144,6,0,P|75:271|121:180,1,176.000005371094,6|8,3:2|0:0,0:0:0:0:
204,220,75639,1,10,0:2:0:0:
204,220,75721,1,8,0:0:0:0:
204,220,75804,2,0,L|196:132,1,88.000002685547,10|0,0:2|0:0,0:0:0:0:
232,42,76133,2,0,P|284:33|339:50,1,88.000002685547,8|0,0:0|0:0,0:0:0:0:
370,122,76463,5,0,3:0:0:0:
460,87,76628,2,0,P|475:49|468:0,2,88.000002685547,10|2|10,0:0|0:0|0:0,0:0:0:0:
370,122,77122,1,2,3:2:0:0:
431,209,77287,1,8,0:0:0:0:
431,209,77370,1,8,0:0:0:0:
431,209,77452,2,0,L|445:267,3,44.0000013427735,10|8|8|8,0:0|0:0|0:0|0:0,0:0:0:0:
403,282,77782,6,0,B|366:251|323:266|323:266|286:302|232:289,1,176.000005371094,6|8,3:2|0:0,0:0:0:0:
165,226,78276,1,0,3:0:0:0:
165,226,78441,2,0,P|144:272|145:320,1,88.000002685547,0|0,3:2|0:2,0:0:0:0:
257,195,78771,2,0,L|245:104,1,88.000002685547,8|0,3:2|0:0,0:0:0:0:
181,34,79100,6,0,P|134:32|94:54,2,88.000002685547,2|0|8,1:2|0:0|0:0,0:0:0:0:
245,107,79595,2,0,B|304:130|304:130|431:104,1,176.000005371094,0|0,0:0|3:2,0:0:0:0:
509,123,80089,2,0,P|509:80|487:42,1,88.000002685547,8|0,0:0|0:0,0:0:0:0:
442,193,80419,6,0,B|462:314|462:314|419:363,1,176.000005371094,2|8,3:2|0:0,0:0:0:0:
360,290,80914,1,0,3:2:0:0:
360,290,81078,2,0,L|258:283,1,88.000002685547,0|0,3:2|0:2,0:0:0:0:
195,344,81408,2,0,P|179:296|188:242,1,88.000002685547,8|0,3:2|0:0,0:0:0:0:
255,194,81738,6,0,P|271:146|262:92,1,88.000002685547,2|0,1:2|0:0,0:0:0:0:
182,74,82067,1,8,0:2:0:0:
182,73,82232,2,0,L|363:59,1,176.000005371094,0|0,0:0|3:0,0:0:0:0:
461,112,82727,1,8,0:2:0:0:
461,112,82809,1,8,0:0:0:0:
461,112,82892,1,8,0:0:0:0:
461,112,82974,1,8,0:0:0:0:
461,112,83056,6,0,B|428:154|428:154|451:279,1,176.000005371094,6|10,3:2|0:0,0:0:0:0:
459,369,83551,1,0,3:0:0:0:
459,369,83633,1,0,3:0:0:0:
459,369,83716,2,0,B|412:375|378:344|378:344|341:315|292:325,1,176.000005371094,2|10,3:2|0:0,0:0:0:0:
106,371,84375,6,0,B|68:322|68:322|90:181,1,176.000005371094,2|10,3:2|0:0,0:0:0:0:
13,143,84870,1,0,3:0:0:0:
13,143,84952,1,0,3:0:0:0:
13,143,85034,2,0,P|101:113|169:164,1,176.000005371094,2|10,3:2|0:0,0:0:0:0:
212,251,85529,1,8,0:0:0:0:
212,251,85611,1,8,0:0:0:0:
212,251,85694,6,0,P|263:270|311:258,1,88.000002685547,6|0,3:2|0:0,0:0:0:0:
354,188,86023,1,8,0:0:0:0:
354,188,86188,1,2,3:2:0:0:
433,243,86353,2,0,P|450:286|441:332,2,88.000002685547,6|8|8,3:2|0:0|0:0,0:0:0:0:
354,188,86848,1,8,0:0:0:0:
447,146,87012,5,4,3:2:0:0:
