osu file format v14

[General]
AudioFilename: audio.mp3
AudioLeadIn: 0
PreviewTime: 56015
Countdown: 0
SampleSet: Soft
StackLeniency: 0.7
Mode: 0
LetterboxInBreaks: 0
WidescreenStoryboard: 0

[Editor]
DistanceSpacing: 0.6
BeatDivisor: 4
GridSize: 4
TimelineZoom: 1.8

[Metadata]
Title:Toki toshite Violence (TV Size)
TitleUnicode:時としてバイオレンス (TV Size)
Artist:halca
ArtistUnicode:halca
Creator:Yorita Yoshino
Version:Insane
Source:邪神ちゃんドロップキック’
Tags:anime japanese jashin-chan opening op -nanako- firika oiso apis035 -claris- dropkick on my devil!! dash pop jpop
BeatmapID:2515410
BeatmapSetID:1207987

[Difficulty]
HPDrainRate:7
CircleSize:4
OverallDifficulty:8.3
ApproachRate:9
SliderMultiplier:1.6
SliderTickRate:1

[Events]
//Background and Video events
0,0,"bg.jpg",0,0
//Break Periods
//Storyboard Layer 0 (Background)
//Storyboard Layer 1 (Fail)
//Storyboard Layer 2 (Pass)
//Storyboard Layer 3 (Foreground)
//Storyboard Layer 4 (Overlay)
//Storyboard Sound Samples

[TimingPoints]
-20,329.67032967033,4,2,1,60,1,0
804,-133.333333333333,4,2,2,60,0,0
10529,-133.333333333333,4,2,1,60,0,0
11848,-83.3333333333333,4,2,1,75,0,0
21078,-66.6666666666667,4,2,1,60,0,0
22397,-100,4,2,1,60,0,0
22562,-125,4,2,2,60,0,0
32617,-100,4,2,1,60,0,0
32947,-100,4,2,1,75,0,0
56353,-50,4,2,1,60,0,0
56683,-66.6666666666667,4,2,1,80,0,1
61298,-66.6666666666667,4,2,1,80,0,1
61628,-66.6666666666667,4,2,1,80,0,1
69870,-50,4,2,1,80,0,1
72177,-66.6666666666667,4,2,1,80,0,1
76463,-66.6666666666667,4,2,1,80,0,0
77782,-66.6666666666667,4,2,1,80,0,1
87012,-66.6666666666667,4,2,1,60,0,0
87177,-100,4,2,1,60,0,0

[Colours]
Combo1 : 192,192,192
Combo2 : 217,51,84
Combo3 : 152,203,255
Combo4 : 255,255,89

[HitObjects]
73,114,804,21,2,0:0:0:0:
147,139,969,1,2,0:0:0:0:
132,63,1133,1,2,0:0:0:0:
73,114,1298,6,0,B|58:156|58:156|71:237,1,120.000004577637,2|0,0:0|0:0,0:0:0:0:
88,306,1793,1,2,0:0:0:0:
44,371,1958,2,0,P|92:337|151:340,1,120.000004577637,2|0,0:0|0:0,0:0:0:0:
221,375,2452,1,2,0:0:0:0:
295,352,2617,5,2,0:0:0:0:
236,300,2782,1,2,0:0:0:0:
221,375,2947,1,2,0:0:0:0:
295,352,3111,2,0,L|428:367,2,120.000004577637,2|2|2,0:0|0:0|0:0,0:0:0:0:
124,319,3936,6,0,P|182:326|235:299,1,120.000004577637,2|0,0:0|0:0,0:0:0:0:
256,224,4430,1,2,0:0:0:0:
202,167,4595,2,0,B|190:126|190:126|203:41,1,120.000004577637,2|0,0:0|0:0,0:0:0:0:
268,9,5089,1,2,0:0:0:0:
338,41,5254,5,2,0:0:0:0:
276,86,5419,1,2,0:0:0:0:
268,9,5584,1,2,0:0:0:0:
338,41,5749,2,0,P|410:36|452:81,1,120.000004577637,2|0,0:0|0:0,0:0:0:0:
403,131,6243,2,0,P|384:163|391:211,1,60.0000022888184,2|0,0:0|0:0,0:0:0:0:
466,187,6573,6,0,L|472:267,1,60.0000022888184,2|0,0:0|0:0,0:0:0:0:
409,295,6903,2,0,L|404:354,1,60.0000022888184,2|0,0:0|0:0,0:0:0:0:
355,174,7232,2,0,L|361:254,1,60.0000022888184,2|0,0:0|0:0,0:0:0:0:
298,308,7562,2,0,L|293:367,1,60.0000022888184,2|0,0:0|0:0,0:0:0:0:
251,144,7892,6,0,P|207:138|180:153,1,60.0000022888184,2|0,0:0|0:0,0:0:0:0:
50,213,8221,2,0,P|94:219|121:204,1,60.0000022888184,2|0,0:0|0:0,0:0:0:0:
118,77,8551,2,0,P|112:121|127:148,1,60.0000022888184,2|0,0:0|0:0,0:0:0:0:
187,278,8881,2,0,P|193:234|178:207,1,60.0000022888184,2|0,0:0|0:0,0:0:0:0:
12,294,9210,6,0,P|67:289|122:327,1,120.000004577637,2|0,0:0|0:0,0:0:0:0:
51,371,9705,1,2,0:0:0:0:
12,294,9870,1,2,0:0:0:0:
74,234,10034,1,0,0:0:0:0:
151,274,10199,1,0,0:0:0:0:
136,358,10529,5,0,0:0:0:0:
136,358,11518,1,2,0:0:0:0:
116,346,11600,1,0,0:0:0:0:
94,343,11683,1,0,0:0:0:0:
72,348,11765,1,0,0:0:0:0:
54,362,11848,5,6,3:2:0:0:
160,269,12012,2,0,L|151:162,1,95.9999970703126,0|8,0:0|0:0,0:0:0:0:
48,138,12342,1,2,0:0:0:0:
150,32,12507,1,2,3:2:0:0:
255,136,12672,2,0,L|246:243,1,95.9999970703126,0|8,0:0|0:0,0:0:0:0:
143,267,13001,1,2,0:0:0:0:
245,373,13166,5,2,3:2:0:0:
377,308,13331,1,2,0:0:0:0:
356,162,13496,1,10,0:0:0:0:
211,137,13661,2,0,B|160:169|119:140|119:140|78:110|12:147,1,191.999994140625,2|0,0:0|0:0,0:0:0:0:
307,276,14155,1,10,0:0:0:0:
305,252,14238,1,0,0:0:0:0:
303,228,14320,1,0,0:0:0:0:
301,204,14403,1,0,0:0:0:0:
299,180,14485,5,2,3:2:0:0:
349,343,14650,2,0,P|400:361|431:313,1,95.9999970703126,0|8,0:0|0:0,0:0:0:0:
382,271,14980,1,2,0:0:0:0:
256,375,15144,5,2,3:2:0:0:
163,208,15309,2,0,P|204:188|241:214,1,95.9999970703126,0|8,0:0|0:0,0:0:0:0:
196,281,15639,1,2,0:0:0:0:
70,176,15804,1,2,3:2:0:0:
111,336,15969,1,2,0:0:0:0:
171,182,16133,1,10,0:0:0:0:
33,271,16298,6,0,L|43:54,1,191.999994140625,2|0,0:0|0:0,0:0:0:0:
196,78,16793,1,10,0:0:0:0:
167,87,16875,1,0,0:0:0:0:
148,62,16958,1,0,0:0:0:0:
166,37,17040,1,0,0:0:0:0:
196,46,17122,6,0,P|247:51|286:25,1,95.9999970703126,6|0,3:2|0:0,0:0:0:0:
460,97,17452,2,0,P|409:102|370:76,1,95.9999970703126,10|0,0:0|0:0,0:0:0:0:
246,218,17782,2,0,P|260:155|250:110,1,95.9999970703126,2|0,3:2|0:0,0:0:0:0:
370,271,18111,2,0,P|356:208|366:163,1,95.9999970703126,10|0,0:0|0:0,0:0:0:0:
452,323,18441,5,2,3:2:0:0:
318,353,18606,1,0,0:0:0:0:
288,219,18771,1,10,0:0:0:0:
422,189,18936,1,0,0:0:0:0:
318,353,19100,2,0,L|198:340,2,95.9999970703126,2|0|10,3:2|0:0|0:0,0:0:0:0:
164,253,19595,1,8,0:0:0:0:
164,253,19677,1,8,0:0:0:0:
164,253,19760,5,6,3:2:0:0:
73,322,19925,1,0,0:0:0:0:
63,213,20089,1,8,0:0:0:0:
189,248,20254,1,0,0:0:0:0:
193,252,20337,1,0,0:0:0:0:
197,256,20419,5,2,3:2:0:0:
48,192,20584,1,0,0:0:0:0:
61,344,20749,2,0,P|82:317|74:239,1,95.9999970703126,8|0,0:0|0:0,0:0:0:0:
75,73,21078,6,0,P|65:150|151:117,1,180.000006866455,10|0,3:2|0:0,0:0:0:0:
227,95,21408,6,0,B|253:144|226:192|226:192|272:156|320:180,1,180.000006866455,10|0,0:0|0:0,0:0:0:0:
345,73,21738,5,10,3:2:0:0:
398,218,21903,1,10,3:2:0:0:
444,119,22067,5,10,0:0:0:0:
299,172,22232,1,10,0:0:0:0:
299,172,22562,5,2,0:0:0:0:
369,235,22727,2,0,L|450:218,1,64,2|0,0:0|0:0,0:0:0:0:
491,290,23056,1,2,0:0:0:0:
421,353,23221,2,0,L|340:336,1,64,2|0,0:0|0:0,0:0:0:0:
265,255,23551,6,0,P|283:304|232:359,1,128,2|2,0:0|0:0,0:0:0:0:
157,328,24045,1,2,0:0:0:0:
71,364,24210,1,2,0:0:0:0:
5,301,24375,2,0,L|11:232,1,64,2|0,0:0|0:0,0:0:0:0:
44,141,24705,1,2,0:0:0:0:
110,204,24870,2,0,L|104:273,1,64,2|0,0:0|0:0,0:0:0:0:
44,141,25199,5,2,0:0:0:0:
147,64,25364,2,0,L|219:76,1,64,2|0,0:0|0:0,0:0:0:0:
280,133,25694,2,0,L|352:121,1,64,2|0,0:0|0:0,0:0:0:0:
399,50,26023,2,0,L|471:62,1,64,2|2,0:0|0:0,0:0:0:0:
482,148,26353,5,2,0:0:0:0:
394,168,26518,1,2,0:0:0:0:
374,80,26683,1,2,0:0:0:0:
462,60,26848,1,2,0:0:0:0:
462,60,27012,5,2,0:0:0:0:
373,52,27177,1,0,1:0:0:0:
337,134,27342,1,0,1:0:0:0:
405,194,27507,1,0,0:0:0:0:
482,148,27672,1,0,0:0:0:0:
405,194,27837,5,2,0:0:0:0:
463,257,28001,2,0,P|473:303|466:341,1,64,2|0,0:0|0:0,0:0:0:0:
266,372,28331,1,2,0:0:0:0:
324,309,28496,2,0,P|334:263|327:225,1,64,2|0,0:0|0:0,0:0:0:0:
389,70,28826,6,0,P|384:134|405:194,1,128,2|2,0:0|0:0,0:0:0:0:
489,222,29320,1,2,0:0:0:0:
404,193,29485,1,2,0:0:0:0:
470,115,29650,2,0,P|480:74|471:33,1,64,2|0,0:0|0:0,0:0:0:0:
382,6,29980,2,0,P|392:47|383:88,1,64,2|2,0:0|0:0,0:0:0:0:
312,133,30309,6,0,L|177:120,1,128,2|2,0:0|0:0,0:0:0:0:
114,1,30804,2,0,P|110:40|125:71,1,64,2|0,0:0|0:0,0:0:0:0:
51,184,31133,2,0,P|86:167|106:139,1,64,2|0,0:0|0:0,0:0:0:0:
60,278,31463,6,0,P|122:276|169:317,1,128,2|2,0:0|0:0,0:0:0:0:
283,324,31958,2,0,P|248:270|259:215,1,96,2|0,0:0|0:0,0:0:0:0:
263,209,32287,1,2,0:0:0:0:
385,130,32452,1,0,3:0:0:0:
437,319,32617,6,0,L|428:176,1,120,8|0,0:0|0:0,0:0:0:0:
463,120,32947,6,0,P|458:159|434:190,1,80,4|2,3:2|0:0,0:0:0:0:
311,13,33276,2,0,L|228:22,1,80,10|0,0:0|0:0,0:0:0:0:
263,167,33606,1,2,3:2:0:0:
368,93,33771,1,2,0:0:0:0:
222,34,33936,1,8,0:0:0:0:
85,115,34100,6,0,B|74:186|74:186|85:203|85:203|76:270,1,160,2|2,0:0|0:0,0:0:0:0:
78,352,34595,1,10,0:0:0:0:
160,169,34760,1,2,0:0:0:0:
6,221,34925,1,2,3:2:0:0:
6,221,35089,1,0,3:0:0:0:
189,300,35254,2,0,P|233:277|273:288,1,80,10|2,0:0|0:0,0:0:0:0:
348,312,35584,6,0,L|340:229,1,80,0|2,3:0|0:0,0:0:0:0:
458,139,35914,2,0,L|450:222,1,80,10|0,0:0|0:0,0:0:0:0:
344,125,36243,1,2,3:2:0:0:
472,25,36408,1,2,0:0:0:0:
358,11,36573,1,10,0:0:0:0:
458,139,36738,1,2,0:0:0:0:
357,10,36903,6,0,P|318:8|280:26,1,80,0|2,3:0|0:0,0:0:0:0:
197,122,37232,2,0,P|157:124|119:106,1,80,10|2,0:0|0:0,0:0:0:0:
174,31,37562,1,2,3:2:0:0:
226,207,37727,1,8,0:0:0:0:
329,110,37892,2,0,L|322:189,1,80,8|0,0:0|0:0,0:0:0:0:
396,322,38221,6,0,P|404:283|395:244,1,80,0|2,3:0|0:0,0:0:0:0:
243,240,38551,2,0,P|234:278|243:317,1,80,10|0,0:0|0:0,0:0:0:0:
320,278,38881,1,2,3:2:0:0:
167,202,39045,1,2,0:0:0:0:
320,278,39210,1,8,0:0:0:0:
169,354,39375,6,0,P|93:366|41:309,1,160,2|2,0:0|0:0,0:0:0:0:
93,151,39870,2,0,P|106:188|97:226,1,80,10|2,0:0|0:0,0:0:0:0:
21,192,40199,1,2,3:2:0:0:
21,192,40364,1,0,3:0:0:0:
171,31,40529,2,0,L|169:121,1,80,10|2,0:0|0:0,0:0:0:0:
273,334,40859,5,10,0:0:0:0:
266,144,41023,1,8,0:0:0:0:
172,239,41518,5,10,0:0:0:0:
362,232,41683,1,10,0:0:0:0:
286,16,42012,6,0,L|209:35,2,80,4|2|0,3:2|3:2|3:0,0:0:0:0:
364,55,42507,2,0,L|347:211,1,120,10|0,0:0|0:0,0:0:0:0:
364,204,42837,5,2,3:2:0:0:
391,340,43001,1,8,0:0:0:0:
416,361,43084,1,8,0:0:0:0:
449,365,43166,1,8,0:0:0:0:
284,316,43331,1,8,0:0:0:0:
254,327,43414,1,8,0:0:0:0:
234,354,43496,6,0,P|236:285|217:269,1,80,6|0,3:2|0:0,0:0:0:0:
111,309,43826,2,0,P|147:250|138:226,1,80,2|2,3:2|0:0,0:0:0:0:
15,194,44155,2,0,P|92:179|140:118,1,160,2|2,3:2|3:2,0:0:0:0:
256,50,44650,6,0,B|295:28|332:61|332:61|366:87|410:62,1,160,2|2,0:0|0:0,0:0:0:0:
476,6,45144,1,2,3:2:0:0:
404,64,45309,1,2,0:0:0:0:
392,151,45474,1,8,3:0:0:0:
392,151,45639,1,8,0:3:0:0:
449,217,45804,2,0,P|456:280|434:315,1,80,2|2,3:2|0:0,0:0:0:0:
312,344,46133,6,0,L|410:355,1,80,2|0,3:2|0:0,0:0:0:0:
225,271,46463,2,0,L|323:260,1,80,2|2,3:2|0:0,0:0:0:0:
8,315,46793,2,0,L|166:336,1,160,2|2,3:2|3:2,0:0:0:0:
225,271,47287,5,2,0:0:0:0:
183,194,47452,1,2,3:2:0:0:
183,194,47617,1,0,0:0:0:0:
96,210,47782,1,2,3:2:0:0:
85,298,47947,1,2,0:0:0:0:
166,336,48111,2,0,P|191:303|233:300,1,80,8|8,3:0|0:0,0:0:0:0:
362,274,48441,2,0,P|337:241|295:238,1,80,2|2,3:2|3:2,0:0:0:0:
452,384,48771,6,0,B|439:342|439:342|451:308,1,80,6|0,3:2|0:0,0:0:0:0:
361,197,49100,2,0,B|374:231|374:231|361:273,1,80,2|2,3:2|0:0,0:0:0:0:
451,162,49430,2,0,B|425:78|425:78|450:10,1,160,10|10,0:0|0:0,0:0:0:0:
512,86,49925,5,10,0:0:0:0:
388,188,50089,1,2,3:2:0:0:
388,188,50254,1,2,0:0:0:0:
363,29,50419,1,10,0:0:0:0:
479,173,50584,1,2,3:2:0:0:
329,115,50749,1,8,3:0:0:0:
450,10,50914,1,8,3:0:0:0:
329,115,51078,2,0,P|254:109|230:61,1,120,10|0,0:0|0:0,0:0:0:0:
236,48,51408,6,0,B|173:82|173:82|66:58,1,160,6|8,3:2|0:0,0:0:0:0:
86,62,52067,2,0,P|94:121|72:156,1,80,2|0,3:2|0:0,0:0:0:0:
0,262,52397,2,0,P|-8:203|14:168,1,80,8|0,0:0|0:0,0:0:0:0:
104,332,52727,6,0,P|155:303|228:365,1,160,2|10,3:2|0:0,0:0:0:0:
226,358,53386,1,2,3:2:0:0:
380,310,53551,1,8,0:0:0:0:
376,295,53633,1,8,0:0:0:0:
372,280,53716,1,8,0:0:0:0:
270,193,53881,1,8,0:0:0:0:
274,178,53963,1,8,0:0:0:0:
278,163,54045,1,2,3:2:0:0:
357,92,54210,5,8,0:0:0:0:
372,280,54375,1,8,0:0:0:0:
270,193,54705,5,2,3:2:0:0:
270,193,54870,1,8,0:0:0:0:
458,178,55034,1,8,0:0:0:0:
356,93,55364,5,10,0:0:0:0:
380,257,55529,1,8,0:0:0:0:
231,330,55694,1,8,0:0:0:0:
115,211,55859,1,8,0:0:0:0:
193,64,56023,2,0,L|200:156,1,80,0|2,3:0|3:2,0:0:0:0:
193,64,56353,6,0,P|129:13|182:74,1,240,14|0,0:0|0:0,0:0:0:0:
318,103,56683,6,0,B|356:97|356:97|399:115|399:115|452:112,1,120.000004577637,6|0,3:2|0:0,0:0:0:0:
301,18,57012,1,8,0:0:0:0:
331,189,57177,1,2,0:0:0:0:
158,126,57342,2,0,P|147:57|191:15,2,120.000004577637,2|0|8,3:2|0:0|0:0,0:0:0:0:
220,240,57837,1,2,0:0:0:0:
27,319,58001,6,0,P|82:287|136:327,1,120.000004577637,2|2,3:2|0:0,0:0:0:0:
222,357,58331,2,0,P|269:388|322:365,1,120.000004577637,10|2,0:0|0:0,0:0:0:0:
279,283,58661,1,0,3:0:0:0:
279,283,58743,1,8,0:0:0:0:
279,283,58826,1,2,3:2:0:0:
388,196,58990,2,0,L|372:63,1,120.000004577637,8|2,0:0|0:0,0:0:0:0:
482,304,59320,6,0,B|431:268|431:268|376:291,1,120.000004577637,2|0,3:2|0:0,0:0:0:0:
418,363,59650,1,8,0:0:0:0:
439,184,59815,1,2,0:0:0:0:
279,254,59980,2,0,L|287:382,2,120.000004577637,2|0|8,3:2|0:0|0:0,0:0:0:0:
189,154,60474,1,2,0:0:0:0:
24,253,60639,6,0,P|92:268|124:230,1,120.000004577637,2|2,3:2|0:0,0:0:0:0:
151,78,60969,2,0,P|219:63|251:101,1,120.000004577637,10|2,0:0|0:0,0:0:0:0:
58,172,61298,1,0,3:2:0:0:
58,172,61381,1,8,0:0:0:0:
58,172,61463,1,2,3:2:0:0:
349,211,61628,1,10,0:0:0:0:
347,181,61710,1,8,0:0:0:0:
345,151,61793,1,8,0:0:0:0:
344,121,61875,1,8,0:0:0:0:
342,91,61958,6,0,B|373:103|373:103|466:78,1,120.000004577637,6|0,3:2|0:0,0:0:0:0:
378,185,62287,6,0,B|398:211|398:211|491:236,1,120.000004577637,10|0,0:0|3:0,0:0:0:0:
359,284,62534,5,0,3:0:0:0:
359,284,62617,2,0,B|363:317|363:317|431:385,1,120.000004577637,2|0,3:2|0:0,0:0:0:0:
305,382,62947,6,0,B|256:349|256:349|204:387,1,120.000004577637,10|0,0:0|0:0,0:0:0:0:
68,367,63276,6,0,L|159:277,1,120.000004577637,2|0,3:2|0:0,0:0:0:0:
134,185,63606,6,0,L|17:214,1,120.000004577637,10|0,0:0|3:0,0:0:0:0:
55,56,63853,5,0,3:0:0:0:
55,56,63936,2,0,B|183:94|183:94,1,120.000004577637,2|0,3:2|0:0,0:0:0:0:
306,9,64265,6,0,P|258:39|212:6,1,120.000004577637,10|8,0:0|0:0,0:0:0:0:
338,122,64512,1,8,0:0:0:0:
338,122,64595,5,6,3:2:0:0:
326,274,64760,1,0,0:0:0:0:
174,262,64925,1,8,0:0:0:0:
186,110,65089,1,8,0:2:0:0:
196,99,65172,1,8,0:0:0:0:
206,88,65254,5,10,0:2:0:0:
306,296,65419,1,0,0:0:0:0:
152,242,65584,1,8,0:0:0:0:
360,142,65749,1,0,0:0:0:0:
152,242,65914,6,0,L|55:260,1,60.0000022888184,4|0,3:2|0:0,0:0:0:0:
170,168,66078,1,8,0:0:0:0:
226,260,66243,6,0,L|244:357,1,60.0000022888184,4|0,3:2|0:0,0:0:0:0:
152,242,66408,1,8,0:0:0:0:
244,186,66573,6,0,L|341:168,1,60.0000022888184,4|0,3:2|0:0,0:0:0:0:
226,260,66738,1,8,0:0:0:0:
170,168,66903,6,0,L|152:71,1,60.0000022888184,4|0,3:2|0:0,0:0:0:0:
244,186,67067,1,8,0:0:0:0:
410,103,67232,6,0,B|350:117|350:117|274:90,1,120.000004577637,6|0,3:2|0:0,0:0:0:0:
352,24,67562,1,8,0:0:0:0:
289,194,67727,1,2,0:0:0:0:
470,155,67892,2,0,L|453:33,2,120.000004577637,2|0|8,3:2|0:0|0:0,0:0:0:0:
359,242,68386,1,2,0:0:0:0:
485,362,68551,6,0,P|502:320|459:262,1,120.000004577637,2|2,3:2|0:0,0:0:0:0:
359,242,68881,2,0,P|342:200|385:142,1,120.000004577637,10|2,0:0|0:0,0:0:0:0:
397,339,69210,1,0,3:0:0:0:
397,339,69293,1,8,0:0:0:0:
397,339,69375,1,2,3:2:0:0:
284,384,69540,2,0,L|164:372,1,120.000004577637,10|2,0:0|0:0,0:0:0:0:
68,278,69870,38,0,B|13:155|86:47|86:47|201:129|185:258,1,480,6|2,3:2|0:0,0:0:0:0:
440,354,70529,22,0,P|507:232|328:318,1,480,6|2,3:2|0:0,0:0:0:0:
77,58,71188,6,0,P|56:150|103:213,1,160,6|2,3:2|0:0,0:0:0:0:
240,193,71518,2,0,P|261:101|214:38,1,160,10|2,0:0|0:0,0:0:0:0:
157,128,71848,1,0,3:0:0:0:
157,128,71930,1,8,0:0:0:0:
157,128,72012,1,0,3:0:0:0:
82,244,72177,1,10,0:0:0:0:
111,239,72260,1,8,0:0:0:0:
141,234,72342,1,8,0:0:0:0:
170,229,72425,1,8,0:0:0:0:
200,224,72507,6,0,B|217:252|217:252|208:344,1,120.000004577637,6|0,3:2|0:0,0:0:0:0:
317,163,72837,6,0,B|300:135|300:135|309:43,1,120.000004577637,10|0,0:0|3:0,0:0:0:0:
224,133,73084,5,0,3:0:0:0:
224,133,73166,2,0,B|196:150|196:150|104:141,1,120.000004577637,2|0,3:2|0:0,0:0:0:0:
285,250,73496,6,0,B|313:233|313:233|405:242,1,120.000004577637,10|0,0:0|0:0,0:0:0:0:
208,338,73826,6,0,P|141:308|151:260,1,120.000004577637,2|0,3:2|0:0,0:0:0:0:
110,144,74155,6,0,P|139:77|187:87,1,120.000004577637,10|0,0:0|3:0,0:0:0:0:
304,45,74403,5,0,3:0:0:0:
304,45,74485,2,0,P|370:74|360:122,1,120.000004577637,2|0,3:2|0:0,0:0:0:0:
403,240,74815,6,0,P|373:306|325:296,1,120.000004577637,10|8,0:0|0:0,0:0:0:0:
177,192,75062,1,8,0:0:0:0:
177,192,75144,5,6,3:2:0:0:
256,50,75309,1,0,0:0:0:0:
335,192,75474,1,8,0:0:0:0:
256,334,75639,1,10,0:2:0:0:
256,303,75721,1,8,0:0:0:0:
256,271,75804,5,10,0:2:0:0:
398,192,75969,1,0,0:0:0:0:
256,113,76133,1,8,0:0:0:0:
114,192,76298,1,0,0:0:0:0:
256,271,76463,5,0,3:0:0:0:
212,192,76628,1,10,0:0:0:0:
256,113,76793,1,2,0:0:0:0:
299,192,76958,1,10,0:0:0:0:
256,271,77122,1,2,3:2:0:0:
322,43,77287,5,8,0:0:0:0:
309,69,77370,1,8,0:0:0:0:
285,88,77452,1,10,0:0:0:0:
256,94,77534,1,8,0:0:0:0:
227,88,77617,1,8,0:0:0:0:
204,69,77699,1,8,0:0:0:0:
191,42,77782,6,0,P|84:56|146:176,1,240.000009155274,6|8,3:2|0:0,0:0:0:0:
168,161,78276,5,0,3:0:0:0:
147,151,78359,1,0,3:0:0:0:
124,151,78441,1,0,3:2:0:0:
0,244,78606,5,0,3:2:0:0:
30,263,78688,1,0,3:2:0:0:
64,251,78771,1,8,3:2:0:0:
164,347,78936,5,0,3:0:0:0:
179,301,79018,1,0,3:0:0:0:
163,256,79100,2,0,P|230:290|272:269,1,120.000004577637,2|0,1:2|0:0,0:0:0:0:
374,244,79430,2,0,L|356:400,1,120.000004577637,8|0,0:0|0:0,0:0:0:0:
484,234,79760,1,0,1:2:0:0:
480,204,79842,1,0,1:0:0:0:
477,174,79925,1,0,1:2:0:0:
473,144,80007,1,0,1:0:0:0:
470,114,80089,1,8,0:0:0:0:
316,50,80254,1,0,0:0:0:0:
470,114,80419,6,0,P|409:226|374:178,1,240.000009155274,2|8,3:2|0:0,0:0:0:0:
316,50,80914,5,0,3:2:0:0:
313,74,80996,1,0,3:2:0:0:
311,97,81078,1,0,3:2:0:0:
202,229,81243,5,0,3:2:0:0:
199,194,81326,1,0,3:2:0:0:
195,158,81408,1,8,3:2:0:0:
91,27,81573,5,0,3:0:0:0:
85,75,81655,1,0,3:0:0:0:
81,121,81738,2,0,L|93:252,1,120.000004577637,2|0,1:2|0:0,0:0:0:0:
37,353,82067,2,0,P|105:331|153:369,1,120.000004577637,8|0,0:2|0:0,0:0:0:0:
369,224,82397,5,0,1:2:0:0:
366,245,82480,1,0,3:0:0:0:
363,266,82562,1,0,3:0:0:0:
361,289,82644,1,0,3:0:0:0:
358,312,82727,5,8,0:2:0:0:
366,340,82809,1,8,0:0:0:0:
388,359,82891,1,8,0:0:0:0:
418,363,82974,1,8,0:0:0:0:
445,351,83056,2,0,L|454:231,1,120.000004577637,6|0,3:2|0:0,0:0:0:0:
172,201,83386,6,0,L|181:82,1,120.000004577637,10|0,0:0|3:0,0:0:0:0:
58,231,83633,5,0,3:0:0:0:
58,231,83716,2,0,L|67:351,1,120.000004577637,2|0,3:2|0:0,0:0:0:0:
339,201,84045,6,0,L|331:82,1,120.000004577637,10|0,0:0|0:0,0:0:0:0:
114,334,84375,6,0,L|258:324,1,120.000004577637,2|0,3:2|0:0,0:0:0:0:
201,139,84705,6,0,L|82:148,1,120.000004577637,10|0,0:0|3:0,0:0:0:0:
317,238,84952,5,0,3:0:0:0:
317,238,85034,2,0,L|437:247,1,120.000004577637,2|0,3:2|0:0,0:0:0:0:
468,60,85364,6,0,L|349:52,1,120.000004577637,10|8,0:0|0:0,0:0:0:0:
337,61,85611,1,8,0:0:0:0:
326,70,85694,5,6,3:2:0:0:
217,248,85859,1,0,0:0:0:0:
410,169,86023,1,8,0:0:0:0:
208,120,86188,1,2,3:2:0:0:
343,279,86353,1,6,3:2:0:0:
217,248,86518,5,8,0:0:0:0:
206,283,86600,1,8,0:0:0:0:
214,318,86683,1,8,0:0:0:0:
208,120,86848,5,8,0:0:0:0:
160,121,86930,1,8,0:0:0:0:
123,151,87012,1,4,3:2:0:0:
