osu file format v14

[General]
AudioFilename: audio.mp3
AudioLeadIn: 0
PreviewTime: 56015
Countdown: 0
SampleSet: Soft
StackLeniency: 0.7
Mode: 0
LetterboxInBreaks: 0
WidescreenStoryboard: 1

[Editor]
DistanceSpacing: 1.5
BeatDivisor: 4
GridSize: 8
TimelineZoom: 1.8

[Metadata]
Title:Toki toshite Violence (TV Size)
TitleUnicode:時としてバイオレンス (TV Size)
Artist:halca
ArtistUnicode:halca
Creator:Yorita Yoshino
Version:Firika's Extra
Source:邪神ちゃんドロップキック’
Tags:anime japanese jashin-chan opening op -nanako- firika oiso apis035 -claris- dropkick on my devil!! dash pop jpop
BeatmapID:2581703
BeatmapSetID:1207987

[Difficulty]
HPDrainRate:6
CircleSize:3.8
OverallDifficulty:9
ApproachRate:9.2
SliderMultiplier:1.6
SliderTickRate:1

[Events]
//Background and Video events
0,0,"bg.jpg",0,0
//Break Periods
//Storyboard Layer 0 (Background)
//Storyboard Layer 1 (Fail)
//Storyboard Layer 2 (Pass)
//Storyboard Layer 3 (Foreground)
//Storyboard Layer 4 (Overlay)
//Storyboard Sound Samples

[TimingPoints]
-20,329.67032967033,4,2,1,40,1,0
804,-133.333333333333,4,2,2,40,0,0
1298,-133.333333333333,4,2,2,50,0,0
11518,-133.333333333333,4,2,1,50,0,0
11683,-100,4,2,1,50,0,0
11848,-100,4,2,1,70,0,0
21078,-66.6666666666667,4,2,1,50,0,0
22397,-100,4,2,1,50,0,0
22562,-125,4,2,2,50,0,0
32617,-83.3333333333333,4,2,1,50,0,0
32947,-100,4,2,1,70,0,0
43496,-100,4,2,1,50,0,0
46133,-100,4,2,1,55,0,0
48771,-100,4,2,1,60,0,0
51408,-100,4,2,1,70,0,0
56023,-66.6666666666667,4,2,1,60,0,0
56271,-66.6666666666667,4,2,1,20,0,0
56353,-50,4,2,1,70,0,0
56683,-66.6666666666667,4,2,1,80,0,1
67150,-66.6666666666667,4,2,1,80,0,0
67232,-66.6666666666667,4,2,1,80,0,1
69787,-66.6666666666667,4,2,1,80,0,0
69870,-50,4,2,1,80,0,1
70447,-50,4,2,1,80,0,0
70529,-50,4,2,1,80,0,1
71106,-50,4,2,1,80,0,0
71188,-50,4,2,1,80,0,1
72177,-66.6666666666667,4,2,1,80,0,1
77699,-66.6666666666667,4,2,1,80,0,0
77782,-66.6666666666667,4,2,1,80,0,1
87012,-66.6666666666667,4,2,1,80,0,0
87095,-66.6666666666667,4,2,1,40,0,0

[Colours]
Combo1 : 136,247,247
Combo2 : 197,58,62
Combo3 : 234,234,21
Combo4 : 210,108,111
Combo5 : 250,250,133
Combo6 : 116,159,203

[HitObjects]
407,183,804,69,2,0:0:0:0:
459,84,969,1,2,0:0:0:0:
481,204,1133,1,2,0:0:0:0:
385,63,1298,54,0,P|344:106|267:110,1,120.000004577637,2|0,0:0|0:0,0:0:0:0:
202,82,1793,1,2,0:0:0:0:
70,219,1958,6,0,P|110:177|168:167,1,120.000004577637,2|0,0:0|0:0,0:0:0:0:
254,199,2452,1,2,0:0:0:0:
172,320,2617,6,0,L|112:315,2,60.0000022888184,2|2|2,0:0|0:0|0:0,0:0:0:0:
255,287,3111,2,0,L|314:293,1,60.0000022888184,2|0,0:0|0:0,0:0:0:0:
455,350,3441,2,0,P|450:292|400:265,1,120.000004577637,2|2,0:0|0:0,0:0:0:0:
255,287,3936,54,0,L|268:168,1,120.000004577637,2|0,0:0|0:0,0:0:0:0:
279,79,4430,1,2,0:0:0:0:
91,39,4595,6,0,L|104:159,1,120.000004577637,2|0,0:0|0:0,0:0:0:0:
115,247,5089,1,2,0:0:0:0:
254,288,5254,22,0,P|284:291|309:307,2,60.0000022888184,2|2|2,0:0|0:0|0:0,0:0:0:0:
176,332,5749,2,0,P|151:349|121:352,1,60.0000022888184,2|0,0:0|0:0,0:0:0:0:
58,237,6078,1,0,0:0:0:0:
58,237,6243,2,0,P|85:249|115:247,1,60.0000022888184,2|0,0:0|0:0,0:0:0:0:
238,167,6573,38,0,L|229:108,1,60.0000022888184,2|0,0:0|0:0,0:0:0:0:
104,44,6903,2,0,L|95:104,1,60.0000022888184,2|0,0:0|0:0,0:0:0:0:
254,178,7232,6,0,L|245:119,1,60.0000022888184,2|0,0:0|0:0,0:0:0:0:
344,75,7562,2,0,L|336:15,1,60.0000022888184,2|0,0:0|0:0,0:0:0:0:
419,160,7892,6,0,L|478:169,1,60.0000022888184,2|0,0:0|0:0,0:0:0:0:
324,269,8221,2,0,L|264:261,1,60.0000022888184,2|0,0:0|0:0,0:0:0:0:
431,151,8551,6,0,L|490:160,1,60.0000022888184,2|0,0:0|0:0,0:0:0:0:
332,329,8881,2,0,L|323:270,1,60.0000022888184,2|0,0:0|0:0,0:0:0:0:
232,100,9210,38,0,B|183:95|183:95|184:101|184:101|120:94,1,120.000004577637,2|0,0:0|0:0,0:0:0:0:
63,162,9705,1,0,0:0:0:0:
156,250,9870,21,2,0:0:0:0:
213,182,10034,1,2,0:0:0:0:
256,288,10199,1,2,0:0:0:0:
299,182,10364,1,2,0:0:0:0:
356,250,10528,1,2,0:0:0:0:
356,250,11518,5,2,0:0:0:0:
376,256,11600,1,2,0:0:0:0:
396,262,11683,2,0,L|385:197,1,40,2|2,0:0|0:0,0:0:0:0:
366,82,11848,5,6,3:2:0:0:
469,324,12012,2,0,P|491:291|491:252,1,80,2|8,0:0|0:0,0:0:0:0:
363,63,12342,5,2,0:0:0:0:
209,249,12507,1,2,3:2:0:0:
469,324,12672,2,0,P|491:291|491:252,1,80,2|8,0:0|0:0,0:0:0:0:
360,44,13001,37,2,0:0:0:0:
225,261,13166,5,2,3:2:0:0:
260,15,13331,1,2,0:0:0:0:
325,290,13496,1,10,0:0:0:0:
161,44,13661,70,0,B|177:124|115:107|134:197,1,160,2|0,0:0|0:0,0:0:0:0:
70,295,14155,5,10,0:0:0:0:
296,208,14320,1,0,0:0:0:0:
47,192,14485,5,2,3:2:0:0:
240,340,14650,2,0,L|224:262,1,80,2|8,0:0|0:0,0:0:0:0:
172,29,14980,5,2,0:0:0:0:
41,210,15144,1,2,3:2:0:0:
240,340,15309,2,0,L|224:262,1,80,2|8,0:0|0:0,0:0:0:0:
183,14,15639,37,2,0:0:0:0:
35,228,15804,5,2,3:2:0:0:
9,46,15969,1,2,0:0:0:0:
129,246,16133,69,10,0:0:0:0:
205,9,16298,1,2,0:0:0:0:
309,285,16463,5,2,3:2:0:0:
385,48,16628,1,2,0:0:0:0:
424,321,16793,2,0,P|431:263|401:212,1,120,10|0,0:0|0:0,0:0:0:0:
376,202,17122,6,0,L|297:195,1,80,6|0,3:2|0:0,0:0:0:0:
35,228,17452,2,0,L|114:235,1,80,10|0,0:0|0:0,0:0:0:0:
225,94,17782,5,2,3:2:0:0:
156,318,17947,1,2,0:0:0:0:
129,80,18111,69,10,0:0:0:0:
252,332,18276,1,2,0:0:0:0:
313,27,18441,6,0,P|344:52|382:60,1,80,2|0,3:2|0:0,0:0:0:0:
488,144,18771,1,10,0:0:0:0:
488,144,18936,1,2,0:0:0:0:
285,206,19100,69,2,3:2:0:0:
442,286,19265,1,2,0:0:0:0:
382,60,19430,1,10,0:0:0:0:
155,240,19595,5,8,0:0:0:0:
168,230,19677,1,8,0:0:0:0:
181,220,19760,2,0,P|152:165|43:171,1,160,6|8,3:2|0:0,0:0:0:0:
265,18,20254,53,2,0:0:0:0:
275,31,20337,1,2,0:0:0:0:
285,44,20419,2,0,L|275:123,1,80,2|0,3:2|0:0,0:0:0:0:
251,303,20749,1,8,0:0:0:0:
62,157,21078,5,10,3:2:0:0:
275,123,21243,1,2,0:0:0:0:
127,252,21408,5,10,0:0:0:0:
210,28,21573,1,2,0:0:0:0:
398,159,21738,37,10,3:2:0:0:
305,247,21903,1,10,0:0:0:0:
275,123,22067,1,2,3:2:0:0:
479,116,22232,2,0,B|493:140|493:140|477:230,1,120.000004577637,10|0,0:0|0:0,0:0:0:0:
402,373,22562,53,2,0:0:0:0:
401,373,22727,2,0,P|386:346|359:330,1,64,2|0,0:0|0:0,0:0:0:0:
305,247,23056,5,2,0:0:0:0:
305,247,23221,2,0,P|274:239|243:247,1,64,2|0,0:0|0:0,0:0:0:0:
157,324,23551,6,0,B|170:255|133:269|145:199,1,128,2|2,0:0|0:0,0:0:0:0:
199,62,24045,1,2,0:0:0:0:
199,62,24210,1,2,0:0:0:0:
281,112,24375,6,0,P|295:84|294:53,1,64,2|0,0:0|0:0,0:0:0:0:
472,130,24705,1,2,0:0:0:0:
394,27,24870,38,0,B|407:96|370:82|382:152,1,128,2|2,0:0|0:0,0:0:0:0:
449,234,25364,2,0,P|470:257|472:288,1,64,2|0,0:0|0:0,0:0:0:0:
375,363,25694,6,0,L|365:290,1,64,2|0,0:0|0:0,0:0:0:0:
281,343,26023,1,2,0:0:0:0:
281,343,26188,1,2,0:0:0:0:
187,323,26353,5,2,0:0:0:0:
297,232,26518,1,2,0:0:0:0:
281,343,26683,5,2,0:0:0:0:
203,212,26848,1,2,0:0:0:0:
93,303,27012,70,0,L|99:240,2,64,2|0|0,0:0|1:0|1:0,0:0:0:0:
22,186,27672,5,0,0:0:0:0:
127,81,27837,37,2,0:0:0:0:
127,81,28001,2,0,P|96:103|54:105,1,64,2|0,0:0|0:0,0:0:0:0:
203,212,28331,5,2,0:0:0:0:
203,212,28496,2,0,P|234:190|276:188,1,64,2|0,0:0|0:0,0:0:0:0:
399,254,28826,6,0,L|388:126,1,128,2|2,0:0|0:0,0:0:0:0:
298,15,29320,1,2,0:0:0:0:
298,15,29485,1,2,0:0:0:0:
214,61,29650,2,0,P|229:89|257:103,1,64,2|0,0:0|0:0,0:0:0:0:
388,127,29980,5,2,0:0:0:0:
298,15,30144,1,2,0:0:0:0:
185,170,30309,38,0,B|124:161|124:161|121:156|121:156|61:148,1,128,2|2,0:0|0:0,0:0:0:0:
5,249,30804,2,0,B|66:258|66:258|69:263|69:263|128:272,1,128,2|2,0:0|0:0,0:0:0:0:
201,335,31298,1,0,0:0:0:0:
268,226,31463,6,0,B|273:292|336:324|336:324|397:264|390:200|370:147|370:147|390:176|428:178,1,384,2|0,0:0|3:0,0:0:0:0:
482,45,32617,6,0,P|478:90|435:100,1,95.9999970703126,8|0,0:0|0:0,0:0:0:0:
227,24,32947,5,4,3:2:0:0:
85,146,33111,5,2,0:0:0:0:
84,146,33276,2,0,P|99:111|136:100,1,80,10|0,0:0|0:0,0:0:0:0:
268,226,33606,5,2,3:2:0:0:
157,275,33771,2,0,L|166:195,1,80,2|8,0:0|0:0,0:0:0:0:
402,326,34100,38,0,B|331:334|331:334|315:351|315:351|251:358,1,160,2|2,0:0|0:0,0:0:0:0:
166,195,34595,2,0,L|157:275,1,80,10|2,0:0|0:0,0:0:0:0:
61,330,34925,5,2,3:2:0:0:
268,226,35089,1,0,3:0:0:0:
85,146,35254,1,10,0:0:0:0:
290,232,35419,2,0,L|278:153,1,80,2|0,0:0|3:0,0:0:0:0:
262,33,35749,5,2,0:0:0:0:
455,151,35914,2,0,P|411:112|352:107,1,120,10|0,0:0|0:0,0:0:0:0:
278,153,36243,6,0,L|290:232,1,80,2|2,3:2|0:0,0:0:0:0:
309,355,36573,1,10,0:0:0:0:
181,200,36738,1,2,0:0:0:0:
375,255,36903,37,0,3:0:0:0:
208,338,37067,1,2,0:0:0:0:
383,270,37232,5,10,0:0:0:0:
198,211,37397,1,2,0:0:0:0:
391,285,37562,70,0,B|430:282|430:282|433:276|433:276|468:272,2,80,2|8|8,3:2|0:0|0:0,0:0:0:0:
210,72,38221,5,0,3:0:0:0:
352,137,38386,5,2,0:0:0:0:
352,137,38551,2,0,P|319:161|278:163,1,80,10|0,0:0|0:0,0:0:0:0:
104,125,38881,5,2,3:2:0:0:
7,211,39045,2,0,L|86:223,1,80,2|8,0:0|0:0,0:0:0:0:
191,341,39375,38,0,B|181:263|181:263|190:248|190:248|182:185,1,160,2|2,0:0|0:0,0:0:0:0:
316,293,39870,2,0,L|326:373,1,80,10|2,0:0|0:0,0:0:0:0:
466,196,40199,5,2,3:2:0:0:
299,275,40364,1,0,3:0:0:0:
283,180,40529,5,10,0:0:0:0:
482,291,40694,1,2,0:0:0:0:
367,135,40859,21,8,0:0:0:0:
398,336,41023,1,10,0:0:0:0:
117,46,41519,5,10,0:0:0:0:
86,247,41683,1,10,0:0:0:0:
367,135,42012,70,0,B|303:131|303:131|276:156|276:156|217:152,1,160,6|2,3:2|3:2,0:0:0:0:
86,247,42507,2,0,L|165:253,1,80,10|0,0:0|0:0,0:0:0:0:
299,307,42837,5,2,3:2:0:0:
251,53,43001,1,8,0:0:0:0:
251,53,43084,1,8,0:0:0:0:
251,53,43166,1,8,0:0:0:0:
436,208,43331,1,8,0:0:0:0:
436,208,43414,1,8,0:0:0:0:
436,208,43496,6,0,P|464:181|470:142,1,80,6|0,3:2|0:0,0:0:0:0:
367,135,43826,2,0,P|367:96|344:64,1,80,2|2,3:2|0:0,0:0:0:0:
172,115,44155,2,0,B|115:108|115:108|118:113|118:113|21:103,1,160,2|2,3:2|3:2,0:0:0:0:
94,301,44650,6,0,P|138:238|215:232,1,160,2|2,0:0|0:0,0:0:0:0:
356,285,45144,1,2,3:2:0:0:
193,333,45309,1,2,0:0:0:0:
280,170,45474,5,0,3:0:0:0:
280,170,45639,1,0,0:0:0:0:
356,285,45804,5,2,3:2:0:0:
356,285,45969,1,2,0:0:0:0:
479,227,46133,38,0,B|457:151|506:135|484:71,1,160,2|2,3:2|3:2,0:0:0:0:
367,105,46628,1,2,0:0:0:0:
288,14,46793,2,0,P|228:19|200:55,1,80,2|0,3:2|0:0,0:0:0:0:
154,178,47122,1,2,3:2:0:0:
92,15,47287,1,2,0:0:0:0:
12,210,47452,6,0,P|42:236|81:238,1,80,2|0,3:2|0:0,0:0:0:0:
250,157,47782,1,2,3:2:0:0:
250,157,47947,1,2,0:0:0:0:
282,272,48111,5,0,3:0:0:0:
349,92,48276,1,0,0:0:0:0:
401,278,48441,5,2,3:2:0:0:
250,157,48606,1,2,3:2:0:0:
128,332,48771,38,0,B|113:256|171:262|153:178,1,160,6|2,3:2|3:2,0:0:0:0:
127,62,49265,1,2,0:0:0:0:
60,205,49430,5,10,0:2:0:0:
250,157,49595,1,8,0:0:0:0:
320,295,49760,2,0,P|379:291|420:237,1,120,2|0,3:2|0:0,0:0:0:0:
422,216,50089,6,0,L|410:137,1,80,2|2,3:2|0:0,0:0:0:0:
253,139,50419,2,0,L|264:60,1,80,10|2,0:0|3:2,0:0:0:0:
77,212,50749,5,0,3:0:0:0:
266,161,50914,1,0,0:0:0:0:
126,24,51078,2,0,P|117:62|130:100,1,80,10|0,0:0|0:0,0:0:0:0:
249,247,51408,6,0,B|328:264|320:193|397:210,1,160,6|8,3:2|0:0,0:0:0:0:
472,285,51903,1,0,0:0:0:0:
343,354,52067,6,0,P|319:280|249:248,1,160,2|8,3:2|0:0,0:0:0:0:
135,288,52562,1,0,0:0:0:0:
34,184,52727,38,0,L|121:196,1,80,2|0,3:2|0:0,0:0:0:0:
207,61,53056,2,0,L|127:51,1,80,10|0,0:0|0:0,0:0:0:0:
329,138,53386,5,2,3:2:0:0:
34,184,53551,1,8,0:0:0:0:
34,184,53633,1,8,0:0:0:0:
34,184,53716,1,8,0:0:0:0:
252,226,53881,70,0,L|259:266,2,40,8|8|2,0:0|0:0|3:2,0:0:0:0:
207,61,54210,5,8,0:0:0:0:
174,335,54375,1,8,0:0:0:0:
119,244,54705,53,2,3:2:0:0:
314,39,54870,5,8,0:0:0:0:
358,360,55035,1,8,0:0:0:0:
314,39,55364,69,10,0:0:0:0:
174,335,55529,1,8,0:0:0:0:
207,61,55694,5,8,0:0:0:0:
358,360,55859,1,8,0:0:0:0:
421,67,56023,38,0,B|415:139|477:183|477:183|488:106,1,180.000006866455,0|0,3:0|0:0,0:0:0:0:
500,148,56353,6,0,B|428:152|428:152|433:157|433:157|352:162,1,160,10|2,0:0|0:0,0:0:0:0:
71,326,56683,6,0,B|67:351|54:369|54:369|114:340|139:269|132:206,1,240.000009155274,6|8,3:2|0:0,0:0:0:0:
268,50,57177,5,2,3:2:0:0:
268,50,57260,1,0,3:0:0:0:
268,50,57342,2,0,B|254:155|356:147|340:271,1,240.000009155274,2|8,3:2|0:0,0:0:0:0:
286,367,57837,1,2,0:0:0:0:
352,162,58001,37,2,3:2:0:0:
468,276,58166,1,2,0:0:0:0:
401,71,58330,1,10,0:0:0:0:
269,213,58496,6,0,P|224:174|166:167,1,120.000004577637,2|0,0:0|3:0,0:0:0:0:
86,202,58743,1,8,0:0:0:0:
86,202,58826,2,0,B|80:264|80:264|77:262|77:262|72:315,1,120.000004577637,2|8,3:2|0:0,0:0:0:0:
175,79,59155,1,2,0:0:0:0:
341,269,59320,6,0,B|370:239|395:160|298:131|297:93|308:50,1,240.000009155274,2|8,3:2|0:0,0:0:0:0:
75,7,59815,5,2,3:2:0:0:
75,7,59897,1,0,3:0:0:0:
75,7,59980,2,0,B|9:76|38:199|38:199|65:176,1,240.000009155274,2|8,3:2|0:0,0:0:0:0:
180,92,60474,37,2,0:0:0:0:
260,307,60639,1,2,3:2:0:0:
308,49,60804,1,2,0:0:0:0:
376,325,60969,5,10,0:0:0:0:
481,45,61133,1,2,0:0:0:0:
242,161,61298,70,0,B|244:189|244:189|249:194|249:194|251:219,2,60.0000022888184,0|8|0,3:0|0:0|3:0,0:0:0:0:
501,171,61628,21,10,0:0:0:0:
512,198,61710,1,8,0:0:0:0:
507,227,61793,1,8,0:0:0:0:
487,249,61875,1,8,0:0:0:0:
458,256,61958,2,0,P|404:225|345:226,1,120.000004577637,6|0,3:2|0:0,0:0:0:0:
90,221,62287,6,0,P|51:266|52:325,1,120.000004577637,10|8,0:0|0:0,0:0:0:0:
138,354,62534,1,8,0:0:0:0:
138,354,62617,2,0,P|176:310|175:251,1,120.000004577637,2|0,3:2|0:0,0:0:0:0:
58,95,62947,37,10,0:0:0:0:
264,173,63111,1,2,0:0:0:0:
139,13,63276,53,2,3:2:0:0:
90,221,63441,1,2,0:0:0:0:
260,22,63606,5,10,0:0:0:0:
207,264,63771,1,2,0:0:0:0:
381,32,63936,37,2,3:2:0:0:
324,307,64100,1,2,0:0:0:0:
503,42,64265,5,10,0:0:0:0:
460,296,64430,1,8,0:0:0:0:
486,281,64512,1,8,0:0:0:0:
512,266,64595,2,0,P|464:163|350:164,1,240.000009155274,6|8,3:2|0:0,0:0:0:0:
58,260,65089,5,2,3:2:0:0:
58,260,65172,1,0,3:0:0:0:
58,260,65254,2,0,B|110:255|110:255|113:259|113:259|175:251,1,120.000004577637,2|2,3:2|0:0,0:0:0:0:
337,39,65584,2,0,B|275:47|275:47|272:43|272:43|220:48,1,120.000004577637,10|2,0:0|0:0,0:0:0:0:
262,317,65914,5,0,3:0:0:0:
106,91,66078,1,12,0:0:0:0:
148,360,66243,5,2,3:2:0:0:
219,49,66408,1,12,0:0:0:0:
480,265,66573,37,2,3:2:0:0:
470,237,66655,1,0,3:0:0:0:
451,215,66738,1,8,0:0:0:0:
423,203,66820,1,8,0:0:0:0:
394,204,66903,2,0,L|334:211,1,60.0000022888184,10|8,0:0|0:0,0:0:0:0:
152,280,67067,2,0,L|212:273,1,60.0000022888184,8|8,0:0|0:0,0:0:0:0:
253,146,67232,22,0,B|240:232|240:232|259:261|259:261|242:376,1,240.000009155274,6|8,3:2|0:0,0:0:0:0:
31,194,67727,5,2,3:2:0:0:
31,194,67809,1,0,3:0:0:0:
31,194,67892,2,0,B|147:244|176:124|253:146,1,240.000009155274,2|8,3:2|0:0,0:0:0:0:
401,202,68386,1,2,0:0:0:0:
291,23,68551,37,2,3:2:0:0:
383,295,68716,1,2,0:0:0:0:
426,48,68881,1,10,0:0:0:0:
248,270,69045,6,0,P|195:275|130:223,1,120.000004577637,2|0,0:0|3:0,0:0:0:0:
107,153,69293,1,8,0:0:0:0:
107,153,69375,1,2,3:2:0:0:
184,374,69540,1,10,0:0:0:0:
257,107,69705,1,2,0:0:0:0:
374,314,69870,6,0,B|477:315|512:249|512:249|461:195|361:234,1,320,6|8,3:2|0:0,0:0:0:0:
37,122,70364,5,2,3:2:0:0:
37,122,70447,1,0,3:0:0:0:
37,122,70529,2,0,B|82:229|-62:254|-31:357|62:380|88:315,1,320,6|8,3:2|0:0,0:0:0:0:
257,107,71023,37,2,3:2:0:0:
257,107,71106,1,0,3:0:0:0:
257,107,71188,2,0,B|317:113|317:113|314:108|314:108|406:117,1,160,6|2,3:2|0:0,0:0:0:0:
207,316,71518,5,10,0:0:0:0:
488,196,71683,1,2,0:0:0:0:
251,29,71848,70,0,B|256:61|256:61|252:69|252:69|257:107,2,80,0|8|0,3:0|0:0|3:0,0:0:0:0:
11,275,72177,21,10,0:0:0:0:
10,245,72259,1,8,0:0:0:0:
26,220,72342,1,8,0:0:0:0:
52,206,72424,1,8,0:0:0:0:
81,209,72507,2,0,P|132:240|192:245,1,120.000004577637,6|0,3:2|0:0,0:0:0:0:
466,191,72837,6,0,B|496:243|496:243|485:302,1,120.000004577637,10|8,0:0|0:0,0:0:0:0:
395,316,73084,1,8,0:0:0:0:
395,317,73166,2,0,B|365:265|365:265|375:207,1,120.000004577637,2|0,3:2|0:0,0:0:0:0:
478,47,73496,37,10,0:0:0:0:
250,111,73661,1,2,0:0:0:0:
466,191,73826,53,2,3:2:0:0:
359,16,73990,1,2,0:0:0:0:
316,303,74155,5,10,0:0:0:0:
237,32,74320,1,2,0:0:0:0:
156,364,74485,37,2,3:2:0:0:
115,48,74650,1,2,0:0:0:0:
0,345,74815,5,10,0:0:0:0:
203,118,74979,1,8,0:0:0:0:
218,144,75062,1,8,0:0:0:0:
233,170,75144,2,0,B|147:243|53:192|53:192|76:150,1,240.000009155274,6|8,3:2|0:0,0:0:0:0:
374,109,75639,5,2,3:2:0:0:
374,109,75721,1,0,3:0:0:0:
374,109,75804,2,0,P|389:165|368:229,1,120.000004577637,2|0,3:2|0:0,0:0:0:0:
156,364,76133,2,0,P|138:307|154:249,1,120.000004577637,8|0,0:0|0:0,0:0:0:0:
287,24,76463,5,2,3:2:0:0:
287,24,76545,1,2,3:2:0:0:
287,24,76628,1,10,0:0:0:0:
337,329,76793,5,2,3:2:0:0:
107,148,76958,1,10,0:0:0:0:
386,87,77122,5,2,3:2:0:0:
128,324,77287,1,8,0:0:0:0:
96,315,77370,1,8,0:0:0:0:
71,295,77452,2,0,L|59:236,1,60.0000022888184,10|8,0:0|0:0,0:0:0:0:
172,78,77617,2,0,L|160:19,1,60.0000022888184,8|8,0:0|0:0,0:0:0:0:
14,140,77782,6,0,B|107:147|107:147|124:169|124:169|242:177,1,240.000009155274,6|8,3:2|0:0,0:0:0:0:
494,224,78276,5,2,3:2:0:0:
494,224,78359,1,0,3:0:0:0:
494,224,78441,1,2,3:2:0:0:
229,293,78606,1,0,0:0:0:0:
352,50,78771,1,8,0:0:0:0:
434,321,78936,37,0,3:0:0:0:
434,321,79018,1,0,3:0:0:0:
433,320,79100,2,0,P|389:356|313:352,1,120.000004577637,0|0,3:0|0:0,0:0:0:0:
82,193,79430,1,8,0:0:0:0:
349,242,79595,1,2,0:0:0:0:
97,340,79760,5,0,3:0:0:0:
97,340,79842,1,8,0:0:0:0:
97,340,79925,1,0,3:0:0:0:
276,103,80089,1,8,0:0:0:0:
230,377,80254,1,2,0:0:0:0:
10,147,80419,6,0,P|24:256|135:261,1,240.000009155274,2|8,3:2|0:0,0:0:0:0:
479,96,80914,5,2,3:2:0:0:
479,96,80996,1,0,3:0:0:0:
478,97,81078,2,0,P|491:159|347:185,1,240.000009155274,2|8,3:2|0:0,0:0:0:0:
204,82,81573,1,0,3:0:0:0:
348,310,81738,37,2,3:2:0:0:
190,64,81903,1,2,0:0:0:0:
223,336,82067,5,10,0:0:0:0:
315,38,82232,1,2,0:0:0:0:
463,229,82397,70,0,B|459:254|459:254|463:261|463:261|458:287,2,60.0000022888184,0|8|0,3:0|0:0|3:0,0:0:0:0:
30,101,82727,21,8,0:0:0:0:
24,130,82809,1,8,0:0:0:0:
28,159,82891,1,8,0:0:0:0:
43,185,82974,1,8,0:0:0:0:
67,203,83056,2,0,L|188:187,1,120.000004577637,6|0,3:2|0:0,0:0:0:0:
401,168,83386,5,10,0:0:0:0:
160,316,83551,1,8,0:0:0:0:
160,316,83633,1,0,3:0:0:0:
160,316,83716,1,2,3:2:0:0:
263,42,83881,1,0,0:0:0:0:
276,330,84045,37,10,0:0:0:0:
147,28,84210,1,0,0:0:0:0:
381,292,84375,54,0,B|362:319|362:319|276:329,1,120.000004577637,2|0,3:2|0:0,0:0:0:0:
4,241,84705,2,0,B|22:213|22:213|108:203,1,120.000004577637,10|0,0:0|0:0,0:0:0:0:
304,84,85034,5,2,3:2:0:0:
153,345,85198,1,0,0:0:0:0:
122,27,85364,1,10,0:0:0:0:
329,301,85529,37,8,0:0:0:0:
303,307,85611,1,8,0:0:0:0:
277,313,85694,2,0,B|285:259|285:259|280:261|280:261|288:202,1,120.000004577637,6|0,3:2|0:0,0:0:0:0:
458,72,86023,2,0,B|450:126|450:126|455:124|455:124|448:183,1,120.000004577637,8|2,0:0|3:2,0:0:0:0:
427,371,86353,5,6,3:2:0:0:
276,198,86518,37,8,0:0:0:0:
276,198,86600,1,8,0:0:0:0:
276,198,86683,1,8,0:0:0:0:
466,56,86848,5,8,0:0:0:0:
466,56,86930,1,8,0:0:0:0:
466,56,87013,1,4,3:2:0:0:
256,192,87095,12,2,88331,0:0:0:0:
