osu file format v14

[General]
AudioFilename: audio.mp3
AudioLeadIn: 0
PreviewTime: 56135
Countdown: 0
SampleSet: Soft
StackLeniency: 0.3
Mode: 0
LetterboxInBreaks: 0
WidescreenStoryboard: 1

[Editor]
Bookmarks: 77304,89172,98403
DistanceSpacing: 1.1
BeatDivisor: 4
GridSize: 32
TimelineZoom: 1.6

[Metadata]
Title:Toki toshite Violence (TV Size)
TitleUnicode:時としてバイオレンス (TV Size)
Artist:halca
ArtistUnicode:halca
Creator:Nao Tomori
Version:Normal
Source:邪神ちゃんドロップキック’
Tags:lasse stratos c_o_n_n_e_r lost [_lost_] sarawatlism anime japanese pop rock jashin-chan dropkick dash tokitoshite on my devil false god season two occasional sometimes baiorensu
BeatmapID:2599794
BeatmapSetID:1250510

[Difficulty]
HPDrainRate:2.5
CircleSize:3.2
OverallDifficulty:3.5
ApproachRate:5
SliderMultiplier:0.959999999999999
SliderTickRate:1

[Events]
//Background and Video events
0,0,"bg.jpg",0,0
//Break Periods
2,22391,26430
//Storyboard Layer 0 (Background)
//Storyboard Layer 1 (Fail)
//Storyboard Layer 2 (Pass)
//Storyboard Layer 3 (Foreground)
//Storyboard Layer 4 (Overlay)
//Storyboard Sound Samples

[TimingPoints]
1257,329.67032967033,4,2,0,50,1,0
1257,-125,4,2,0,50,0,0
11798,-100,4,2,1,70,0,0
22183,-125,4,2,1,70,0,0
22512,-125,4,2,0,60,0,0
32410,-125,4,2,1,60,0,0
32567,-100,4,2,1,70,0,0
32897,-100,4,2,1,70,0,0
43446,-100,4,2,1,70,0,0
54325,-90.9090909090909,4,2,1,70,0,0
54985,-90.9090909090909,4,2,1,70,0,0
55314,-90.9090909090909,4,2,1,70,0,0
56303,-90.9090909090909,4,2,1,81,0,0
56641,-90.9090909090909,4,2,1,80,0,1
62567,-90.9090909090909,4,2,1,80,0,1
63227,-90.9090909090909,4,2,1,80,0,1
63886,-90.9090909090909,4,2,1,80,0,1
64545,-90.9090909090909,4,2,1,80,0,1
66029,-90.9090909090909,4,2,1,80,0,1
67183,-90.9090909090909,4,2,1,80,0,1
68501,-90.9090909090909,4,2,1,80,0,1
69820,-90.9090909090909,4,2,1,80,0,1
72457,-90.9090909090909,4,2,1,80,0,1
76249,-90.9090909090909,4,2,1,80,0,1
76339,-100,4,2,1,60,0,0
76586,-250,4,2,1,60,0,0

[Colours]
Combo1 : 255,220,113
Combo2 : 170,255,170
Combo3 : 132,175,247
Combo4 : 236,111,111

[HitObjects]
29,139,1257,6,0,P|83:118|132:152,1,115.2,2|2,2:2|2:2,0:0:0:0:
170,146,1916,2,0,P|191:200|157:249,1,115.2,2|2,2:2|2:2,0:0:0:0:
185,281,2575,1,2,2:2:0:0:
268,292,2905,1,8,2:2:0:0:
268,292,3070,2,0,P|311:272|356:274,2,76.7999999999999,2|2|2,2:2|2:2|2:2,0:0:0:0:
265,334,3894,6,0,B|302:368|302:368|381:347,1,115.2,2|2,2:2|2:2,0:0:0:0:
406,358,4553,2,0,P|434:323|420:248,1,115.2,2|2,2:2|2:2,0:0:0:0:
456,226,5213,1,2,2:2:0:0:
415,157,5542,1,10,2:2:0:0:
415,157,5707,2,0,L|422:30,1,115.2,2|10,2:2|2:2,0:0:0:0:
340,17,6531,6,0,P|305:8|254:20,1,76.7999999999999,2|8,2:2|2:2,0:0:0:0:
206,75,7191,2,0,P|171:84|120:72,1,76.7999999999999,2|8,2:2|2:2,0:0:0:0:
56,37,7850,2,0,L|47:122,1,76.7999999999999,2|8,2:2|2:2,0:0:0:0:
95,182,8509,1,2,2:2:0:0:
35,241,8839,1,8,2:2:0:0:
82,310,9169,6,0,P|138:334|189:295,1,115.2,2|2,2:2|2:2,0:0:0:0:
217,287,9828,2,0,B|287:256|287:256|360:291,1,153.6,2|2,2:2|2:2,0:0:0:0:
356,289,11806,5,6,3:2:0:0:
356,289,11971,2,0,P|361:239|376:187,1,95.9999999999999,2|2,2:2|2:2,0:0:0:0:
403,152,12465,1,2,3:2:0:0:
330,74,12795,1,8,2:2:0:0:
237,124,13125,2,0,L|251:187,2,48,2|0|10,3:2|2:2|2:2,0:0:0:0:
185,113,13619,2,0,P|183:147|162:219,1,95.9999999999999,2|2,2:2|2:2,0:0:0:0:
131,246,14114,1,10,2:2:0:0:
28,270,14443,5,2,3:2:0:0:
28,270,14608,2,0,P|0:218|22:168,1,95.9999999999999,2|2,2:2|2:2,0:0:0:0:
50,151,15103,2,0,P|64:110|34:53,1,95.9999999999999,2|8,3:2|2:2,0:0:0:0:
136,9,15762,1,2,3:2:0:0:
212,82,16092,1,10,2:2:0:0:
212,82,16257,2,0,B|247:66|247:66|305:84,1,95.9999999999999,2|2,2:2|2:2,0:0:0:0:
348,107,16751,1,10,2:2:0:0:
453,96,17081,6,0,L|466:38,2,48,6|2|8,3:2|2:2|0:0,0:0:0:0:
490,195,17740,2,0,L|506:262,2,48,2|2|8,3:2|2:2|0:0,0:0:0:0:
407,261,18399,1,2,3:2:0:0:
306,228,18729,1,10,2:2:0:0:
219,289,19059,2,0,L|108:264,1,95.9999999999999,2|14,3:2|2:2,0:0:0:0:
73,256,19553,1,8,2:2:0:0:
73,256,19718,6,0,B|33:274|33:274|-16:211|29:115,1,192,2|2,3:2|3:2,0:0:0:0:
95,57,20707,1,8,2:2:0:0:
190,102,21037,2,0,P|244:105|286:76,2,95.9999999999999,6|10|10,3:2|2:2|2:2,0:0:0:0:
174,157,21861,1,10,2:2:0:0:
174,157,22026,1,10,2:2:0:0:
174,157,22191,1,10,2:2:0:0:
468,54,27630,6,0,P|419:44|390:59,1,76.7999999999999,0|2,2:2|2:2,0:0:0:0:
336,114,28289,1,0,2:2:0:0:
336,114,28454,1,2,2:2:0:0:
262,72,28784,2,0,L|168:64,1,76.7999999999999,2|0,2:2|2:2,0:0:0:0:
150,89,29278,2,0,L|67:97,2,76.7999999999999,2|2|0,2:2|2:2|2:2,0:0:0:0:
199,157,30267,5,2,2:2:0:0:
143,220,30597,1,0,2:2:0:0:
143,220,30762,2,0,P|111:242|61:239,1,76.7999999999999,2|2,2:2|2:2,0:0:0:0:
65,327,31421,2,0,P|111:346|142:339,1,76.7999999999999,2|0,2:2|2:2,0:0:0:0:
173,361,31916,2,0,L|258:346,1,76.7999999999999,2|2,2:2|2:2,0:0:0:0:
286,367,32410,1,0,3:2:0:0:
286,367,32575,1,14,2:2:0:0:
377,314,32905,6,0,B|363:273|363:273|376:209,1,95.9999999999999,0|10,3:2|2:2,0:0:0:0:
420,128,33564,1,2,3:2:0:0:
420,128,33729,2,0,P|433:87|403:22,2,95.9999999999999,2|2|0,2:2|2:2|2:2,0:0:0:0:
373,153,34553,1,10,2:2:0:0:
295,81,34883,1,2,3:2:0:0:
232,167,35213,1,10,2:2:0:0:
232,167,35377,2,0,P|191:176|135:158,1,95.9999999999999,2|2,2:2|2:2,0:0:0:0:
97,193,35872,5,10,2:2:0:0:
150,284,36202,2,0,L|155:336,2,48,2|0|10,3:2|2:2|2:2,0:0:0:0:
245,238,36861,2,0,B|262:293|262:293|250:329,1,95.9999999999999,2|10,3:2|2:2,0:0:0:0:
351,360,37520,1,2,2:2:0:0:
351,360,37685,1,8,2:2:0:0:
351,360,37850,2,0,P|372:335|447:332,1,95.9999999999999,8|0,2:2|3:2,0:0:0:0:
489,236,38509,5,10,2:2:0:0:
420,155,38839,1,0,3:2:0:0:
420,155,39004,1,2,2:2:0:0:
330,210,39333,2,0,P|291:226|231:210,1,95.9999999999999,2|2,2:2|2:2,0:0:0:0:
198,182,39828,2,0,L|204:79,2,95.9999999999999,10|2|10,2:2|3:2|2:2,0:0:0:0:
104,231,40817,5,14,2:2:0:0:
104,231,40982,2,0,B|40:200|78:163|-3:125,1,144,10|10,2:2|2:2,0:0:0:0:
0,77,41641,1,10,2:2:0:0:
86,16,41971,6,0,P|123:1|176:33,1,95.9999999999999,6|2,3:2|2:2,0:0:0:0:
203,65,42465,1,10,2:2:0:0:
302,29,42795,2,0,L|406:22,1,95.9999999999999,2|8,3:2|2:2,0:0:0:0:
464,104,43454,5,6,3:2:0:0:
387,176,43784,2,0,L|398:234,1,48,10|2,2:2|2:2,0:0:0:0:
443,246,44114,2,0,L|430:349,1,95.9999999999999,2|10,3:2|2:2,0:0:0:0:
391,376,44608,2,0,P|358:353|294:352,1,95.9999999999999,2|2,2:2|2:2,0:0:0:0:
253,367,45103,1,10,2:2:0:0:
253,367,45267,2,0,L|109:344,1,144,2|4,3:2|2:3,0:0:0:0:
25,281,46092,5,2,3:2:0:0:
114,225,46421,2,0,L|100:164,1,48,10|2,2:2|2:2,0:0:0:0:
53,158,46751,2,0,L|66:50,1,95.9999999999999,2|10,3:2|2:2,0:0:0:0:
160,18,47410,2,0,P|202:2|257:22,1,95.9999999999999,2|10,3:2|2:2,0:0:0:0:
289,50,47905,2,0,P|320:62|387:42,1,95.9999999999999,2|8,3:2|2:3,0:0:0:0:
419,14,48399,1,4,2:3:0:0:
481,99,48729,6,0,L|479:201,1,95.9999999999999,6|10,3:2|2:2,0:0:0:0:
455,242,49224,1,2,2:2:0:0:
455,242,49388,2,0,P|390:244|364:215,1,95.9999999999999,2|10,3:2|2:2,0:0:0:0:
330,190,49883,1,0,2:2:0:0:
330,190,50048,2,0,L|178:212,2,144,2|4|10,3:2|2:3|2:2,0:0:0:0:
377,96,51366,6,0,P|387:52|356:7,1,95.9999999999999,6|8,3:2|2:2,0:0:0:0:
257,30,52026,2,0,P|247:74|278:119,1,95.9999999999999,2|8,3:2|2:2,0:0:0:0:
210,201,52685,1,2,3:2:0:0:
112,159,53015,1,10,2:2:0:0:
32,228,53344,1,2,3:2:0:0:
58,330,53674,2,0,P|107:341|149:308,1,95.9999999999999,8|2,2:2|2:2,0:0:0:0:
190,341,54169,5,8,2:2:0:0:
190,341,54333,2,0,B|234:319|234:319|259:325|259:325|343:282,1,158.400004833984,10|8,2:2|2:2,0:0:0:0:
387,310,54993,1,10,2:2:0:0:
465,224,55322,6,0,L|460:157,1,52.8000016113281,4|2,2:3|3:2,0:0:0:0:
498,126,55652,2,0,L|493:59,1,52.8000016113281,10|10,2:2|2:2,0:0:0:0:
449,35,55982,2,0,B|411:49|411:49|384:24|345:27,1,105.600003222656,4|14,2:3|2:2,0:0:0:0:
289,124,56641,6,0,B|242:107|242:107|187:127,1,105.600003222656,6|8,3:2|2:2,0:0:0:0:
136,149,57136,1,2,3:2:0:0:
136,149,57300,2,0,P|144:209|150:279,1,105.600003222656,2|8,3:2|2:2,0:0:0:0:
257,295,57960,2,0,L|254:362,2,52.8000016113281,2|2|10,3:2|2:2|2:2,0:0:0:0:
303,260,58454,2,0,P|340:253|391:293,2,105.600003222656,2|2|2,2:2|3:2|2:2,0:0:0:0:
265,215,59278,6,0,L|249:110,1,105.600003222656,2|8,3:2|2:2,0:0:0:0:
276,58,59773,1,2,3:2:0:0:
276,58,59938,2,0,B|310:49|338:36|338:36|385:60,1,105.600003222656,0|8,3:2|2:2,0:0:0:0:
448,142,60597,6,0,L|435:216,1,52.8000016113281,2|2,3:2|0:0,0:0:0:0:
388,211,60927,1,8,2:2:0:0:
388,211,61092,2,0,L|406:330,1,105.600003222656,2|0,2:2|3:2,0:0:0:0:
376,366,61586,1,10,2:2:0:0:
270,316,61916,5,6,3:2:0:0:
172,378,62246,1,10,2:2:0:0:
72,318,62575,2,0,P|52:272|78:214,1,105.600003222656,2|10,3:2|2:2,0:0:0:0:
175,172,63235,5,2,3:2:0:0:
275,229,63564,1,10,2:2:0:0:
377,174,63894,1,2,3:2:0:0:
364,58,64224,1,10,2:2:0:0:
251,30,64553,6,0,P|191:30|139:59,1,105.600003222656,6|8,3:2|2:2,0:0:0:0:
129,106,65048,1,2,3:2:0:0:
129,106,65213,2,0,P|129:166|158:218,2,105.600003222656,2|8|0,3:2|2:2|3:2,0:0:0:0:
81,72,66037,5,14,2:2:0:0:
5,159,66366,1,6,3:2:0:0:
65,264,66696,1,8,0:0:0:0:
65,264,66861,1,14,2:2:0:0:
178,237,67191,6,0,L|285:221,1,105.600003222656,6|8,3:2|2:2,0:0:0:0:
309,171,67685,1,2,3:2:0:0:
309,171,67850,2,0,L|421:157,1,105.600003222656,2|8,3:2|2:2,0:0:0:0:
504,231,68509,6,0,P|490:277|484:290,1,52.8000016113281,2|2,3:2|0:0,0:0:0:0:
452,328,68839,1,8,2:2:0:0:
452,328,69004,2,0,L|347:341,1,105.600003222656,2|2,2:2|3:2,0:0:0:0:
289,344,69498,1,10,2:2:0:0:
188,288,69828,6,0,B|139:275|139:275|71:310,1,105.600003222656,6|8,3:2|2:2,0:0:0:0:
35,279,70322,1,2,3:2:0:0:
35,279,70487,2,0,P|17:246|28:176,1,105.600003222656,6|8,3:2|2:2,0:0:0:0:
75,150,70982,1,2,3:2:0:0:
75,150,71147,6,0,B|135:133|135:133|147:161|169:172,1,105.600003222656,6|10,3:2|2:2,0:0:0:0:
210,196,71641,2,0,L|319:176,1,105.600003222656,2|0,2:2|3:2,0:0:0:0:
363,208,72136,1,10,2:2:0:0:
446,127,72465,5,6,3:2:0:0:
410,16,72795,1,10,2:2:0:0:
293,8,73125,2,0,P|259:22|177:1,1,105.600003222656,2|10,3:2|2:2,0:0:0:0:
105,88,73784,5,2,3:2:0:0:
27,171,74114,1,10,2:2:0:0:
69,278,74443,1,2,3:2:0:0:
184,294,74773,1,10,2:2:0:0:
261,207,75103,6,0,L|271:89,1,105.600003222656,6|8,3:2|2:2,0:0:0:0:
303,55,75597,1,2,3:2:0:0:
303,54,75762,2,0,B|350:45|350:45|364:70|413:76,2,105.600003222656,2|8|6,3:2|2:3|3:2,0:0:0:0:
