osu file format v14

[General]
AudioFilename: audio.mp3
AudioLeadIn: 0
PreviewTime: 56135
Countdown: 0
SampleSet: Soft
StackLeniency: 0.6
Mode: 0
LetterboxInBreaks: 0
WidescreenStoryboard: 1

[Editor]
Bookmarks: 77304,89172,98403
DistanceSpacing: 0.24
BeatDivisor: 4
GridSize: 32
TimelineZoom: 1.6

[Metadata]
Title:Toki toshite Violence (TV Size)
TitleUnicode:時としてバイオレンス (TV Size)
Artist:halca
ArtistUnicode:halca
Creator:Nao Tomori
Version:Hard
Source:邪神ちゃんドロップキック’
Tags:lasse stratos c_o_n_n_e_r lost [_lost_] sarawatlism anime japanese pop rock jashin-chan dropkick dash tokitoshite on my devil false god season two occasional sometimes baiorensu
BeatmapID:2599998
BeatmapSetID:1250510

[Difficulty]
HPDrainRate:4
CircleSize:3.5
OverallDifficulty:6
ApproachRate:7.5
SliderMultiplier:1.36
SliderTickRate:1

[Events]
//Background and Video events
0,0,"bg.jpg",0,0
//Break Periods
//Storyboard Layer 0 (Background)
//Storyboard Layer 1 (Fail)
//Storyboard Layer 2 (Pass)
//Storyboard Layer 3 (Foreground)
//Storyboard Layer 4 (Overlay)
//Storyboard Sound Samples

[TimingPoints]
1257,329.67032967033,4,2,0,50,1,0
1257,-125,4,2,0,50,0,0
11798,-100,4,2,1,70,0,0
22183,-125,4,2,1,70,0,0
22512,-125,4,2,0,60,0,0
32410,-125,4,2,1,60,0,0
32567,-100,4,2,1,70,0,0
32897,-100,4,2,1,70,0,0
43446,-100,4,2,1,70,0,0
54325,-90.9090909090909,4,2,1,70,0,0
54985,-90.9090909090909,4,2,1,70,0,0
55314,-90.9090909090909,4,2,1,70,0,0
56303,-90.9090909090909,4,2,1,81,0,0
56641,-90.9090909090909,4,2,1,80,0,1
62567,-90.9090909090909,4,2,1,80,0,1
63227,-90.9090909090909,4,2,1,80,0,1
63886,-90.9090909090909,4,2,1,80,0,1
64545,-90.9090909090909,4,2,1,80,0,1
66029,-90.9090909090909,4,2,1,80,0,1
67183,-90.9090909090909,4,2,1,80,0,1
68501,-90.9090909090909,4,2,1,80,0,1
69820,-90.9090909090909,4,2,1,80,0,1
72457,-90.9090909090909,4,2,1,80,0,1
74938,-80,4,2,1,80,0,1
76249,-90.9090909090909,4,2,1,80,0,1
76339,-100,4,2,1,60,0,0
76586,-250,4,2,1,60,0,0

[Colours]
Combo1 : 255,220,113
Combo2 : 170,255,170
Combo3 : 132,175,247
Combo4 : 236,111,111

[HitObjects]
19,140,762,5,2,2:2:0:0:
149,101,1092,1,2,2:2:0:0:
149,101,1257,6,0,L|130:228,1,108.8,2|8,2:2|2:2,0:0:0:0:
191,272,1751,1,2,2:2:0:0:
191,272,1916,2,0,B|251:261|232:297|312:294,1,108.8,2|8,2:2|2:2,0:0:0:0:
363,249,2410,1,2,2:2:0:0:
439,284,2575,2,0,L|432:338,2,54.4,2|0|8,2:2|2:2|2:2,0:0:0:0:
505,236,3070,1,2,2:2:0:0:
422,112,3399,1,2,2:2:0:0:
505,236,3729,1,2,2:2:0:0:
439,284,3894,6,0,B|396:291|396:291|384:307|384:307|328:325,1,108.8,2|8,2:2|2:2,0:0:0:0:
269,289,4388,1,2,2:2:0:0:
269,289,4553,2,0,P|236:304|159:264,1,108.8,2|8,2:2|2:2,0:0:0:0:
95,307,5048,1,2,2:2:0:0:
95,307,5213,2,0,L|88:238,2,54.4,2|0|10,2:2|2:2|2:2,0:0:0:0:
170,281,5707,2,0,P|211:281|255:389,1,163.2,2|10,3:2|3:2,3:0:0:0:
380,248,6531,6,0,L|365:182,1,54.4,2|0,2:2|2:2,0:0:0:0:
335,114,6861,2,0,L|323:61,1,54.4,8|0,2:2|2:2,0:0:0:0:
285,182,7191,2,0,B|222:184|251:226|171:227,1,108.8,2|8,2:2|2:2,0:0:0:0:
111,85,7850,6,0,P|115:46|139:18,1,54.4,2|0,2:2|2:2,0:0:0:0:
191,88,8180,2,0,P|187:127|163:155,1,54.4,8|0,2:2|2:2,0:0:0:0:
189,225,8509,2,0,B|230:231|230:231|244:246|244:246|294:265,1,108.8,2|8,2:2|2:2,0:0:0:0:
110,292,9169,6,0,P|60:266|-4:283,1,108.8,2|8,2:2|2:2,0:0:0:0:
47,347,9663,1,2,2:2:0:0:
110,292,9828,2,0,L|99:161,2,108.8,2|8|2,2:2|2:2|2:2,0:0:0:0:
381,268,11476,5,2,2:2:0:0:
381,268,11559,1,2,2:2:0:0:
381,268,11641,1,2,2:2:0:0:
381,268,11724,1,2,2:2:0:0:
381,268,11806,6,0,P|391:308|396:336,2,68,6|2|8,3:2|2:2|2:2,0:0:0:0:
449,208,12300,1,2,2:2:0:0:
371,161,12465,1,2,3:2:0:0:
371,161,12630,2,0,P|363:116|432:62,1,136,2|2,2:2|2:2,0:0:0:0:
306,50,13125,6,0,P|258:36|220:17,1,68,2|0,3:2|2:2,0:0:0:0:
180,90,13454,1,10,2:2:0:0:
180,90,13619,2,0,P|117:83|57:140,1,136,2|2,2:2|2:2,0:0:0:0:
96,201,14114,2,0,P|84:249|82:282,1,68,10|0,2:2|2:2,0:0:0:0:
130,344,14443,5,2,3:2:0:0:
130,344,14608,2,0,P|176:330|211:324,1,68,2|8,2:2|2:2,0:0:0:0:
256,270,14938,1,2,2:2:0:0:
305,339,15103,1,2,3:2:0:0:
305,339,15267,2,0,P|350:352|426:306,1,136,2|2,2:2|2:2,0:0:0:0:
512,325,15762,5,2,3:2:0:0:
512,325,15927,2,0,L|498:225,1,68,2|10,2:2|2:2,0:0:0:0:
404,175,16257,2,0,L|422:309,1,136,2|2,2:2|2:2,0:0:0:0:
324,167,16751,2,0,P|337:125|401:95,1,102,10|2,2:2|2:2,0:0:0:0:
384,95,17081,6,0,P|339:89|283:14,1,136,6|10,3:2|2:2,0:0:0:0:
219,86,17575,1,2,2:2:0:0:
219,86,17740,2,0,B|174:111|174:111|204:217,1,136,2|10,3:2|2:2,0:0:0:0:
147,258,18235,1,0,2:2:0:0:
65,228,18399,6,0,L|78:154,1,68,2|0,3:2|2:2,0:0:0:0:
0,116,18729,2,0,L|13:42,1,68,10|0,2:2|2:2,0:0:0:0:
83,7,19059,2,0,B|146:-4|151:64|217:38,1,136,2|14,3:2|2:2,0:0:0:0:
287,91,19553,1,8,2:2:0:0:
287,91,19636,1,8,2:2:0:0:
287,91,19718,6,0,B|333:102|333:102|420:68,1,136,2|8,3:2|2:2,0:0:0:0:
481,127,20213,2,0,L|477:182,1,34,2|0,2:2|2:2,0:0:0:0:
439,182,20377,2,0,L|459:338,1,136,2|8,3:2|2:2,0:0:0:0:
302,364,21037,6,0,P|308:313|314:288,1,68,6|0,3:2|2:2,0:0:0:0:
217,234,21366,2,0,P|223:268|227:302,1,68,10|0,2:2|2:2,0:0:0:0:
165,356,21696,1,10,2:2:0:0:
165,356,21861,1,10,2:2:0:0:
90,319,22026,1,10,2:2:0:0:
90,319,22191,2,0,L|-24:309,1,108.8,10|2,2:2|2:2,0:0:0:0:
19,234,22685,5,2,2:2:0:0:
0,115,23015,1,0,2:2:0:0:
0,115,23180,1,2,2:2:0:0:
127,152,23509,1,2,2:2:0:0:
251,194,23839,1,0,2:2:0:0:
251,194,24004,2,0,P|291:185|321:181,1,54.4,2|0,2:2|2:2,0:0:0:0:
352,119,24333,2,0,P|397:131|480:138,1,108.8,2|0,2:2|2:2,0:0:0:0:
505,69,24828,1,2,2:2:0:0:
386,246,25158,5,0,2:2:0:0:
386,246,25322,2,0,P|385:290|440:337,2,108.8,2|2|2,2:2|2:2|2:2,0:0:0:0:
449,190,26147,1,0,2:2:0:0:
384,137,26311,1,2,2:2:0:0:
384,137,26476,2,0,P|334:126|275:163,1,108.8,2|0,2:2|2:2,0:0:0:0:
237,217,26971,2,0,L|247:270,2,54.4,2|8|8,2:2|2:2|2:2,0:0:0:0:
39,85,27795,5,2,2:2:0:0:
39,85,27960,1,2,2:2:0:0:
125,179,28289,1,0,2:2:0:0:
125,179,28454,2,0,P|189:185|242:149,2,108.8,2|2|0,2:2|2:2|2:2,0:0:0:0:
60,233,29278,2,0,P|88:269|99:294,1,54.4,2|0,2:2|2:2,0:0:0:0:
74,358,29608,1,2,2:2:0:0:
230,286,29938,1,0,2:2:0:0:
230,286,30103,1,2,2:2:0:0:
230,286,30267,6,0,P|268:304|338:275,1,108.8,2|0,2:2|2:2,0:0:0:0:
391,226,30762,2,0,P|441:207|491:226,1,108.8,2|2,2:2|2:2,0:0:0:0:
314,122,31421,1,2,2:2:0:0:
230,286,31751,1,0,2:2:0:0:
230,286,31916,2,0,P|268:304|338:275,1,108.8,2|2,2:2|2:2,0:0:0:0:
399,346,32410,1,0,3:2:0:0:
487,328,32575,2,0,L|491:221,1,102,14|0,2:2|2:2,0:0:0:0:
465,196,32905,6,0,L|450:52,1,136,0|10,3:2|2:2,0:0:0:0:
377,17,33399,1,0,2:2:0:0:
323,86,33564,1,2,3:2:0:0:
323,86,33729,2,0,P|286:112|239:110,1,68,2|8,2:2|2:2,0:0:0:0:
208,185,34059,2,0,P|176:164|68:181,1,136,2|0,2:2|2:2,0:0:0:0:
28,234,34553,2,0,L|44:300,1,68,10|2,2:2|2:2,0:0:0:0:
82,170,34883,2,0,L|66:104,1,68,2|0,3:2|3:2,0:0:0:0:
112,33,35213,1,10,2:2:0:0:
112,33,35377,1,2,2:2:0:0:
258,113,35707,5,2,2:2:0:0:
258,113,35872,2,0,B|323:94|322:150|400:139,2,136,10|2|10,2:2|3:2|2:2,0:0:0:0:
208,186,36696,1,0,2:2:0:0:
281,249,36861,2,0,L|289:324,1,68,2|2,3:2|2:2,0:0:0:0:
384,335,37191,2,0,L|376:260,1,68,10|0,2:2|2:2,0:0:0:0:
439,202,37520,1,2,2:2:0:0:
370,149,37685,5,8,2:2:0:0:
370,149,37850,1,8,2:2:0:0:
423,84,38015,2,0,P|459:70|500:73,1,68,2|0,2:2|3:2,0:0:0:0:
364,17,38344,5,2,2:2:0:0:
364,17,38509,2,0,P|326:37|249:-14,1,136,10|0,2:2|3:2,0:0:0:0:
222,90,39004,2,0,P|184:70|107:121,2,136,2|2|2,2:2|2:2|2:2,0:0:0:0:
281,166,39828,1,10,2:2:0:0:
281,166,39993,1,0,2:2:0:0:
225,235,40158,2,0,L|145:231,1,68,2|0,3:2|3:2,0:0:0:0:
276,304,40487,2,0,L|344:301,1,68,10|0,2:2|2:2,0:0:0:0:
415,350,40817,5,14,2:2:0:0:
415,350,40982,1,10,2:2:0:0:
134,280,41476,1,10,2:2:0:0:
134,280,41641,1,10,2:2:0:0:
267,236,41971,6,0,P|263:177|249:89,1,136,6|2,3:2|2:2,0:0:0:0:
243,16,42465,2,0,B|264:-11|264:-11|292:23,1,68,10|0,2:2|2:2,0:0:0:0:
251,101,42795,2,0,P|211:112|168:93,1,68,2|8,3:2|2:2,0:0:0:0:
178,101,43042,1,8,2:2:0:0:
170,95,43125,2,0,P|130:84|87:103,1,68,8|8,2:2|2:2,0:0:0:0:
94,97,43372,1,8,2:2:0:0:
88,106,43454,6,0,L|93:247,1,136,6|10,3:2|2:2,0:0:0:0:
46,313,43949,1,2,2:2:0:0:
120,370,44114,2,0,P|162:383|222:308,1,136,2|10,3:2|2:2,0:0:0:0:
273,232,44608,6,0,P|311:284|376:277,1,136,2|2,2:2|2:2,0:0:0:0:
443,217,45103,1,10,2:2:0:0:
511,282,45267,1,2,3:2:0:0:
511,282,45350,1,0,3:3:0:0:
511,282,45432,2,0,L|487:119,1,136,8|4,2:3|2:3,0:0:0:0:
368,6,46092,6,0,L|361:87,1,68,2|0,3:2|2:2,0:0:0:0:
296,135,46421,1,10,2:2:0:0:
296,135,46586,1,2,2:2:0:0:
219,83,46751,2,0,P|176:75|122:144,1,136,2|10,3:2|2:2,0:0:0:0:
181,207,47246,1,2,2:2:0:0:
123,276,47410,6,0,B|43:271|77:322|-23:323,1,136,2|10,3:2|2:2,0:0:0:0:
196,330,47905,2,0,B|273:329|239:380|319:375,1,136,2|8,3:2|2:3,0:0:0:0:
397,323,48399,2,0,L|404:239,1,68,4|4,2:3|2:3,0:0:0:0:
473,202,48729,6,0,L|457:120,1,68,6|0,3:2|0:0,0:0:0:0:
393,80,49059,1,10,2:2:0:0:
393,80,49224,1,2,2:2:0:0:
334,142,49388,2,0,P|297:156|260:152,1,68,2|0,3:2|3:2,0:0:0:0:
192,105,49718,2,0,P|155:91|118:95,1,68,10|0,2:2|2:2,0:0:0:0:
58,153,50048,6,0,L|66:228,2,68,2|0|10,3:2|2:2|2:2,0:0:0:0:
127,92,50542,2,0,B|198:77|188:140|285:111,1,136,4|0,2:3|2:2,0:0:0:0:
332,63,51037,1,10,2:2:0:0:
458,183,51366,6,0,P|447:223|445:261,1,68,6|0,3:2|0:0,0:0:0:0:
351,258,51696,2,0,P|362:298|364:336,1,68,8|0,2:2|2:2,0:0:0:0:
286,377,52026,2,0,L|206:367,1,68,2|0,3:2|0:0,0:0:0:0:
149,310,52355,2,0,L|56:326,1,68,8|0,2:2|2:2,0:0:0:0:
7,268,52685,6,0,B|-22:193|28:213|-6:127,2,136,2|10|2,3:2|2:2|3:2,0:0:0:0:
91,222,53509,1,8,2:2:0:0:
91,222,53592,1,8,2:2:0:0:
91,222,53674,1,8,2:2:0:0:
176,261,53839,2,0,L|180:319,2,34,8|8|2,2:2|2:2|2:2,0:0:0:0:
244,204,54169,5,8,2:2:0:0:
244,204,54333,2,0,P|294:183|368:249,1,149.60000456543,10|0,2:2|3:2,0:0:0:0:
450,187,54828,1,8,2:2:0:0:
450,187,54993,1,10,2:2:0:0:
355,359,55322,5,4,2:3:0:0:
355,359,55487,1,2,3:2:0:0:
268,324,55652,1,10,2:2:0:0:
268,324,55817,1,10,2:2:0:0:
194,374,55982,2,0,P|155:383|100:365,1,74.8000022827149,4|0,2:3|3:2,0:0:0:0:
51,318,56311,6,0,L|61:192,1,112.200003424072,14|0,2:2|2:2,0:0:0:0:
33,186,56641,6,0,B|24:76|24:76|64:126,1,149.60000456543,6|8,3:2|2:2,0:0:0:0:
126,64,57136,1,2,3:2:0:0:
126,64,57218,1,8,2:2:0:0:
126,64,57300,2,0,B|199:42|194:106|279:83,1,149.60000456543,2|8,3:2|2:2,0:0:0:0:
339,33,57795,1,2,2:2:0:0:
417,91,57960,6,0,L|430:172,2,74.8000022827149,2|2|10,3:2|2:2|2:2,0:0:0:0:
505,206,58454,2,0,P|459:249|367:221,2,149.60000456543,2|2|2,2:2|3:2|2:2,0:0:0:0:
417,91,59278,6,0,B|329:90|375:146|262:142,1,149.60000456543,2|8,3:2|2:2,0:0:0:0:
208,97,59773,1,2,3:2:0:0:
208,97,59855,1,8,2:2:0:0:
208,97,59938,2,0,P|190:160|163:240,1,149.60000456543,0|8,3:2|2:2,0:0:0:0:
236,299,60432,1,2,2:2:0:0:
236,299,60515,1,8,2:2:0:0:
236,299,60597,6,0,P|247:349|257:387,2,74.8000022827149,2|2|10,3:2|2:2|2:2,0:0:0:0:
312,220,61092,2,0,P|321:256|328:293,1,74.8000022827149,2|0,2:2|3:2,0:0:0:0:
339,299,61339,1,8,2:2:0:0:
348,305,61421,1,0,3:2:0:0:
429,254,61586,2,0,L|483:259,3,37.4000011413575,10|8|8|8,2:2|2:2|2:2|2:2,0:0:0:0:
478,273,61916,6,0,P|503:224|457:126,1,149.60000456543,6|10,3:2|2:2,0:0:0:0:
388,94,62410,1,0,3:2:0:0:
388,94,62493,1,8,2:2:0:0:
388,94,62575,2,0,P|334:123|293:122,1,74.8000022827149,2|0,3:2|2:2,0:0:0:0:
240,75,62905,2,0,P|186:46|145:47,1,74.8000022827149,10|0,2:2|2:2,0:0:0:0:
96,95,63235,6,0,L|110:229,1,112.200003424072,2|0,3:2|2:2,0:0:0:0:
90,232,63564,2,0,B|78:267|78:267|97:312,1,74.8000022827149,10|0,2:2|2:2,0:0:0:0:
171,371,63894,2,0,B|206:383|206:383|251:364,1,74.8000022827149,2|0,3:2|2:2,0:0:0:0:
311,313,64224,2,0,B|345:298|345:298|380:310,1,74.8000022827149,10|0,2:2|3:2,0:0:0:0:
387,318,64471,1,8,2:2:0:0:
392,326,64553,6,0,L|376:155,1,149.60000456543,6|8,3:2|2:2,0:0:0:0:
418,94,65048,1,2,3:2:0:0:
418,94,65130,1,8,2:2:0:0:
418,94,65213,2,0,P|462:79|503:86,1,74.8000022827149,2|0,3:2|0:0,0:0:0:0:
335,30,65542,2,0,B|256:49|265:-11|170:24,1,149.60000456543,8|0,2:2|3:2,0:0:0:0:
173,111,66037,6,0,B|195:142|195:142|207:107,1,74.8000022827149,14|8,2:2|2:2,0:0:0:0:
138,250,66366,2,0,B|153:215|153:215|117:222,1,74.8000022827149,6|8,3:2|2:2,0:0:0:0:
276,211,66696,1,8,2:2:0:0:
276,211,66861,2,0,B|238:214|238:214|261:242,1,74.8000022827149,14|0,2:2|0:0,0:0:0:0:
333,311,67191,6,0,B|412:292|382:353|493:331,1,149.60000456543,6|8,3:2|2:2,0:0:0:0:
505,246,67685,1,2,3:2:0:0:
505,246,67767,1,8,2:2:0:0:
505,246,67850,2,0,P|482:208|373:236,1,149.60000456543,2|8,3:2|2:2,0:0:0:0:
312,155,68344,1,2,3:2:0:0:
312,155,68427,1,8,2:2:0:0:
312,155,68509,6,0,L|321:73,2,74.8000022827149,2|0|10,3:2|2:2|2:2,0:0:0:0:
237,209,69004,2,0,B|152:193|173:250|85:236,1,149.60000456543,2|2,2:2|3:2,0:0:0:0:
20,182,69498,1,10,2:2:0:0:
90,120,69663,1,0,2:2:0:0:
46,42,69828,6,0,P|98:86|187:42,1,149.60000456543,6|8,3:2|2:2,0:0:0:0:
251,111,70322,1,2,3:2:0:0:
251,111,70405,1,8,2:2:0:0:
251,111,70487,2,0,B|295:72|341:89|341:89|347:130|329:154,1,149.60000456543,6|8,3:2|2:2,0:0:0:0:
396,213,70982,1,2,3:2:0:0:
396,213,71064,1,8,2:2:0:0:
396,213,71147,6,0,P|445:225|473:217,2,74.8000022827149,6|0|10,3:2|2:2|2:2,0:0:0:0:
340,284,71641,2,0,P|290:283|220:367,1,149.60000456543,2|0,2:2|3:2,0:0:0:0:
140,308,72136,1,10,2:2:0:0:
140,308,72218,1,8,2:2:0:0:
140,308,72300,1,8,2:2:0:0:
140,308,72383,1,8,2:2:0:0:
140,308,72465,6,0,P|97:300|57:291,1,74.8000022827149,6|0,3:2|0:0,0:0:0:0:
54,199,72795,2,0,P|90:206|127:213,1,74.8000022827149,10|0,2:2|3:2,0:0:0:0:
134,218,73042,1,0,3:2:0:0:
141,222,73125,2,0,P|181:204|229:209,1,74.8000022827149,2|0,3:2|2:2,0:0:0:0:
250,114,73454,2,0,P|245:70|264:26,1,74.8000022827149,10|0,2:2|2:2,0:0:0:0:
346,51,73784,6,0,P|350:94|331:138,1,74.8000022827149,2|0,3:2|0:0,0:0:0:0:
376,206,74114,2,0,B|423:238|423:238|534:205,2,149.60000456543,10|2|10,2:2|3:2|2:2,0:0:0:0:
313,261,74938,1,8,2:2:0:0:
313,261,75020,1,8,2:2:0:0:
313,261,75103,6,0,B|160:232|244:363|54:356,1,255,6|2,3:2|3:2,0:0:0:0:
6,220,75762,2,0,B|55:146|160:181|160:181|129:214|105:272,1,255,2|4,3:2|2:3,0:0:0:0:
92,355,76421,5,6,3:2:0:0:
