osu file format v14

[General]
AudioFilename: audio.mp3
AudioLeadIn: 0
PreviewTime: 56167
Countdown: 0
SampleSet: Soft
StackLeniency: 0.7
Mode: 3
LetterboxInBreaks: 0
SpecialStyle: 0
WidescreenStoryboard: 1

[Editor]
DistanceSpacing: 0.8
BeatDivisor: 4
GridSize: 4
TimelineZoom: 0.6999999

[Metadata]
Title:Toki toshite Violence (TV Size)
TitleUnicode:時としてバイオレンス (TV Size)
Artist:halca
ArtistUnicode:halca
Creator:Murumoo
Version:Easy
Source:邪神ちゃんドロップキック’
Tags:anime japanese Jashin-chan DROPKICK ON MY DEVIL!! DASH VVCL-1637 Kazuhiro Hara Tomoya Kawasaki Junko Miyajima SACRA MUSIC vocal Baiorensu J-Pop jpop ダッシュ 宮嶋順子 原一博 川崎智哉
BeatmapID:2390918
BeatmapSetID:1145160

[Difficulty]
HPDrainRate:6
CircleSize:4
OverallDifficulty:6
ApproachRate:5
SliderMultiplier:1.4
SliderTickRate:1

[Events]
//Background and Video events
Video,-80,"bga.mp4"
0,0,"bg.jpg",0,0
//Break Periods
//Storyboard Layer 0 (Background)
//Storyboard Layer 1 (Fail)
//Storyboard Layer 2 (Pass)
//Storyboard Layer 3 (Foreground)
//Storyboard Layer 4 (Overlay)
//Storyboard Sound Samples
Sample,19408,0,"finish.wav",40
Sample,27320,0,"bell.wav",60
Sample,32595,0,"finish.wav",40
Sample,37705,0,"Clap.wav",60
Sample,37870,0,"Clap.wav",60
Sample,42485,0,"finish.wav",40
Sample,45123,0,"hat.wav",70
Sample,54189,0,"finish.wav",40
Sample,54353,0,"finish.wav",40
Sample,54848,0,"finish.wav",40
Sample,55013,0,"finish.wav",40
Sample,66057,0,"finish.wav",40
Sample,66386,0,"finish.wav",40
Sample,66881,0,"finish.wav",40
Sample,76606,0,"finish.wav",40
Sample,76936,0,"finish.wav",40
Sample,80727,0,"finish.wav",40

[TimingPoints]
1277,329.67032967033,4,2,1,60,1,0
56661,-100,4,2,1,70,0,1
77760,-100,4,2,1,60,0,0

[HitObjects]
64,192,1277,5,0,0:0:0:0:
64,192,1606,1,0,0:0:0:70:hat.wav
320,192,1936,1,0,0:0:0:0:
320,192,2266,1,0,0:0:0:70:hat.wav
192,192,2595,1,0,0:0:0:0:
192,192,2925,1,0,0:0:0:70:hat.wav
448,192,3255,1,0,0:0:0:0:
448,192,3584,1,0,0:0:0:70:hat.wav
192,192,3914,1,0,0:0:0:0:
192,192,4244,1,0,0:0:0:70:hat.wav
320,192,4573,1,0,0:0:0:0:
320,192,4903,1,0,0:0:0:70:hat.wav
64,192,5233,1,0,0:0:0:0:
64,192,5562,1,0,0:0:0:70:hat.wav
448,192,5892,1,0,0:0:0:0:
448,192,6222,1,0,0:0:0:70:hat.wav
192,192,6551,1,0,0:0:0:0:
192,192,6881,1,0,0:0:0:70:hat.wav
320,192,7211,1,0,0:0:0:0:
320,192,7540,1,0,0:0:0:70:hat.wav
64,192,7870,1,0,0:0:0:0:
64,192,8200,1,0,0:0:0:70:hat.wav
448,192,8529,1,0,0:0:0:0:
448,192,8859,1,0,0:0:0:70:hat.wav
192,192,9189,1,0,0:0:0:0:
192,192,9518,1,0,0:0:0:70:hat.wav
320,192,9848,1,0,0:0:0:0:
320,192,10178,1,0,0:0:0:70:hat.wav
192,192,10507,1,0,0:0:0:0:
64,192,11496,128,0,11826:0:0:0:0:
320,192,11826,1,0,0:0:0:60:drum.wav
448,192,11826,1,0,0:0:0:40:finish.wav
192,192,12156,1,0,0:0:0:60:snare.wav
448,192,12485,1,0,0:0:0:60:drum.wav
64,192,12815,1,0,0:0:0:60:snare.wav
320,192,13145,128,0,13639:0:0:0:60:drum.wav
192,192,13639,128,0,14134:0:0:0:0:
448,192,14134,1,0,0:0:0:60:snare.wav
320,192,14463,1,0,0:0:0:60:drum.wav
64,192,14793,1,0,0:0:0:60:snare.wav
192,192,15123,1,0,0:0:0:60:drum.wav
320,192,15452,1,0,0:0:0:60:snare.wav
192,192,15782,128,0,16277:0:0:0:60:drum.wav
320,192,16277,128,0,16771:0:0:0:0:
64,192,16771,1,0,0:0:0:60:snare.wav
192,192,17101,1,0,0:0:0:60:drum.wav
448,192,17101,1,0,0:0:0:40:finish.wav
320,192,17430,1,0,0:0:0:60:snare.wav
64,192,17760,1,0,0:0:0:60:drum.wav
192,192,18090,1,0,0:0:0:60:snare.wav
448,192,18419,1,0,0:0:0:60:drum.wav
64,192,18749,1,0,0:0:0:60:snare.wav
320,192,19079,1,0,0:0:0:60:drum.wav
192,192,19408,1,0,0:0:0:60:snare.wav
320,192,19573,1,0,0:0:0:60:snare.wav
64,192,19738,1,0,0:0:0:60:drum.wav
448,192,19738,1,0,0:0:0:40:finish.wav
320,192,20068,1,0,0:0:0:60:snare.wav
192,192,20397,1,0,0:0:0:60:drum.wav
64,192,20397,1,0,0:0:0:40:finish.wav
320,192,20727,1,0,0:0:0:60:snare.wav
448,192,21057,128,0,21386:0:0:0:60:drum.wav
64,192,21386,1,0,0:0:0:40:finish.wav
192,192,21386,128,0,21716:0:0:0:60:snare.wav
448,192,21716,1,0,0:0:0:60:drum.wav
320,192,21881,1,0,0:0:0:60:snare.wav
192,192,22046,1,0,0:0:0:60:snare.wav
64,192,22211,1,0,0:0:0:60:drum.wav
448,192,22705,1,0,0:0:0:60:bell.wav
192,192,23035,1,0,0:0:0:60:bell.wav
192,192,23364,1,0,0:0:0:60:bell.wav
64,192,23694,1,0,0:0:0:60:bell.wav
64,192,24024,1,0,0:0:0:60:bell.wav
448,192,24353,1,0,0:0:0:60:bell.wav
448,192,24683,1,0,0:0:0:60:bell.wav
192,192,25013,1,0,0:0:0:60:bell.wav
192,192,25342,1,0,0:0:0:60:bell.wav
320,192,25672,1,0,0:0:0:60:bell.wav
320,192,26002,1,0,0:0:0:60:bell.wav
64,192,26331,1,0,0:0:0:60:bell.wav
64,192,26661,1,0,0:0:0:60:bell.wav
448,192,26991,1,0,0:0:0:60:bell.wav
192,192,27156,1,0,0:0:0:60:Clap.wav
320,192,27320,1,0,0:0:0:60:Clap.wav
64,192,27650,1,0,0:0:0:60:bell.wav
64,192,27980,1,0,0:0:0:60:bell.wav
448,192,28309,1,0,0:0:0:60:bell.wav
448,192,28639,1,0,0:0:0:60:bell.wav
192,192,28969,1,0,0:0:0:60:bell.wav
192,192,29298,1,0,0:0:0:60:bell.wav
320,192,29628,1,0,0:0:0:60:bell.wav
320,192,29958,1,0,0:0:0:60:bell.wav
64,192,30287,1,0,0:0:0:60:bell.wav
64,192,30617,1,0,0:0:0:60:bell.wav
448,192,30947,1,0,0:0:0:60:bell.wav
448,192,31277,1,0,0:0:0:60:bell.wav
64,192,31606,128,0,31936:0:0:0:60:bell.wav
192,192,31936,128,0,32266:0:0:0:60:bell.wav
448,192,32266,1,0,0:0:0:60:bell.wav
320,192,32430,1,0,0:0:0:60:drum.wav
192,192,32595,1,0,0:0:0:60:snare.wav
64,192,32925,1,0,0:0:0:60:drum.wav
448,192,32925,1,0,0:0:0:40:finish.wav
320,192,33255,1,0,0:0:0:60:snare.wav
192,192,33584,1,0,0:0:0:60:drum.wav
320,192,33914,1,0,0:0:0:60:snare.wav
448,192,34244,1,0,0:0:0:60:drum.wav
192,192,34573,1,0,0:0:0:60:snare.wav
320,192,34903,1,0,0:0:0:60:drum.wav
64,192,35233,1,0,0:0:0:60:snare.wav
448,192,35562,1,0,0:0:0:60:drum.wav
320,192,35892,1,0,0:0:0:60:snare.wav
192,192,36222,1,0,0:0:0:60:drum.wav
64,192,36551,1,0,0:0:0:60:snare.wav
448,192,36881,1,0,0:0:0:60:drum.wav
320,192,37211,1,0,0:0:0:60:snare.wav
192,192,37540,1,0,0:0:0:60:drum.wav
320,192,37705,1,0,0:0:0:60:snare.wav
448,192,37870,1,0,0:0:0:60:snare.wav
64,192,38200,1,0,0:0:0:60:drum.wav
192,192,38529,1,0,0:0:0:60:snare.wav
320,192,38859,1,0,0:0:0:60:drum.wav
448,192,39189,1,0,0:0:0:60:snare.wav
192,192,39518,1,0,0:0:0:60:drum.wav
64,192,39848,1,0,0:0:0:60:snare.wav
320,192,40178,1,0,0:0:0:60:drum.wav
192,192,40507,1,0,0:0:0:60:snare.wav
448,192,40837,1,0,0:0:0:60:snare.wav
320,192,41002,1,0,0:0:0:60:snare.wav
192,192,41496,1,0,0:0:0:60:snare.wav
320,192,41661,1,0,0:0:0:60:snare.wav
64,192,41991,128,0,42320:0:0:0:60:drum.wav
448,192,41991,1,0,0:0:0:40:finish.wav
320,192,42320,1,0,0:0:0:60:drum.wav
192,192,42485,1,0,0:0:0:60:snare.wav
320,192,42815,128,0,43145:0:0:0:60:snare.wav
192,192,43145,128,0,43474:0:0:0:60:drum.wav
64,192,43474,1,0,0:0:0:60:drum.wav
448,192,43474,1,0,0:0:0:40:finish.wav
448,192,43804,1,0,0:0:0:60:drum.wav
192,192,44134,1,0,0:0:0:60:drum.wav
192,192,44463,1,0,0:0:0:60:drum.wav
320,192,44793,1,0,0:0:0:60:drum.wav
320,192,45123,1,0,0:0:0:60:drum.wav
64,192,45452,1,0,0:0:0:60:drum.wav
64,192,45782,1,0,0:0:0:60:drum.wav
320,192,46112,1,0,0:0:0:60:drum.wav
320,192,46441,1,0,0:0:0:60:drum.wav
192,192,46771,1,0,0:0:0:60:drum.wav
192,192,47101,1,0,0:0:0:60:drum.wav
448,192,47430,1,0,0:0:0:60:drum.wav
64,192,47430,1,0,0:0:0:40:finish.wav
448,192,47760,1,0,0:0:0:60:drum.wav
320,192,48090,1,0,0:0:0:60:drum.wav
320,192,48419,1,0,0:0:0:60:drum.wav
192,192,48749,1,0,0:0:0:40:finish.wav
64,192,48749,1,0,0:0:0:60:drum.wav
448,192,49079,1,0,0:0:0:60:drum.wav
64,192,49408,1,0,0:0:0:60:drum.wav
192,192,49573,1,0,0:0:0:60:drum.wav
320,192,49738,1,0,0:0:0:60:snare.wav
64,192,50068,1,0,0:0:0:60:drum.wav
320,192,50397,1,0,0:0:0:60:drum.wav
192,192,50727,1,0,0:0:0:60:drum.wav
320,192,50892,1,0,0:0:0:60:drum.wav
448,192,51057,1,0,0:0:0:60:snare.wav
64,192,51386,1,0,0:0:0:60:drum.wav
192,192,51386,128,0,51716:0:0:0:40:finish.wav
448,192,51716,1,0,0:0:0:60:snare.wav
320,192,51716,1,0,0:0:0:40:finish.wav
320,192,52046,128,0,52375:0:0:0:60:drum.wav
64,192,52375,1,0,0:0:0:60:snare.wav
192,192,52375,1,0,0:0:0:40:finish.wav
448,192,52705,1,0,0:0:0:60:drum.wav
64,192,53035,1,0,0:0:0:60:snare.wav
320,192,53035,1,0,0:0:0:40:finish.wav
192,192,53364,128,0,53694:0:0:0:60:drum.wav
448,192,53694,128,0,54024:0:0:0:60:drum.wav
320,192,54024,1,0,0:0:0:0:
192,192,54189,1,0,0:0:0:60:snare.wav
64,192,54353,1,0,0:0:0:60:snare.wav
192,192,54683,1,0,0:0:0:60:drum.wav
320,192,54848,1,0,0:0:0:60:snare.wav
448,192,55013,1,0,0:0:0:60:snare.wav
64,192,55342,1,0,0:0:0:60:drum.wav
320,192,55507,1,0,0:0:0:60:drum.wav
192,192,55672,1,0,0:0:0:60:drum.wav
320,192,55837,1,0,0:0:0:60:drum.wav
448,192,56002,1,0,0:0:0:60:drum.wav
64,192,56331,1,0,0:0:0:60:Clap.wav
192,192,56331,1,0,0:0:0:40:finish.wav
320,192,56661,1,0,0:0:0:60:drum.wav
448,192,56661,1,0,0:0:0:40:finish.wav
64,192,56991,1,0,0:0:0:60:snare.wav
192,192,56991,1,0,0:0:0:0:
448,192,57320,1,0,0:0:0:60:drum.wav
64,192,57650,1,0,0:0:0:60:snare.wav
320,192,57650,1,0,0:0:0:0:
192,192,57980,1,0,0:0:0:60:drum.wav
320,192,58309,1,0,0:0:0:60:snare.wav
448,192,58309,1,0,0:0:0:0:
64,192,58639,1,0,0:0:0:60:drum.wav
192,192,58969,1,0,0:0:0:60:snare.wav
448,192,58969,1,0,0:0:0:0:
320,192,59298,1,0,0:0:0:60:drum.wav
64,192,59628,1,0,0:0:0:60:snare.wav
192,192,59628,1,0,0:0:0:0:
448,192,59958,1,0,0:0:0:60:drum.wav
192,192,60287,1,0,0:0:0:60:snare.wav
320,192,60287,1,0,0:0:0:0:
64,192,60617,1,0,0:0:0:60:drum.wav
320,192,60947,1,0,0:0:0:60:snare.wav
448,192,60947,1,0,0:0:0:0:
192,192,61277,128,0,61606:0:0:0:60:drum.wav
320,192,61606,128,0,61936:0:0:0:60:snare.wav
64,192,61936,1,0,0:0:0:60:drum.wav
192,192,61936,1,0,0:0:0:40:finish.wav
320,192,62266,1,0,0:0:0:60:snare.wav
448,192,62266,1,0,0:0:0:0:
64,192,62595,1,0,0:0:0:60:drum.wav
192,192,62925,1,0,0:0:0:60:snare.wav
448,192,62925,1,0,0:0:0:0:
320,192,63255,1,0,0:0:0:60:drum.wav
64,192,63584,1,0,0:0:0:60:snare.wav
192,192,63584,1,0,0:0:0:0:
448,192,63914,1,0,0:0:0:60:drum.wav
320,192,64244,1,0,0:0:0:60:snare.wav
192,192,64408,1,0,0:0:0:60:snare.wav
64,192,64573,1,0,0:0:0:60:drum.wav
448,192,64573,128,0,64903:0:0:0:40:finish.wav
320,192,64903,128,0,65233:0:0:0:60:snare.wav
192,192,65233,128,0,65562:0:0:0:60:drum.wav
64,192,65562,128,0,65892:0:0:0:60:snare.wav
448,192,65892,1,0,0:0:0:60:drum.wav
320,192,66057,1,0,0:0:0:60:snare.wav
64,192,66386,1,0,0:0:0:60:snare.wav
192,192,66551,128,0,66881:0:0:0:60:drum.wav
320,192,66881,128,0,67211:0:0:0:60:snare.wav
64,192,67211,128,0,67540:0:0:0:60:drum.wav
448,192,67211,1,0,0:0:0:40:finish.wav
320,192,67540,1,0,0:0:0:60:snare.wav
192,192,67870,128,0,68200:0:0:0:60:drum.wav
64,192,68200,1,0,0:0:0:60:snare.wav
448,192,68200,1,0,0:0:0:40:finish.wav
320,192,68529,1,0,0:0:0:60:drum.wav
64,192,68859,1,0,0:0:0:60:snare.wav
192,192,68859,1,0,0:0:0:0:
448,192,69189,1,0,0:0:0:60:drum.wav
64,192,69518,1,0,0:0:0:60:snare.wav
192,192,69518,1,0,0:0:0:0:
448,192,69848,1,0,0:0:0:60:drum.wav
320,192,69848,128,0,70178:0:0:0:40:finish.wav
64,192,70178,1,0,0:0:0:60:snare.wav
320,192,70507,1,0,0:0:0:60:drum.wav
192,192,70507,128,0,70837:0:0:0:40:finish.wav
448,192,70837,1,0,0:0:0:60:snare.wav
192,192,71167,1,0,0:0:0:40:finish.wav
64,192,71167,1,0,0:0:0:60:drum.wav
448,192,71496,1,0,0:0:0:60:snare.wav
320,192,71826,128,0,72156:0:0:0:60:drum.wav
192,192,72156,128,0,72485:0:0:0:60:drum.wav
64,192,72485,1,0,0:0:0:60:drum.wav
448,192,72485,1,0,0:0:0:40:finish.wav
192,192,72815,1,0,0:0:0:60:snare.wav
320,192,72815,1,0,0:0:0:0:
64,192,73145,1,0,0:0:0:60:drum.wav
320,192,73474,1,0,0:0:0:60:snare.wav
448,192,73474,1,0,0:0:0:0:
192,192,73804,1,0,0:0:0:60:drum.wav
64,192,74134,1,0,0:0:0:60:snare.wav
448,192,74134,1,0,0:0:0:0:
320,192,74463,1,0,0:0:0:60:drum.wav
192,192,74793,1,0,0:0:0:60:snare.wav
320,192,74958,1,0,0:0:0:60:snare.wav
64,192,75123,128,0,75452:0:0:0:60:drum.wav
448,192,75123,1,0,0:0:0:40:finish.wav
192,192,75452,128,0,75782:0:0:0:60:snare.wav
320,192,75782,128,0,76112:0:0:0:60:drum.wav
448,192,76112,128,0,76441:0:0:0:60:snare.wav
64,192,76441,1,0,0:0:0:60:drum.wav
192,192,76606,1,0,0:0:0:60:snare.wav
448,192,76936,1,0,0:0:0:60:snare.wav
320,192,77101,128,0,77430:0:0:0:60:drum.wav
192,192,77430,128,0,77760:0:0:0:60:drum.wav
64,192,77760,1,0,0:0:0:60:drum.wav
448,192,77760,1,0,0:0:0:40:finish.wav
192,192,78090,1,0,0:0:0:60:snare.wav
320,192,78255,1,0,0:0:0:70:hat.wav
448,192,78419,1,0,0:0:0:60:drum.wav
192,192,78749,1,0,0:0:0:60:snare.wav
320,192,78749,1,0,0:0:0:40:finish.wav
64,192,79079,1,0,0:0:0:60:drum.wav
320,192,79408,1,0,0:0:0:60:snare.wav
192,192,79573,1,0,0:0:0:70:hat.wav
64,192,79738,1,0,0:0:0:60:drum.wav
192,192,80068,1,0,0:0:0:60:snare.wav
320,192,80068,1,0,0:0:0:0:
448,192,80397,1,0,0:0:0:60:drum.wav
192,192,80727,1,0,0:0:0:60:snare.wav
320,192,80892,1,0,0:0:0:70:hat.wav
448,192,81057,1,0,0:0:0:60:drum.wav
192,192,81386,1,0,0:0:0:60:snare.wav
320,192,81386,1,0,0:0:0:40:finish.wav
64,192,81716,1,0,0:0:0:60:drum.wav
320,192,82046,1,0,0:0:0:60:snare.wav
192,192,82211,1,0,0:0:0:70:hat.wav
64,192,82375,1,0,0:0:0:60:drum.wav
320,192,82705,128,0,83035:0:0:0:60:drum.wav
64,192,83035,1,0,0:0:0:60:drum.wav
448,192,83035,1,0,0:0:0:40:finish.wav
192,192,83364,1,0,0:0:0:60:snare.wav
320,192,83364,1,0,0:0:0:0:
64,192,83694,1,0,0:0:0:60:drum.wav
320,192,84024,1,0,0:0:0:60:snare.wav
448,192,84024,1,0,0:0:0:0:
192,192,84353,1,0,0:0:0:60:drum.wav
64,192,84683,1,0,0:0:0:60:snare.wav
448,192,84683,1,0,0:0:0:0:
320,192,85013,1,0,0:0:0:60:drum.wav
192,192,85342,1,0,0:0:0:60:snare.wav
320,192,85507,1,0,0:0:0:60:snare.wav
448,192,85672,128,0,86002:0:0:0:60:drum.wav
64,192,85672,1,0,0:0:0:40:finish.wav
320,192,86002,128,0,86331:0:0:0:60:snare.wav
448,192,86331,1,0,0:0:0:60:drum.wav
192,192,86331,128,0,86661:0:0:0:40:finish.wav
64,192,86661,128,0,86991:0:0:0:60:drum.wav
448,192,86991,1,0,0:0:0:60:drum.wav
320,192,86991,1,0,0:0:0:40:finish.wav
