osu file format v14

[General]
AudioFilename: audio.mp3
AudioLeadIn: 0
PreviewTime: 59350
Countdown: 0
SampleSet: Soft
StackLeniency: 0.6
Mode: 0
LetterboxInBreaks: 0
WidescreenStoryboard: 1

[Editor]
Bookmarks: 1704,14171,19919,31416,42913,51536,60159,83153,88901
DistanceSpacing: 1
BeatDivisor: 4
GridSize: 32
TimelineZoom: 1.82

[Metadata]
Title:Sentimental Crisis (TV Size)
TitleUnicode:センチメンタルクライシス (TV Size)
Artist:halca
ArtistUnicode:halca
Creator:Wanpachi
Version:sanairrt's Insane
Source:かぐや様は告らせたい ~天才たちの恋愛頭脳戦~
Tags:sanairrt cycopton kaguya-sama kaguya-sama: wa kokurasetai tensai-tachi no renai zunosen kaguya wants to be confessed the genius war of love and brains is japanese anime ending ed zunousen pop j-pop jpop 3rd single ed
BeatmapID:2847457
BeatmapSetID:1375253

[Difficulty]
HPDrainRate:5.5
CircleSize:3.8
OverallDifficulty:7.5
ApproachRate:8.8
SliderMultiplier:1.6
SliderTickRate:1

[Events]
//Background and Video events
0,0,"kaguya ! !.jpg",0,0
//Break Periods
//Storyboard Layer 0 (Background)
//Storyboard Layer 1 (Fail)
//Storyboard Layer 2 (Pass)
//Storyboard Layer 3 (Foreground)
//Storyboard Layer 4 (Overlay)
//Storyboard Sound Samples

[TimingPoints]
-4529,389.61038961039,4,2,2,40,1,0
146,-250.000000000001,4,2,2,40,0,0
7938,-166.666666666667,4,2,2,40,0,0
13782,-100,4,2,2,40,0,0
14171,359.281437125748,4,2,1,70,1,0
14171,-100,4,2,1,70,0,0
18123,-166.666666666666,4,2,1,60,0,0
19919,-142.857142857143,4,2,2,50,0,0
28542,-125,4,2,2,30,0,0
28901,-125,4,2,2,40,0,0
29260,-125,4,2,2,50,0,0
29620,-125,4,2,2,60,0,0
29979,-111.111111111111,4,2,1,70,0,0
31416,-111.111111111111,4,2,1,70,0,0
40039,-111.111111111111,4,2,1,60,0,0
48662,-100,4,2,1,60,0,0
51536,-100,4,2,1,70,0,0
54051,-166.666666666667,4,2,1,60,0,0
55488,-100,4,2,1,70,0,0
55847,-100,4,2,1,60,0,0
56206,-100,4,2,1,70,0,0
56565,-100,4,2,1,60,0,0
57284,-100,4,2,1,70,0,0
58721,-100,4,2,1,80,0,0
59081,-100,4,2,1,60,0,0
59485,-100,4,2,1,35,0,0
59799,-100,4,2,1,70,0,0
60159,-90.9090909090909,4,2,1,80,0,1
69859,-142.857142857143,4,2,1,80,0,1
70578,-90.9090909090909,4,2,1,80,0,1
71296,-90.9090909090909,4,2,1,80,0,0
71656,-90.9090909090909,4,2,1,80,0,1
81356,-142.857142857143,4,2,1,80,0,1
82075,-90.9090909090909,4,2,1,80,0,1
82793,-90.9090909090909,4,2,1,80,0,0
83153,-90.9090909090909,4,2,1,80,0,1
85847,-90.9090909090909,4,2,1,80,0,0
86027,-90.9090909090909,4,2,1,80,0,1
86386,-90.9090909090909,4,2,1,40,0,1
86566,-90.9090909090909,4,2,1,50,0,1
86745,-90.9090909090909,4,2,1,60,0,1
86925,-90.9090909090909,4,2,1,70,0,1
87105,-90.9090909090909,4,2,1,80,0,1
87464,-90.9090909090909,4,2,1,80,0,0
87554,-90.9090909090909,4,2,1,5,0,0

[Colours]
Combo1 : 216,208,120
Combo2 : 255,88,100
Combo3 : 191,191,191
Combo4 : 241,135,165

[HitObjects]
65,97,1704,6,0,P|182:77|166:188,1,256,2|2,0:0|0:0,0:0:0:0:
64,290,4821,2,0,B|120:251|204:289|153:309|236:359|308:318,1,256,2|2,0:0|0:0,0:0:0:0:
432,382,7938,6,0,P|421:345|407:282,1,95.9999970703126,2|0,0:0|0:0,0:0:0:0:
270,290,8717,2,0,P|281:253|295:190,1,95.9999970703126
446,199,9496,2,0,P|435:162|421:99,1,95.9999970703126,2|0,0:0|0:0,0:0:0:0:
255,121,10276,2,0,P|266:84|280:21,1,95.9999970703126
255,121,11055,5,2,0:0:0:0:
255,121,11445,5,0,0:0:0:0:
188,189,11639,1,0,0:0:0:0:
280,213,11834,2,0,P|286:240|295:275,1,47.9999985351563
219,366,12224,2,0,P|213:342|208:319,1,47.9999985351563
200,282,12516,1,0,0:0:0:0:
200,282,12613,5,2,0:0:0:0:
280,213,13782,5,2,0:0:0:0:
247,190,13880,1,2,0:0:0:0:
208,179,13977,1,2,0:0:0:0:
169,183,14074,1,2,0:0:0:0:
133,200,14172,6,0,P|121:149|109:100,1,80,6|0,3:2|0:0,0:0:0:0:
159,293,14530,1,8,0:0:0:0:
247,190,14709,1,0,3:2:0:0:
247,190,14799,1,0,3:2:0:0:
247,190,14889,1,0,3:2:0:0:
318,329,15069,1,2,3:2:0:0:
159,293,15248,2,0,P|121:285|76:304,1,80,10|2,0:0|3:2,0:0:0:0:
50,317,15518,1,0,3:2:0:0:
50,317,15608,5,2,3:2:0:0:
8,192,15787,1,2,3:2:0:0:
159,293,15967,1,10,0:0:0:0:
247,190,16147,1,2,3:2:0:0:
247,190,16236,1,0,3:2:0:0:
247,190,16326,1,0,3:2:0:0:
159,293,16506,1,2,3:2:0:0:
144,134,16685,2,0,P|194:84|307:90,1,160,14|0,0:0|0:0,0:0:0:0:
395,175,17224,5,8,0:0:0:0:
376,168,17314,1,8,0:0:0:0:
357,162,17404,1,8,0:0:0:0:
247,190,17584,1,0,3:2:0:0:
279,77,17763,1,8,0:3:0:0:
357,162,17943,1,4,0:3:0:0:
263,285,18123,6,0,B|216:299|173:258|173:258|147:309|78:310|78:310|28:242|81:181,1,335.999989746094,6|8,3:2|0:3,0:0:0:0:
144,134,19560,2,0,L|134:72,1,47.9999985351563,4|0,0:3|0:0,0:0:0:0:
131,53,19829,1,0,0:0:0:0:
131,53,19919,6,0,P|189:33|247:42,1,111.999996582031,2|0,3:2|0:0,0:0:0:0:
349,13,20458,1,2,3:2:0:0:
349,13,20638,2,0,P|330:61|314:140,1,111.999996582031,0|10,0:0|0:0,0:0:0:0:
370,200,21176,1,0,3:2:0:0:
370,200,21266,1,2,0:0:0:0:
370,200,21356,6,0,P|329:215|248:185,1,111.999996582031,2|0,3:2|0:0,0:0:0:0:
185,142,21895,1,2,3:2:0:0:
123,234,22075,2,0,P|133:275|139:299,1,55.9999982910157
235,384,22434,2,0,P|244:333|256:278,1,83.9999974365235,10|2,0:0|0:0,0:0:0:0:
261,260,22793,6,0,B|296:245|328:257|313:265|342:279|390:259,1,111.999996582031,2|0,3:2|0:0,0:0:0:0:
461,329,23332,2,0,B|489:292|489:292|461:210,1,111.999996582031,2|0,3:2|0:0,0:0:0:0:
384,149,23871,1,10,0:0:0:0:
481,72,24051,1,0,3:2:0:0:
481,72,24141,1,2,0:0:0:0:
481,72,24230,6,0,P|428:71|360:43,1,111.999996582031,2|0,3:2|0:0,0:0:0:0:
275,105,24769,1,2,3:2:0:0:
224,12,24949,1,2,0:0:0:0:
131,63,25129,1,2,0:0:0:0:
182,156,25308,2,0,P|169:193|160:221,1,55.9999982910157,10|2,0:0|0:0,0:0:0:0:
153,249,25578,1,2,0:0:0:0:
153,249,25668,6,0,P|162:280|171:314,2,55.9999982910157,2|0|0,3:2|0:0|0:0,0:0:0:0:
182,156,26206,1,2,3:2:0:0:
58,234,26386,2,0,P|48:193|27:119,1,111.999996582031,0|10,0:0|0:0,0:0:0:0:
78,26,26925,1,0,3:2:0:0:
78,26,27015,1,2,0:0:0:0:
78,26,27105,6,0,P|142:40|187:17,1,111.999996582031,2|0,3:2|0:0,0:0:0:0:
257,101,27644,1,2,3:2:0:0:
364,53,27823,2,0,P|355:22|345:-8,1,55.9999982910157
257,101,28182,2,0,P|248:127|240:154,1,55.9999982910157,10|0,0:0|0:0,0:0:0:0:
316,258,28542,5,2,3:2:0:0:
316,258,28721,1,2,0:0:0:0:
240,154,28901,1,2,0:0:0:0:
180,271,29081,2,0,P|130:255|47:231,1,128,2|2,3:2|0:0,0:0:0:0:
0,113,29620,2,0,P|39:109|72:86,1,64,10|2,0:0|3:2,0:0:0:0:
182,21,29979,5,2,3:2:0:0:
260,160,30159,1,10,0:0:0:0:
240,154,30248,1,8,0:0:0:0:
221,148,30338,1,10,0:0:0:0:
354,200,30518,1,10,0:0:0:0:
354,200,31416,6,0,P|415:159|498:182,1,143.999995605469,6|0,3:2|3:2,0:0:0:0:
433,250,31955,1,2,0:0:0:0:
383,348,32135,2,0,P|343:334|306:324,1,71.9999978027344,2|2,3:2|0:0,0:0:0:0:
197,238,32494,2,0,P|231:228|265:216,1,71.9999978027344,10|2,0:0|0:0,0:0:0:0:
144,332,32853,6,0,P|106:291|103:193,1,143.999995605469,2|0,3:2|3:2,0:0:0:0:
127,93,33392,1,2,0:0:0:0:
207,202,33572,1,2,3:2:0:0:
63,191,33751,1,2,0:0:0:0:
63,191,33841,1,0,0:0:0:0:
63,191,33931,1,10,0:0:0:0:
204,117,34111,1,2,0:0:0:0:
204,117,34200,1,0,0:0:0:0:
204,117,34290,6,0,P|252:127|276:150,1,71.9999978027344,2|0,3:2|0:0,0:0:0:0:
361,269,34650,2,0,P|313:259|289:236,1,71.9999978027344,2|0,3:2|0:0,0:0:0:0:
374,121,35009,2,0,P|366:153|354:205,1,71.9999978027344,2|0,3:2|0:0,0:0:0:0:
223,272,35368,2,0,P|214:236|206:201,1,71.9999978027344,10|0,0:0|0:0,0:0:0:0:
45,133,35727,6,0,P|127:142|181:89,1,143.999995605469,2|2,3:2|3:2,0:0:0:0:
97,60,36266,1,2,0:0:0:0:
205,0,36446,2,0,P|246:11|307:26,1,71.9999978027344,2|2,3:2|0:0,0:0:0:0:
309,27,36715,1,0,0:0:0:0:
309,27,36805,1,10,0:0:0:0:
385,139,36985,1,2,0:0:0:0:
488,29,37165,6,0,B|463:33|450:67|450:67|490:104|481:169,1,143.999995605469,2|0,3:2|3:2,0:0:0:0:
385,139,37703,1,2,0:0:0:0:
430,261,37883,2,0,P|473:247|522:235,1,71.9999978027344,2|2,3:2|0:0,0:0:0:0:
385,139,38242,2,0,P|342:125|293:113,1,71.9999978027344,10|2,0:0|0:0,0:0:0:0:
191,212,38602,6,0,P|258:208|291:282,1,143.999995605469,2|0,3:2|3:2,0:0:0:0:
250,367,39141,1,0,0:0:0:0:
141,303,39320,2,0,P|99:311|62:320,1,71.9999978027344,2|8,3:2|0:0,0:0:0:0:
29,324,39590,1,8,0:0:0:0:
29,324,39679,2,0,P|11:292|17:245,1,71.9999978027344,6|8,3:2|0:0,0:0:0:0:
40,226,39949,1,8,0:0:0:0:
40,226,40039,6,0,P|71:176|40:83,1,143.999995605469,6|0,3:2|0:0,0:0:0:0:
0,13,40578,1,0,0:0:0:0:
129,64,40757,2,0,P|208:50|302:41,1,143.999995605469,10|0,0:0|0:0,0:0:0:0:
342,131,41296,1,8,0:0:0:0:
418,6,41476,5,2,3:2:0:0:
271,43,41656,2,0,P|233:100|248:196,1,143.999995605469,8|8,0:0|0:3,0:0:0:0:
251,207,42105,1,4,0:3:0:0:
251,207,42194,2,0,B|296:192|336:180|336:180|363:201|396:229,1,143.999995605469,6|6,3:2|0:3,0:0:0:0:
484,347,42913,5,6,3:2:0:0:
484,347,43093,2,0,P|445:302|348:331,1,143.999995605469,0|0,3:2|0:0,0:0:0:0:
261,384,43632,2,0,B|219:394|181:372|208:362|164:340|122:356,1,143.999995605469,8|0,0:0|3:2,0:0:0:0:
48,248,44170,1,2,3:2:0:0:
126,354,44350,5,2,0:0:0:0:
180,246,44530,2,0,P|206:177|178:115,1,143.999995605469,8|2,0:0|0:0,0:0:0:0:
88,17,45069,1,10,0:0:0:0:
0,122,45248,1,2,3:2:0:0:
105,210,45428,1,10,0:0:0:0:
193,105,45608,1,0,3:2:0:0:
283,227,45787,5,6,3:2:0:0:
283,227,45967,2,0,P|362:214|447:201,1,143.999995605469,2|2,3:2|0:0,0:0:0:0:
510,65,46506,2,0,P|440:73|383:8,1,143.999995605469,14|2,0:0|3:2,0:0:0:0:
307,125,47045,1,2,3:2:0:0:
232,12,47224,5,2,0:0:0:0:
122,90,47404,2,0,P|132:143|148:246,1,143.999995605469,8|10,0:0|0:0,0:0:0:0:
154,267,47853,1,8,0:0:0:0:
154,267,47943,1,2,3:2:0:0:
56,188,48123,1,2,3:2:0:0:
215,126,48302,1,10,0:3:0:0:
154,267,48482,1,4,0:3:0:0:
281,358,48662,6,0,P|322:348|392:332,1,80,6|0,3:2|0:0,0:0:0:0:
230,218,49021,1,8,0:0:0:0:
175,353,49200,1,0,3:2:0:0:
318,256,49380,2,0,P|326:210|307:161,1,80,2|2,3:2|0:0,0:0:0:0:
175,83,49739,1,10,0:0:0:0:
230,218,49919,1,8,0:3:0:0:
319,92,50099,6,0,P|378:104|426:114,1,80,2|0,3:2|3:3,0:0:0:0:
466,223,50458,1,10,0:3:0:0:
346,308,50638,1,4,0:3:0:0:
230,218,50817,2,0,P|171:230|124:241,1,80,10|4,0:0|0:3,0:0:0:0:
36,331,51176,1,10,0:0:0:0:
53,297,51266,1,10,0:0:0:0:
58,260,51356,1,10,0:0:0:0:
48,223,51446,1,10,0:0:0:0:
26,193,51536,6,0,P|4:117|43:38,1,160,6|8,3:2|0:0,0:0:0:0:
115,124,52075,1,2,0:0:0:0:
210,16,52254,2,0,P|222:61|234:105,1,80,0|0,3:2|3:2,0:0:0:0:
135,201,52614,2,0,P|124:162|114:123,1,80,10|10,0:0|0:0,0:0:0:0:
133,97,52883,1,8,0:0:0:0:
133,97,52973,6,0,B|219:68|206:133|306:97,1,160,2|10,3:2|0:0,0:0:0:0:
288,102,53691,1,2,3:2:0:0:
386,0,53871,1,10,0:0:0:0:
386,0,53961,1,8,0:0:0:0:
386,0,54051,2,0,P|396:51|423:199,1,191.999994140625,6|8,3:2|0:0,0:0:0:0:
421,188,55129,1,2,3:2:0:0:
352,288,55308,1,2,3:2:0:0:
264,184,55488,6,0,P|219:180|181:210,1,80,14|0,0:0|0:0,0:0:0:0:
160,227,55757,1,10,0:0:0:0:
160,227,55847,2,0,P|174:281|183:317,1,80,2|0,3:2|3:2,0:0:0:0:
310,377,56206,2,0,P|361:317|443:346,1,160,14|2,0:0|3:2,0:0:0:0:
498,176,56745,5,10,0:0:0:0:
461,190,56835,1,8,0:0:0:0:
421,188,56925,1,10,0:3:0:0:
387,168,57015,1,8,0:3:0:0:
354,145,57105,1,6,0:3:0:0:
315,140,57194,1,4,0:3:0:0:
277,151,57284,6,0,P|268:179|252:240,1,80,6|0,3:2|3:2,0:0:0:0:
128,351,57644,2,0,P|117:312|106:274,1,80,10|2,0:0|3:2,0:0:0:0:
94,237,57913,1,0,3:2:0:0:
94,237,58003,1,2,3:2:0:0:
241,310,58182,1,0,3:2:0:0:
173,172,58362,1,10,0:0:0:0:
137,146,58452,1,10,0:0:0:0:
94,137,58542,1,10,0:0:0:0:
52,147,58632,1,10,0:0:0:0:
17,173,58721,5,10,0:0:0:0:
128,351,58901,1,10,0:0:0:0:
241,310,59440,6,0,L|272:320,6,20,2|2|2|2|2|2|2,0:0|0:0|0:0|0:0|0:0|0:0|0:0,0:0:0:0:
322,384,59799,1,10,0:0:0:0:
342,350,59889,1,10,0:0:0:0:
348,310,59979,1,10,0:0:0:0:
338,272,60069,1,10,0:0:0:0:
314,241,60159,6,0,P|304:190|318:146,1,88.000002685547,6|0,3:2|0:0,0:0:0:0:
375,4,60518,1,10,0:0:0:0:
439,138,60697,1,0,0:0:0:0:
279,64,60877,2,0,P|222:77|160:93,1,88.000002685547,2|0,3:2|3:2,0:0:0:0:
44,118,61236,1,10,0:0:0:0:
170,192,61416,1,0,0:0:0:0:
63,335,61596,6,0,B|39:295|39:295|48:242,1,88.000002685547,0|0,3:2|3:2,0:0:0:0:
185,169,61955,2,0,P|202:235|211:271,1,88.000002685547,10|0,0:0|0:0,0:0:0:0:
63,335,62314,1,2,3:2:0:0:
60,164,62494,1,0,3:2:0:0:
206,254,62673,2,0,P|256:238|320:224,1,88.000002685547,10|0,0:0|0:0,0:0:0:0:
416,313,63033,5,2,3:2:0:0:
290,229,63212,1,2,0:0:0:0:
452,118,63392,2,0,P|442:170|432:232,1,88.000002685547,10|2,0:0|0:0,0:0:0:0:
328,311,63751,1,2,3:2:0:0:
259,152,63931,1,2,3:2:0:0:
131,275,64111,2,0,P|93:264|34:252,1,88.000002685547,10|2,0:0|0:0,0:0:0:0:
11,245,64380,1,2,0:0:0:0:
11,245,64470,5,6,3:2:0:0:
62,99,64650,1,0,3:2:0:0:
189,195,64829,2,0,P|240:178|263:135,1,88.000002685547,10|0,0:0|3:2,0:0:0:0:
278,115,65099,1,8,0:0:0:0:
278,115,65188,2,0,P|237:98|185:76,1,88.000002685547,2|0,3:2|3:2,0:0:0:0:
154,65,65458,1,0,3:2:0:0:
154,65,65548,1,10,0:0:0:0:
195,211,65727,1,8,0:3:0:0:
368,145,65907,6,0,P|430:124|483:108,1,88.000002685547,6|0,3:2|0:0,0:0:0:0:
352,273,66266,1,10,0:0:0:0:
278,115,66446,1,0,3:2:0:0:
278,115,66536,1,0,3:2:0:0:
278,115,66626,2,0,P|233:93|177:102,1,88.000002685547,0|0,3:2|3:2,0:0:0:0:
75,187,66985,1,10,0:0:0:0:
105,192,67075,1,2,0:0:0:0:
135,198,67165,1,2,3:2:0:0:
165,204,67254,1,2,3:2:0:0:
195,211,67344,5,2,3:2:0:0:
278,115,67524,1,0,3:2:0:0:
366,259,67703,2,0,P|349:309|333:366,1,88.000002685547,10|0,0:0|3:2,0:0:0:0:
307,366,67973,1,0,3:2:0:0:
306,366,68063,2,0,P|263:377|222:365,1,88.000002685547,2|0,3:2|3:2,0:0:0:0:
90,279,68422,1,10,0:0:0:0:
97,235,68512,1,8,0:0:0:0:
105,192,68602,1,8,0:0:0:0:
113,149,68691,1,8,0:0:0:0:
121,105,68781,5,6,3:2:0:0:
286,33,68961,1,8,0:0:0:0:
379,184,69141,5,10,0:0:0:0:
230,119,69320,1,0,3:2:0:0:
141,275,69500,5,10,0:0:0:0:
274,218,69679,1,8,0:3:0:0:
394,360,69859,6,0,B|341:365|303:320|303:320|276:350|235:360,1,167.999994873047,6|8,3:2|0:0,0:0:0:0:
211,367,70488,1,8,0:0:0:0:
211,367,70578,2,0,L|200:308,1,44.0000013427735,8|8,0:0|0:0,0:0:0:0:
120,245,70757,1,8,0:0:0:0:
129,202,70847,1,8,0:0:0:0:
137,158,70937,1,10,0:0:0:0:
274,218,71117,1,8,0:0:0:0:
347,128,71296,1,10,0:3:0:0:
324,112,71386,1,2,0:0:0:0:
300,104,71476,1,6,0:3:0:0:
273,101,71566,1,2,0:0:0:0:
247,105,71656,6,0,P|205:106|156:62,1,88.000002685547,6|0,3:2|0:0,0:0:0:0:
371,43,72015,2,0,P|356:97|339:148,1,88.000002685547,10|0,0:0|0:0,0:0:0:0:
417,294,72374,1,2,3:2:0:0:
274,218,72554,1,0,3:2:0:0:
431,140,72733,2,0,P|485:155|537:167,1,88.000002685547,10|0,0:0|0:0,0:0:0:0:
401,321,73093,6,0,B|356:328|356:328|307:298,1,88.000002685547,4|0,3:2|3:2,0:0:0:0:
150,226,73452,2,0,B|186:203|186:203|231:210,1,88.000002685547,10|0,0:0|0:0,0:0:0:0:
58,293,73811,1,2,3:2:0:0:
127,137,73991,1,0,3:2:0:0:
240,251,74170,2,0,P|224:306|213:348,1,88.000002685547,10|8,0:0|0:0,0:0:0:0:
205,372,74440,1,8,0:0:0:0:
205,372,74530,5,6,3:2:0:0:
58,293,74709,1,2,3:2:0:0:
240,251,74889,1,10,0:0:0:0:
110,368,75069,1,2,3:2:0:0:
110,368,75159,1,0,3:2:0:0:
110,368,75248,1,2,3:2:0:0:
65,202,75428,1,2,3:2:0:0:
240,251,75608,2,0,P|286:267|341:245,1,88.000002685547,10|2,0:0|0:0,0:0:0:0:
358,237,75877,1,2,0:0:0:0:
358,237,75967,5,6,3:2:0:0:
287,100,76147,1,0,3:2:0:0:
218,261,76326,1,10,0:0:0:0:
372,119,76506,1,0,3:2:0:0:
372,119,76596,1,8,0:0:0:0:
372,119,76685,2,0,P|330:110|256:92,1,88.000002685547,2|0,3:2|3:2,0:0:0:0:
250,91,76955,1,0,3:2:0:0:
250,91,77045,1,10,0:0:0:0:
136,162,77224,1,8,0:3:0:0:
225,300,77404,6,0,P|240:247|227:203,1,88.000002685547,6|0,3:2|0:0,0:0:0:0:
164,85,77763,1,10,0:0:0:0:
50,181,77943,1,0,3:2:0:0:
50,181,78033,1,0,3:2:0:0:
50,181,78123,2,0,P|92:172|166:154,1,88.000002685547,0|0,3:2|3:2,0:0:0:0:
225,300,78482,2,0,P|182:310|139:319,1,88.000002685547,10|0,0:0|3:2,0:0:0:0:
101,328,78751,1,0,3:2:0:0:
101,328,78841,5,2,3:2:0:0:
135,161,79021,1,0,3:2:0:0:
225,300,79200,2,0,P|273:317|323:301,1,88.000002685547,10|0,0:0|3:2,0:0:0:0:
342,291,79470,1,0,3:2:0:0:
342,291,79560,2,0,P|333:243|325:202,1,88.000002685547,0|0,3:2|3:2,0:0:0:0:
414,105,79919,1,10,0:0:0:0:
372,119,80009,1,8,0:0:0:0:
329,115,80099,1,8,0:0:0:0:
292,92,80188,1,8,0:0:0:0:
268,55,80278,6,0,L|365:30,1,88.000002685547,6|0,3:2|3:2,0:0:0:0:
183,214,80638,2,0,L|86:189,1,88.000002685547,10|0,0:0|3:2,0:0:0:0:
239,346,80997,1,10,0:0:0:0:
333,246,81176,1,8,0:3:0:0:
469,305,81356,6,0,P|402:312|329:224,1,167.999994873047,6|2,3:2|3:2,0:0:0:0:
351,213,81985,1,10,0:0:0:0:
351,213,82075,2,0,L|405:194,1,44.0000013427735,10|8,0:0|0:0,0:0:0:0:
495,89,82254,1,0,3:2:0:0:
477,84,82344,1,8,0:0:0:0:
460,79,82434,2,0,B|400:88|400:88|392:95|392:95|322:105,1,132.00000402832,6|2,3:2|0:0,0:0:0:0:
294,83,82793,2,0,P|277:42|295:6,1,88.000002685547,6|2,3:2|0:0,0:0:0:0:
460,79,83153,6,0,P|446:137|433:194,2,88.000002685547,6|0|10,3:2|3:2|0:0,0:0:0:0:
372,0,83691,1,2,3:2:0:0:
372,0,83781,1,0,3:2:0:0:
372,0,83871,1,2,3:2:0:0:
294,83,84051,1,0,3:2:0:0:
167,7,84230,2,0,P|180:61|194:118,1,88.000002685547,8|8,0:0|0:0,0:0:0:0:
196,130,84500,1,8,0:0:0:0:
196,130,84590,5,2,3:2:0:0:
334,178,84769,1,0,3:2:0:0:
221,289,84949,2,0,P|177:310|118:299,1,88.000002685547,8|0,0:0|3:2,0:0:0:0:
101,297,85218,1,0,3:2:0:0:
101,297,85308,2,0,B|80:256|80:256|99:197,1,88.000002685547,2|0,3:2|3:2,0:0:0:0:
196,130,85668,1,10,0:0:0:0:
300,260,85847,1,8,0:0:0:0:
300,260,85937,1,8,0:0:0:0:
300,260,86027,6,0,P|354:265|396:241,1,88.000002685547,6|0,3:2|0:0,0:0:0:0:
449,111,86386,1,2,3:2:0:0:
334,178,86566,1,2,3:2:0:0:
238,49,86745,5,2,3:2:0:0:
208,40,86835,1,0,3:2:0:0:
177,41,86925,1,10,0:0:0:0:
149,53,87015,1,8,0:0:0:0:
126,73,87105,2,0,L|143:135,1,44.0000013427735,10|10,0:0|0:0,0:0:0:0:
221,246,87284,2,0,L|232:203,1,44.0000013427735,10|10,0:0|0:0,0:0:0:0:
272,25,87464,5,6,3:2:0:0:
