osu file format v14

[General]
AudioFilename: audio.mp3
AudioLeadIn: 0
PreviewTime: 59350
Countdown: 0
SampleSet: Soft
StackLeniency: 0.6
Mode: 0
LetterboxInBreaks: 0
WidescreenStoryboard: 1

[Editor]
Bookmarks: 1704,14171,19919,31416,42913,51536,60159,83153,88901
DistanceSpacing: 1
BeatDivisor: 4
GridSize: 32
TimelineZoom: 0.8199998

[Metadata]
Title:Sentimental Crisis (TV Size)
TitleUnicode:センチメンタルクライシス (TV Size)
Artist:halca
ArtistUnicode:halca
Creator:Wanpachi
Version:Normal
Source:かぐや様は告らせたい ~天才たちの恋愛頭脳戦~
Tags:sanairrt cycopton kaguya-sama kaguya-sama: wa kokurasetai tensai-tachi no renai zunosen kaguya wants to be confessed the genius war of love and brains is japanese anime ending ed zunousen pop j-pop jpop 3rd single ed
BeatmapID:2844372
BeatmapSetID:1375253

[Difficulty]
HPDrainRate:3.6
CircleSize:3.2
OverallDifficulty:4
ApproachRate:5
SliderMultiplier:1.1
SliderTickRate:1

[Events]
//Background and Video events
0,0,"kaguya ! !.jpg",0,0
//Break Periods
//Storyboard Layer 0 (Background)
//Storyboard Layer 1 (Fail)
//Storyboard Layer 2 (Pass)
//Storyboard Layer 3 (Foreground)
//Storyboard Layer 4 (Overlay)
//Storyboard Sound Samples

[TimingPoints]
-4529,389.61038961039,4,2,2,40,1,0
146,-111.111111111111,4,2,2,40,0,0
13782,-100,4,2,2,40,0,0
14171,359.281437125748,4,2,1,70,1,0
14171,-100,4,2,1,70,0,0
18123,-99.9999999999999,4,2,1,60,0,0
19919,-111.111111111111,4,2,2,50,0,0
28542,-111.111111111111,4,2,2,30,0,0
28901,-111.111111111111,4,2,2,40,0,0
29260,-111.111111111111,4,2,2,50,0,0
29620,-111.111111111111,4,2,2,60,0,0
29979,-111.111111111111,4,2,1,70,0,0
31416,-100,4,2,1,70,0,0
40039,-105.263157894737,4,2,1,60,0,0
48662,-105.263157894737,4,2,1,60,0,0
51536,-100,4,2,1,70,0,0
54051,-100,4,2,1,60,0,0
55488,-100,4,2,1,70,0,0
55847,-100,4,2,1,60,0,0
56206,-100,4,2,1,70,0,0
56565,-100,4,2,1,60,0,0
57284,-100,4,2,1,70,0,0
58721,-100,4,2,1,80,0,0
59081,-100,4,2,1,60,0,0
59485,-100,4,2,1,20,0,0
59799,-100,4,2,1,70,0,0
60159,-95.2380952380952,4,2,1,80,0,1
71296,-95.2380952380952,4,2,1,80,0,0
71656,-95.2380952380952,4,2,1,80,0,1
82793,-95.2380952380952,4,2,1,80,0,0
83153,-100,4,2,1,80,0,1
85847,-100,4,2,1,80,0,0
86027,-100,4,2,1,80,0,1
86386,-100,4,2,1,40,0,1
86566,-100,4,2,1,50,0,1
86745,-100,4,2,1,60,0,1
86925,-100,4,2,1,70,0,1
87105,-100,4,2,1,80,0,1
87464,-100,4,2,1,80,0,0
87554,-100,4,2,1,5,0,0

[Colours]
Combo1 : 216,208,120
Combo2 : 255,88,100
Combo3 : 191,191,191
Combo4 : 241,135,165

[HitObjects]
44,340,1704,6,0,P|156:189|70:23,1,395.999987915039,2|2,0:0|0:0,0:0:0:0:
468,44,4821,2,0,P|355:194|441:360,1,395.999987915039,2|2,0:0|0:0,0:0:0:0:
44,340,7938,6,0,P|146:296|249:269,2,197.99999395752,2|0|2,0:0|0:0|0:0,0:0:0:0:
8,144,10276,1,0,0:0:0:0:
134,296,11055,2,0,B|178:340|288:340|266:296|332:273|310:273|288:273|354:251|332:207|442:207|486:251,1,395.999987915039,2|2,0:0|0:0,0:0:0:0:
172,354,13782,2,0,P|182:322|190:299,1,55,2|2,0:0|0:0,0:0:0:0:
240,271,14172,6,0,P|259:213|230:166,1,110,6|8,3:2|0:0,0:0:0:0:
165,97,14889,1,0,3:2:0:0:
165,97,15069,2,0,P|138:105|112:114,2,55,2|10|2,3:2|0:0|3:2,0:0:0:0:
186,46,15608,2,0,P|236:26|285:48,1,110,2|10,3:2|0:0,0:0:0:0:
316,93,16147,1,2,3:2:0:0:
428,77,16506,1,2,3:2:0:0:
428,77,16685,6,0,P|410:128|394:181,1,110,14|0,0:0|0:0,0:0:0:0:
430,230,17224,1,8,0:0:0:0:
430,230,17404,1,8,0:0:0:0:
387,331,17763,2,0,P|360:340|334:349,1,55,8|4,0:3|0:3,0:0:0:0:
297,307,18123,2,0,B|260:270|168:270|186:307|131:326|150:326|168:326|113:344|131:381|39:381|3:344,1,330,6|2,3:2|0:0,0:0:0:0:
56,153,19919,6,0,P|31:82|9:11,2,148.49999546814,2|2|10,3:2|3:2|0:0,0:0:0:0:
108,237,21356,2,0,P|81:304|111:370,2,148.49999546814,2|2|10,3:2|3:2|0:0,0:0:0:0:
206,224,22793,6,0,P|228:153|252:83,2,148.49999546814,2|2|10,3:2|3:2|0:0,0:0:0:0:
267,301,24230,2,0,P|334:327|400:297,1,148.49999546814,2|2,3:2|3:2,0:0:0:0:
430,257,24949,1,2,0:0:0:0:
371,177,25308,1,10,0:0:0:0:
459,132,25668,6,0,P|485:65|455:-1,2,148.49999546814,2|2|10,3:2|3:2|0:0,0:0:0:0:
371,177,27105,2,0,P|300:152|229:130,2,148.49999546814,2|2|10,3:2|3:2|0:0,0:0:0:0:
454,230,28542,6,0,P|479:297|449:363,1,148.49999546814,2|2,3:2|3:2,0:0:0:0:
400,371,29260,2,0,P|353:353|306:340,1,98.9999969787599,2|10,0:0|0:0,0:0:0:0:
207,337,29979,2,0,P|214:360|223:383,2,49.4999984893799,2|10|10,3:2|0:0|0:0,0:0:0:0:
195,288,30518,1,10,0:0:0:0:
329,49,31416,6,0,P|349:99|327:148,1,110,6|0,3:2|3:2,0:0:0:0:
291,189,31955,1,2,0:0:0:0:
291,189,32135,2,0,P|309:240|325:293,1,110,2|10,3:2|0:0,0:0:0:0:
249,372,32853,2,0,P|198:354|145:338,1,110,2|0,3:2|3:2,0:0:0:0:
90,350,33392,1,2,0:0:0:0:
90,350,33572,1,2,3:2:0:0:
37,253,33931,1,10,0:0:0:0:
93,158,34290,6,0,P|143:178|192:156,2,110,2|2|2,3:2|3:2|3:2,0:0:0:0:
41,60,35368,1,10,0:0:0:0:
142,18,35727,2,0,P|193:36|246:52,1,110,2|2,3:2|3:2,0:0:0:0:
305,145,36446,2,0,P|330:136|357:128,1,55,2|2,3:2|0:0,0:0:0:0:
393,86,36805,1,10,0:0:0:0:
487,144,37165,6,0,P|507:194|485:243,1,110,2|0,3:2|3:2,0:0:0:0:
451,286,37703,1,2,0:0:0:0:
451,286,37883,2,0,P|398:301|346:320,1,110,2|10,3:2|0:0,0:0:0:0:
265,245,38602,2,0,P|283:193|299:140,1,110,2|0,3:2|3:2,0:0:0:0:
238,48,39320,1,2,3:2:0:0:
144,105,39679,1,6,3:2:0:0:
48,61,40039,6,0,P|29:108|49:154,1,104.499997209549,6|0,3:2|0:0,0:0:0:0:
117,234,40757,2,0,P|99:283|84:333,1,104.499997209549,10|0,0:0|0:0,0:0:0:0:
121,370,41296,2,0,P|145:361|170:353,1,52.2499986047745,8|2,0:0|3:2,0:0:0:0:
222,357,41656,1,8,0:0:0:0:
311,299,42015,1,8,0:3:0:0:
311,299,42194,2,0,P|357:320|404:301,1,104.499997209549,6|6,3:2|0:3,0:0:0:0:
489,239,42913,6,0,P|462:165|440:90,1,156.749995814324,6|0,3:2|0:0,0:0:0:0:
405,50,43632,2,0,P|358:28|311:47,1,104.499997209549,8|0,0:0|3:2,0:0:0:0:
232,115,44350,1,2,0:0:0:0:
232,115,44530,2,0,P|249:164|264:214,1,104.499997209549,8|2,0:0|0:0,0:0:0:0:
237,259,45069,1,10,0:0:0:0:
145,208,45428,1,10,0:0:0:0:
63,273,45787,6,0,P|94:203|66:132,1,156.749995814324,6|2,3:2|0:0,0:0:0:0:
23,101,46506,2,0,P|72:83|122:68,1,104.499997209549,14|2,0:0|3:2,0:0:0:0:
230,62,47224,1,2,0:0:0:0:
230,62,47404,2,0,P|276:82|323:64,1,104.499997209549,8|10,0:0|0:0,0:0:0:0:
373,48,47943,2,0,P|380:22|389:-1,2,52.2499986047745,2|2|10,3:2|3:2|0:3,0:0:0:0:
447,121,48662,6,0,P|464:171|479:221,1,104.499997209549,6|8,3:2|0:0,0:0:0:0:
375,231,49380,2,0,P|367:205|358:181,1,52.2499986047745,2|2,3:2|0:0,0:0:0:0:
313,155,49739,1,10,0:0:0:0:
214,120,50099,2,0,P|167:140|120:122,1,104.499997209549,2|10,3:2|0:3,0:0:0:0:
28,172,50817,1,10,0:0:0:0:
82,260,51176,2,0,P|90:284|98:309,1,52.2499986047745,10|10,0:0|0:0,0:0:0:0:
150,328,51536,6,0,P|199:307|249:326,1,110,6|8,3:2|0:0,0:0:0:0:
296,354,52075,2,0,P|345:374|395:355,1,110,2|0,0:0|3:2,0:0:0:0:
431,313,52614,1,10,0:0:0:0:
475,212,52973,2,0,P|458:161|441:108,1,110,2|10,3:2|0:0,0:0:0:0:
345,52,53691,2,0,P|319:60|293:68,1,55,2|10,3:2|0:0,0:0:0:0:
242,46,54051,6,0,B|217:21|156:21|168:46|131:58|144:58|156:58|119:70|131:95|70:95|46:70,1,220,6|8,3:2|0:0,0:0:0:0:
5,172,55129,1,2,3:2:0:0:
86,246,55488,2,0,P|102:296|119:349,1,110,14|2,0:0|3:2,0:0:0:0:
218,300,56206,2,0,P|234:249|251:196,1,110,14|2,0:0|3:2,0:0:0:0:
281,150,56745,1,10,0:0:0:0:
281,150,56925,1,10,0:3:0:0:
227,54,57284,6,0,P|276:33|326:52,1,110,6|10,3:2|0:0,0:0:0:0:
363,93,57823,2,0,P|413:76|466:59,1,110,2|0,3:2|3:2,0:0:0:0:
506,97,58362,2,0,P|497:122|489:148,1,55,10|10,0:0|0:0,0:0:0:0:
505,206,58721,1,10,0:0:0:0:
505,206,58901,1,10,0:0:0:0:
278,361,59799,2,0,P|253:352|227:344,1,55,10|10,0:0|0:0,0:0:0:0:
168,351,60159,6,0,P|145:299|165:247,1,115.49999647522,6|10,3:2|0:0,0:0:0:0:
247,164,60877,2,0,P|237:136|228:109,1,57.7499982376099,2|0,3:2|3:2,0:0:0:0:
264,63,61236,2,0,P|318:82|373:99,1,115.49999647522,10|0,0:0|3:2,0:0:0:0:
456,179,61955,1,10,0:0:0:0:
387,272,62314,2,0,P|396:299|405:326,1,57.7499982376099,2|0,3:2|3:2,0:0:0:0:
359,361,62673,2,0,P|307:338|255:358,1,115.49999647522,10|2,0:0|3:2,0:0:0:0:
139,362,63392,5,10,0:0:0:0:
69,269,63751,2,0,P|60:241|50:214,1,57.7499982376099,2|2,3:2|3:2,0:0:0:0:
9,172,64111,2,0,P|27:116|47:62,1,115.49999647522,10|6,0:0|3:2,0:0:0:0:
151,15,64829,1,10,0:0:0:0:
229,100,65188,1,2,3:2:0:0:
316,24,65548,1,10,0:0:0:0:
431,31,65907,5,6,3:2:0:0:
490,130,66266,2,0,P|469:184|452:239,1,115.49999647522,10|0,0:0|3:2,0:0:0:0:
507,341,66985,2,0,P|479:349|452:359,1,57.7499982376099,10|2,0:0|3:2,0:0:0:0:
399,382,67344,1,2,3:2:0:0:
335,286,67703,2,0,P|283:263|231:283,1,115.49999647522,10|2,0:0|3:2,0:0:0:0:
131,341,68422,2,0,P|103:332|76:323,1,57.7499982376099,10|8,0:0|0:0,0:0:0:0:
42,275,68781,5,6,3:2:0:0:
135,206,69141,1,10,0:0:0:0:
93,98,69500,1,10,0:0:0:0:
200,56,69859,2,0,B|219:36|267:36|258:56|287:65|277:65|267:65|296:74|287:94|335:94|354:74,1,173.24999471283,6|8,3:2|0:0,0:0:0:0:
398,37,70578,1,8,0:0:0:0:
486,110,70937,2,0,P|466:164|449:219,1,115.49999647522,10|10,0:0|0:3,0:0:0:0:
349,279,71656,6,0,P|326:227|346:175,1,115.49999647522,6|10,3:2|0:0,0:0:0:0:
280,80,72374,2,0,P|252:90|225:99,1,57.7499982376099,2|0,3:2|3:2,0:0:0:0:
170,118,72733,2,0,P|116:99|60:82,1,115.49999647522,10|4,0:0|3:2,0:0:0:0:
1,181,73452,1,10,0:0:0:0:
103,233,73811,2,0,P|112:260|121:287,1,57.7499982376099,2|0,3:2|3:2,0:0:0:0:
178,296,74170,6,0,P|230:319|282:299,1,115.49999647522,10|6,0:0|3:2,0:0:0:0:
363,217,74889,1,10,0:0:0:0:
314,120,75248,2,0,P|286:112|259:101,1,57.7499982376099,2|2,0:0|3:2,0:0:0:0:
241,45,75608,2,0,P|187:66|132:83,1,115.49999647522,10|6,0:0|3:2,0:0:0:0:
23,43,76326,1,10,0:0:0:0:
0,156,76685,1,2,3:2:0:0:
75,243,77045,1,10,0:0:0:0:
8,337,77404,5,6,3:2:0:0:
114,382,77763,2,0,P|168:362|223:345,1,115.49999647522,10|0,0:0|3:2,0:0:0:0:
321,283,78482,2,0,P|348:293|375:301,1,57.7499982376099,10|0,0:0|3:2,0:0:0:0:
426,329,78841,1,2,3:2:0:0:
486,230,79200,2,0,P|510:179|490:126,1,115.49999647522,10|0,0:0|3:2,0:0:0:0:
399,55,79919,2,0,P|371:64|344:73,1,57.7499982376099,10|8,0:0|0:0,0:0:0:0:
296,105,80278,5,6,3:2:0:0:
207,30,80638,1,10,0:0:0:0:
91,36,80997,1,10,0:0:0:0:
33,135,81356,2,0,B|13:154|13:202|33:193|42:222|42:212|42:202|51:231|71:222|71:270|51:289,1,173.24999471283,6|2,3:2|3:2,0:0:0:0:
7,328,82075,1,10,0:0:0:0:
110,378,82434,1,6,3:2:0:0:
210,322,82793,1,6,3:2:0:0:
311,363,83153,6,0,P|327:310|346:259,1,110,6|10,3:2|0:0,0:0:0:0:
309,225,83691,1,2,3:2:0:0:
309,225,83871,2,0,P|290:175|312:126,1,110,2|8,3:2|0:0,0:0:0:0:
329,17,84590,2,0,P|382:26|413:69,1,110,2|8,3:2|0:0,0:0:0:0:
499,138,85308,2,0,P|465:179|412:185,1,110,2|10,3:2|0:0,0:0:0:0:
309,225,86027,6,0,P|328:277|344:329,1,110,6|2,3:2|3:2,0:0:0:0:
304,368,86566,1,2,3:2:0:0:
304,368,86745,2,0,P|278:358|252:350,1,55,2|10,3:2|0:0,0:0:0:0:
213,311,87105,2,0,P|187:321|161:329,1,55,10|10,0:0|0:0,0:0:0:0:
122,367,87464,1,6,3:2:0:0:
