osu file format v14

[General]
AudioFilename: audio.mp3
AudioLeadIn: 0
PreviewTime: 59350
Countdown: 0
SampleSet: Soft
StackLeniency: 0.3
Mode: 0
LetterboxInBreaks: 0
WidescreenStoryboard: 0

[Editor]
Bookmarks: 1704,14171,19919,31416,42913,51536,60159,83153,88901
DistanceSpacing: 1
BeatDivisor: 4
GridSize: 16
TimelineZoom: 3.019999

[Metadata]
Title:Sentimental Crisis (TV Size)
TitleUnicode:センチメンタルクライシス (TV Size)
Artist:halca
ArtistUnicode:halca
Creator:Wanpachi
Version:Adoration
Source:かぐや様は告らせたい ~天才たちの恋愛頭脳戦~
Tags:sanairrt cycopton kaguya-sama kaguya-sama: wa kokurasetai tensai-tachi no renai zunosen kaguya wants to be confessed the genius war of love and brains is japanese anime ending ed zunousen pop j-pop jpop 3rd single ed
BeatmapID:2842797
BeatmapSetID:1375253

[Difficulty]
HPDrainRate:6
CircleSize:4.2
OverallDifficulty:8.6
ApproachRate:9
SliderMultiplier:1.8
SliderTickRate:1

[Events]
//Background and Video events
0,0,"kaguya ! !.jpg",0,0
//Break Periods
//Storyboard Layer 0 (Background)
//Storyboard Layer 1 (Fail)
//Storyboard Layer 2 (Pass)
//Storyboard Layer 3 (Foreground)
//Storyboard Layer 4 (Overlay)
//Storyboard Sound Samples

[TimingPoints]
-4529,389.61038961039,4,2,2,40,1,0
146,-250,4,2,2,40,0,0
1704,-250,4,2,2,40,0,0
3198,-250,4,2,2,40,0,0
3263,-250,4,2,2,40,0,0
4886,-250,4,2,2,40,0,0
6380,-250,4,2,2,40,0,0
7808,-250,4,2,2,40,0,0
7938,-250,4,2,2,40,0,0
12419,-250,4,2,2,40,0,0
12613,-250,4,2,2,40,0,0
14171,359.281437125748,4,2,1,70,1,0
14171,-100,4,2,1,70,0,0
16685,-111.111111111111,4,2,1,70,0,0
18123,-125,4,2,1,60,0,0
19021,-125,4,2,1,5,0,0
19081,-125,4,2,1,60,0,0
19919,-125,4,2,2,50,0,0
28542,-111.111111111111,4,2,2,30,0,0
28901,-111.111111111111,4,2,2,40,0,0
29260,-111.111111111111,4,2,2,50,0,0
29620,-111.111111111111,4,2,2,60,0,0
29979,-111.111111111111,4,2,1,70,0,0
35997,-111.111111111111,4,2,1,5,0,0
36087,-111.111111111111,4,2,1,30,0,0
36176,-111.111111111111,4,2,1,40,0,0
36266,-111.111111111111,4,2,1,50,0,0
36356,-111.111111111111,4,2,1,60,0,0
36446,-111.111111111111,4,2,1,70,0,0
40039,-111.111111111111,4,2,1,60,0,0
42194,-100,4,2,1,60,0,0
42554,-125,4,2,1,60,0,0
48662,-111.111111111111,4,2,1,60,0,0
50368,-111.111111111111,4,2,1,5,0,0
50458,-111.111111111111,4,2,1,60,0,0
51536,-100,4,2,1,70,0,0
54051,-111.111111111111,4,2,1,60,0,0
55488,-90.9090909090909,4,2,1,70,0,0
55757,-90.9090909090909,4,2,1,70,0,0
55847,-111.111111111111,4,2,1,60,0,0
56206,-90.9090909090909,4,2,1,70,0,0
56476,-90.9090909090909,4,2,1,5,0,0
56565,-99.9999999999999,4,2,1,60,0,0
57284,-90.9090909090908,4,2,1,70,0,0
58721,-90.9090909090908,4,2,1,80,0,0
59081,-111.111111111111,4,2,1,60,0,0
59485,-111.111111111111,4,2,1,30,0,0
59799,-111.111111111111,4,2,1,70,0,0
60159,-83.3333333333333,4,2,1,80,0,1
60428,-83.3333333333333,4,2,1,5,0,1
60518,-83.3333333333333,4,2,1,80,0,1
68781,-66.6666666666667,4,2,1,80,0,1
69859,-100,4,2,1,80,0,1
71296,-100,4,2,1,80,0,0
71566,-100,4,2,1,5,0,0
71656,-83.3333333333333,4,2,1,80,0,1
71925,-83.3333333333333,4,2,1,5,0,1
72015,-83.3333333333333,4,2,1,80,0,1
80278,-66.6666666666667,4,2,1,80,0,1
81356,-100,4,2,1,80,0,1
82434,-90.9090909090909,4,2,1,80,0,1
82793,-90.9090909090909,4,2,1,80,0,0
83153,-90.9090909090909,4,2,1,80,0,1
85847,-90.9090909090909,4,2,1,80,0,0
86027,-166.666666666667,4,2,1,80,0,1
86296,-166.666666666667,4,2,1,5,0,1
86386,-62.5,4,2,1,40,0,1
86566,-55.5555555555556,4,2,1,50,0,1
86745,-50,4,2,1,60,0,1
86925,-45.4545454545455,4,2,1,70,0,1
87105,-71.4285714285714,4,2,1,80,0,1
87284,-41.6666666666667,4,2,1,80,0,1
87464,-29.4117647058824,4,2,1,80,0,0
87554,-100,4,2,1,5,0,0

[Colours]
Combo1 : 216,208,120
Combo2 : 255,88,100
Combo3 : 191,191,191
Combo4 : 241,135,165

[HitObjects]
384,320,1704,5,2,0:0:0:0:
128,256,3263,5,2,0:0:0:0:
384,192,4821,5,2,0:0:0:0:
128,128,6380,5,2,0:0:0:0:
384,64,7938,5,2,0:0:0:0:
326,106,8328,1,0,0:0:0:0:
256,120,8717,1,0,0:0:0:0:
186,106,9107,1,0,0:0:0:0:
128,64,9496,5,2,0:0:0:0:
186,106,9886,1,0,0:0:0:0:
256,120,10276,1,0,0:0:0:0:
326,106,10665,1,0,0:0:0:0:
384,64,11055,5,2,0:0:0:0:
256,0,11445,1,0,0:0:0:0:
256,36,11639,1,0,0:0:0:0:
256,72,11834,1,0,0:0:0:0:
256,108,12029,1,0,0:0:0:0:
256,144,12224,1,0,0:0:0:0:
256,180,12419,2,0,P|256:185|256:191,3,12,0|0|0|2,0:0|0:0|0:0|0:0,0:0:0:0:
39,61,13782,5,2,0:0:0:0:
32,89,13880,1,2,0:0:0:0:
41,117,13977,1,2,0:0:0:0:
61,141,14074,1,2,0:0:0:0:
130,85,14171,6,0,B|160:59|222:80|223:110|205:133|241:164|273:158,1,180,6|8,3:2|0:0,0:0:0:0:
373,91,14709,1,0,3:2:0:0:
381,74,14799,1,0,3:2:0:0:
372,58,14889,1,0,3:2:0:0:
288,78,15069,1,2,3:2:0:0:
412,265,15248,1,10,0:0:0:0:
324,308,15428,1,2,3:2:0:0:
315,292,15518,1,0,3:2:0:0:
315,273,15608,5,2,3:2:0:0:
478,126,15787,1,2,3:2:0:0:
404,366,15967,1,10,0:0:0:0:
269,182,16147,1,2,3:2:0:0:
285,173,16236,1,0,3:2:0:0:
304,173,16326,1,0,3:2:0:0:
407,221,16506,1,2,3:2:0:0:
257,355,16685,6,0,P|180:327|101:311,1,161.999995056153,14|0,0:0|0:0,0:0:0:0:
7,296,17224,1,8,0:0:0:0:
1,311,17314,1,8,0:0:0:0:
4,326,17404,1,8,0:0:0:0:
154,231,17584,1,0,3:2:0:0:
54,148,17763,1,8,0:3:0:0:
100,71,17943,1,4,0:3:0:0:
74,0,18123,6,0,B|90:98|202:135|278:42|278:42|259:3|205:1,1,360,6|0,3:2|0:0,0:0:0:0:
203,0,19081,2,0,P|192:2|180:4,2,24,2|2|2,0:0|0:0|0:0,0:0:0:0:
311,123,19380,1,8,0:3:0:0:
263,197,19560,1,4,0:3:0:0:
453,360,19919,6,0,P|463:299|489:212,1,144,2|0,3:2|0:0,0:0:0:0:
488,93,20458,2,0,P|453:153|385:167,1,144,2|0,3:2|0:0,0:0:0:0:
342,45,20997,1,10,0:0:0:0:
295,129,21176,1,0,3:2:0:0:
290,142,21266,1,2,0:0:0:0:
295,155,21356,6,0,B|259:137|223:155|223:155|205:190|169:190,1,144,2|0,3:2|0:0,0:0:0:0:
33,182,21895,2,0,P|95:213|122:279,1,144,2|0,3:2|0:0,0:0:0:0:
102,373,22434,1,10,0:0:0:0:
275,217,22703,1,2,0:0:0:0:
288,211,22793,6,0,P|406:239|504:274,2,216,2|2|10,3:2|3:2|0:0,0:0:0:0:
137,244,24051,1,0,3:2:0:0:
148,234,24141,1,2,0:0:0:0:
151,220,24230,6,0,P|139:150|83:107,1,144,2|0,3:2|0:0,0:0:0:0:
73,0,24769,5,2,3:2:0:0:
159,2,24949,1,2,0:0:0:0:
213,50,25129,1,2,0:0:0:0:
227,106,25308,1,10,0:0:0:0:
225,156,25488,1,2,0:0:0:0:
220,169,25578,1,2,0:0:0:0:
227,181,25668,6,0,P|304:209|376:213,1,144,2|0,3:2|0:0,0:0:0:0:
505,162,26206,2,0,B|493:150|475:148|475:148|422:204|468:264,1,144,2|0,3:2|0:0,0:0:0:0:
474,370,26745,2,0,P|440:357|404:353,1,72,10|0,0:0|3:2,0:0:0:0:
308,376,27015,1,2,0:0:0:0:
321,380,27105,6,0,P|382:307|380:229,1,144,2|0,3:2|0:0,0:0:0:0:
433,148,27644,2,0,P|353:176|289:181,1,144,2|0,3:2|0:0,0:0:0:0:
272,26,28182,1,10,0:0:0:0:
272,26,28542,5,2,3:2:0:0:
337,2,28721,1,2,0:0:0:0:
411,14,28901,1,2,0:0:0:0:
474,65,29081,1,2,3:2:0:0:
505,148,29260,1,2,0:0:0:0:
488,244,29440,1,2,0:0:0:0:
419,326,29620,1,10,0:0:0:0:
308,366,29799,1,2,3:2:0:0:
419,182,29979,5,2,3:2:0:0:
265,97,30159,1,10,0:0:0:0:
271,111,30248,1,8,0:0:0:0:
272,127,30338,1,10,0:0:0:0:
173,327,30518,1,10,0:0:0:0:
267,336,31416,6,0,B|317:332|333:282|333:282|370:269|401:295,1,161.999995056153,6|0,3:2|3:2,0:0:0:0:
484,358,31955,1,2,0:0:0:0:
423,196,32135,2,0,P|431:156|438:116,1,80.9999975280763,2|2,3:2|0:0,0:0:0:0:
437,100,32404,1,0,0:0:0:0:
426,87,32494,1,10,0:0:0:0:
512,29,32673,1,2,0:0:0:0:
335,137,32853,6,0,B|318:154|290:160|290:160|241:107|281:47,1,161.999995056153,2|0,3:2|3:2,0:0:0:0:
356,0,33392,1,2,0:0:0:0:
184,20,33572,2,0,P|144:28|104:35,1,80.9999975280763,2|2,3:2|0:0,0:0:0:0:
88,37,33841,1,0,0:0:0:0:
79,50,33931,1,10,0:0:0:0:
0,0,34111,1,2,0:0:0:0:
111,149,34290,6,0,P|124:187|115:226,1,80.9999975280763,2|0,3:2|0:0,0:0:0:0:
2,362,34650,2,0,P|28:333|67:321,1,80.9999975280763,2|0,3:2|0:0,0:0:0:0:
242,352,35009,2,0,P|202:343|173:316,1,80.9999975280763,2|0,3:2|0:0,0:0:0:0:
329,219,35368,2,0,P|342:257|333:296,1,80.9999975280763,10|0,0:0|0:0,0:0:0:0:
154,220,35727,6,0,P|194:175|252:158,1,121.499996292114,2|0,3:2|0:0,0:0:0:0:
251,158,36087,2,0,P|248:137|246:117,3,40.4999987640381,2|2|2|2,3:2|0:0|0:0|0:0,0:0:0:0:
243,101,36446,1,2,3:2:0:0:
168,21,36626,1,2,0:0:0:0:
150,21,36715,1,0,0:0:0:0:
135,26,36805,1,10,0:0:0:0:
78,182,36985,1,2,0:0:0:0:
285,226,37165,6,0,B|327:180|392:211|392:211|372:217|356:238,1,161.999995056153,2|0,3:2|3:2,0:0:0:0:
245,325,37703,1,2,0:0:0:0:
446,382,37883,2,0,P|438:342|430:302,1,80.9999975280763,2|2,3:2|0:0,0:0:0:0:
356,237,38242,1,10,0:0:0:0:
512,332,38422,1,2,0:0:0:0:
328,349,38602,6,0,P|224:315|137:303,1,161.999995056153,2|0,3:2|3:2,0:0:0:0:
113,105,39320,1,2,3:2:0:0:
196,174,39500,1,8,0:0:0:0:
212,174,39590,1,8,0:0:0:0:
227,169,39679,1,6,3:2:0:0:
64,287,39859,1,8,0:0:0:0:
48,287,39949,1,8,0:0:0:0:
33,292,40039,6,0,P|88:332|179:297,1,161.999995056153,6|0,3:2|0:0,0:0:0:0:
276,120,40757,2,0,B|246:159|271:207|271:207|301:227|299:266,1,161.999995056153,10|0,0:0|0:0,0:0:0:0:
406,340,41296,1,8,0:0:0:0:
306,363,41476,1,2,3:2:0:0:
393,243,41656,1,8,0:0:0:0:
260,154,42015,5,8,0:3:0:0:
249,142,42105,1,4,0:3:0:0:
235,131,42194,2,0,B|199:111|150:134|153:171|164:184|124:210|83:196,1,180,6|6,3:2|0:3,0:0:0:0:
0,30,42913,5,6,3:2:0:0:
44,111,43093,2,0,P|14:194|-4:272,1,144,0|0,3:2|0:0,0:0:0:0:
179,316,43632,2,0,P|172:246|114:207,1,144,8|0,0:0|3:2,0:0:0:0:
139,114,44170,2,0,P|173:104|207:92,1,72,2|2,3:2|0:0,0:0:0:0:
410,209,44530,2,0,B|379:176|333:199|333:199|319:229|285:230,1,144,8|2,0:0|0:0,0:0:0:0:
350,376,45069,5,10,0:0:0:0:
371,285,45248,1,2,3:2:0:0:
264,138,45428,5,10,0:0:0:0:
285,229,45608,1,0,3:2:0:0:
128,378,45787,5,6,3:2:0:0:
70,304,45967,1,2,3:2:0:0:
100,215,46147,1,2,0:0:0:0:
191,200,46326,1,2,0:0:0:0:
378,234,46506,6,0,B|385:247|368:272|368:272|305:281|285:229,1,144,14|2,0:0|3:2,0:0:0:0:
264,138,47045,2,0,P|311:126|341:116,1,72,2|2,3:2|0:0,0:0:0:0:
114,31,47404,2,0,B|109:91|163:121|163:121|164:96|187:73,1,144,8|10,0:0|0:0,0:0:0:0:
183,77,47853,1,8,0:0:0:0:
195,69,47943,5,2,3:2:0:0:
88,225,48123,1,2,3:2:0:0:
238,346,48302,5,10,0:3:0:0:
186,263,48482,1,4,0:3:0:0:
412,194,48662,6,0,B|363:178|338:210|338:210|322:259|282:260,1,161.999995056153,6|8,3:2|0:0,0:0:0:0:
200,184,49200,1,0,3:2:0:0:
325,327,49380,1,2,3:2:0:0:
276,137,49560,1,2,0:0:0:0:
179,322,49739,2,0,P|139:330|99:338,1,80.9999975280763,10|8,0:0|0:3,0:0:0:0:
116,159,50099,6,0,P|154:114|235:107,1,121.499996292114,2|0,3:2|0:0,0:0:0:0:
213,101,50458,2,0,P|204:61|196:21,1,80.9999975280763,10|4,0:3|0:3,0:0:0:0:
367,131,50817,2,0,P|359:170|350:210,1,80.9999975280763,10|4,0:0|0:3,0:0:0:0:
168,225,51176,1,10,0:0:0:0:
187,191,51266,1,10,0:0:0:0:
225,179,51356,1,10,0:0:0:0:
260,197,51446,1,10,0:0:0:0:
231,274,51536,6,0,B|193:262|158:287|151:330|162:341|123:374|93:359,1,180,6|8,3:2|0:0,0:0:0:0:
10,194,52075,2,0,P|17:149|23:104,1,90,2|0,0:0|3:2,0:0:0:0:
0,0,52434,1,0,3:2:0:0:
122,162,52614,2,0,P|166:165|205:144,1,90,10|10,0:0|0:0,0:0:0:0:
331,111,52883,1,8,0:0:0:0:
322,95,52973,6,0,B|309:79|277:65|277:65|243:112|246:177|310:204,1,180,2|10,3:2|0:0,0:0:0:0:
406,144,53512,1,2,0:0:0:0:
290,351,53691,1,2,3:2:0:0:
373,319,53871,1,10,0:0:0:0:
379,302,53961,1,8,0:0:0:0:
372,287,54051,6,0,B|323:221|221:224|206:296|219:307|154:346|84:321,1,323.999990112305,6|8,3:2|0:0,0:0:0:0:
120,131,55039,1,2,0:0:0:0:
133,141,55129,2,0,P|128:181|124:221,1,80.9999975280763,2|2,3:2|3:2,0:0:0:0:
49,8,55488,6,0,B|58:43|99:61|131:46|131:46|142:23|167:22,1,148.50000453186,14|0,0:0|0:0,0:0:0:0:
182,28,55847,1,2,3:2:0:0:
304,0,56027,1,0,3:2:0:0:
375,203,56206,6,0,B|328:212|320:165|312:163|320:165|312:163|307:120|259:126,1,148.50000453186,14|0,0:0|0:0,0:0:0:0:
244,133,56566,1,2,3:2:0:0:
392,323,56745,5,10,0:0:0:0:
435,312,56835,1,8,0:0:0:0:
471,285,56925,1,10,0:3:0:0:
492,246,57015,1,8,0:3:0:0:
497,201,57105,1,6,0:3:0:0:
484,158,57194,1,4,0:3:0:0:
455,125,57284,5,6,3:2:0:0:
262,71,57464,1,0,3:2:0:0:
305,308,57644,1,10,0:0:0:0:
354,155,57823,5,2,3:2:0:0:
357,135,57913,1,0,3:2:0:0:
341,123,58003,1,2,3:2:0:0:
172,59,58182,1,0,3:2:0:0:
121,291,58362,5,10,0:0:0:0:
141,248,58452,1,10,0:0:0:0:
187,237,58542,1,10,0:0:0:0:
224,267,58632,1,10,0:0:0:0:
184,344,58721,5,10,0:0:0:0:
262,71,58901,1,10,0:0:0:0:
370,275,59440,6,0,P|371:285|373:294,6,20.2499993820191,2|2|2|2|2|2|2,0:0|0:0|0:0|0:0|0:0|0:0|0:0,0:0:0:0:
343,182,59799,5,10,0:0:0:0:
375,159,59889,1,10,0:0:0:0:
413,167,59979,1,10,0:0:0:0:
434,202,60069,1,10,0:0:0:0:
370,275,60159,6,0,B|334:237|283:263|283:263|268:296|229:298,1,161.999995056153,6|0,3:2|0:0,0:0:0:0:
230,298,60518,2,0,P|220:241|204:184,1,107.999996704102,10|0,0:0|0:0,0:0:0:0:
79,336,60877,1,2,3:2:0:0:
270,384,61057,1,0,3:2:0:0:
127,262,61236,2,0,P|76:246|27:266,1,107.999996704102,10|0,0:0|0:0,0:0:0:0:
237,44,61596,5,0,3:2:0:0:
192,176,61775,1,0,3:2:0:0:
395,159,61955,2,0,P|347:134|294:130,1,107.999996704102,10|0,0:0|0:0,0:0:0:0:
346,379,62314,1,2,3:2:0:0:
486,307,62494,1,0,3:2:0:0:
245,244,62673,2,0,P|229:294|249:343,1,107.999996704102,10|0,0:0|0:0,0:0:0:0:
466,158,63033,5,2,3:2:0:0:
384,89,63212,1,2,0:0:0:0:
288,72,63392,1,10,0:0:0:0:
205,103,63572,1,2,0:0:0:0:
154,166,63751,1,2,3:2:0:0:
142,240,63931,1,2,3:2:0:0:
166,305,64111,5,10,0:0:0:0:
203,336,64200,1,2,0:0:0:0:
250,344,64290,1,2,0:0:0:0:
295,328,64380,1,2,0:0:0:0:
325,291,64470,6,0,B|348:208|288:166|288:166|295:211|270:236,1,215.999993408203,6|10,3:2|0:0,0:0:0:0:
91,294,65009,1,0,3:2:0:0:
72,302,65099,1,8,0:0:0:0:
168,172,65278,1,0,3:2:0:0:
188,178,65368,1,8,0:0:0:0:
0,59,65548,2,0,P|17:110|28:162,1,107.999996704102,10|8,0:0|0:3,0:0:0:0:
275,210,65907,6,0,P|234:114|133:89,1,215.999993408203,6|10,3:2|0:0,0:0:0:0:
76,186,66446,1,0,3:2:0:0:
84,205,66536,1,0,3:2:0:0:
88,226,66626,1,0,3:2:0:0:
191,276,66805,1,0,3:2:0:0:
351,152,66985,1,10,0:0:0:0:
300,163,67075,1,2,0:0:0:0:
275,210,67165,1,2,0:0:0:0:
296,258,67254,1,2,0:0:0:0:
346,274,67344,6,0,B|304:250|246:277|250:320|263:335|216:366|168:349,1,215.999993408203,2|10,3:2|0:0,0:0:0:0:
84,280,67883,1,0,3:2:0:0:
75,260,67973,1,0,3:2:0:0:
87,242,68063,1,2,3:2:0:0:
170,163,68242,1,0,3:2:0:0:
5,19,68422,1,10,0:0:0:0:
7,70,68512,1,8,0:0:0:0:
51,97,68602,1,8,0:0:0:0:
98,76,68691,1,8,0:0:0:0:
80,0,68781,5,6,3:2:0:0:
1,254,68961,1,8,0:0:0:0:
233,366,69141,5,10,0:0:0:0:
170,163,69320,1,0,3:2:0:0:
342,68,69500,5,10,0:0:0:0:
291,230,69679,1,8,0:3:0:0:
472,311,69859,6,0,B|493:301|492:267|492:267|441:238|399:246|376:280,1,180,6|0,3:2|0:0,0:0:0:0:
233,366,70398,1,8,0:0:0:0:
210,327,70488,1,8,0:0:0:0:
199,283,70578,1,8,0:0:0:0:
201,238,70668,1,8,0:0:0:0:
214,195,70757,1,8,0:0:0:0:
238,158,70847,1,8,0:0:0:0:
272,128,70937,1,10,0:0:0:0:
100,37,71117,1,8,0:0:0:0:
63,144,71296,6,0,P|115:169|124:111,1,135,10|2,0:3|0:0,0:0:0:0:
123,110,71656,6,0,B|70:109|71:155|63:158|71:155|63:158|60:209|9:205,1,161.999995056153,6|0,3:2|0:0,0:0:0:0:
8,205,72015,2,0,P|59:222|111:250,1,107.999996704102,10|0,0:0|0:0,0:0:0:0:
330,314,72374,1,2,3:2:0:0:
126,359,72554,1,0,3:2:0:0:
187,162,72733,2,0,P|238:143|291:165,1,107.999996704102,10|8,0:0|0:0,0:0:0:0:
300,179,73003,1,8,0:0:0:0:
297,200,73093,5,4,3:2:0:0:
227,335,73272,1,0,3:2:0:0:
91,166,73452,1,10,0:0:0:0:
244,56,73632,1,8,0:0:0:0:
250,77,73721,1,8,0:0:0:0:
245,98,73811,1,2,3:2:0:0:
136,279,73991,1,0,3:2:0:0:
422,205,74170,2,0,P|406:142|394:83,1,107.999996704102,10|8,0:0|0:0,0:0:0:0:
385,81,74440,1,8,0:0:0:0:
363,81,74530,5,6,3:2:0:0:
339,185,74709,1,2,3:2:0:0:
272,255,74889,1,10,0:0:0:0:
187,280,75069,1,2,3:2:0:0:
109,261,75248,1,2,0:0:0:0:
56,209,75428,1,2,3:2:0:0:
34,144,75608,5,10,0:0:0:0:
46,97,75697,1,2,0:0:0:0:
79,62,75787,1,2,0:0:0:0:
123,47,75877,1,2,0:0:0:0:
170,58,75967,6,0,B|211:113|282:87|282:87|307:45|359:47,1,215.999993408203,6|10,3:2|0:0,0:0:0:0:
372,191,76506,1,0,3:2:0:0:
364,170,76596,1,8,0:0:0:0:
505,5,76775,1,0,3:2:0:0:
498,26,76865,1,8,0:0:0:0:
481,201,77045,2,0,P|461:150|432:104,1,107.999996704102,10|8,0:0|0:3,0:0:0:0:
197,98,77404,6,0,B|266:82|277:143|289:144|277:143|289:144|306:210|373:191,1,215.999993408203,6|10,3:2|0:0,0:0:0:0:
433,105,77943,1,0,3:2:0:0:
425,84,78033,1,0,3:2:0:0:
412,65,78123,1,0,3:2:0:0:
372,191,78302,1,0,3:2:0:0:
197,98,78482,1,10,0:0:0:0:
128,176,78662,1,0,3:2:0:0:
147,189,78751,1,0,3:2:0:0:
168,197,78841,5,2,3:2:0:0:
270,170,79021,1,0,3:2:0:0:
108,274,79200,1,10,0:0:0:0:
232,331,79380,1,0,3:2:0:0:
224,310,79470,1,0,3:2:0:0:
211,291,79560,1,0,3:2:0:0:
143,358,79739,1,0,3:2:0:0:
287,272,79919,1,10,0:0:0:0:
337,279,80009,1,8,0:0:0:0:
350,328,80099,1,8,0:0:0:0:
309,358,80188,1,8,0:0:0:0:
232,331,80278,5,6,3:2:0:0:
337,51,80458,1,0,3:2:0:0:
180,0,80638,5,10,0:0:0:0:
248,180,80817,1,0,3:2:0:0:
52,339,80997,5,10,0:0:0:0:
135,114,81176,1,8,0:3:0:0:
343,332,81356,6,0,B|274:351|239:301|239:301|276:307|297:286,1,180,6|0,3:2|0:0,0:0:0:0:
247,147,81895,1,2,3:2:0:0:
241,164,81985,1,10,0:0:0:0:
247,181,82075,2,0,B|269:175|290:169,1,45,10|8,0:0|0:0,0:0:0:0:
380,29,82254,1,2,3:2:0:0:
386,46,82344,1,10,0:0:0:0:
380,63,82434,5,6,3:2:0:0:
134,110,82703,1,2,0:0:0:0:
128,92,82793,1,4,3:2:0:0:
247,181,82973,1,2,0:0:0:0:
1,283,83153,6,0,B|34:254|102:277|103:310|83:335|123:369|154:363,1,198.000006042481,6|10,3:2|0:0,0:0:0:0:
289,384,83691,1,2,3:2:0:0:
300,368,83781,1,0,3:2:0:0:
295,348,83871,1,2,3:2:0:0:
221,274,84051,1,0,3:2:0:0:
286,113,84230,1,8,0:0:0:0:
218,3,84410,1,8,0:0:0:0:
207,19,84500,1,8,0:0:0:0:
212,39,84590,5,2,3:2:0:0:
286,113,84769,1,0,3:2:0:0:
221,274,84949,1,8,0:0:0:0:
289,384,85129,1,0,3:2:0:0:
300,368,85218,1,0,3:2:0:0:
295,348,85308,5,2,3:2:0:0:
221,274,85488,1,0,3:2:0:0:
286,113,85668,1,10,0:0:0:0:
60,215,85847,1,8,0:0:0:0:
56,234,85937,1,8,0:0:0:0:
65,252,86027,6,0,B|79:289|85:331,1,80.9999975280763,6|0,3:2|0:0,0:0:0:0:
84,330,86386,6,0,B|113:337|132:313|132:313|120:311|113:301,1,72,2|0,3:2|3:2,0:0:0:0:
340,245,86566,6,0,B|320:218|286:224|286:224|295:236|293:252,1,80.9999975280763,2|0,3:2|3:2,0:0:0:0:
215,383,86745,6,0,B|236:351|216:319|216:319|208:331|195:335,1,90,2|0,3:2|3:2,0:0:0:0:
175,98,86925,6,0,B|145:126|160:165|160:165|172:152|190:150,1,99.0000030212403,10|8,0:0|0:0,0:0:0:0:
421,215,87105,5,10,0:0:0:0:
406,154,87194,1,10,0:0:0:0:
350,134,87284,1,10,0:0:0:0:
303,172,87374,1,10,0:0:0:0:
340,245,87464,6,0,B|317:270|322:316|353:342|353:342|382:336|386:317,1,153.000002918243,6|0,3:2|0:0,0:0:0:0:
