osu file format v14

[General]
AudioFilename: audio.mp3
AudioLeadIn: 0
PreviewTime: 59146
Countdown: 0
SampleSet: Soft
StackLeniency: 0.7
Mode: 0
LetterboxInBreaks: 0
WidescreenStoryboard: 1

[Editor]
Bookmarks: 28428,31302,57080,59955,88787
DistanceSpacing: 1.3
BeatDivisor: 4
GridSize: 32
TimelineZoom: 3.099999

[Metadata]
Title:Sentimental Crisis (TV Size)
TitleUnicode:センチメンタルクライシス (TV Size)
Artist:halca
ArtistUnicode:halca
Creator:Nao Tomori
Version:Hailie's Insane
Source:かぐや様は告らせたい ~天才たちの恋愛頭脳戦~
Tags:Kaguya-sama wa kokurasetai tensai-tachi no renai zunosen kaguya wants to be confessed the genius war of love and brains is hailie japanese anime ending
BeatmapID:1913970
BeatmapSetID:914756

[Difficulty]
HPDrainRate:5.5
CircleSize:4
OverallDifficulty:7.5
ApproachRate:8.5
SliderMultiplier:1.5
SliderTickRate:1

[Events]
//Background and Video events
0,0,"hayasaka.jpg",0,0
Video,0,"video.avi"
//Break Periods
//Storyboard Layer 0 (Background)
//Storyboard Layer 1 (Fail)
//Storyboard Layer 2 (Pass)
//Storyboard Layer 3 (Foreground)
//Storyboard Sound Samples

[TimingPoints]
1503,389.61038961039,4,2,1,44,1,0
1503,-129.87012987013,4,2,1,44,0,0
13969,359.281437125748,4,2,1,74,1,0
13969,-83.3333333333333,4,2,1,74,0,0
17921,-222.222222222222,4,2,1,74,0,0
19358,-133.333333333333,4,2,1,54,0,0
19717,-133.333333333333,4,2,1,54,0,0
31214,-100,4,2,1,64,0,0
39837,-111.111111111111,4,2,1,64,0,0
53849,-166.666666666667,4,2,1,64,0,0
55286,-100,4,2,1,64,0,0
58519,-66.6666666666667,4,2,1,74,0,0
59238,-100,4,2,1,74,0,0
59957,-76.9230769230769,4,2,1,79,0,1
69657,-166.666666666667,4,2,1,79,0,1
70376,-100,4,2,1,79,0,1
71454,-76.9230769230769,4,2,1,79,0,1
77921,-100,4,2,1,79,0,1
80076,-76.9230769230769,4,2,1,79,0,1
81154,-250,4,2,1,79,0,1
81873,-100,4,2,1,79,0,1
82951,-76.9230769230769,4,2,1,79,0,1
87262,-133.333333333333,4,2,1,79,0,0
87442,-133.333333333333,4,2,1,43,0,0
88699,-133.333333333333,4,2,1,5,0,0

[Colours]
Combo1 : 231,146,203
Combo2 : 253,169,123
Combo3 : 81,180,253
Combo4 : 249,219,168

[HitObjects]
367,56,1503,6,0,P|425:39|487:31,2,115.499997708893,2|0|2,0:2|0:2|0:2,0:0:0:0:
264,37,2671,2,0,P|206:53|150:55,1,115.499997708893,2|0,0:2|0:2,0:0:0:0:
46,112,3451,6,0,P|39:67|62:-12,2,115.499997708893,2|0|2,0:2|0:2|0:2,0:0:0:0:
138,166,4619,1,0,0:2:0:0:
138,166,5009,6,0,P|142:212|129:290,1,115.499997708893,2|0,0:2|0:2,0:0:0:0:
44,339,5788,2,0,B|166:306|145:390|286:344,1,230.999995417786,2|0,0:2|0:2,0:0:0:0:
328,267,6957,1,2,0:2:0:0:
328,267,7347,1,0,0:2:0:0:
328,267,7736,2,0,P|334:231|343:205,1,57.7499988544464,0|0,0:2|0:0,0:0:0:0:
341,196,8126,2,0,P|341:165|467:4,1,230.999995417786,2|0,0:2|0:2,0:0:0:0:
272,42,9295,2,0,L|262:127,1,57.7499988544464,0|0,0:2|0:0,0:0:0:0:
243,124,9684,1,0,0:2:0:0:
166,188,10074,6,0,P|123:189|58:254,1,115.499997708893,2|0,0:2|0:2,0:0:0:0:
38,338,10853,2,0,P|116:258|446:250,1,461.999990835571,2|2,0:2|0:2,0:0:0:0:
501,76,13580,6,0,L|506:21,3,28.8749994272232,0|0|0|0,3:2|3:2|3:2|3:2,0:0:0:0:
466,27,13969,2,0,P|431:62|296:39,1,179.999994506836,6|4,3:2|0:3,0:0:0:0:
404,199,14507,1,0,3:2:0:0:
404,199,14597,1,0,3:2:0:0:
404,199,14687,1,0,3:2:0:0:
308,50,14867,1,2,0:2:0:0:
295,220,15046,1,10,0:2:0:0:
387,87,15226,1,0,3:2:0:0:
233,79,15406,5,2,3:2:0:0:
173,209,15585,1,2,0:2:0:0:
95,86,15765,1,8,0:2:0:0:
264,59,15945,1,2,3:2:0:0:
264,59,16034,1,0,3:2:0:0:
264,59,16124,1,0,3:2:0:0:
409,165,16304,5,2,3:2:0:0:
264,59,16483,2,0,L|78:47,1,179.999994506836,14|0,0:2|0:2,0:0:0:0:
89,50,17022,2,0,L|66:12,2,44.999998626709,8|8|8,0:2|0:2|2:3,0:0:0:0:
226,49,17382,1,8,2:3:0:0:
226,49,17561,1,4,0:3:0:0:
226,49,17741,1,4,0:3:0:0:
146,172,17921,2,0,P|123:244|33:192,1,202.499993820191,6|0,3:2|0:2,0:0:0:0:
69,110,19178,1,8,0:3:0:0:
146,172,19358,1,4,0:3:0:0:
185,60,19537,5,0,3:0:0:0:
185,60,19627,1,0,3:2:0:0:
185,60,19717,2,0,P|258:60|318:62,1,112.500004291535,2|0,3:2|0:2,0:0:0:0:
398,38,20256,1,2,3:2:0:0:
398,38,20436,2,0,P|403:94|368:138,1,112.500004291535,2|8,0:2|0:2,0:0:0:0:
301,197,20974,5,2,3:2:0:0:
301,197,21154,2,0,L|421:197,1,112.500004291535,2|2,3:2|0:2,0:0:0:0:
491,260,21693,1,0,3:2:0:0:
491,260,21873,2,0,L|503:205,1,56.2500021457673,2|0,0:2|0:2,0:0:0:0:
435,126,22232,2,0,P|411:206|401:254,1,112.500004291535,10|0,0:2|3:2,0:0:0:0:
404,234,23130,1,0,3:2:0:0:
404,234,23669,1,8,0:2:0:0:
347,297,23849,5,2,3:2:0:0:
347,297,24028,2,0,P|286:312|226:292,1,112.500004291535,2|2,3:2|0:2,0:0:0:0:
291,219,24567,1,0,0:0:0:0:
291,219,24747,1,2,0:2:0:0:
291,219,24927,2,0,L|302:157,1,56.2500021457673,0|8,0:2|0:2,0:0:0:0:
213,167,25286,1,2,0:2:0:0:
213,167,25466,2,0,P|196:237|183:292,1,112.500004291535,2|0,3:2|0:2,0:0:0:0:
186,368,26004,1,2,3:2:0:0:
186,368,26184,2,0,P|151:362|124:339,1,56.2500021457673,2|0,0:2|0:0,0:0:0:0:
87,271,26543,1,8,0:2:0:0:
92,191,26723,5,2,3:2:0:0:
92,191,26903,2,0,L|108:117,1,56.2500021457673,2|0,3:2|0:2,0:0:0:0:
188,118,27262,2,0,L|172:189,1,56.2500021457673,2|0,0:2|3:2,0:0:0:0:
235,259,27621,1,2,0:2:0:0:
235,259,27801,1,0,0:2:0:0:
235,259,27980,2,0,L|356:247,1,112.500004291535,10|2,0:2|3:2,0:0:0:0:
446,164,28519,1,0,0:2:0:0:
425,297,28699,1,0,0:2:0:0:
382,121,28879,2,0,L|334:65,1,56.2500021457673,2|0,3:2|0:2,0:0:0:0:
365,205,29238,1,2,0:2:0:0:
345,78,29418,1,10,0:2:0:0:
234,146,29597,1,2,3:2:0:0:
248,293,29777,5,8,0:2:0:0:
201,158,29957,1,8,0:2:0:0:
201,158,30046,1,8,0:2:0:0:
201,158,30136,1,8,3:3:0:0:
90,261,30316,1,4,3:3:0:0:
44,96,30495,5,2,0:0:0:0:
44,96,30675,1,0,0:0:0:0:
44,96,30855,1,2,0:0:0:0:
190,66,31034,1,0,0:0:0:0:
190,66,31214,2,0,L|163:245,1,150,6|0,3:2|3:2,0:0:0:0:
103,298,31753,6,0,P|141:316|187:313,1,75,2|2,0:2|3:2,0:0:0:0:
167,214,32112,1,2,0:2:0:0:
167,214,32292,2,0,P|130:201|92:199,1,75,8|2,0:2|0:2,0:0:0:0:
46,110,32651,2,0,P|55:89|165:39,1,150,2|0,3:2|3:2,0:0:0:0:
269,39,33190,6,0,L|354:23,2,75,2|2|0,0:2|3:2|0:2,0:0:0:0:
222,129,33729,1,10,0:2:0:0:
143,37,33909,1,0,3:2:0:0:
143,37,33998,1,0,3:0:0:0:
143,37,34088,6,0,L|35:26,1,75,2|0,3:2|0:2,0:0:0:0:
29,120,34448,2,0,L|-25:198,1,75,2|0,3:2|0:2,0:0:0:0:
18,273,34807,2,0,L|36:364,1,75,2|0,3:2|0:2,0:0:0:0:
115,202,35166,1,10,0:2:0:0:
315,26,35525,2,0,L|494:40,1,150,6|2,3:2|3:2,0:0:0:0:
489,235,36244,6,0,P|491:272|489:330,2,75,2|2|10,3:2|3:2|0:2,0:0:0:0:
413,159,36783,1,0,3:2:0:0:
413,159,36963,2,0,P|421:96|438:1,1,150,6|0,3:2|3:2,0:0:0:0:
324,31,37501,5,2,0:2:0:0:
324,31,37681,2,0,P|278:28|233:28,2,75,2|0|10,3:2|0:2|0:2,0:0:0:0:
260,114,38220,1,2,0:2:0:0:
260,114,38400,2,0,P|183:116|104:101,1,150,2|0,3:2|3:2,0:0:0:0:
174,216,38939,1,0,0:2:0:0:
260,114,39118,5,2,3:2:0:0:
138,63,39298,1,8,0:2:0:0:
138,63,39388,1,8,0:2:0:0:
138,63,39477,1,14,0:2:0:0:
174,216,39657,1,0,3:2:0:0:
174,216,39747,1,0,3:2:0:0:
174,216,39837,2,0,L|331:225,1,134.999995880127,2|0,3:2|0:0,0:0:0:0:
406,184,40376,2,0,P|408:144|409:108,1,67.4999979400635,0|8,0:2|2:2,0:0:0:0:
318,98,40735,1,0,0:0:0:0:
318,98,40915,2,0,P|319:53|321:8,2,67.4999979400635,0|0|0,3:2|3:2|3:2,0:0:0:0:
327,187,41454,2,0,L|250:187,1,67.4999979400635,8|0,0:2|0:0,0:0:0:0:
158,198,41813,1,0,3:2:0:0:
158,198,41903,1,0,3:2:0:0:
158,198,41992,6,0,P|132:270|162:343,1,134.999995880127,6|0,3:2|3:2,0:0:0:0:
234,292,42531,1,0,3:2:0:0:
234,292,42711,2,0,B|379:258|344:413|501:346,1,269.999991760254,6|8,3:2|0:2,0:0:0:0:
488,158,43789,1,0,3:2:0:0:
437,73,43968,5,2,0:2:0:0:
437,73,44148,2,0,L|271:72,1,134.999995880127,2|0,3:2|0:0,0:0:0:0:
206,35,44687,2,0,P|204:77|212:111,1,67.4999979400635,0|10,3:2|0:2,0:0:0:0:
126,165,45046,1,0,0:2:0:0:
126,165,45226,2,0,L|124:89,1,67.4999979400635,10|0,0:2|3:2,0:0:0:0:
26,37,45585,2,0,P|11:159|5:186,1,134.999995880127,6|0,3:2|0:0,0:0:0:0:
66,322,46304,2,0,P|89:231|104:191,1,134.999995880127,12|2,0:2|3:2,0:0:0:0:
186,148,46843,5,2,3:2:0:0:
186,148,47022,2,0,L|325:144,1,134.999995880127,2|0,3:2|0:0,0:0:0:0:
397,58,47561,2,0,P|353:60|302:54,1,67.4999979400635,10|0,0:2|3:2,0:0:0:0:
221,36,47921,1,2,3:2:0:0:
276,138,48100,1,4,0:3:0:0:
175,243,48280,1,4,0:3:0:0:
175,243,48460,2,0,P|74:247|31:234,1,134.999995880127,6|8,3:2|0:2,0:0:0:0:
132,158,48998,5,0,3:2:0:0:
175,243,49178,2,0,L|174:322,1,67.4999979400635,2|0,3:2|0:2,0:0:0:0:
267,248,49537,2,0,L|267:157,1,67.4999979400635,10|0,0:2|3:2,0:0:0:0:
168,105,49897,2,0,L|253:107,1,67.4999979400635,2|0,3:2|0:2,0:0:0:0:
311,181,50256,1,2,3:2:0:0:
362,67,50436,1,0,3:2:0:0:
235,106,50615,2,0,P|227:152|226:185,1,67.4999979400635,10|0,0:2|3:2,0:0:0:0:
145,315,50974,2,0,L|101:326,3,33.7499989700318,8|8|8|8,0:2|0:2|0:2|0:2,0:0:0:0:
79,309,51334,6,0,P|68:244|54:178,1,101.249996910095,6|0,3:2|0:0,0:0:0:0:
73,193,51693,1,8,0:2:0:0:
69,190,51873,2,0,P|61:175|19:237,1,134.999995880127,0|0,3:2|3:2,0:0:0:0:
141,98,52412,5,10,0:2:0:0:
223,163,52591,1,2,3:2:0:0:
223,163,52771,2,0,L|291:138,1,67.4999979400635,2|0,3:2|0:0,0:0:0:0:
350,118,53130,2,0,L|286:139,1,67.4999979400635,10|0,0:2|0:2,0:0:0:0:
325,233,53489,1,2,3:2:0:0:
367,82,53669,1,10,0:2:0:0:
367,82,53759,1,8,0:2:0:0:
367,82,53849,2,0,P|433:47|486:137,1,179.999994506836,6|8,3:2|0:2,0:0:0:0:
464,283,54927,2,0,P|438:304|422:309,1,44.999998626709,0|0,3:2|3:2,0:0:0:0:
296,350,55286,6,0,L|201:343,1,75,12|0,0:2|0:0,0:0:0:0:
101,258,55645,2,0,L|88:138,1,112.5,0|0,3:2|0:0,0:0:0:0:
87,122,56004,2,0,B|121:58|161:-21,1,150,12|10,0:2|0:2,0:0:0:0:
324,72,56543,1,0,3:2:0:0:
324,72,56633,1,0,3:2:0:0:
324,72,56723,1,8,0:2:0:0:
324,72,56813,1,8,0:2:0:0:
324,72,56903,1,8,0:3:0:0:
324,72,56992,1,8,0:3:0:0:
324,72,57082,6,0,P|346:119|357:159,1,75,6|0,3:2|3:2,0:0:0:0:
365,263,57442,2,0,P|342:243|310:196,1,75,10|0,0:2|3:2,0:0:0:0:
201,154,57801,2,0,P|161:166|121:168,1,75,10|0,0:2|3:2,0:0:0:0:
48,297,58160,1,8,0:2:0:0:
48,297,58250,1,8,0:2:0:0:
48,297,58340,1,8,0:2:0:0:
48,297,58430,1,8,0:2:0:0:
48,297,58519,2,0,L|30:229,1,56.2500021457673,6|0,3:2|0:0,0:0:0:0:
26,164,58699,2,0,L|49:82,1,56.2500021457673,2|0,3:2|0:0,0:0:0:0:
79,78,59238,6,0,L|115:40,3,37.5,2|2|2|2,0:2|0:2|0:2|0:2,0:0:0:0:
149,36,59597,1,10,0:2:0:0:
175,64,59687,1,8,0:2:0:0:
207,82,59777,1,8,0:2:0:0:
242,91,59867,1,8,0:2:0:0:
288,91,59957,6,0,L|496:60,1,194.999991073609,6|10,3:2|2:2,0:0:0:0:
470,250,60495,1,0,0:2:0:0:
470,250,60675,2,0,P|481:203|491:130,1,97.4999955368044,2|0,3:2|3:2,0:0:0:0:
288,91,61034,2,0,P|275:153|325:283,1,194.999991073609,10|0,0:2|3:2,0:0:0:0:
176,340,61573,1,0,3:2:0:0:
176,340,61753,6,0,L|177:238,1,97.4999955368044,10|0,0:2|3:2,0:0:0:0:
101,143,62112,2,0,P|105:201|77:251,1,97.4999955368044,2|0,3:2|3:2,0:0:0:0:
17,111,62471,2,0,P|58:62|183:112,1,194.999991073609,10|0,0:2|3:2,0:0:0:0:
89,236,63010,1,0,0:2:0:0:
89,236,63190,6,0,P|101:177|117:138,1,97.4999955368044,10|0,0:2|0:2,0:0:0:0:
244,16,63549,2,0,P|256:73|261:132,1,97.4999955368044,2|0,3:2|3:2,0:0:0:0:
394,242,63909,2,0,P|327:212|321:88,1,194.999991073609,10|6,0:2|3:2,0:0:0:0:
459,95,64448,1,0,3:2:0:0:
394,242,64627,6,0,P|333:243|280:244,1,97.4999955368044,10|0,0:2|3:2,0:0:0:0:
286,258,64897,1,0,3:2:0:0:
266,272,64986,2,0,P|213:286|158:299,1,97.4999955368044,2|0,3:2|0:2,0:0:0:0:
30,363,65346,1,10,0:2:0:0:
65,198,65525,1,4,0:3:0:0:
65,198,65705,6,0,P|85:134|48:63,1,146.249993305207,6|0,3:2|0:2,0:0:0:0:
21,54,66064,2,0,P|77:102|201:66,1,194.999991073609,8|0,0:2|3:0,0:0:0:0:
405,32,66603,1,0,3:2:0:0:
383,181,66783,5,10,0:2:0:0:
261,100,66963,1,0,3:2:0:0:
261,100,67052,1,0,3:2:0:0:
261,100,67142,2,0,P|253:172|295:261,1,146.249993305207,2|0,3:2|0:0,0:0:0:0:
300,262,67501,2,0,P|243:259|280:348,1,194.999991073609,8|4,0:2|2:3,0:0:0:0:
384,266,68040,1,4,0:3:0:0:
309,101,68220,2,0,L|228:98,3,48.7499977684022,8|8|8|8,0:2|0:2|0:2|0:2,0:0:0:0:
225,80,68579,6,0,L|92:73,1,97.4999955368044,14|0,2:2|3:2,0:0:0:0:
116,277,68939,2,0,L|236:255,1,97.4999955368044,10|0,0:2|3:2,0:0:0:0:
372,144,69298,1,4,0:3:0:0:
357,314,69477,1,4,0:3:0:0:
232,169,69657,2,0,L|224:68,1,89.9999972534181,6|0,3:2|0:0,0:0:0:0:
64,59,70196,1,0,3:2:0:0:
64,59,70286,1,0,3:2:0:0:
64,59,70376,2,0,L|53:112,3,37.5,10|8|10|8,0:2|0:2|0:2|0:2,0:0:0:0:
61,116,70735,5,10,0:2:0:0:
195,89,70915,1,8,0:2:0:0:
133,220,71094,1,8,0:3:0:0:
128,37,71274,1,4,0:3:0:0:
128,37,71364,1,4,0:3:0:0:
128,37,71454,6,0,P|192:57|301:49,1,146.249993305207,6|0,3:2|0:2,0:0:0:0:
300,57,71813,2,0,P|251:73|205:103,1,97.4999955368044,10|0,0:2|0:2,0:0:0:0:
186,273,72172,2,0,P|198:232|231:173,1,97.4999955368044,2|0,3:2|3:2,0:0:0:0:
359,135,72531,2,0,P|345:212|302:328,1,194.999991073609,10|0,0:2|3:2,0:0:0:0:
446,360,73070,1,0,3:2:0:0:
446,360,73250,6,0,P|438:318|436:251,1,97.4999955368044,10|0,0:2|3:2,0:0:0:0:
476,147,73609,2,0,P|416:151|364:178,1,97.4999955368044,2|0,3:2|3:2,0:0:0:0:
291,258,73968,1,10,0:2:0:0:
290,110,74148,1,0,3:0:0:0:
290,110,74238,1,2,3:2:0:0:
290,110,74328,6,0,P|216:132|176:26,1,194.999991073609,6|10,3:2|0:2,0:0:0:0:
61,116,74867,1,0,3:2:0:0:
61,116,75046,2,0,P|61:176|55:237,1,97.4999955368044,2|0,3:2|3:2,0:0:0:0:
127,340,75406,1,10,0:2:0:0:
215,213,75585,1,0,3:2:0:0:
379,316,75765,2,0,P|323:276|378:165,1,194.999991073609,6|10,3:2|0:2,0:0:0:0:
474,64,76304,5,8,0:2:0:0:
474,64,76394,1,8,0:2:0:0:
474,64,76483,2,0,L|359:43,1,97.4999955368044,2|0,3:2|3:2,0:0:0:0:
261,178,76843,2,0,L|359:171,1,97.4999955368044,10|4,0:2|0:3,0:0:0:0:
197,317,77202,1,6,3:2:0:0:
145,62,77561,1,10,0:2:0:0:
243,77,77741,1,4,2:3:0:0:
243,77,77831,1,4,0:3:0:0:
243,77,77921,2,0,P|226:123|196:159,1,75,0|0,3:2|3:2,0:0:0:0:
91,226,78280,5,10,0:2:0:0:
228,366,78460,1,0,0:2:0:0:
228,366,78549,1,0,3:2:0:0:
228,366,78639,2,0,P|282:338|361:350,1,112.5,2|0,3:2|0:0,0:0:0:0:
366,339,78998,2,0,L|377:244,1,75,10|0,0:2|0:2,0:0:0:0:
359,228,79268,1,0,3:2:0:0:
359,228,79358,1,0,3:2:0:0:
462,96,79537,1,0,3:2:0:0:
283,52,79717,6,0,L|222:68,3,37.5,8|8|8|8,2:2|2:2|2:2|2:2,0:0:0:0:
223,87,80076,2,0,P|146:99|75:33,1,146.249993305207,6|0,3:2|0:0,0:0:0:0:
76,43,80436,2,0,P|61:112|75:204,1,146.249993305207,10|0,0:2|0:0,0:0:0:0:
127,239,80795,2,0,P|47:211|-23:217,1,146.249993305207,4|0,2:3|0:0,0:0:0:0:
75,311,81154,2,0,P|104:319|141:318,1,60,6|0,3:2|0:0,0:0:0:0:
263,227,81693,1,0,3:2:0:0:
263,227,81783,1,0,3:2:0:0:
263,227,81873,2,0,L|332:217,3,37.5,8|8|0|0,0:2|0:2|3:2|3:2,0:0:0:0:
346,261,82232,5,6,3:2:0:0:
351,63,82501,1,0,3:2:0:0:
508,172,82771,1,8,0:2:0:0:
452,233,82951,6,0,P|448:275|452:334,1,97.4999955368044,6|0,3:2|3:2,0:0:0:0:
369,203,83310,1,10,0:2:0:0:
271,294,83489,2,0,P|204:294|135:293,1,97.4999955368044,2|0,3:2|3:2,0:0:0:0:
131,384,83849,1,0,3:2:0:0:
137,193,84028,1,8,2:2:0:0:
271,294,84208,1,8,2:2:0:0:
271,294,84298,1,8,0:0:0:0:
271,294,84388,6,0,P|294:226|352:111,1,194.999991073609,0|8,3:2|0:2,0:0:0:0:
471,62,84927,1,0,3:2:0:0:
471,62,85106,2,0,P|418:71|341:81,1,97.4999955368044,0|0,3:2|3:2,0:0:0:0:
233,47,85466,1,10,0:2:0:0:
304,198,85645,1,8,0:2:0:0:
304,198,85735,1,8,0:2:0:0:
304,198,85825,6,0,P|284:255|249:303,1,97.4999955368044,6|0,3:2|0:0,0:0:0:0:
396,361,86184,1,10,0:2:0:0:
401,363,86364,2,0,P|413:298|441:258,1,97.4999955368044,2|0,3:2|3:2,0:0:0:0:
479,117,86723,1,0,3:2:0:0:
467,78,86813,1,0,3:2:0:0:
426,57,86902,1,8,0:2:0:0:
379,63,86992,1,8,0:2:0:0:
348,102,87082,1,8,0:2:0:0:
350,144,87172,1,8,0:2:0:0:
385,180,87262,1,14,0:2:0:0:
420,133,87621,5,2,0:2:0:0:
420,133,87801,1,0,0:2:0:0:
420,133,87981,1,2,0:2:0:0:
420,133,88160,1,0,0:2:0:0:
420,133,88340,2,0,B|408:171|408:171|381:158|377:121|416:114,1,112.500004291535,2|0,0:2|0:0,0:0:0:0:
