osu file format v14

[General]
AudioFilename: audio.mp3
AudioLeadIn: 0
PreviewTime: 59486
Countdown: 0
SampleSet: None
StackLeniency: 0.7
Mode: 0
LetterboxInBreaks: 0
WidescreenStoryboard: 0

[Editor]
Bookmarks: 6425,14217,19965,25714,30025,31462,37211,40085,42959,48708,54097,58767,60205
DistanceSpacing: 1.4
BeatDivisor: 4
GridSize: 32
TimelineZoom: 2.599999

[Metadata]
Title:Sentimental Crisis (TV Size)
TitleUnicode:センチメンタルクライシス (TV Size)
Artist:halca
ArtistUnicode:halca
Creator:Kaguya_Sama
Version:Love and War
Source:かぐや様は告らせたい ~天才たちの恋愛頭脳戦~
Tags:kaguya-sama : love is war kaguya wants to be confessed ED ending anime japanese jpop bangom
BeatmapID:1990304
BeatmapSetID:932030

[Difficulty]
HPDrainRate:6
CircleSize:4.1
OverallDifficulty:8.8
ApproachRate:9.2
SliderMultiplier:1.5
SliderTickRate:1

[Events]
//Background and Video events
0,0,"QxjjN1A.jpg",0,0
//Break Periods
//Storyboard Layer 0 (Background)
//Storyboard Layer 1 (Fail)
//Storyboard Layer 2 (Pass)
//Storyboard Layer 3 (Foreground)
//Storyboard Sound Samples

[TimingPoints]
1750,389.61038961039,4,2,2,40,1,0
1750,-125,4,2,2,40,0,0
14217,359.281437125748,4,2,2,58,1,0
14217,-83.3333333333333,4,2,2,58,0,0
16731,-111.111111111111,4,2,2,58,0,0
18169,-121.951219512195,4,2,2,58,0,0
19965,-111.111111111111,4,2,2,50,0,0
29306,-111.111111111111,4,2,2,60,0,0
30025,-111.111111111111,4,2,2,65,0,0
31462,-90.9090909090909,4,2,2,65,0,0
48708,-83.3333333333333,4,2,2,65,0,0
51582,-76.9230769230769,4,2,2,65,0,0
54097,-142.857142857143,4,2,2,65,0,0
54815,-76.9230769230769,4,2,2,65,0,0
55534,-71.4285714285714,4,2,2,65,0,0
59486,-90.9090909090909,4,2,2,65,0,0
59531,-90.9090909090909,4,2,2,40,0,0
59576,-76.9230769230769,4,2,2,65,0,0
59621,-76.9230769230769,4,2,2,40,0,0
59666,-66.6666666666667,4,2,2,65,0,0
59711,-66.6666666666667,4,2,2,40,0,0
59755,-58.8235294117647,4,2,2,65,0,0
59800,-58.8235294117647,4,2,2,40,0,0
59845,-58.8235294117647,4,2,2,65,0,0
60205,-66.6666666666667,4,2,2,75,0,1
65953,-66.6666666666667,4,2,2,75,0,1
68827,-50,4,2,2,75,0,1
69905,-111.111111111111,4,2,2,75,0,1
71702,-66.6666666666667,4,2,2,75,0,1
80324,-66.6666666666667,4,2,2,75,0,1
81402,-125,4,2,2,75,0,1
82480,-71.4285714285714,4,2,2,75,0,0
87510,-50,4,2,2,65,0,0
87869,-166.666666666667,4,2,2,55,0,0
88588,-333.333333333333,4,2,2,55,0,0
88947,-333.333333333333,4,2,2,25,0,0

[Colours]
Combo1 : 128,128,192
Combo2 : 170,0,0
Combo3 : 241,183,7
Combo4 : 255,111,255

[HitObjects]
7,227,970,5,0,0:0:0:0:
45,154,1360,1,0,0:0:0:0:
80,268,1750,6,0,L|43:148,1,120
157,193,2529,2,0,L|194:314,1,120
283,236,3308,5,0,0:0:0:0:
193,307,3698,2,0,P|228:260|296:236,1,120
303,343,4477,1,0,0:0:0:0:
377,178,4866,5,0,0:0:0:0:
282,124,5256,2,0,P|324:81|389:69,1,120
283,236,6035,1,0,0:0:0:0:
416,380,6425,6,0,P|415:314|369:264,1,120
283,236,7204,1,0,0:0:0:0:
303,343,7594,1,0,0:0:0:0:
377,178,7983,5,0,0:0:0:0:
382,68,8373,1,0,0:0:0:0:
286,17,8762,1,0,0:0:0:0:
184,54,9152,1,0,0:0:0:0:
282,123,9542,5,0,0:0:0:0:
187,174,9931,1,0,0:0:0:0:
88,130,10321,1,0,0:0:0:0:
15,210,10711,1,0,0:0:0:0:
89,86,11100,5,0,0:0:0:0:
108,231,11490,2,0,L|120:316,1,60
219,285,11879,2,0,L|211:353,1,60
323,329,12269,1,0,0:0:0:0:
311,220,12464,1,0,0:0:0:0:
116,290,12659,5,0,0:0:0:0:
507,186,13827,5,0,0:0:0:0:
469,200,13924,1,0,0:0:0:0:
430,200,14021,1,0,0:0:0:0:
392,187,14119,1,0,0:0:0:0:
359,173,14217,6,0,B|348:110|371:41|371:41|351:63|313:73,1,179.999994506836
240,143,14755,1,0,0:0:0:0:
240,143,14845,1,0,0:0:0:0:
240,143,14935,1,0,0:0:0:0:
219,33,15115,1,0,0:0:0:0:
360,172,15294,1,0,0:0:0:0:
149,216,15474,1,0,0:0:0:0:
149,216,15564,1,0,0:0:0:0:
149,216,15654,6,0,P|78:230|39:219,1,89.9999972534181
131,106,16013,1,0,0:0:0:0:
261,255,16193,1,0,0:0:0:0:
261,255,16282,1,0,0:0:0:0:
261,255,16372,1,0,0:0:0:0:
61,227,16552,1,0,0:0:0:0:
20,18,16731,6,0,B|68:5|123:30|123:30|165:48|242:27,1,202.499993820191
218,32,17360,1,0,0:0:0:0:
218,32,17450,1,0,0:0:0:0:
400,110,17630,1,0,0:0:0:0:
281,118,17809,5,0,0:0:0:0:
441,0,17989,1,0,0:0:0:0:
349,219,18169,2,0,B|379:201|409:216|411:254|411:254|406:288|374:315|339:284|308:312|308:312|307:271|261:265|260:223|282:196|282:196|312:173|343:186|349:219,1,430.500006568909,4|0,0:0|0:0,0:0:0:0:
338,247,19606,1,0,0:0:0:0:
326,276,19785,1,0,0:0:0:0:
308,313,19965,6,0,P|264:347|184:342,1,134.999995880127
231,251,20504,1,0,0:0:0:0:
272,158,20684,2,0,P|206:151|152:189,1,134.999995880127
345,233,21222,1,0,0:0:0:0:
301,57,21402,6,0,L|382:74,1,67.4999979400635
512,177,21761,2,0,L|431:194,1,67.4999979400635
345,233,22121,1,0,0:0:0:0:
507,56,22300,1,0,0:0:0:0:
301,57,22480,2,0,P|253:53|223:62,1,67.4999979400635
138,0,22839,6,0,B|140:52|140:52|124:82|124:82|124:151,1,134.999995880127
242,185,23378,2,0,P|182:217|106:217,1,134.999995880127
25,17,23917,1,0,0:0:0:0:
0,172,24097,1,0,0:0:0:0:
202,123,24276,6,0,P|170:114|124:122,1,67.4999979400635
78,288,24636,2,0,P|110:297|156:289,1,67.4999979400635
278,245,24995,1,0,0:0:0:0:
202,123,25175,1,0,0:0:0:0:
321,50,25354,2,0,P|357:39|409:45,1,67.4999979400635
508,4,25714,6,0,B|501:101|501:101|515:151,1,134.999995880127
451,256,26252,1,0,0:0:0:0:
361,169,26432,2,0,P|362:109|386:38,1,134.999995880127
338,295,26971,1,0,0:0:0:0:
266,114,27151,6,0,P|265:169|270:196,1,67.4999979400635
171,210,27510,2,0,P|201:255|221:274,1,67.4999979400635
219,361,27869,1,0,0:0:0:0:
67,217,28049,1,0,0:0:0:0:
0,384,28228,2,0,L|64:350,1,67.4999979400635
118,130,28588,5,0,0:0:0:0:
320,8,28767,1,0,0:0:0:0:
326,201,28947,1,0,0:0:0:0:
184,24,29127,1,0,0:0:0:0:
421,119,29306,5,0,0:0:0:0:
344,355,29486,1,0,0:0:0:0:
218,167,29666,1,0,0:0:0:0:
452,267,29845,1,0,0:0:0:0:
512,181,30025,5,0,0:0:0:0:
320,8,30205,1,0,0:0:0:0:
320,8,30294,1,0,0:0:0:0:
320,8,30384,1,0,0:0:0:0:
210,264,30564,1,0,0:0:0:0:
271,111,31462,6,0,B|205:117|205:117|172:99|172:99|99:105,1,165.000005035401
0,117,32001,1,0,0:0:0:0:
73,209,32181,2,0,L|163:198,1,82.5000025177003
246,231,32540,2,0,P|246:181|231:146,1,82.5000025177003
139,34,32899,6,0,L|156:212,1,165.000005035401
248,333,33438,1,0,0:0:0:0:
374,351,33618,2,0,P|350:286|310:261,1,82.5000025177003
308,184,33887,1,0,0:0:0:0:
308,184,33977,2,0,P|263:158|205:149,1,82.5000025177003
92,293,34336,6,0,P|111:340|163:367,1,82.5000025177003
55,206,34696,2,0,P|12:234|-2:290,1,82.5000025177003
128,154,35055,2,0,P|91:118|33:115,1,82.5000025177003
205,197,35414,2,0,P|231:154|223:96,1,82.5000025177003
188,279,35773,6,0,P|235:296|343:244,1,165.000005035401
402,119,36312,1,0,0:0:0:0:
502,192,36492,2,0,B|413:204,1,82.5000025177003
315,120,36761,1,0,0:0:0:0:
315,120,36851,2,0,L|216:123,1,82.5000025177003
149,0,37211,6,0,B|139:63|139:63|143:87|143:87|125:170,1,165.000005035401
92,293,37749,1,0,0:0:0:0:
44,153,37929,2,0,L|156:165,1,82.5000025177003
82,320,38288,2,0,L|-30:308,1,82.5000025177003
220,233,38648,6,0,P|241:309|206:385,1,165.000005035401
78,349,39187,1,0,0:0:0:0:
297,152,39366,2,0,P|335:210|342:253,1,82.5000025177003
431,270,39636,1,0,0:0:0:0:
431,270,39725,2,0,P|382:319|341:335,1,82.5000025177003
297,152,40085,6,0,B|342:169|386:158|386:158|433:143|476:154,1,165.000005035401
353,0,40624,2,0,P|347:73|362:105,1,82.5000025177003
429,245,40983,1,0,0:0:0:0:
260,74,41163,1,0,0:0:0:0:
301,272,41342,1,0,0:0:0:0:
459,34,41522,5,0,0:0:0:0:
297,152,41702,1,0,0:0:0:0:
507,214,41881,1,0,0:0:0:0:
374,320,42061,1,0,0:0:0:0:
374,320,42151,1,0,0:0:0:0:
374,320,42240,2,0,B|328:359|328:359|196:352,1,165.000005035401
135,313,42779,1,0,0:0:0:0:
78,227,42959,6,0,P|90:286|58:387,1,165.000005035401
139,134,43498,1,0,0:0:0:0:
227,201,43678,2,0,P|140:243|54:208,1,165.000005035401
50,68,44216,1,0,0:0:0:0:
139,134,44396,5,0,0:0:0:0:
2,162,44576,1,0,0:0:0:0:
160,6,44755,1,0,0:0:0:0:
227,201,44935,1,0,0:0:0:0:
227,201,45025,1,0,0:0:0:0:
227,201,45115,1,0,0:0:0:0:
435,118,45294,1,0,0:0:0:0:
434,254,45474,1,0,0:0:0:0:
300,90,45654,1,0,0:0:0:0:
301,312,45833,5,0,0:0:0:0:
301,312,46013,2,0,P|223:335|142:304,1,165.000005035401
227,201,46552,2,0,P|279:175|337:176,1,82.5000025177003
509,282,46911,2,0,P|457:256|399:257,1,82.5000025177003
302,172,47270,5,0,0:0:0:0:
146,307,47450,1,0,0:0:0:0:
344,384,47630,1,0,0:0:0:0:
227,201,47809,1,0,0:0:0:0:
227,201,47899,1,0,0:0:0:0:
227,201,47989,1,0,0:0:0:0:
367,92,48169,1,0,0:0:0:0:
209,21,48348,2,0,P|156:44|133:74,1,82.5000025177003
0,137,48708,6,0,B|59:145|59:145|101:132|101:132|199:144,1,179.999994506836
302,172,49246,1,0,0:0:0:0:
298,18,49426,2,0,L|192:21,1,89.9999972534181
0,136,49785,2,0,L|95:131,1,89.9999972534181
240,189,50145,6,0,B|251:234|237:283,1,89.9999972534181
153,84,50504,2,0,B|108:71|73:34,1,89.9999972534181
286,73,50863,2,0,B|319:40|368:28,1,89.9999972534181
512,215,51222,5,0,0:0:0:0:
468,203,51311,1,0,0:0:0:0:
435,174,51401,1,0,0:0:0:0:
417,133,51491,1,0,0:0:0:0:
415,93,51582,6,0,P|490:110|507:222,1,194.999991073609
350,241,52121,1,0,0:0:0:0:
491,361,52300,2,0,P|433:372|376:361,1,97.4999955368044
262,354,52660,1,0,0:0:0:0:
249,150,52839,1,0,0:0:0:0:
249,150,52929,1,0,0:0:0:0:
249,150,53019,6,0,B|171:150|171:150|129:170|129:170|47:170,1,194.999991073609
0,312,53558,1,0,0:0:0:0:
167,302,53737,2,0,P|175:240|159:191,1,97.4999955368044
107,60,54007,1,0,0:0:0:0:
107,60,54097,6,0,B|158:38|158:38|305:40,1,183.749994392395
309,0,54815,6,0,B|305:52|305:52|324:95|324:95|320:160,1,146.249993305207
294,169,55175,1,0,0:0:0:0:
439,90,55354,1,0,0:0:0:0:
458,259,55534,2,0,P|383:254|315:189,1,157.499995193482
294,169,55893,5,0,0:0:0:0:
107,60,56073,1,0,0:0:0:0:
94,265,56252,2,0,P|186:266|255:330,1,157.499995193482
248,330,56612,1,0,0:0:0:0:
39,350,56791,5,0,0:0:0:0:
5,310,56880,1,0,0:0:0:0:
0,259,56970,1,0,0:0:0:0:
9,210,57060,1,0,0:0:0:0:
47,174,57150,1,0,0:0:0:0:
97,161,57240,1,0,0:0:0:0:
149,162,57330,5,0,0:0:0:0:
386,114,57510,1,0,0:0:0:0:
318,340,57690,1,0,0:0:0:0:
208,27,57869,5,0,0:0:0:0:
208,27,57959,1,0,0:0:0:0:
208,27,58049,1,0,0:0:0:0:
495,283,58228,1,0,0:0:0:0:
149,354,58408,5,0,0:0:0:0:
149,306,58497,1,0,0:0:0:0:
149,258,58587,1,0,0:0:0:0:
149,210,58677,1,0,0:0:0:0:
150,161,58767,5,0,0:0:0:0:
512,0,58947,1,0,0:0:0:0:
500,330,59486,6,0,L|522:359,1,20.6250006294251
464,345,59576,2,0,L|472:376,1,24.3749988842011
425,347,59666,2,0,L|423:383,1,28.1250010728836
387,339,59755,2,0,L|374:377,1,31.8750006079674
351,322,59845,5,0,0:0:0:0:
342,271,59935,1,0,0:0:0:0:
346,220,60025,1,0,0:0:0:0:
360,170,60115,1,0,0:0:0:0:
393,136,60205,6,0,B|470:119|489:83|489:83|476:61|440:51,1,168.750006437302
412,26,60564,1,0,0:0:0:0:
458,259,60743,1,0,0:0:0:0:
293,95,60923,1,0,0:0:0:0:
512,158,61103,1,0,0:0:0:0:
299,6,61282,2,0,P|228:22|193:93,1,112.500004291535
198,155,61552,5,0,0:0:0:0:
198,155,61642,2,0,B|122:207|122:207|26:215,1,168.750006437302
5,193,62001,1,0,0:0:0:0:
93,42,62181,1,0,0:0:0:0:
181,297,62360,1,0,0:0:0:0:
293,95,62540,1,0,0:0:0:0:
5,193,62719,2,0,B|10:273|10:273|45:321,1,127.50000243187
117,383,62989,1,0,0:0:0:0:
117,383,63079,6,0,B|178:363|233:380|233:380|227:350|184:320,1,168.750006437302
181,297,63438,1,0,0:0:0:0:
0,170,63618,1,0,0:0:0:0:
204,92,63797,1,0,0:0:0:0:
206,337,63977,1,0,0:0:0:0:
0,131,64157,2,0,P|49:76|107:62,1,112.500004291535
231,116,64426,1,0,0:0:0:0:
231,116,64516,6,0,L|291:305,1,168.750006437302
316,302,64875,1,0,0:0:0:0:
128,192,65055,1,0,0:0:0:0:
128,192,65145,1,0,0:0:0:0:
128,192,65234,1,0,0:0:0:0:
354,71,65414,1,0,0:0:0:0:
511,263,65594,1,0,0:0:0:0:
473,256,65684,1,0,0:0:0:0:
436,248,65773,1,0,0:0:0:0:
398,240,65863,1,0,0:0:0:0:
362,230,65953,6,0,B|259:206|259:206|333:162,1,168.750006437302
328,141,66312,1,0,0:0:0:0:
511,263,66492,1,0,0:0:0:0:
496,285,66582,1,0,0:0:0:0:
478,306,66672,1,0,0:0:0:0:
308,384,66851,1,0,0:0:0:0:
105,384,67031,2,0,P|122:304|169:254,1,112.500004291535
179,265,67300,1,0,0:0:0:0:
229,278,67390,6,0,B|196:194|196:194|203:74,1,168.750006437302
164,77,67749,1,0,0:0:0:0:
3,0,67929,1,0,0:0:0:0:
1,22,68019,1,0,0:0:0:0:
0,45,68109,1,0,0:0:0:0:
60,233,68288,1,0,0:0:0:0:
309,168,68468,1,0,0:0:0:0:
353,162,68558,1,0,0:0:0:0:
397,156,68648,1,0,0:0:0:0:
441,150,68737,1,0,0:0:0:0:
482,144,68827,5,0,0:0:0:0:
231,235,69007,1,0,0:0:0:0:
380,14,69187,1,0,0:0:0:0:
389,280,69366,1,0,0:0:0:0:
226,70,69546,1,0,0:0:0:0:
404,305,69725,1,0,0:0:0:0:
190,344,69905,6,0,B|144:339|144:339|90:353|90:353|53:327|-11:337,1,202.499993820191
4,364,70534,1,0,0:0:0:0:
27,383,70624,1,0,0:0:0:0:
50,342,70714,1,0,0:0:0:0:
55,295,70803,1,0,0:0:0:0:
45,248,70893,1,0,0:0:0:0:
23,205,70983,5,0,0:0:0:0:
84,84,71163,1,0,0:0:0:0:
285,204,71342,1,0,0:0:0:0:
224,83,71522,1,0,0:0:0:0:
151,308,71702,6,0,B|179:354|179:354|344:369,1,168.750006437302
331,381,72061,1,0,0:0:0:0:
512,226,72240,1,0,0:0:0:0:
309,179,72420,1,0,0:0:0:0:
363,382,72600,1,0,0:0:0:0:
435,141,72779,2,0,B|467:27|467:27,1,112.500004291535
347,64,73049,1,0,0:0:0:0:
334,80,73139,6,0,P|274:103|173:70,1,168.750006437302
139,84,73498,1,0,0:0:0:0:
19,0,73678,1,0,0:0:0:0:
106,214,73857,1,0,0:0:0:0:
260,0,74037,1,0,0:0:0:0:
228,185,74216,2,0,P|210:295|198:305,1,112.500004291535
96,341,74486,1,0,0:0:0:0:
96,341,74576,6,0,B|140:379|140:379|258:376,1,168.750006437302
267,344,74935,1,0,0:0:0:0:
462,177,75115,1,0,0:0:0:0:
228,185,75294,1,0,0:0:0:0:
421,317,75474,1,0,0:0:0:0:
334,80,75654,2,0,L|213:54,1,112.500004291535
104,104,75923,1,0,0:0:0:0:
104,104,76013,6,0,P|38:112|26:10,1,168.750006437302
49,7,76372,1,0,0:0:0:0:
227,183,76552,1,0,0:0:0:0:
227,183,76642,1,0,0:0:0:0:
227,183,76731,1,0,0:0:0:0:
2,239,76911,1,0,0:0:0:0:
2,239,77001,1,0,0:0:0:0:
2,239,77091,1,0,0:0:0:0:
225,56,77270,1,0,0:0:0:0:
132,281,77450,6,0,P|191:319|294:301,1,168.750006437302
317,285,77809,1,0,0:0:0:0:
334,80,77989,1,0,0:0:0:0:
334,80,78079,1,0,0:0:0:0:
334,80,78169,2,0,L|439:126,1,112.500004291535
512,283,78528,1,0,0:0:0:0:
231,183,78708,1,0,0:0:0:0:
231,183,78797,1,0,0:0:0:0:
231,183,78887,6,0,L|112:136,1,112.500004291535
77,1,79246,1,0,0:0:0:0:
20,219,79426,1,0,0:0:0:0:
20,219,79516,1,0,0:0:0:0:
20,219,79606,2,0,B|22:284|22:284|47:367,1,112.500004291535
133,258,79965,1,0,0:0:0:0:
174,286,80055,1,0,0:0:0:0:
223,295,80145,1,0,0:0:0:0:
271,284,80234,1,0,0:0:0:0:
310,252,80324,5,0,0:0:0:0:
389,0,80504,1,0,0:0:0:0:
512,283,80684,5,0,0:0:0:0:
225,56,80863,1,0,0:0:0:0:
511,78,81043,5,0,0:0:0:0:
231,183,81222,1,0,0:0:0:0:
467,366,81402,6,0,B|424:385|381:365|381:365|340:380|340:380|284:369,1,180
254,354,82031,1,0,0:0:0:0:
238,314,82121,1,0,0:0:0:0:
242,272,82211,1,0,0:0:0:0:
270,241,82300,1,0,0:0:0:0:
311,235,82390,1,0,0:0:0:0:
348,247,82480,6,0,B|397:240|397:240|449:189,1,104.999996795654
502,205,82749,2,0,P|445:143|430:85,1,104.999996795654
451,74,83019,1,0,0:0:0:0:
231,80,83199,5,0,0:0:0:0:
348,247,83378,1,0,0:0:0:0:
346,16,83558,1,0,0:0:0:0:
124,146,83737,1,0,0:0:0:0:
352,154,83917,1,0,0:0:0:0:
121,34,84097,1,0,0:0:0:0:
0,224,84276,1,0,0:0:0:0:
241,191,84456,1,0,0:0:0:0:
241,191,84546,1,0,0:0:0:0:
241,191,84636,5,0,0:0:0:0:
11,96,84815,1,0,0:0:0:0:
58,334,84995,1,0,0:0:0:0:
243,294,85175,1,0,0:0:0:0:
243,294,85264,1,0,0:0:0:0:
243,294,85354,1,0,0:0:0:0:
115,205,85534,1,0,0:0:0:0:
350,152,85714,1,0,0:0:0:0:
121,34,85893,1,0,0:0:0:0:
427,305,86073,5,0,0:0:0:0:
324,34,86252,1,0,0:0:0:0:
512,135,86432,1,0,0:0:0:0:
249,216,86612,1,0,0:0:0:0:
121,34,86791,5,0,0:0:0:0:
170,51,86880,1,0,0:0:0:0:
222,56,86970,1,0,0:0:0:0:
274,51,87060,1,0,0:0:0:0:
324,34,87151,5,0,0:0:0:0:
396,41,87240,1,0,0:0:0:0:
454,88,87330,1,0,0:0:0:0:
477,157,87420,1,0,0:0:0:0:
458,228,87510,1,0,0:0:0:0:
249,216,87869,6,0,L|302:179,1,44.999998626709
386,115,88228,1,0,0:0:0:0:
458,228,88408,1,0,0:0:0:0:
358,303,88588,6,0,L|319:331,1,44.999998626709
