osu file format v14

[General]
AudioFilename: audio.mp3
AudioLeadIn: 0
PreviewTime: 59239
Countdown: 0
SampleSet: Normal
StackLeniency: 0.7
Mode: 3
LetterboxInBreaks: 0
SpecialStyle: 0
WidescreenStoryboard: 0

[Editor]
Bookmarks: 19898,31395,45766
DistanceSpacing: 1.4
BeatDivisor: 4
GridSize: 32
TimelineZoom: 1.5

[Metadata]
Title:Sentimental Crisis (TV Size)
TitleUnicode:センチメンタルクライシス (TV Size)
Artist:halca
ArtistUnicode:halca
Creator:Faputa
Version:hitsound
Source:かぐや様は告らせたい〜天才たちの恋愛頭脳戦〜
Tags:Kaguya Wants to be Confessed To: The Geniuses' War of Love and Brains Kaguya sama wa Kokurasetai Tensai tachi no Renai Zunousen Kaguya-sama: Love Is War CHiCO with HoneyWorks ED ending
BeatmapID:1961347
BeatmapSetID:938152

[Difficulty]
HPDrainRate:8.5
CircleSize:6
OverallDifficulty:8.5
ApproachRate:5
SliderMultiplier:1.4
SliderTickRate:1

[Events]
//Background and Video events
0,0,"kaguya.jpg",0,0
//Break Periods
//Storyboard Layer 0 (Background)
//Storyboard Layer 1 (Fail)
//Storyboard Layer 2 (Pass)
//Storyboard Layer 3 (Foreground)
//Storyboard Sound Samples

[TimingPoints]
124,389.61038961039,4,1,2,10,1,0
124,-92.5925925925926,4,1,2,10,0,0
13760,-92.5925925925926,4,1,2,60,0,0
14150,359.281437125748,4,1,2,60,1,0
19898,-100,4,1,2,50,0,0
30676,-100,4,1,2,10,0,0
31395,-100,4,1,2,60,0,0
60138,-100,4,1,2,70,0,1
87443,-100,4,1,2,10,0,0

[HitObjects]
213,192,13955,5,8,2:0:0:0:
213,192,14052,1,8,2:0:0:0:
469,192,14150,1,4,0:0:0:0:
42,192,14329,1,0,2:0:0:0:
128,192,14509,1,8,0:0:0:0:
213,192,14688,1,8,2:0:0:0:
42,192,14778,1,0,2:0:0:0:
42,192,14868,1,0,2:0:0:0:
213,192,15048,1,8,2:0:0:0:
128,192,15227,1,8,0:0:0:0:
213,192,15407,1,8,2:0:0:0:
213,192,15497,1,8,2:0:0:0:
42,192,15587,1,0,2:0:0:0:
42,192,15766,1,0,2:0:0:0:
128,192,15946,1,8,0:0:0:0:
213,192,16126,1,8,2:0:0:0:
42,192,16215,1,0,2:0:0:0:
42,192,16305,1,0,2:0:0:0:
213,192,16485,1,8,2:0:0:0:
469,192,16664,1,4,0:0:0:0:
128,192,17203,1,8,0:0:0:0:
128,192,17293,1,8,0:0:0:0:
128,192,17383,1,8,0:0:0:0:
213,192,17383,1,8,2:0:0:0:
384,192,17563,1,0,0:0:0:60:Tom1.wav
384,192,17742,1,0,0:0:0:60:Tom1.wav
384,192,17922,1,0,0:0:0:60:Tom2.wav
469,192,18102,1,4,0:0:0:0:
384,192,19359,1,0,0:0:0:60:Tom2.wav
384,192,19539,1,0,0:0:0:60:Tom2.wav
384,192,19718,1,0,0:0:0:60:Tom3.wav
213,192,19898,1,8,2:0:0:0:
42,192,20437,1,0,2:0:0:0:
42,192,20976,1,2,2:0:0:0:
42,192,21155,1,0,2:0:0:0:
42,192,21335,1,0,2:0:0:0:
42,192,21874,1,0,2:0:0:0:
42,192,22413,1,2,2:0:0:0:
42,192,22772,1,0,2:0:0:0:
42,192,23311,1,0,2:0:0:0:
42,192,23850,1,2,2:0:0:0:
42,192,24030,1,0,2:0:0:0:
42,192,24209,1,0,2:0:0:0:
42,192,24748,1,0,2:0:0:0:
42,192,25287,1,2,2:0:0:0:
42,192,25647,1,0,2:0:0:0:
42,192,26185,1,0,2:0:0:0:
42,192,26724,1,2,2:0:0:0:
42,192,26904,1,0,2:0:0:0:
42,192,27084,1,0,2:0:0:0:
42,192,27623,1,0,2:0:0:0:
42,192,28161,1,2,2:0:0:0:
42,192,28521,1,0,2:0:0:0:
213,192,28880,1,8,2:0:0:0:
42,192,29060,1,0,2:0:0:0:
213,192,29239,5,8,2:0:0:0:
213,192,29419,1,8,2:0:0:0:
213,192,29599,1,8,2:0:0:0:
42,192,29599,1,2,2:0:0:0:
213,192,29778,1,8,2:0:0:0:
42,192,29778,1,0,2:0:0:0:
213,192,29958,1,8,2:0:0:0:
42,192,29958,1,0,2:0:0:0:
213,192,30138,1,8,2:0:0:0:
128,192,30227,5,8,0:0:0:0:
128,192,30317,1,8,0:0:0:0:
128,192,30497,1,8,0:0:0:0:
469,192,31395,1,4,0:0:0:0:
42,192,31395,1,0,2:0:0:0:
42,192,31754,1,0,2:0:0:0:
298,192,31934,1,2,0:0:0:0:
42,192,32114,1,0,2:0:0:0:
213,192,32293,1,8,2:0:0:0:
213,192,32383,1,8,2:0:0:0:
128,192,32473,1,8,0:0:0:0:
42,192,32473,1,0,2:0:0:0:
298,192,32652,1,2,0:0:0:0:
42,192,32832,1,0,2:0:0:0:
42,192,33191,1,0,2:0:0:0:
298,192,33371,1,2,0:0:0:0:
42,192,33551,1,0,2:0:0:0:
213,192,33730,1,8,2:0:0:0:
213,192,33820,1,8,2:0:0:0:
128,192,33910,1,8,0:0:0:0:
42,192,33910,1,0,2:0:0:0:
213,192,34090,1,8,2:0:0:0:
213,192,34179,1,8,2:0:0:0:
42,192,34269,1,0,2:0:0:0:
42,192,34629,1,0,2:0:0:0:
298,192,34808,1,2,0:0:0:0:
42,192,34988,1,0,2:0:0:0:
213,192,35167,1,8,2:0:0:0:
128,192,35347,1,8,0:0:0:0:
42,192,35347,1,0,2:0:0:0:
298,192,35527,1,2,0:0:0:0:
42,192,35706,1,0,2:0:0:0:
42,192,36066,1,0,2:0:0:0:
298,192,36245,1,2,0:0:0:0:
42,192,36425,1,0,2:0:0:0:
128,192,36784,1,8,0:0:0:0:
298,192,36784,1,2,0:0:0:0:
42,192,36784,1,0,2:0:0:0:
128,192,36964,1,8,0:0:0:0:
42,192,37144,1,0,2:0:0:0:
42,192,37503,1,0,2:0:0:0:
298,192,37682,1,2,0:0:0:0:
42,192,37862,1,0,2:0:0:0:
213,192,38042,1,8,2:0:0:0:
128,192,38221,1,8,0:0:0:0:
42,192,38221,1,0,2:0:0:0:
298,192,38401,1,2,0:0:0:0:
42,192,38581,1,0,2:0:0:0:
298,192,38940,1,2,0:0:0:0:
42,192,38940,1,0,2:0:0:0:
298,192,39299,1,2,0:0:0:0:
42,192,39299,1,0,2:0:0:0:
128,192,39479,1,8,0:0:0:0:
128,192,39569,1,8,0:0:0:0:
469,192,39658,1,4,2:0:0:0:
42,192,39658,1,0,2:0:0:0:
128,192,39838,1,8,0:0:0:0:
128,192,39928,1,8,0:0:0:0:
469,192,40018,1,4,0:0:0:0:
42,192,40018,1,0,2:0:0:0:
213,192,40377,1,8,2:0:0:0:
42,192,40557,1,0,2:0:0:0:
128,192,40736,1,8,0:0:0:0:
213,192,40736,1,8,2:0:0:0:
213,192,41096,1,8,2:0:0:0:
42,192,41096,1,0,2:0:0:0:
128,192,41275,1,8,0:0:0:0:
213,192,41455,1,8,2:0:0:0:
42,192,41455,1,0,2:0:0:0:
128,192,41635,1,8,0:0:0:0:
42,192,41814,1,0,2:0:0:0:
213,192,41814,1,8,2:0:0:0:
42,192,41994,1,0,2:0:0:0:
42,192,42084,1,0,2:0:0:0:
469,192,42173,1,4,0:0:0:0:
384,192,42533,1,0,0:0:0:60:Tom3.wav
469,192,42892,1,4,0:0:0:0:
42,192,43072,1,0,2:0:0:0:
42,192,43431,1,0,2:0:0:0:
128,192,43611,1,8,0:0:0:0:
213,192,43611,1,8,2:0:0:0:
42,192,43970,1,0,2:0:0:0:
42,192,44149,1,0,2:0:0:0:
213,192,44329,1,8,2:0:0:0:
128,192,44509,1,8,0:0:0:0:
42,192,44688,1,0,2:0:0:0:
42,192,44868,1,0,2:0:0:0:
128,192,45048,1,8,0:0:0:0:
213,192,45048,1,8,2:0:0:0:
42,192,45227,1,0,2:0:0:0:
128,192,45407,1,8,0:0:0:0:
42,192,45587,1,0,2:0:0:0:
469,192,45766,1,4,2:0:0:0:
42,192,45766,1,0,2:0:0:0:
42,192,45946,1,0,2:0:0:0:
42,192,46305,1,0,2:0:0:0:
469,192,46485,1,4,0:0:0:0:
42,192,46844,1,0,2:0:0:0:
42,192,47024,1,0,2:0:0:0:
42,192,47203,1,0,2:0:0:0:
128,192,47383,1,8,0:0:0:0:
42,192,47742,1,0,2:0:0:0:
42,192,47832,1,0,2:0:0:0:
213,192,47922,1,8,2:0:0:0:
384,192,47922,1,0,0:0:0:60:Tom1.wav
384,192,48102,1,0,0:0:0:60:Tom2.wav
213,192,48281,1,8,2:0:0:0:
384,192,48281,1,0,0:0:0:60:Tom3.wav
384,192,48461,1,0,0:0:0:60:Tom3.wav
469,192,48641,1,4,0:0:0:0:
42,192,48820,1,0,2:0:0:0:
128,192,49000,1,8,0:0:0:0:
42,192,49179,1,0,2:0:0:0:
213,192,49359,1,8,2:0:0:0:
42,192,49359,1,0,2:0:0:0:
42,192,49539,1,0,2:0:0:0:
128,192,49718,1,8,0:0:0:0:
42,192,49898,1,0,2:0:0:0:
213,192,50078,1,8,2:0:0:0:
42,192,50078,1,0,2:0:0:0:
42,192,50257,1,0,2:0:0:0:
128,192,50437,1,8,0:0:0:0:
42,192,50617,1,0,2:0:0:0:
128,192,50796,1,8,0:0:0:0:
42,192,50976,1,0,2:0:0:0:
128,192,51155,1,8,0:0:0:0:
128,192,51245,1,8,0:0:0:0:
128,192,51335,1,8,0:0:0:0:
128,192,51425,1,8,0:0:0:0:
469,192,51515,1,4,2:0:0:0:
42,192,51515,1,0,2:0:0:0:
42,192,51694,1,0,2:0:0:0:
128,192,51874,1,8,0:0:0:0:
213,192,52054,1,8,2:0:0:0:
42,192,52054,1,0,2:0:0:0:
42,192,52233,1,0,2:0:0:0:
42,192,52413,1,0,2:0:0:0:
128,192,52593,1,8,0:0:0:0:
42,192,52772,1,0,2:0:0:0:
128,192,52862,1,8,0:0:0:0:
213,192,52952,1,8,2:0:0:0:
42,192,52952,1,0,2:0:0:0:
128,192,53311,1,8,0:0:0:0:
213,192,53311,1,8,2:0:0:0:
42,192,53311,1,0,2:0:0:0:
213,192,53670,1,8,2:0:0:0:
42,192,53670,1,0,2:0:0:0:
128,192,53850,1,8,0:0:0:0:
128,192,53940,1,8,0:0:0:0:
469,192,54030,1,4,0:0:0:0:
128,192,54748,1,8,0:0:0:0:
213,192,54748,1,8,2:0:0:0:
42,192,55108,1,0,2:0:0:0:
42,192,55287,1,0,2:0:0:0:
469,192,55467,1,4,0:0:0:0:
128,192,55736,1,8,0:0:0:0:
213,192,55826,1,8,2:0:0:0:
42,192,55826,1,0,2:0:0:0:
42,192,56006,1,0,2:0:0:0:
469,192,56185,1,4,2:0:0:0:
213,192,56545,1,8,2:0:0:0:
42,192,56545,1,0,2:0:0:0:
128,192,56724,1,8,0:0:0:0:
128,192,56814,1,8,0:0:0:0:
213,192,56904,1,8,2:0:0:0:
384,192,56904,1,0,0:0:0:60:Tom1.wav
384,192,57084,1,0,0:0:0:60:Tom3.wav
42,192,57173,1,0,2:0:0:0:
469,192,57263,1,4,0:0:0:0:
42,192,57263,1,0,2:0:0:0:
42,192,57443,1,0,2:0:0:0:
128,192,57623,1,8,0:0:0:0:
213,192,57802,1,8,2:0:0:0:
42,192,57802,1,0,2:0:0:0:
42,192,57892,1,0,2:0:0:0:
42,192,57982,1,0,2:0:0:0:
42,192,58161,1,0,2:0:0:0:
128,192,58341,1,8,0:0:0:0:
128,192,58431,1,8,0:0:0:0:
128,192,58521,1,8,0:0:0:0:
128,192,58611,1,8,0:0:0:0:
42,192,58700,1,0,2:0:0:0:
42,192,58880,1,0,2:0:0:0:
128,192,59778,1,8,0:0:0:0:
128,192,59868,1,8,0:0:0:0:
128,192,59958,1,8,0:0:0:0:
128,192,60048,1,8,0:0:0:0:
469,192,60138,1,4,0:0:0:0:
42,192,60138,1,0,2:0:0:0:
213,192,60317,1,8,2:0:0:0:
42,192,60317,1,0,2:0:0:0:
128,192,60497,1,8,0:0:0:0:
213,192,60676,1,8,2:0:0:0:
42,192,60676,1,0,2:0:0:0:
213,192,60856,1,8,2:0:0:0:
42,192,60856,1,0,2:0:0:0:
42,192,61036,1,0,2:0:0:0:
128,192,61215,1,8,0:0:0:0:
213,192,61395,1,8,2:0:0:0:
42,192,61395,1,0,2:0:0:0:
213,192,61575,1,8,2:0:0:0:
42,192,61575,1,0,2:0:0:0:
42,192,61754,1,0,2:0:0:0:
128,192,61934,1,8,0:0:0:0:
213,192,62114,1,8,2:0:0:0:
42,192,62114,1,0,2:0:0:0:
213,192,62293,1,8,2:0:0:0:
42,192,62293,1,0,2:0:0:0:
42,192,62473,1,0,2:0:0:0:
128,192,62652,1,8,0:0:0:0:
128,192,62832,1,8,0:0:0:0:
128,192,62922,1,8,0:0:0:0:
42,192,63012,1,0,2:0:0:0:
213,192,63191,1,8,2:0:0:0:
42,192,63191,1,0,2:0:0:0:
128,192,63371,1,8,0:0:0:0:
213,192,63551,1,8,2:0:0:0:
42,192,63551,1,0,2:0:0:0:
213,192,63730,1,8,2:0:0:0:
42,192,63730,1,0,2:0:0:0:
42,192,63910,1,0,2:0:0:0:
128,192,64090,1,8,0:0:0:0:
213,192,64269,1,8,2:0:0:0:
42,192,64269,1,0,2:0:0:0:
213,192,64449,1,8,2:0:0:0:
469,192,64449,1,4,0:0:0:0:
42,192,64449,1,0,2:0:0:0:
42,192,64629,1,0,2:0:0:0:
128,192,64808,1,8,0:0:0:0:
213,192,64988,1,8,2:0:0:0:
42,192,64988,1,0,2:0:0:0:
128,192,65078,1,8,0:0:0:0:
213,192,65167,1,8,2:0:0:0:
42,192,65167,1,0,2:0:0:0:
128,192,65347,1,8,0:0:0:0:
128,192,65437,1,8,0:0:0:0:
128,192,65527,1,8,0:0:0:0:
42,192,65706,1,0,2:0:0:0:
469,192,65886,1,4,2:0:0:0:
42,192,65886,1,0,2:0:0:0:
42,192,66066,1,0,2:0:0:0:
128,192,66245,1,8,0:0:0:0:
213,192,66425,1,8,2:0:0:0:
42,192,66425,1,0,2:0:0:0:
42,192,66605,1,0,2:0:0:0:
42,192,66784,1,0,2:0:0:0:
128,192,66964,1,8,0:0:0:0:
42,192,67144,1,0,2:0:0:0:
42,192,67233,1,0,2:0:0:0:
42,192,67323,1,0,2:0:0:0:
42,192,67503,1,0,2:0:0:0:
128,192,67682,1,8,0:0:0:0:
213,192,67862,1,8,2:0:0:0:
42,192,67862,1,0,2:0:0:0:
42,192,68042,1,0,2:0:0:0:
42,192,68221,1,0,2:0:0:0:
128,192,68401,1,8,0:0:0:0:
128,192,68491,1,8,0:0:0:0:
128,192,68581,1,8,0:0:0:0:
128,192,68670,1,8,0:0:0:0:
42,192,68760,1,0,2:0:0:0:
469,192,68760,1,4,0:0:0:0:
128,192,68940,1,8,0:0:0:0:
128,192,69120,1,8,0:0:0:0:
213,192,69120,1,8,2:0:0:0:
42,192,69299,1,0,2:0:0:0:
128,192,69479,1,8,0:0:0:0:
213,192,69479,1,8,2:0:0:0:
42,192,69658,1,0,2:0:0:0:
469,192,69838,1,4,0:0:0:0:
128,192,70377,1,8,0:0:0:0:
128,192,70467,1,8,0:0:0:0:
128,192,70557,1,8,0:0:0:0:
213,192,70557,1,8,2:0:0:0:
128,192,70647,1,8,0:0:0:0:
128,192,70736,1,8,0:0:0:0:
128,192,70826,1,8,0:0:0:0:
128,192,70916,1,8,0:0:0:0:
213,192,70916,1,8,2:0:0:0:
128,192,71096,1,8,0:0:0:0:
213,192,71275,1,8,2:0:0:0:
384,192,71275,1,0,0:0:0:60:Tom1.wav
384,192,71455,1,0,0:0:0:0:
469,192,71635,1,4,0:0:0:0:
42,192,71635,1,0,2:0:0:0:
213,192,71814,1,8,2:0:0:0:
42,192,71814,1,0,2:0:0:0:
128,192,71994,1,8,0:0:0:0:
213,192,72173,1,8,2:0:0:0:
42,192,72173,1,0,2:0:0:0:
213,192,72353,1,8,2:0:0:0:
42,192,72353,1,0,2:0:0:0:
42,192,72533,1,0,2:0:0:0:
128,192,72712,1,8,0:0:0:0:
213,192,72892,1,8,2:0:0:0:
42,192,72892,1,0,2:0:0:0:
469,192,73072,1,4,0:0:0:0:
42,192,73072,1,0,2:0:0:0:
213,192,73251,1,8,2:0:0:0:
42,192,73251,1,0,2:0:0:0:
128,192,73431,1,8,0:0:0:0:
213,192,73611,1,8,2:0:0:0:
42,192,73611,1,0,2:0:0:0:
213,192,73790,1,8,2:0:0:0:
42,192,73790,1,0,2:0:0:0:
42,192,73970,1,0,2:0:0:0:
128,192,74149,1,8,0:0:0:0:
213,192,74329,1,8,2:0:0:0:
42,192,74329,1,0,2:0:0:0:
128,192,74419,1,8,0:0:0:0:
469,192,74509,1,4,0:0:0:0:
42,192,74509,1,0,2:0:0:0:
213,192,74688,1,8,2:0:0:0:
42,192,74688,1,0,2:0:0:0:
128,192,74868,1,8,0:0:0:0:
213,192,75048,1,8,2:0:0:0:
42,192,75048,1,0,2:0:0:0:
213,192,75227,1,8,2:0:0:0:
42,192,75227,1,0,2:0:0:0:
42,192,75407,1,0,2:0:0:0:
128,192,75587,1,8,0:0:0:0:
213,192,75766,1,8,2:0:0:0:
42,192,75766,1,0,2:0:0:0:
469,192,75946,1,4,0:0:0:0:
42,192,75946,1,0,2:0:0:0:
213,192,76126,1,8,2:0:0:0:
42,192,76126,1,0,2:0:0:0:
128,192,76305,1,8,0:0:0:0:
213,192,76485,1,8,2:0:0:0:
42,192,76485,1,0,2:0:0:0:
128,192,76575,1,8,0:0:0:0:
213,192,76664,1,8,2:0:0:0:
42,192,76664,1,0,2:0:0:0:
128,192,76844,1,8,0:0:0:0:
128,192,76934,1,8,0:0:0:0:
128,192,77024,1,8,0:0:0:0:
213,192,77203,1,8,2:0:0:0:
42,192,77203,1,0,2:0:0:0:
469,192,77383,1,4,2:0:0:0:
42,192,77383,1,0,2:0:0:0:
128,192,77742,1,8,0:0:0:0:
213,192,77922,1,8,2:0:0:0:
384,192,77922,1,0,0:0:0:60:Tom1.wav
384,192,78102,1,0,0:0:0:60:Tom3.wav
128,192,78461,1,8,0:0:0:0:
384,192,78641,1,0,0:0:0:60:Tom3.wav
42,192,78730,1,0,2:0:0:0:
42,192,78820,1,0,2:0:0:0:
42,192,79000,1,0,2:0:0:0:
128,192,79179,1,8,0:0:0:0:
213,192,79359,1,8,2:0:0:0:
42,192,79359,1,0,2:0:0:0:
42,192,79539,1,0,2:0:0:0:
128,192,79898,1,8,0:0:0:0:
128,192,79988,1,8,0:0:0:0:
128,192,80078,1,8,0:0:0:0:
128,192,80167,1,8,0:0:0:0:
469,192,80257,1,4,0:0:0:0:
42,192,80257,1,0,2:0:0:0:
42,192,80437,1,0,2:0:0:0:
128,192,80617,1,8,0:0:0:0:
213,192,80617,1,8,2:0:0:0:
42,192,80796,1,0,2:0:0:0:
128,192,80976,1,8,0:0:0:0:
42,192,81155,1,0,2:0:0:0:
469,192,81335,1,4,0:0:0:0:
128,192,81874,1,8,0:0:0:0:
128,192,81964,1,8,0:0:0:0:
128,192,82054,1,8,0:0:0:0:
128,192,82144,1,8,0:0:0:0:
128,192,82233,1,8,0:0:0:0:
128,192,82323,1,8,0:0:0:0:
469,192,82413,1,4,0:0:0:0:
42,192,82413,1,0,2:0:0:0:
213,192,82772,1,8,2:0:0:0:
42,192,82772,1,0,2:0:0:0:
469,192,83132,1,4,0:0:0:0:
42,192,83132,1,0,2:0:0:0:
42,192,83311,1,0,2:0:0:0:
128,192,83491,1,8,0:0:0:0:
213,192,83670,1,8,2:0:0:0:
42,192,83670,1,0,2:0:0:0:
213,192,83760,1,8,2:0:0:0:
213,192,83850,1,8,2:0:0:0:
42,192,83850,1,0,2:0:0:0:
213,192,84030,1,8,2:0:0:0:
42,192,84030,1,0,2:0:0:0:
128,192,84209,1,8,0:0:0:0:
128,192,84389,1,8,0:0:0:0:
128,192,84479,1,8,0:0:0:0:
213,192,84569,1,8,2:0:0:0:
42,192,84569,1,0,2:0:0:0:
42,192,84748,1,0,2:0:0:0:
128,192,84928,1,8,0:0:0:0:
213,192,85108,1,8,2:0:0:0:
42,192,85108,1,0,2:0:0:0:
42,192,85197,1,0,2:0:0:0:
42,192,85287,1,0,2:0:0:0:
42,192,85467,1,0,2:0:0:0:
128,192,85647,1,8,0:0:0:0:
128,192,85736,1,8,0:0:0:0:
128,192,85826,1,8,0:0:0:0:
128,192,85916,1,8,0:0:0:0:
469,192,86006,1,4,0:0:0:0:
42,192,86006,1,0,2:0:0:0:
42,192,86185,1,0,2:0:0:0:
213,192,86365,1,8,2:0:0:0:
42,192,86365,1,0,2:0:0:0:
213,192,86545,1,8,2:0:0:0:
42,192,86545,1,0,2:0:0:0:
213,192,86724,1,8,2:0:0:0:
42,192,86724,1,0,2:0:0:0:
128,192,86814,1,8,0:0:0:0:
128,192,86904,1,8,0:0:0:0:
128,192,86994,1,8,0:0:0:0:
128,192,87084,1,8,0:0:0:0:
128,192,87173,1,8,0:0:0:0:
128,192,87263,1,8,0:0:0:0:
128,192,87353,1,8,0:0:0:0:
128,192,87443,1,8,0:0:0:0:
