osu file format v14

[General]
AudioFilename: audio.mp3
AudioLeadIn: 0
PreviewTime: 59239
Countdown: 0
SampleSet: Normal
StackLeniency: 0.7
Mode: 3
LetterboxInBreaks: 0
SpecialStyle: 0
WidescreenStoryboard: 0

[Editor]
Bookmarks: 19898,31395,45766
DistanceSpacing: 1.4
BeatDivisor: 8
GridSize: 32
TimelineZoom: 1.5

[Metadata]
Title:Sentimental Crisis (TV Size)
TitleUnicode:センチメンタルクライシス (TV Size)
Artist:halca
ArtistUnicode:halca
Creator:Faputa
Version:Insane
Source:かぐや様は告らせたい〜天才たちの恋愛頭脳戦〜
Tags:Kaguya Wants to be Confessed To: The Geniuses' War of Love and Brains Kaguya sama wa Kokurasetai Tensai tachi no Renai Zunousen Kaguya-sama: Love Is War CHiCO with HoneyWorks ED ending
BeatmapID:1959652
BeatmapSetID:938152

[Difficulty]
HPDrainRate:8.5
CircleSize:5
OverallDifficulty:8.5
ApproachRate:5
SliderMultiplier:1.4
SliderTickRate:1

[Events]
//Background and Video events
0,0,"kaguya.jpg",0,0
//Break Periods
//Storyboard Layer 0 (Background)
//Storyboard Layer 1 (Fail)
//Storyboard Layer 2 (Pass)
//Storyboard Layer 3 (Foreground)
//Storyboard Sound Samples
Sample,48281,0,"Tom3.wav",60
Sample,56904,0,"Tom1.wav",60
Sample,77922,0,"Tom1.wav",60

[TimingPoints]
124,389.61038961039,4,1,2,10,1,0
124,-92.5925925925926,4,1,2,10,0,0
13760,-92.5925925925926,4,1,2,60,0,0
14150,359.281437125748,4,1,2,60,1,0
19898,-100,4,1,2,50,0,0
30676,-100,4,1,2,10,0,0
31395,-100,4,1,2,60,0,0
60138,-100,4,1,2,70,0,1
69883,-153.846153846154,4,1,2,70,0,1
70108,-117.647058823529,4,1,2,70,0,1
70197,-100,4,1,2,70,0,1
81380,-153.846153846154,4,1,2,70,0,1
81605,-117.647058823529,4,1,2,70,0,1
81694,-100,4,1,2,70,0,1
87443,-100,4,1,2,10,0,0

[HitObjects]
320,192,903,128,0,1292:0:0:0:0:
64,192,1292,128,0,1682:0:0:0:0:
192,192,1536,1,0,0:0:0:0:
256,192,1609,1,0,0:0:0:0:
358,192,1682,1,0,0:0:0:0:
448,192,1682,128,0,2072:0:0:0:0:
192,192,2072,128,0,2461:0:0:0:0:
256,192,2461,128,0,2851:0:0:0:0:
358,192,2851,128,0,3240:0:0:0:0:
51,192,3192,1,0,0:0:0:0:
153,192,3240,1,0,0:0:0:0:
448,192,3240,1,0,0:0:0:0:
64,192,3630,128,0,4020:0:0:0:0:
448,192,4020,128,0,4409:0:0:0:0:
320,192,4409,128,0,4831:0:0:0:0:
64,192,4799,1,0,0:0:0:0:
192,192,4831,1,0,0:0:0:0:
460,192,4831,1,0,0:0:0:0:
153,192,5188,128,0,5578:0:0:0:0:
256,192,5578,128,0,5968:0:0:0:0:
448,192,5968,128,0,6747:0:0:0:0:
64,192,6309,1,0,0:0:0:0:
192,192,6357,1,0,0:0:0:0:
358,192,6357,1,0,0:0:0:0:
64,192,6747,128,0,7136:0:0:0:0:
320,192,7136,128,0,7526:0:0:0:0:
256,192,7526,128,0,7916:0:0:0:0:
51,192,7867,1,0,0:0:0:0:
153,192,7916,1,0,0:0:0:0:
320,192,7916,1,0,0:0:0:0:
448,192,7916,128,0,8305:0:0:0:0:
64,192,8305,1,0,0:0:0:0:
192,192,8305,128,0,9864:0:0:0:0:
256,192,8695,1,0,0:0:0:0:
448,192,9085,1,0,0:0:0:0:
256,192,9474,1,0,0:0:0:0:
320,192,9474,1,0,0:0:0:0:
64,192,9864,1,0,0:0:0:0:
320,192,10253,128,0,11033:0:0:0:0:
448,192,10253,1,0,0:0:0:0:
192,192,10643,1,0,0:0:0:0:
64,192,11033,128,0,12591:0:0:0:0:
256,192,11033,1,0,0:0:0:0:
448,192,11033,1,0,0:0:0:0:
192,192,11422,1,0,0:0:0:0:
320,192,11617,1,0,0:0:0:0:
448,192,11812,1,0,0:0:0:0:
256,192,12007,1,0,0:0:0:0:
448,192,12201,1,0,0:0:0:0:
192,192,12396,1,0,0:0:0:0:
320,192,12494,1,0,0:0:0:0:
448,192,12591,1,0,0:0:0:0:
256,192,13760,1,0,0:0:0:0:
320,192,13857,1,0,0:0:0:0:
448,192,13955,1,8,2:0:0:0:
64,192,14003,1,0,0:0:0:0:
192,192,14076,1,0,0:0:0:0:
256,192,14149,1,0,0:0:0:0:
358,192,14149,1,0,0:0:0:0:
448,192,14150,128,4,14509:0:0:0:0:
192,192,14329,1,0,0:0:0:0:
64,192,14509,1,8,0:0:0:0:
320,192,14509,1,0,0:0:0:0:
256,192,14688,1,8,2:0:0:0:
153,192,14778,1,0,0:0:0:0:
460,192,14868,1,0,0:0:0:0:
256,192,15048,1,8,2:0:0:0:
51,192,15227,1,8,0:0:0:0:
358,192,15227,1,0,0:0:0:0:
448,192,15227,1,0,0:0:0:0:
256,192,15407,1,8,2:0:0:0:
153,192,15497,1,8,2:0:0:0:
64,192,15587,1,0,0:0:0:0:
448,192,15766,1,0,0:0:0:0:
64,192,15946,1,8,0:0:0:0:
256,192,15946,1,0,0:0:0:0:
320,192,15946,1,0,0:0:0:0:
153,192,16126,1,8,2:0:0:0:
256,192,16215,1,0,0:0:0:0:
460,192,16305,1,0,0:0:0:0:
358,192,16485,1,8,2:0:0:0:
64,192,16664,128,4,17203:0:0:0:0:
256,192,16664,1,0,0:0:0:0:
448,192,16664,1,0,0:0:0:0:
358,192,17203,1,8,0:0:0:0:
448,192,17203,1,0,0:0:0:0:
256,192,17293,1,8,0:0:0:0:
64,192,17383,1,8,0:0:0:0:
192,192,17383,1,8,2:0:0:0:
460,192,17383,1,0,0:0:0:0:
256,192,17563,1,0,0:0:0:60:Tom1.wav
64,192,17742,1,0,0:0:0:60:Tom1.wav
320,192,17922,1,0,0:0:0:60:Tom2.wav
64,192,18102,1,4,0:0:0:0:
256,192,18102,1,0,0:0:0:0:
448,192,18102,128,0,19898:0:0:0:0:
64,192,19000,1,0,0:0:0:0:
192,192,19030,1,0,0:0:0:0:
256,192,19120,1,0,0:0:0:0:
358,192,19179,1,0,0:0:0:0:
153,192,19359,1,0,0:0:0:60:Tom2.wav
51,192,19539,1,0,0:0:0:60:Tom2.wav
358,192,19718,1,0,0:0:0:60:Tom3.wav
256,192,19808,1,0,0:0:0:0:
153,192,19898,1,8,2:0:0:0:
51,192,19898,128,0,20976:0:0:0:0:
256,192,20437,1,0,0:0:0:0:
448,192,20437,1,0,0:0:0:0:
192,192,20976,1,2,2:0:0:0:
448,192,20976,1,0,0:0:0:0:
256,192,21155,1,0,0:0:0:0:
358,192,21245,1,0,0:0:0:0:
460,192,21335,1,0,0:0:0:0:
153,192,21335,128,0,22413:0:0:0:0:
460,192,21874,1,0,0:0:0:0:
256,192,21874,1,0,0:0:0:0:
51,192,22054,1,0,0:0:0:0:
358,192,22233,1,0,0:0:0:0:
460,192,22413,1,0,0:0:0:0:
51,192,22413,1,0,0:0:0:0:
256,192,22682,1,0,0:0:0:0:
192,192,22772,1,0,0:0:0:0:
51,192,22772,1,0,0:0:0:0:
460,192,22772,128,0,23850:0:0:0:0:
153,192,23311,1,0,0:0:0:0:
256,192,23311,1,0,0:0:0:0:
51,192,23850,1,2,2:0:0:0:
320,192,23850,1,0,0:0:0:0:
256,192,24030,1,0,0:0:0:0:
153,192,24120,1,0,0:0:0:0:
51,192,24209,1,0,0:0:0:0:
358,192,24209,128,0,25287:0:0:0:0:
256,192,24748,1,0,0:0:0:0:
51,192,24748,1,0,0:0:0:0:
460,192,24928,1,0,0:0:0:0:
153,192,25108,1,0,0:0:0:0:
51,192,25287,1,0,0:0:0:0:
460,192,25287,1,0,0:0:0:0:
153,192,25467,1,0,0:0:0:0:
256,192,25557,1,0,0:0:0:0:
358,192,25647,1,0,0:0:0:0:
460,192,25647,1,0,0:0:0:0:
51,192,25826,1,0,0:0:0:0:
256,192,26006,128,0,27084:0:0:0:0:
358,192,26185,1,0,0:0:0:0:
460,192,26185,1,0,0:0:0:0:
51,192,26724,1,2,2:0:0:0:
153,192,26724,1,0,0:0:0:0:
460,192,26904,1,0,0:0:0:0:
358,192,26994,1,0,0:0:0:0:
153,192,27084,1,0,0:0:0:0:
51,192,27084,128,0,28161:0:0:0:0:
358,192,27263,1,0,0:0:0:0:
256,192,27623,1,0,0:0:0:0:
448,192,27623,1,0,0:0:0:0:
358,192,27802,1,0,0:0:0:0:
256,192,27982,1,0,0:0:0:0:
153,192,28161,1,2,2:0:0:0:
448,192,28161,128,0,28521:0:0:0:0:
64,192,28521,1,0,0:0:0:0:
320,192,28521,1,0,0:0:0:0:
358,192,28700,1,0,0:0:0:0:
51,192,28880,1,8,2:0:0:0:
153,192,28880,1,0,0:0:0:0:
358,192,29060,1,0,0:0:0:0:
192,192,29060,1,0,0:0:0:0:
448,192,29239,1,8,2:0:0:0:
460,192,29419,1,8,2:0:0:0:
192,192,29599,1,8,2:0:0:0:
51,192,29599,1,2,2:0:0:0:
51,192,29778,1,8,2:0:0:0:
256,192,29958,1,8,2:0:0:0:
448,192,29958,1,0,0:0:0:0:
51,192,30138,1,8,2:0:0:0:
153,192,30138,1,0,0:0:0:0:
256,192,30227,1,8,0:0:0:0:
358,192,30317,1,8,0:0:0:0:
448,192,30317,1,0,0:0:0:0:
256,192,30497,1,8,0:0:0:0:
51,192,30497,1,0,0:0:0:0:
256,192,31395,1,4,0:0:0:0:
320,192,31395,1,0,0:0:0:0:
448,192,31395,128,0,31754:0:0:0:0:
51,192,31575,1,0,0:0:0:0:
256,192,31754,1,0,0:0:0:0:
320,192,31754,1,0,0:0:0:0:
64,192,31934,128,2,32114:0:0:0:0:
153,192,31934,1,0,0:0:0:0:
256,192,32114,128,0,32293:0:0:0:0:
358,192,32114,1,0,0:0:0:0:
448,192,32293,128,8,32473:2:0:0:0:
64,192,32473,1,8,0:0:0:0:
192,192,32473,128,0,32652:0:0:0:0:
256,192,32652,1,2,0:0:0:0:
320,192,32652,128,0,32832:0:0:0:0:
64,192,32832,128,0,33191:0:0:0:0:
448,192,32832,1,0,0:0:0:0:
320,192,33012,1,0,0:0:0:0:
192,192,33191,1,0,0:0:0:0:
256,192,33191,1,0,0:0:0:0:
358,192,33371,1,2,0:0:0:0:
448,192,33371,128,0,33551:0:0:0:0:
153,192,33551,128,0,33730:0:0:0:0:
256,192,33551,1,0,0:0:0:0:
51,192,33730,128,8,33910:2:0:0:0:
460,192,33730,1,0,0:0:0:0:
358,192,33820,1,8,2:0:0:0:
256,192,33910,1,8,0:0:0:0:
460,192,33910,128,0,34090:0:0:0:0:
358,192,34090,128,8,34269:2:0:0:0:
153,192,34179,1,8,2:0:0:0:
51,192,34269,1,0,0:0:0:0:
448,192,34269,128,0,34629:0:0:0:0:
153,192,34449,1,0,0:0:0:0:
51,192,34629,1,0,0:0:0:0:
256,192,34629,128,0,34988:0:0:0:0:
358,192,34808,1,2,0:0:0:0:
51,192,34988,1,0,0:0:0:0:
448,192,34988,128,0,35347:0:0:0:0:
153,192,35167,1,8,2:0:0:0:
64,192,35347,128,8,35527:0:0:0:0:
256,192,35347,1,0,0:0:0:0:
358,192,35347,1,0,0:0:0:0:
192,192,35527,1,2,0:0:0:0:
256,192,35617,1,0,0:0:0:0:
358,192,35706,1,0,0:0:0:0:
448,192,35706,128,0,36066:0:0:0:0:
192,192,35886,1,0,0:0:0:0:
256,192,36066,1,0,0:0:0:0:
320,192,36066,1,0,0:0:0:0:
51,192,36245,1,2,0:0:0:0:
153,192,36425,1,0,0:0:0:0:
358,192,36425,128,0,36605:0:0:0:0:
460,192,36605,128,0,36784:0:0:0:0:
256,192,36694,1,0,0:0:0:0:
51,192,36784,1,8,0:0:0:0:
153,192,36784,128,2,36964:0:0:0:0:
358,192,36964,1,8,0:0:0:0:
448,192,36964,128,0,37144:0:0:0:0:
256,192,37054,1,0,0:0:0:0:
51,192,37144,128,0,37503:0:0:0:0:
153,192,37144,1,0,0:0:0:0:
358,192,37323,1,0,0:0:0:0:
256,192,37503,1,0,0:0:0:0:
448,192,37503,1,0,0:0:0:0:
51,192,37682,1,2,0:0:0:0:
358,192,37682,128,0,37862:0:0:0:0:
153,192,37862,1,0,0:0:0:0:
256,192,37862,128,0,38042:0:0:0:0:
460,192,38042,128,8,38221:2:0:0:0:
64,192,38221,128,8,38401:0:0:0:0:
192,192,38221,1,0,0:0:0:0:
358,192,38401,128,2,38581:0:0:0:0:
460,192,38401,1,0,0:0:0:0:
192,192,38581,128,0,38940:0:0:0:0:
320,192,38760,1,0,0:0:0:0:
64,192,38940,1,2,0:0:0:0:
448,192,38940,1,0,0:0:0:0:
256,192,39120,1,0,0:0:0:0:
64,192,39299,128,2,39479:0:0:0:0:
192,192,39299,1,0,0:0:0:0:
448,192,39479,1,8,0:0:0:0:
320,192,39569,1,8,0:0:0:0:
153,192,39658,1,4,2:0:0:0:
256,192,39658,128,0,39838:0:0:0:0:
460,192,39658,1,0,0:0:0:0:
51,192,39838,1,8,0:0:0:0:
153,192,39928,1,8,0:0:0:0:
51,192,40018,1,4,0:0:0:0:
358,192,40018,1,0,0:0:0:0:
448,192,40018,128,0,40377:0:0:0:0:
64,192,40377,1,8,2:0:0:0:
192,192,40557,1,0,0:0:0:0:
256,192,40557,1,0,0:0:0:0:
51,192,40736,1,8,0:0:0:0:
358,192,40736,1,8,2:0:0:0:
460,192,40736,1,0,0:0:0:0:
256,192,41096,1,8,2:0:0:0:
64,192,41275,1,8,0:0:0:0:
358,192,41275,1,0,0:0:0:0:
460,192,41275,1,0,0:0:0:0:
256,192,41455,1,8,2:0:0:0:
64,192,41635,1,8,0:0:0:0:
358,192,41635,1,0,0:0:0:0:
460,192,41635,1,0,0:0:0:0:
192,192,41994,1,0,0:0:0:0:
320,192,42084,1,0,0:0:0:0:
64,192,42173,1,4,0:0:0:0:
256,192,42173,1,0,0:0:0:0:
448,192,42173,128,0,42533:0:0:0:0:
64,192,42533,1,0,0:0:0:60:Tom3.wav
320,192,42533,128,0,42892:0:0:0:0:
256,192,42892,1,0,0:0:0:0:
448,192,42892,1,0,0:0:0:0:
51,192,42892,1,0,0:0:0:0:
448,192,43072,1,0,0:0:0:0:
320,192,43431,1,0,0:0:0:0:
192,192,43611,1,8,0:0:0:0:
256,192,43611,1,8,2:0:0:0:
448,192,43611,1,0,0:0:0:0:
64,192,43790,1,0,0:0:0:0:
320,192,43970,1,0,0:0:0:0:
358,192,44149,1,0,0:0:0:0:
192,192,44329,1,8,2:0:0:0:
51,192,44509,1,8,0:0:0:0:
358,192,44509,1,0,0:0:0:0:
460,192,44509,1,0,0:0:0:0:
192,192,44688,1,0,0:0:0:0:
256,192,44868,1,0,0:0:0:0:
51,192,45048,1,8,0:0:0:0:
320,192,45048,1,8,2:0:0:0:
460,192,45048,1,0,0:0:0:0:
256,192,45227,1,0,0:0:0:0:
51,192,45407,1,8,0:0:0:0:
320,192,45407,1,0,0:0:0:0:
460,192,45407,1,0,0:0:0:0:
153,192,45587,1,0,0:0:0:0:
51,192,45766,1,4,2:0:0:0:
460,192,45766,128,0,45946:0:0:0:0:
153,192,45946,128,0,46126:0:0:0:0:
256,192,46126,128,0,46305:0:0:0:0:
358,192,46305,128,0,46485:0:0:0:0:
192,192,46485,1,0,0:0:0:0:
256,192,46485,1,0,0:0:0:0:
51,192,46485,128,0,47158:0:0:0:0:
448,192,46664,1,0,0:0:0:0:
153,192,46844,1,0,0:0:0:0:
153,192,47024,1,0,0:0:0:0:
460,192,47203,128,0,47922:0:0:0:0:
51,192,47383,1,8,0:0:0:0:
153,192,47383,1,0,0:0:0:0:
256,192,47383,1,0,0:0:0:0:
358,192,47563,1,0,0:0:0:0:
51,192,47742,1,0,0:0:0:0:
153,192,47832,1,0,0:0:0:0:
256,192,47922,1,8,2:0:0:0:
358,192,47922,128,0,48461:0:0:0:0:
51,192,48102,1,0,0:0:0:60:Tom2.wav
256,192,48281,1,8,2:0:0:0:
153,192,48461,1,0,0:0:0:60:Tom3.wav
256,192,48551,1,0,0:0:0:0:
64,192,48641,1,4,0:0:0:0:
358,192,48641,1,0,0:0:0:0:
448,192,48641,1,0,0:0:0:0:
460,192,48820,1,0,0:0:0:0:
64,192,49000,1,8,0:0:0:0:
192,192,49000,1,0,0:0:0:0:
256,192,49000,1,0,0:0:0:0:
320,192,49179,1,0,0:0:0:0:
256,192,49359,1,8,2:0:0:0:
448,192,49359,1,0,0:0:0:0:
64,192,49539,1,0,0:0:0:0:
153,192,49718,1,8,0:0:0:0:
320,192,49718,1,0,0:0:0:0:
448,192,49718,1,0,0:0:0:0:
256,192,49898,1,0,0:0:0:0:
64,192,50078,1,8,2:0:0:0:
153,192,50078,1,0,0:0:0:0:
448,192,50257,1,0,0:0:0:0:
64,192,50437,1,8,0:0:0:0:
320,192,50437,1,0,0:0:0:0:
192,192,50617,1,0,0:0:0:0:
256,192,50796,1,8,0:0:0:0:
358,192,50796,1,0,0:0:0:0:
448,192,50796,1,0,0:0:0:0:
192,192,50976,1,0,0:0:0:0:
64,192,51155,1,8,0:0:0:0:
448,192,51155,1,0,0:0:0:0:
320,192,51245,1,8,0:0:0:0:
153,192,51335,1,8,0:0:0:0:
358,192,51425,1,8,0:0:0:0:
51,192,51515,1,4,2:0:0:0:
153,192,51515,1,0,0:0:0:0:
460,192,51515,128,0,52054:0:0:0:0:
64,192,51874,1,8,0:0:0:0:
153,192,51874,1,0,0:0:0:0:
256,192,51874,1,0,0:0:0:0:
358,192,52054,128,0,52593:0:0:0:0:
51,192,52233,1,0,0:0:0:0:
153,192,52413,1,0,0:0:0:0:
460,192,52593,1,8,0:0:0:0:
51,192,52593,1,0,0:0:0:0:
256,192,52593,128,0,52952:0:0:0:0:
153,192,52772,1,0,0:0:0:0:
358,192,52862,1,8,0:0:0:0:
460,192,52952,1,0,0:0:0:0:
51,192,52952,128,0,53670:0:0:0:0:
192,192,53132,1,0,0:0:0:0:
256,192,53311,1,8,0:0:0:0:
358,192,53311,1,8,2:0:0:0:
448,192,53311,1,0,0:0:0:0:
448,192,53670,1,8,2:0:0:0:
64,192,53850,1,8,0:0:0:0:
358,192,53850,1,0,0:0:0:0:
192,192,53940,1,8,0:0:0:0:
256,192,54030,1,4,0:0:0:0:
320,192,54030,1,0,0:0:0:0:
448,192,54030,128,0,54748:0:0:0:0:
64,192,54748,1,8,0:0:0:0:
256,192,54748,1,8,2:0:0:0:
320,192,54748,1,0,0:0:0:0:
192,192,54928,1,0,0:0:0:0:
448,192,55108,1,0,0:0:0:0:
256,192,55287,1,0,0:0:0:0:
64,192,55467,128,4,55826:0:0:0:0:
192,192,55467,1,0,0:0:0:0:
448,192,55467,1,0,0:0:0:0:
320,192,55736,1,8,0:0:0:0:
448,192,55826,1,8,2:0:0:0:
256,192,56006,1,0,0:0:0:0:
64,192,56185,1,4,2:0:0:0:
320,192,56185,1,0,0:0:0:0:
448,192,56185,128,0,56545:0:0:0:0:
256,192,56545,1,8,2:0:0:0:
320,192,56724,1,8,0:0:0:0:
192,192,56814,1,8,0:0:0:0:
64,192,56904,1,8,2:0:0:0:
51,192,57084,1,0,0:0:0:0:
153,192,57084,1,0,0:0:0:0:
256,192,57173,1,0,0:0:0:60:Tom3.wav
64,192,57263,1,4,0:0:0:0:
358,192,57263,1,0,0:0:0:0:
460,192,57263,128,0,57443:0:0:0:0:
153,192,57443,1,0,0:0:0:0:
153,192,57623,1,8,0:0:0:0:
358,192,57623,1,0,0:0:0:0:
358,192,57802,1,0,0:0:0:0:
51,192,57802,128,0,57982:0:0:0:0:
256,192,57892,1,0,0:0:0:0:
153,192,57982,1,0,0:0:0:0:
460,192,57982,1,0,0:0:0:0:
358,192,58161,1,0,0:0:0:0:
256,192,58161,1,0,0:0:0:0:
51,192,58341,1,8,0:0:0:0:
448,192,58341,1,0,0:0:0:0:
358,192,58431,1,8,0:0:0:0:
192,192,58431,1,0,0:0:0:0:
51,192,58521,1,8,0:0:0:0:
448,192,58521,1,0,0:0:0:0:
358,192,58611,1,8,0:0:0:0:
192,192,58611,1,0,0:0:0:0:
51,192,58700,128,0,58790:0:0:0:0:
256,192,58700,128,0,58790:0:0:0:0:
460,192,58700,128,0,58790:0:0:0:0:
460,192,58880,128,0,58970:0:0:0:0:
256,192,58880,128,0,58970:0:0:0:0:
51,192,58880,128,0,58970:0:0:0:0:
460,192,59419,1,0,0:0:0:0:
358,192,59464,1,0,0:0:0:0:
256,192,59509,1,0,0:0:0:0:
153,192,59554,1,0,0:0:0:0:
51,192,59599,1,0,0:0:0:0:
460,192,59644,1,0,0:0:0:0:
358,192,59688,1,0,0:0:0:0:
256,192,59733,1,0,0:0:0:0:
51,192,59778,1,8,0:0:0:0:
153,192,59778,1,0,0:0:0:0:
358,192,59868,1,8,0:0:0:0:
460,192,59868,1,0,0:0:0:0:
51,192,59958,1,8,0:0:0:0:
153,192,59958,1,0,0:0:0:0:
358,192,60048,1,8,0:0:0:0:
460,192,60048,1,0,0:0:0:0:
51,192,60138,1,4,0:0:0:0:
153,192,60138,1,0,0:0:0:0:
256,192,60138,1,0,0:0:0:0:
153,192,60317,1,8,2:0:0:0:
51,192,60497,1,8,0:0:0:0:
358,192,60497,1,0,0:0:0:0:
448,192,60497,1,0,0:0:0:0:
256,192,60676,1,8,2:0:0:0:
153,192,60856,1,8,2:0:0:0:
358,192,60856,1,0,0:0:0:0:
358,192,61036,1,0,0:0:0:0:
51,192,61215,1,8,0:0:0:0:
153,192,61215,1,0,0:0:0:0:
460,192,61215,1,0,0:0:0:0:
256,192,61395,1,8,2:0:0:0:
358,192,61485,1,0,0:0:0:0:
51,192,61575,1,8,2:0:0:0:
153,192,61575,1,0,0:0:0:0:
51,192,61754,1,0,0:0:0:0:
153,192,61934,1,8,0:0:0:0:
358,192,61934,1,0,0:0:0:0:
460,192,61934,1,0,0:0:0:0:
256,192,62114,1,8,2:0:0:0:
51,192,62293,1,8,2:0:0:0:
320,192,62293,1,0,0:0:0:0:
320,192,62473,1,0,0:0:0:0:
192,192,62652,1,8,0:0:0:0:
256,192,62652,1,0,0:0:0:0:
448,192,62652,1,0,0:0:0:0:
51,192,62832,1,8,0:0:0:0:
192,192,62922,1,8,0:0:0:0:
358,192,63012,1,0,0:0:0:0:
448,192,63012,1,0,0:0:0:0:
256,192,63191,1,8,2:0:0:0:
51,192,63371,1,8,0:0:0:0:
153,192,63371,1,0,0:0:0:0:
358,192,63371,1,0,0:0:0:0:
460,192,63551,1,8,2:0:0:0:
153,192,63730,1,8,2:0:0:0:
256,192,63730,1,0,0:0:0:0:
153,192,63910,1,0,0:0:0:0:
51,192,64090,1,8,0:0:0:0:
358,192,64090,1,0,0:0:0:0:
460,192,64090,1,0,0:0:0:0:
256,192,64269,1,8,2:0:0:0:
358,192,64359,1,0,0:0:0:0:
51,192,64449,1,8,2:0:0:0:
153,192,64449,1,4,0:0:0:0:
448,192,64449,1,0,0:0:0:0:
256,192,64629,1,0,0:0:0:0:
153,192,64808,1,8,0:0:0:0:
320,192,64808,1,0,0:0:0:0:
460,192,64808,1,0,0:0:0:0:
51,192,64988,1,8,2:0:0:0:
448,192,65078,1,8,0:0:0:0:
320,192,65167,1,8,2:0:0:0:
51,192,65347,1,8,0:0:0:0:
153,192,65437,1,8,0:0:0:0:
256,192,65527,1,8,0:0:0:0:
358,192,65527,1,0,0:0:0:0:
448,192,65527,1,0,0:0:0:0:
153,192,65706,1,0,0:0:0:0:
256,192,65796,1,0,0:0:0:0:
51,192,65886,1,4,2:0:0:0:
448,192,65886,1,0,0:0:0:0:
358,192,65886,128,0,66245:0:0:0:0:
64,192,66245,1,8,0:0:0:0:
153,192,66245,1,0,0:0:0:0:
256,192,66245,1,0,0:0:0:0:
460,192,66425,1,8,2:0:0:0:
358,192,66515,1,0,0:0:0:0:
153,192,66605,1,0,0:0:0:0:
256,192,66784,1,0,0:0:0:0:
51,192,66964,1,8,0:0:0:0:
320,192,66964,1,0,0:0:0:0:
448,192,66964,1,0,0:0:0:0:
153,192,67144,1,0,0:0:0:0:
256,192,67233,1,0,0:0:0:0:
460,192,67323,1,0,0:0:0:0:
320,192,67503,1,0,0:0:0:0:
64,192,67682,1,8,0:0:0:0:
192,192,67682,1,0,0:0:0:0:
256,192,67682,1,0,0:0:0:0:
320,192,67862,1,8,2:0:0:0:
448,192,67952,1,0,0:0:0:0:
64,192,68042,1,0,0:0:0:0:
358,192,68221,1,0,0:0:0:0:
64,192,68401,1,8,0:0:0:0:
192,192,68401,1,0,0:0:0:0:
256,192,68401,1,0,0:0:0:0:
448,192,68491,1,8,0:0:0:0:
64,192,68581,1,8,0:0:0:0:
320,192,68581,1,0,0:0:0:0:
192,192,68670,1,8,0:0:0:0:
256,192,68760,1,4,0:0:0:0:
358,192,68760,1,0,0:0:0:0:
448,192,68760,1,0,0:0:0:0:
320,192,68940,1,8,0:0:0:0:
448,192,68940,1,0,0:0:0:0:
64,192,69120,1,8,0:0:0:0:
192,192,69120,1,8,2:0:0:0:
256,192,69299,1,0,0:0:0:0:
358,192,69389,1,0,0:0:0:0:
51,192,69479,1,8,0:0:0:0:
448,192,69479,1,8,2:0:0:0:
153,192,69658,1,0,0:0:0:0:
256,192,69838,1,4,0:0:0:0:
320,192,69838,1,0,0:0:0:0:
448,192,69838,128,0,70377:0:0:0:0:
64,192,70377,1,8,0:0:0:0:
153,192,70377,1,0,0:0:0:0:
256,192,70467,1,8,0:0:0:0:
320,192,70557,1,8,0:0:0:0:
448,192,70557,1,8,2:0:0:0:
256,192,70647,1,8,0:0:0:0:
51,192,70736,1,8,0:0:0:0:
153,192,70736,1,0,0:0:0:0:
460,192,70826,1,8,0:0:0:0:
256,192,70916,1,8,0:0:0:0:
358,192,70916,1,8,2:0:0:0:
153,192,71096,1,8,0:0:0:0:
448,192,71096,1,0,0:0:0:0:
64,192,71275,1,8,2:0:0:0:
256,192,71275,1,0,0:0:0:60:Tom1.wav
320,192,71365,1,0,0:0:0:0:
153,192,71455,1,0,0:0:0:0:
448,192,71455,1,0,0:0:0:0:
51,192,71545,1,0,0:0:0:0:
256,192,71635,1,4,0:0:0:0:
320,192,71635,1,0,0:0:0:0:
448,192,71635,1,0,0:0:0:0:
51,192,71814,1,8,2:0:0:0:
256,192,71994,1,8,0:0:0:0:
320,192,71994,1,0,0:0:0:0:
448,192,71994,1,0,0:0:0:0:
153,192,72173,1,8,2:0:0:0:
51,192,72353,1,8,2:0:0:0:
358,192,72353,1,0,0:0:0:0:
460,192,72533,1,0,0:0:0:0:
64,192,72712,1,8,0:0:0:0:
192,192,72712,1,0,0:0:0:0:
256,192,72712,1,0,0:0:0:0:
358,192,72892,1,8,2:0:0:0:
256,192,72982,1,0,0:0:0:0:
51,192,73072,1,4,0:0:0:0:
153,192,73072,1,0,0:0:0:0:
460,192,73072,1,0,0:0:0:0:
358,192,73251,1,8,2:0:0:0:
51,192,73431,1,8,0:0:0:0:
153,192,73431,1,0,0:0:0:0:
460,192,73431,1,0,0:0:0:0:
256,192,73611,1,8,2:0:0:0:
358,192,73700,1,0,0:0:0:0:
153,192,73790,1,8,2:0:0:0:
460,192,73790,1,0,0:0:0:0:
51,192,73970,1,0,0:0:0:0:
153,192,74149,1,8,0:0:0:0:
358,192,74149,1,0,0:0:0:0:
448,192,74149,1,0,0:0:0:0:
256,192,74329,1,8,2:0:0:0:
192,192,74419,1,8,0:0:0:0:
64,192,74509,1,4,0:0:0:0:
320,192,74509,1,0,0:0:0:0:
448,192,74509,1,0,0:0:0:0:
192,192,74688,1,8,2:0:0:0:
64,192,74868,1,8,0:0:0:0:
320,192,74868,1,0,0:0:0:0:
460,192,74868,1,0,0:0:0:0:
256,192,75048,1,8,2:0:0:0:
51,192,75227,1,8,2:0:0:0:
358,192,75227,1,0,0:0:0:0:
460,192,75407,1,0,0:0:0:0:
64,192,75587,1,8,0:0:0:0:
153,192,75587,1,0,0:0:0:0:
358,192,75587,1,0,0:0:0:0:
256,192,75766,1,8,2:0:0:0:
320,192,75856,1,0,0:0:0:0:
64,192,75946,1,4,0:0:0:0:
192,192,75946,1,0,0:0:0:0:
448,192,75946,1,0,0:0:0:0:
320,192,76126,1,8,2:0:0:0:
51,192,76305,1,8,0:0:0:0:
192,192,76305,1,0,0:0:0:0:
448,192,76305,1,0,0:0:0:0:
320,192,76485,1,8,2:0:0:0:
64,192,76575,1,8,0:0:0:0:
192,192,76664,1,8,2:0:0:0:
320,192,76844,1,8,0:0:0:0:
448,192,76934,1,8,0:0:0:0:
64,192,77024,1,8,0:0:0:0:
153,192,77024,1,0,0:0:0:0:
256,192,77024,1,0,0:0:0:0:
320,192,77203,1,8,2:0:0:0:
448,192,77203,1,0,0:0:0:0:
64,192,77383,1,4,2:0:0:0:
192,192,77383,1,0,0:0:0:0:
448,192,77383,1,0,0:0:0:0:
320,192,77563,1,0,0:0:0:0:
51,192,77742,1,8,0:0:0:0:
192,192,77742,1,0,0:0:0:0:
448,192,77742,1,0,0:0:0:0:
320,192,77922,1,8,2:0:0:0:
256,192,78012,1,0,0:0:0:0:
51,192,78102,1,0,0:0:0:60:Tom3.wav
448,192,78281,1,0,0:0:0:0:
64,192,78461,1,8,0:0:0:0:
192,192,78461,1,0,0:0:0:0:
358,192,78461,1,0,0:0:0:0:
256,192,78641,1,0,0:0:0:60:Tom3.wav
320,192,78730,1,0,0:0:0:0:
460,192,78820,1,0,0:0:0:0:
192,192,79000,1,0,0:0:0:0:
256,192,79179,1,8,0:0:0:0:
320,192,79179,1,0,0:0:0:0:
448,192,79179,1,0,0:0:0:0:
192,192,79359,1,8,2:0:0:0:
64,192,79449,1,0,0:0:0:0:
448,192,79539,1,0,0:0:0:0:
256,192,79718,1,0,0:0:0:0:
51,192,79898,1,8,0:0:0:0:
448,192,79898,1,0,0:0:0:0:
153,192,79988,1,8,0:0:0:0:
358,192,80078,1,8,0:0:0:0:
460,192,80078,1,0,0:0:0:0:
153,192,80167,1,8,0:0:0:0:
51,192,80257,1,4,0:0:0:0:
256,192,80257,1,0,0:0:0:0:
460,192,80257,1,0,0:0:0:0:
358,192,80437,1,0,0:0:0:0:
51,192,80617,1,8,0:0:0:0:
153,192,80617,1,8,2:0:0:0:
448,192,80617,1,0,0:0:0:0:
256,192,80796,1,0,0:0:0:0:
320,192,80796,1,0,0:0:0:0:
64,192,80976,1,8,0:0:0:0:
153,192,80976,1,0,0:0:0:0:
448,192,80976,1,0,0:0:0:0:
358,192,81155,1,0,0:0:0:0:
256,192,81155,1,0,0:0:0:0:
460,192,81335,1,0,0:0:0:0:
64,192,81335,128,4,81874:0:0:0:0:
153,192,81335,1,0,0:0:0:0:
358,192,81874,1,8,0:0:0:0:
448,192,81874,1,0,0:0:0:0:
256,192,81964,1,8,0:0:0:0:
64,192,82054,1,8,0:0:0:0:
153,192,82054,1,0,0:0:0:0:
448,192,82144,1,8,0:0:0:0:
51,192,82233,1,8,0:0:0:0:
358,192,82233,1,0,0:0:0:0:
153,192,82323,1,8,0:0:0:0:
256,192,82413,1,4,0:0:0:0:
358,192,82413,1,0,0:0:0:0:
448,192,82413,128,0,82772:0:0:0:0:
64,192,82772,128,0,83132:0:0:0:0:
192,192,82772,1,0,0:0:0:0:
358,192,82772,1,0,0:0:0:0:
256,192,82952,1,0,0:0:0:0:
358,192,83042,1,0,0:0:0:0:
192,192,83132,1,4,0:0:0:0:
448,192,83132,1,0,0:0:0:0:
358,192,83311,1,0,0:0:0:0:
64,192,83491,1,8,0:0:0:0:
192,192,83491,1,0,0:0:0:0:
358,192,83491,1,0,0:0:0:0:
256,192,83670,1,8,2:0:0:0:
320,192,83760,1,8,2:0:0:0:
64,192,83850,128,8,84569:2:0:0:0:
460,192,83850,1,0,0:0:0:0:
448,192,84030,1,8,2:0:0:0:
153,192,84209,1,8,0:0:0:0:
256,192,84209,1,0,0:0:0:0:
320,192,84209,1,0,0:0:0:0:
448,192,84389,1,8,0:0:0:0:
320,192,84479,1,8,0:0:0:0:
153,192,84569,1,8,2:0:0:0:
256,192,84569,128,0,85287:0:0:0:0:
153,192,84748,1,0,0:0:0:0:
51,192,84928,1,8,0:0:0:0:
358,192,84928,1,0,0:0:0:0:
460,192,84928,1,0,0:0:0:0:
153,192,85108,1,8,2:0:0:0:
51,192,85197,1,0,0:0:0:0:
358,192,85287,1,0,0:0:0:0:
460,192,85287,128,0,85826:0:0:0:0:
358,192,85467,1,0,0:0:0:0:
51,192,85647,1,8,0:0:0:0:
192,192,85647,1,0,0:0:0:0:
256,192,85647,1,0,0:0:0:0:
358,192,85826,1,8,0:0:0:0:
256,192,85916,1,8,0:0:0:0:
64,192,86006,1,4,0:0:0:0:
153,192,86006,1,0,0:0:0:0:
448,192,86006,1,0,0:0:0:0:
51,192,86365,1,8,2:0:0:0:
153,192,86365,1,0,0:0:0:0:
256,192,86455,1,0,0:0:0:0:
358,192,86545,1,8,2:0:0:0:
460,192,86545,1,0,0:0:0:0:
51,192,86635,1,0,0:0:0:0:
153,192,86724,1,8,2:0:0:0:
256,192,86724,1,0,0:0:0:0:
358,192,86814,1,8,0:0:0:0:
448,192,86814,1,0,0:0:0:0:
51,192,86904,1,8,0:0:0:0:
153,192,86904,1,0,0:0:0:0:
320,192,86994,1,8,0:0:0:0:
448,192,86994,1,0,0:0:0:0:
51,192,87084,1,8,0:0:0:0:
153,192,87084,1,0,0:0:0:0:
320,192,87173,1,8,0:0:0:0:
448,192,87173,1,0,0:0:0:0:
51,192,87263,1,8,0:0:0:0:
153,192,87263,1,0,0:0:0:0:
320,192,87353,1,8,0:0:0:0:
448,192,87353,1,0,0:0:0:0:
64,192,87443,1,8,0:0:0:0:
192,192,87443,1,0,0:0:0:0:
256,192,87443,1,0,0:0:0:0:
192,192,87802,128,0,87982:0:0:0:0:
64,192,87982,128,0,88161:0:0:0:0:
320,192,88161,128,0,88341:0:0:0:0:
256,192,88341,128,0,88521:0:0:0:0:
448,192,88521,128,0,88880:0:0:0:0:
