osu file format v14

[General]
AudioFilename: audio.mp3
AudioLeadIn: 0
PreviewTime: 59148
Countdown: 0
SampleSet: Soft
StackLeniency: 0.7
Mode: 2
LetterboxInBreaks: 0
WidescreenStoryboard: 0

[Editor]
Bookmarks: 1405,13483,19537,31214,39837,48460,54208,59957
DistanceSpacing: 1.3
BeatDivisor: 4
GridSize: 32
TimelineZoom: 1.3

[Metadata]
Title:Sentimental Crisis (TV Size)
TitleUnicode:センチメンタルクライシス (TV Size)
Artist:halca
ArtistUnicode:halca
Creator:Dapuluous
Version:Volta's Platter
Source:かぐや様は告らせたい ~天才たちの恋愛頭脳戦~
Tags:Kaguya-sama wa kokurasetai tensai-tachi no renai zunosen kaguya wants to be confessed the genius war of love and brains is japanese anime ending -Hex- AJamez IDu5t idust Volta
BeatmapID:1959261
BeatmapSetID:937970

[Difficulty]
HPDrainRate:5
CircleSize:3.5
OverallDifficulty:8
ApproachRate:8
SliderMultiplier:1.8
SliderTickRate:1

[Events]
//Background and Video events
0,0,"127.jpg",0,0
Video,0,"Reee.avi"
//Break Periods
//Storyboard Layer 0 (Background)
//Storyboard Layer 1 (Fail)
//Storyboard Layer 2 (Pass)
//Storyboard Layer 3 (Foreground)
//Storyboard Sound Samples

[TimingPoints]
1503,389.61038961039,4,2,11,40,1,0
13969,359.281437125748,4,2,22,65,1,0
19717,-100,4,2,22,50,0,0
31214,-100,4,2,22,65,0,0
39837,-100,4,2,22,70,0,0
42711,-100,4,2,22,75,0,0
48460,-100,4,2,22,65,0,0
51334,-100,4,2,22,70,0,0
53849,-100,4,2,22,60,0,0
57082,-100,4,2,22,70,0,0
59238,-100,4,2,22,55,0,0
59957,-100,4,2,22,80,0,1
69657,-100,4,2,22,70,0,0
71454,-100,4,2,22,80,0,1
77202,-100,4,2,22,70,0,1
80076,-100,4,2,22,85,0,1
82951,-100,4,2,22,80,0,1
86543,-100,4,2,22,45,0,1
86723,-100,4,2,22,55,0,1
86903,-100,4,2,22,65,0,1
87082,-100,4,2,22,75,0,1
87262,-100,4,2,22,50,0,0

[Colours]
Combo1 : 52,152,219
Combo2 : 155,89,182
Combo3 : 253,121,168
Combo4 : 231,76,60

[HitObjects]
364,197,723,5,0,0:0:0:0:
255,196,1113,1,0,0:0:0:0:
39,190,1503,6,0,P|63:94|127:54,1,180,2|0,0:0|0:0,0:0:0:0:
416,330,2282,2,0,P|472:266|392:210,1,180,0|0,0:0|0:0,0:0:0:0:
202,160,3061,5,2,0:0:0:0:
311,160,3451,1,0,0:0:0:0:
96,336,3840,2,0,P|40:272|120:216,1,180,0|0,0:0|0:0,0:0:0:0:
310,104,4619,5,2,0:0:0:0:
201,104,5009,1,0,0:0:0:0:
436,96,5399,2,0,P|489:158|433:218,1,180,0|0,0:0|0:0,0:0:0:0:
144,205,6178,6,0,P|148:144|238:72,1,180,2|0,0:0|0:0,0:0:0:0:
19,205,6957,2,0,P|37:261|128:358,1,180,0|0,0:0|0:0,0:0:0:0:
404,258,7736,6,0,P|441:207|357:138,1,180,2|0,0:0|0:0,0:0:0:0:
208,152,8515,1,0,0:0:0:0:
355,143,8905,1,0,0:0:0:0:
67,89,9295,5,2,0:0:0:0:
210,88,9684,1,0,0:0:0:0:
354,89,10074,1,0,0:0:0:0:
210,88,10464,1,0,0:0:0:0:
471,145,10853,5,2,0:0:0:0:
308,118,11243,2,0,L|204:118,1,90,0|0,0:0|0:0,0:0:0:0:
362,192,11632,2,0,L|272:192,1,90,0|0,0:0|0:0,0:0:0:0:
109,227,12022,2,0,L|214:227,1,90,0|0,0:0|0:0,0:0:0:0:
471,224,12412,1,0,0:0:0:0:
475,142,13580,5,0,0:0:0:0:
434,144,13678,1,0,0:0:0:0:
393,149,13775,1,0,0:0:0:0:
126,142,13969,5,6,0:0:0:0:
32,212,14148,1,0,0:0:0:0:
140,264,14328,1,8,0:0:0:0:
265,151,14507,1,0,0:0:0:0:
265,151,14597,1,0,0:0:0:0:
265,151,14687,1,0,0:0:0:0:
139,147,14867,6,0,L|35:148,2,90,0|8|0,0:0|0:0|0:0,0:0:0:0:
310,157,15406,2,0,L|414:158,2,90,2|0|8,0:0|0:0|0:0,0:0:0:0:
193,170,15945,1,2,0:0:0:0:
193,170,16034,1,0,0:0:0:0:
193,170,16124,1,0,0:0:0:0:
76,163,16304,1,2,0:0:0:0:
336,178,16483,6,0,P|434:146|464:77,1,180,12|0,0:0|0:0,0:0:0:0:
369,95,17022,1,8,0:0:0:0:
333,93,17112,1,8,0:0:0:0:
296,95,17202,1,8,0:0:0:0:
161,70,17382,1,0,0:0:0:0:
264,66,17561,1,0,0:0:0:0:
161,70,17741,1,0,0:0:0:0:
468,54,17921,6,0,P|467:206|145:339,1,540,4|0,0:0|0:0,0:0:0:0:
36,289,19178,1,0,0:0:0:0:
36,222,19358,1,0,0:0:0:0:
340,169,19717,6,0,P|385:125|319:53,1,180,6|0,0:0|0:0,0:0:0:0:
402,60,20256,1,0,0:0:0:0:
231,71,20436,2,0,P|159:107|187:201,1,180,2|8,0:0|0:0,0:0:0:0:
256,206,20974,1,0,0:0:0:0:
401,205,21154,6,0,L|476:291,1,90,2|0,0:0|0:0,0:0:0:0:
316,178,21513,2,0,L|317:286,1,90,2|0,0:0|0:0,0:0:0:0:
172,231,21873,2,0,L|54:231,2,90,2|0|10,0:0|0:0|0:0,0:0:0:0:
441,261,22591,6,0,P|462:157|384:133,1,180,0|0,0:0|0:0,0:0:0:0:
329,122,23130,1,0,0:0:0:0:
159,133,23489,1,0,0:0:0:0:
51,176,23669,2,0,L|119:240,1,90,8|0,0:0|0:0,0:0:0:0:
315,248,24028,6,0,P|361:170|298:135,1,180,2|2,0:0|0:0,0:0:0:0:
381,102,24567,1,0,0:0:0:0:
210,127,24747,2,0,L|112:127,2,90,2|0|10,0:0|0:0|0:0,0:0:0:0:
300,128,25286,1,0,0:0:0:0:
480,121,25466,6,0,P|466:215|381:265,1,180,2|0,0:0|0:0,0:0:0:0:
320,270,26004,1,0,0:0:0:0:
149,312,26184,2,0,P|81:275|161:235,1,180,2|8,0:0|0:0,0:0:0:0:
219,123,26723,1,0,0:0:0:0:
363,128,26903,6,0,L|484:128,1,90,2|0,0:0|0:0,0:0:0:0:
309,133,27262,2,0,L|309:257,1,90,2|0,0:0|0:0,0:0:0:0:
165,235,27621,2,0,L|64:235,2,90,2|0|10,0:0|0:0|0:0,0:0:0:0:
480,183,28340,6,0,L|406:246,2,90,2|0|0,0:0|0:0|0:0,0:0:0:0:
282,112,28879,2,0,L|374:191,2,90,2|0|2,0:0|0:0|0:0,0:0:0:0:
102,125,29418,1,10,0:0:0:0:
102,125,29597,1,2,0:0:0:0:
192,114,29777,5,2,0:0:0:0:
390,118,29957,1,2,0:0:0:0:
354,117,30046,1,0,0:0:0:0:
317,116,30136,1,2,0:0:0:0:
46,116,30316,1,10,0:0:0:0:
449,258,31214,6,0,L|433:133,1,90,6|0,0:0|0:0,0:0:0:0:
311,215,31573,2,0,L|325:89,1,90,0|0,0:0|0:0,0:0:0:0:
194,287,31933,2,0,L|320:288,1,90,2|0,0:0|0:0,0:0:0:0:
455,223,32292,1,10,0:0:0:0:
365,229,32471,1,0,0:0:0:0:
167,235,32651,6,0,L|183:110,1,90,2|0,0:0|0:0,0:0:0:0:
305,192,33010,2,0,L|291:66,1,90,0|0,0:0|0:0,0:0:0:0:
168,201,33370,2,0,L|294:202,1,90,2|0,0:0|0:0,0:0:0:0:
87,145,33729,1,10,0:0:0:0:
177,131,33909,1,0,0:0:0:0:
356,92,34088,6,0,L|373:201,1,90,2|0,0:0|0:0,0:0:0:0:
243,93,34448,2,0,L|227:208,1,90,2|0,0:0|0:0,0:0:0:0:
104,96,34807,2,0,L|32:191,1,90,2|0,0:0|0:0,0:0:0:0:
221,120,35166,2,0,L|312:163,1,90,10|0,0:0|0:0,0:0:0:0:
145,49,35525,6,0,P|77:102|154:154,1,180,2|0,0:0|0:0,0:0:0:0:
198,204,36064,1,0,0:0:0:0:
396,226,36244,2,0,L|426:117,1,90,2|0,0:0|0:0,0:0:0:0:
294,108,36603,2,0,L|386:162,1,90,2|8,0:0|0:0,0:0:0:0:
77,258,36963,6,0,L|35:136,1,90,2|0,0:0|0:0,0:0:0:0:
174,204,37322,2,0,L|160:78,1,90,0|0,0:0|0:0,0:0:0:0:
327,291,37682,2,0,L|201:292,1,90,2|0,0:0|0:0,0:0:0:0:
67,203,38040,1,10,0:0:0:0:
157,202,38220,1,2,0:0:0:0:
355,151,38400,6,0,L|399:249,1,90,2|0,0:0|0:0,0:0:0:0:
266,164,38759,2,0,L|256:287,1,90,0|0,0:0|0:0,0:0:0:0:
101,278,39118,2,0,L|58:196,1,90,2|8,0:0|0:0,0:0:0:0:
307,95,39477,2,0,P|359:120|392:160,1,90,14|8,0:0|0:0,0:0:0:0:
132,156,39837,6,0,P|65:162|61:278,1,180,6|0,0:0|0:0,0:0:0:0:
125,288,40376,1,2,0:0:0:0:
322,302,40555,2,0,P|399:239|393:144,1,180,8|2,0:0|0:0,0:0:0:0:
321,204,41094,1,8,0:0:0:0:
195,217,41274,5,0,0:0:0:0:
321,204,41454,1,8,0:0:0:0:
195,217,41633,2,0,P|142:183|160:148,1,90,0|0,0:0|0:0,0:0:0:0:
409,125,41992,2,0,P|473:182|403:212,1,180,6|0,0:0|0:0,0:0:0:0:
95,155,42711,5,6,0:0:0:0:
27,158,42891,2,0,P|50:254|147:282,1,180,0|0,0:0|0:0,0:0:0:0:
289,290,43430,2,0,P|371:211|314:153,1,180,8|0,0:0|0:0,0:0:0:0:
277,198,43968,1,0,0:0:0:0:
205,197,44148,5,2,0:0:0:0:
376,223,44328,2,0,P|374:162|340:126,1,90,8|0,0:0|0:0,0:0:0:0:
250,109,44687,2,0,L|131:107,2,90,2|8|0,0:0|0:0|0:0,0:0:0:0:
106,155,45226,1,10,0:0:0:0:
178,159,45406,1,0,0:0:0:0:
420,157,45585,5,6,0:0:0:0:
483,159,45765,2,0,P|460:255|363:283,1,180,0|0,0:0|0:0,0:0:0:0:
94,273,46304,2,0,P|54:189|123:108,1,180,12|2,0:0|0:0,0:0:0:0:
176,123,46843,1,2,0:0:0:0:
95,131,47022,5,2,0:0:0:0:
266,138,47202,2,0,L|284:248,1,90,8|2,0:0|0:0,0:0:0:0:
452,221,47561,1,0,0:0:0:0:
452,221,47651,1,0,0:0:0:0:
452,221,47741,1,2,0:0:0:0:
362,221,47921,1,0,0:0:0:0:
272,224,48100,1,2,0:0:0:0:
362,221,48280,1,0,0:0:0:0:
110,228,48460,6,0,L|29:147,1,90,6|0,0:0|0:0,0:0:0:0:
173,148,48819,2,0,L|264:148,1,90,8|0,0:0|0:0,0:0:0:0:
137,152,49178,2,0,L|137:276,1,90,2|0,0:0|0:0,0:0:0:0:
299,175,49537,2,0,L|422:173,1,90,10|0,0:0|0:0,0:0:0:0:
262,117,49897,6,0,L|179:204,1,90,2|0,0:0|0:0,0:0:0:0:
74,256,50256,2,0,L|73:135,1,90,2|0,0:0|0:0,0:0:0:0:
236,133,50615,2,0,L|342:133,1,90,10|0,0:0|0:0,0:0:0:0:
452,136,50974,1,10,0:0:0:0:
452,136,51064,1,8,0:0:0:0:
452,136,51154,1,8,0:0:0:0:
190,249,51334,6,0,L|96:248,1,90,6|0,0:0|0:0,0:0:0:0:
262,186,51693,2,0,L|348:288,1,90,8|2,0:0|0:0,0:0:0:0:
193,151,52052,2,0,L|193:44,1,90,0|0,0:0|0:0,0:0:0:0:
356,75,52412,2,0,L|266:75,1,90,10|0,0:0|0:0,0:0:0:0:
226,79,52681,1,0,0:0:0:0:
108,78,52771,5,2,0:0:0:0:
306,98,53130,2,0,L|216:157,2,90,10|0|2,0:0|0:0|0:0,0:0:0:0:
346,126,53579,1,0,0:0:0:0:
357,161,53669,1,8,0:0:0:0:
104,252,53849,1,6,0:0:0:0:
354,106,54567,5,8,0:0:0:0:
445,111,54927,2,0,L|348:111,1,90,2|0,0:0|0:0,0:0:0:0:
192,127,55286,2,0,L|312:180,1,90,14|0,0:0|0:0,0:0:0:0:
320,182,55555,1,0,0:0:0:0:
274,163,55645,5,2,0:0:0:0:
167,196,55825,1,0,0:0:0:0:
328,276,56004,2,0,L|420:277,1,90,6|0,0:0|0:0,0:0:0:0:
255,198,56364,2,0,L|135:198,1,90,2|8,0:0|0:0,0:0:0:0:
120,198,56633,1,8,0:0:0:0:
75,196,56723,1,8,0:0:0:0:
165,130,56903,1,8,0:0:0:0:
362,92,57082,5,6,0:0:0:0:
92,90,57442,1,10,0:0:0:0:
165,89,57621,1,0,0:0:0:0:
201,95,57711,1,0,0:0:0:0:
237,99,57801,1,2,0:0:0:0:
166,172,57980,1,0,0:0:0:0:
427,120,58160,1,10,0:0:0:0:
460,147,58250,1,8,0:0:0:0:
483,194,58340,1,8,0:0:0:0:
473,239,58430,1,8,0:0:0:0:
433,263,58519,1,10,0:0:0:0:
144,275,58699,1,10,0:0:0:0:
347,86,59238,5,0,0:0:0:0:
385,107,59328,1,0,0:0:0:0:
418,139,59418,1,0,0:0:0:0:
444,190,59507,1,0,0:0:0:0:
456,236,59597,1,8,0:0:0:0:
448,283,59687,1,8,0:0:0:0:
429,310,59777,1,8,0:0:0:0:
136,220,59957,6,0,L|35:220,1,90,4|0,0:0|0:0,0:0:0:0:
208,209,60316,2,0,L|242:90,1,90,8|0,0:0|0:0,0:0:0:0:
404,67,60675,2,0,L|494:67,2,90,2|0|10,0:0|0:0|0:0,0:0:0:0:
314,150,61214,1,0,0:0:0:0:
142,201,61394,6,0,L|265:201,1,90,0|0,0:0|0:0,0:0:0:0:
394,224,61753,2,0,L|360:105,1,90,8|0,0:0|0:0,0:0:0:0:
207,97,62112,2,0,L|304:97,2,90,2|0|10,0:0|0:0|0:0,0:0:0:0:
117,99,62651,1,0,0:0:0:0:
298,112,62831,6,0,L|298:228,1,90,0|0,0:0|0:0,0:0:0:0:
460,106,63190,2,0,L|348:40,1,90,8|0,0:0|0:0,0:0:0:0:
220,98,63549,2,0,L|126:98,2,90,2|0|10,0:0|0:0|0:0,0:0:0:0:
310,104,64088,1,0,0:0:0:0:
66,131,64268,6,0,P|27:191|31:242,1,90,2|0,0:0|0:0,0:0:0:0:
188,150,64627,2,0,L|275:186,1,90,10|0,0:0|0:0,0:0:0:0:
433,213,64986,2,0,P|434:153|402:97,1,90,2|0,0:0|0:0,0:0:0:0:
315,95,65346,1,10,0:0:0:0:
207,93,65525,1,0,0:0:0:0:
452,93,65705,5,6,0:0:0:0:
308,95,66064,1,10,0:0:0:0:
200,105,66244,1,0,0:0:0:0:
178,104,66334,1,0,0:0:0:0:
200,105,66424,1,0,0:0:0:0:
290,107,66603,1,0,0:0:0:0:
452,117,66783,2,0,L|466:232,1,90,10|0,0:0|0:0,0:0:0:0:
219,146,67142,6,0,L|113:146,2,90,2|0|10,0:0|0:0|0:0,0:0:0:0:
327,149,67681,1,0,0:0:0:0:
350,151,67771,1,0,0:0:0:0:
327,149,67861,1,0,0:0:0:0:
219,155,68040,1,0,0:0:0:0:
417,153,68220,1,10,0:0:0:0:
453,170,68310,1,8,0:0:0:0:
480,204,68400,1,8,0:0:0:0:
210,246,68579,6,0,L|87:245,2,90,6|0|10,0:0|0:0|0:0,0:0:0:0:
300,246,69118,1,0,0:0:0:0:
126,255,69298,2,0,L|172:137,1,90,2|0,0:0|0:0,0:0:0:0:
402,170,69657,1,2,0:0:0:0:
488,56,70196,5,0,0:0:0:0:
444,49,70286,1,0,0:0:0:0:
399,52,70376,1,8,0:0:0:0:
354,48,70466,1,8,0:0:0:0:
309,46,70555,1,8,0:0:0:0:
264,47,70645,1,8,0:0:0:0:
218,53,70735,1,10,0:0:0:0:
344,147,70915,1,8,0:0:0:0:
242,156,71094,1,2,0:0:0:0:
134,168,71274,1,0,0:0:0:0:
387,227,71454,6,0,L|488:227,1,90,6|0,0:0|0:0,0:0:0:0:
315,216,71813,2,0,L|281:97,1,90,8|0,0:0|0:0,0:0:0:0:
119,101,72172,2,0,L|29:101,2,90,2|0|10,0:0|0:0|0:0,0:0:0:0:
209,157,72711,1,0,0:0:0:0:
381,208,72891,6,0,L|258:208,1,90,0|0,0:0|0:0,0:0:0:0:
129,231,73250,2,0,L|163:112,1,90,8|0,0:0|0:0,0:0:0:0:
316,104,73609,2,0,L|219:104,2,90,2|0|10,0:0|0:0|0:0,0:0:0:0:
406,106,74148,1,0,0:0:0:0:
225,119,74328,6,0,L|225:235,1,90,4|0,0:0|0:0,0:0:0:0:
63,113,74687,2,0,L|175:47,1,90,8|0,0:0|0:0,0:0:0:0:
303,105,75046,2,0,L|397:105,2,90,2|0|10,0:0|0:0|0:0,0:0:0:0:
213,111,75585,1,0,0:0:0:0:
457,138,75765,6,0,P|487:202|478:255,1,90,6|0,0:0|0:0,0:0:0:0:
325,157,76124,2,0,L|238:193,1,90,10|0,0:0|0:0,0:0:0:0:
80,220,76483,2,0,P|79:160|111:104,1,90,2|0,0:0|0:0,0:0:0:0:
198,102,76843,1,10,0:0:0:0:
306,100,77022,1,0,0:0:0:0:
61,100,77202,5,6,0:0:0:0:
205,120,77561,1,10,0:0:0:0:
97,130,77741,1,0,0:0:0:0:
75,129,77831,1,0,0:0:0:0:
97,130,77921,1,0,0:0:0:0:
187,132,78100,1,0,0:0:0:0:
349,142,78280,2,0,L|363:257,1,90,10|0,0:0|0:0,0:0:0:0:
116,171,78639,6,0,L|10:171,2,90,2|0|10,0:0|0:0|0:0,0:0:0:0:
224,174,79178,1,0,0:0:0:0:
247,176,79268,1,0,0:0:0:0:
224,174,79358,1,0,0:0:0:0:
116,180,79537,1,0,0:0:0:0:
314,178,79717,1,10,0:0:0:0:
359,178,79807,1,8,0:0:0:0:
404,181,79897,1,8,0:0:0:0:
127,271,80076,6,0,L|4:270,2,90,2|0|10,0:0|0:0|0:0,0:0:0:0:
235,273,80615,1,0,0:0:0:0:
397,280,80795,2,0,L|351:162,1,90,10|0,0:0|0:0,0:0:0:0:
121,195,81154,1,6,0:0:0:0:
290,64,81693,5,8,0:0:0:0:
335,64,81783,1,8,0:0:0:0:
380,61,81873,1,8,0:0:0:0:
425,60,81963,1,8,0:0:0:0:
469,59,82052,1,8,0:0:0:0:
307,189,82232,1,6,0:0:0:0:
468,192,82591,1,2,0:0:0:0:
45,196,82951,5,6,0:0:0:0:
169,195,83310,2,0,L|75:159,1,90,8|0,0:0|0:0,0:0:0:0:
229,155,83669,1,2,0:0:0:0:
229,155,83849,1,0,0:0:0:0:
390,159,84028,1,8,0:0:0:0:
264,155,84208,1,8,0:0:0:0:
241,155,84298,1,8,0:0:0:0:
264,155,84388,5,2,0:0:0:0:
354,153,84567,1,0,0:0:0:0:
174,156,84747,2,0,L|51:205,1,90,8|0,0:0|0:0,0:0:0:0:
235,243,85106,1,2,0:0:0:0:
235,243,85286,1,0,0:0:0:0:
397,188,85466,1,10,0:0:0:0:
478,189,85645,1,8,0:0:0:0:
234,69,85825,6,0,L|128:69,2,90,6|0|0,0:0|0:0|0:0,0:0:0:0:
144,69,86364,1,2,0:0:0:0:
387,74,86543,1,8,0:0:0:0:
426,100,86633,1,8,0:0:0:0:
456,133,86723,1,10,0:0:0:0:
473,180,86812,1,8,0:0:0:0:
465,225,86902,1,8,0:0:0:0:
442,276,86992,1,8,0:0:0:0:
414,303,87082,1,10,0:0:0:0:
100,257,87262,5,6,0:0:0:0:
172,157,87621,2,0,L|261:131,3,90,0|0|0|0,0:0|0:0|0:0|0:0,0:0:0:0:
462,134,88340,1,2,0:0:0:0:
