osu file format v14

[General]
AudioFilename: audio.mp3
AudioLeadIn: 0
PreviewTime: 59148
Countdown: 0
SampleSet: Soft
StackLeniency: 0.7
Mode: 2
LetterboxInBreaks: 0
WidescreenStoryboard: 1

[Editor]
DistanceSpacing: 3.6
BeatDivisor: 4
GridSize: 8
TimelineZoom: 1.4

[Metadata]
Title:Sentimental Crisis (TV Size)
TitleUnicode:センチメンタルクライシス (TV Size)
Artist:halca
ArtistUnicode:halca
Creator:Dapuluous
Version:Hex's Cup
Source:かぐや様は告らせたい ~天才たちの恋愛頭脳戦~
Tags:Kaguya-sama wa kokurasetai tensai-tachi no renai zunosen kaguya wants to be confessed the genius war of love and brains is japanese anime ending -Hex- AJamez IDu5t idust Volta
BeatmapID:1964707
BeatmapSetID:937970

[Difficulty]
HPDrainRate:3
CircleSize:2.5
OverallDifficulty:6
ApproachRate:6
SliderMultiplier:1
SliderTickRate:1

[Events]
//Background and Video events
0,0,"127.jpg",0,0
Video,0,"Reee.avi"
//Break Periods
//Storyboard Layer 0 (Background)
//Storyboard Layer 1 (Fail)
//Storyboard Layer 2 (Pass)
//Storyboard Layer 3 (Foreground)
//Storyboard Sound Samples

[TimingPoints]
1503,389.61038961039,4,2,11,40,1,0
1503,-100,4,2,11,40,0,0
1892,-100,4,2,11,40,0,0
2671,-100,4,2,11,40,0,0
3451,-100,4,2,11,40,0,0
4230,-100,4,2,11,40,0,0
8126,-100,4,2,11,40,0,0
8905,-100,4,2,11,40,0,0
12022,-100,4,2,11,40,0,0
12412,-100,4,2,11,40,0,0
13969,359.281437125748,4,2,22,65,1,0
13969,-100,4,2,22,65,0,0
19717,-100,4,2,22,50,0,0
21154,-100,4,2,22,50,0,0
21693,-100,4,2,22,50,0,0
22591,-100,4,2,22,50,0,0
22951,-100,4,2,22,50,0,0
24028,-100,4,2,22,50,0,0
24388,-100,4,2,22,50,0,0
25466,-100,4,2,22,50,0,0
25825,-100,4,2,22,50,0,0
26903,-100,4,2,22,50,0,0
27262,-100,4,2,22,50,0,0
31214,-100,4,2,22,65,0,0
39837,-100,4,2,22,70,0,0
42711,-100,4,2,22,75,0,0
48460,-100,4,2,22,65,0,0
51334,-100,4,2,22,70,0,0
53849,-100,4,2,22,60,0,0
57082,-100,4,2,22,70,0,0
59238,-100,4,2,22,55,0,0
59957,-90.9090909090909,4,2,22,80,0,1
69657,-90.9090909090909,4,2,22,70,0,0
71454,-90.9090909090909,4,2,22,80,0,1
77202,-90.9090909090909,4,2,22,70,0,1
80076,-90.9090909090909,4,2,22,85,0,1
82951,-90.9090909090909,4,2,22,80,0,1
86543,-90.9090909090909,4,2,22,45,0,1
86723,-90.9090909090909,4,2,22,55,0,1
86903,-90.9090909090909,4,2,22,65,0,1
87082,-90.9090909090909,4,2,22,75,0,1
87262,-90.9090909090909,4,2,22,50,0,0

[Colours]
Combo1 : 52,152,219
Combo2 : 155,89,182
Combo3 : 253,121,168
Combo4 : 231,76,60

[HitObjects]
233,249,1503,6,0,P|194:247|77:132,2,200,2|0|2,0:0|0:0|0:0,0:0:0:0:
432,77,4619,1,2,0:0:0:0:
73,157,6178,2,0,P|69:274|111:358,1,200,2|0,0:0|0:0,0:0:0:0:
363,131,7736,6,0,P|247:108|156:120,2,200,2|0|2,0:0|0:0|0:0,0:0:0:0:
122,42,10074,1,0,0:0:0:0:
256,192,10853,12,0,12412,0:0:0:0:
410,306,13969,6,0,P|420:255|431:187,1,100,6|8,0:0|0:0,0:0:0:0:
308,61,14687,1,0,0:0:0:0:
187,217,15046,2,0,L|245:228,1,50,8|0,0:0|0:0,0:0:0:0:
322,251,15406,6,0,P|320:296|272:347,1,100,2|8,0:0|0:0,0:0:0:0:
201,292,15945,2,0,L|206:174,1,100,2|2,0:0|0:0,0:0:0:0:
290,135,16483,1,12,0:0:0:0:
69,36,17202,5,8,0:0:0:0:
189,139,17561,2,0,L|188:206,1,50,0|0,0:0|0:0,0:0:0:0:
98,278,17921,1,4,0:0:0:0:
256,192,18280,12,0,19358,0:0:0:0:
165,215,19717,6,0,P|85:196|35:135,2,150,6|0|8,0:0|0:0|0:0,0:0:0:0:
315,67,21154,2,0,L|323:172,1,100,2|2,0:0|0:0,0:0:0:0:
202,186,21873,2,0,L|196:303,1,100,2|10,0:0|0:0,0:0:0:0:
347,356,22591,6,0,P|406:348|492:285,2,150,0|0|8,0:0|0:0|0:0,0:0:0:0:
197,255,24028,2,0,P|184:220|187:154,1,100,2|2,0:0|0:0,0:0:0:0:
306,51,24747,2,0,L|366:48,1,50,2|0,0:0|0:0,0:0:0:0:
236,186,25286,1,0,0:0:0:0:
326,204,25466,6,0,P|408:183|478:134,2,150,2|0|8,0:0|0:0|0:0,0:0:0:0:
176,106,26903,2,0,P|251:95|290:93,1,100,2|2,0:0|0:0,0:0:0:0:
395,230,27621,2,0,P|403:258|404:342,1,100,2|10,0:0|0:0,0:0:0:0:
246,130,28340,6,0,L|408:123,2,150,2|2|10,0:0|0:0|0:0,0:0:0:0:
96,239,29777,2,0,P|78:300|89:353,1,100,2|2,0:0|0:0,0:0:0:0:
173,365,30316,1,10,0:0:0:0:
448,36,31214,6,0,L|456:156,1,100,6|0,0:0|0:0,0:0:0:0:
334,284,31933,2,0,L|442:282,1,100,2|10,0:0|0:0,0:0:0:0:
274,193,32651,2,0,P|213:164|294:90,1,200,2|2,0:0|0:0,0:0:0:0:
394,47,33729,1,10,0:0:0:0:
234,94,34088,6,0,L|240:193,1,100,2|2,0:0|0:0,0:0:0:0:
361,222,34807,2,0,L|365:341,1,100,2|10,0:0|0:0,0:0:0:0:
204,293,35525,2,0,P|103:274|45:191,1,200,2|2,0:0|0:0,0:0:0:0:
168,138,36603,1,2,0:0:0:0:
328,16,36963,6,0,L|214:17,1,100,2|0,0:0|0:0,0:0:0:0:
108,84,37681,2,0,L|212:84,1,100,2|10,0:0|0:0,0:0:0:0:
368,101,38400,1,2,0:0:0:0:
248,102,38759,1,0,0:0:0:0:
378,196,39118,2,0,L|378:303,1,100,2|14,0:0|0:0,0:0:0:0:
218,315,39837,6,0,P|157:302|171:179,1,200,6|8,0:0|0:0,0:0:0:0:
262,115,40915,1,2,0:0:0:0:
127,34,41274,1,0,0:0:0:0:
103,93,41454,1,8,0:0:0:0:
127,34,41633,1,0,0:0:0:0:
292,299,41992,2,0,L|171:304,1,100,6|0,0:0|0:0,0:0:0:0:
32,186,42711,6,0,P|85:159|228:123,1,200,6|8,0:0|0:0,0:0:0:0:
346,122,43789,1,0,0:0:0:0:
196,213,44148,2,0,P|183:276|201:324,1,100,2|0,0:0|0:0,0:0:0:0:
273,318,44687,2,0,P|286:285|270:212,1,100,2|0,0:0|0:0,0:0:0:0:
189,177,45226,1,10,0:0:0:0:
359,23,45585,5,6,0:0:0:0:
356,81,45765,2,0,L|190:80,1,150,0|12,0:0|0:0,0:0:0:0:
331,219,46663,1,2,0:0:0:0:
196,267,47022,2,0,L|85:253,1,100,2|2,0:0|0:0,0:0:0:0:
95,172,47561,2,0,L|217:164,1,100,0|0,0:0|0:0,0:0:0:0:
275,100,48100,1,2,0:0:0:0:
125,29,48460,6,0,P|112:76|116:147,1,100,6|8,0:0|0:0,0:0:0:0:
232,164,49178,2,0,P|307:168|347:168,1,100,2|10,0:0|0:0,0:0:0:0:
182,315,49897,2,0,L|293:314,2,100,2|2|10,0:0|0:0|0:0,0:0:0:0:
307,189,50974,1,10,0:0:0:0:
147,38,51334,6,0,P|147:116|269:147,1,200,6|0,0:0|0:0,0:0:0:0:
369,227,52412,1,10,0:0:0:0:
249,334,52771,2,0,L|142:332,1,100,2|10,0:0|0:0,0:0:0:0:
29,212,53489,2,0,L|21:139,1,50,2|8,0:0|0:0,0:0:0:0:
109,95,53849,1,6,0:0:0:0:
428,40,54567,5,8,0:0:0:0:
308,118,54927,1,2,0:0:0:0:
363,144,55106,1,0,0:0:0:0:
419,187,55286,1,14,0:0:0:0:
269,303,55645,2,0,L|166:312,1,100,2|6,0:0|0:0,0:0:0:0:
52,232,56364,2,0,P|37:188|69:146,1,100,2|8,0:0|0:0,0:0:0:0:
151,93,56903,1,8,0:0:0:0:
236,58,57082,6,0,P|294:54|348:53,1,100,6|10,0:0|0:0,0:0:0:0:
207,221,57801,2,0,P|163:242|109:255,1,100,2|10,0:0|0:0,0:0:0:0:
275,116,58519,1,10,0:0:0:0:
190,72,58699,1,10,0:0:0:0:
471,326,59957,6,0,L|343:326,2,110.000003356934,4|8|2,0:0|0:0|0:0,0:0:0:0:
339,233,61034,1,10,0:0:0:0:
152,155,61394,2,0,L|154:44,1,110.000003356934,0|8,0:0|0:0,0:0:0:0:
286,29,62112,2,0,L|403:28,1,110.000003356934,2|10,0:0|0:0,0:0:0:0:
209,135,62831,5,0,0:0:0:0:
341,133,63190,2,0,L|455:134,1,110.000003356934,8|2,0:0|0:0,0:0:0:0:
319,311,63909,1,10,0:0:0:0:
132,222,64268,2,0,P|112:191|107:112,1,110.000003356934,2|10,0:0|0:0,0:0:0:0:
243,125,64986,2,0,P|269:87|278:19,1,110.000003356934,2|10,0:0|0:0,0:0:0:0:
91,192,65705,6,0,P|155:213|208:200,1,110.000003356934,6|10,0:0|0:0,0:0:0:0:
269,170,66244,2,0,L|274:95,1,55.0000016784668,0|0,0:0|0:0,0:0:0:0:
140,295,66783,1,10,0:0:0:0:
327,258,67142,6,0,P|345:211|312:166,1,110.000003356934,2|10,0:0|0:0,0:0:0:0:
239,134,67681,2,0,L|235:73,1,55.0000016784668,0|0,0:0|0:0,0:0:0:0:
130,93,68220,1,10,0:0:0:0:
317,322,68579,6,0,L|383:321,2,55.0000016784668,6|0|10,0:0|0:0|0:0,0:0:0:0:
163,196,69298,1,2,0:0:0:0:
339,79,69657,2,0,L|341:249,1,165.000005035401,2|0,0:0|0:0,0:0:0:0:
263,234,70376,1,8,0:0:0:0:
383,140,70735,1,10,0:0:0:0:
503,66,71094,1,2,0:0:0:0:
316,317,71454,6,0,L|194:316,2,110.000003356934,6|8|2,0:0|0:0|0:0,0:0:0:0:
449,188,72531,1,10,0:0:0:0:
262,25,72891,2,0,L|150:23,1,110.000003356934,0|8,0:0|0:0,0:0:0:0:
284,118,73609,2,0,L|404:118,1,110.000003356934,2|10,0:0|0:0,0:0:0:0:
207,266,74328,5,4,0:0:0:0:
339,348,74687,2,0,L|350:237,1,110.000003356934,8|2,0:0|0:0,0:0:0:0:
218,143,75406,1,10,0:0:0:0:
405,22,75765,2,0,L|280:23,1,110.000003356934,6|10,0:0|0:0,0:0:0:0:
163,109,76483,2,0,L|287:108,1,110.000003356934,2|10,0:0|0:0,0:0:0:0:
86,186,77202,6,0,P|50:197|43:278,1,110.000003356934,6|10,0:0|0:0,0:0:0:0:
109,323,77741,2,0,L|110:253,1,55.0000016784668,0|0,0:0|0:0,0:0:0:0:
242,133,78280,1,10,0:0:0:0:
55,40,78639,6,0,L|174:41,1,110.000003356934,2|10,0:0|0:0,0:0:0:0:
237,48,79178,2,0,L|235:125,1,55.0000016784668,0|0,0:0|0:0,0:0:0:0:
103,219,79717,1,10,0:0:0:0:
290,331,80076,6,0,L|173:335,2,110.000003356934,2|10|10,0:0|0:0|0:0,0:0:0:0:
477,191,81154,2,0,L|250:190,1,220.000006713867,6|8,0:0|0:0,0:0:0:0:
92,116,82232,1,6,0:0:0:0:
257,31,82591,1,2,0:0:0:0:
81,343,82951,6,0,L|21:239,1,110.000003356934,6|8,0:0|0:0,0:0:0:0:
91,206,83489,1,0,0:0:0:0:
156,175,83669,1,2,0:0:0:0:
288,84,84028,1,8,0:0:0:0:
222,61,84208,1,8,0:0:0:0:
150,55,84388,6,0,L|216:149,1,110.000003356934,2|8,0:0|0:0,0:0:0:0:
345,306,85106,1,2,0:0:0:0:
202,226,85466,1,10,0:0:0:0:
389,129,85825,6,0,L|277:122,1,110.000003356934,6|0,0:0|0:0,0:0:0:0:
147,38,86543,2,0,L|265:33,1,110.000003356934,8|8,0:0|0:0,0:0:0:0:
444,49,87262,5,6,0:0:0:0:
312,308,87621,2,0,P|263:255|263:196,2,110.000003356934,0|0|2,0:0|0:0|0:0,0:0:0:0:
