osu file format v14

[General]
AudioFilename: audio.mp3
AudioLeadIn: 0
PreviewTime: 59148
Countdown: 0
SampleSet: Soft
StackLeniency: 0.7
Mode: 2
LetterboxInBreaks: 0
WidescreenStoryboard: 1

[Editor]
DistanceSpacing: 1.8
BeatDivisor: 4
GridSize: 32
TimelineZoom: 2

[Metadata]
Title:Sentimental Crisis (TV Size)
TitleUnicode:センチメンタルクライシス (TV Size)
Artist:halca
ArtistUnicode:halca
Creator:Dapuluous
Version:AJamez's Sensational Love
Source:かぐや様は告らせたい ~天才たちの恋愛頭脳戦~
Tags:Kaguya-sama wa kokurasetai tensai-tachi no renai zunosen kaguya wants to be confessed the genius war of love and brains is japanese anime ending -Hex- AJamez IDu5t idust Volta
BeatmapID:1962371
BeatmapSetID:937970

[Difficulty]
HPDrainRate:7
CircleSize:4.4
OverallDifficulty:9.3
ApproachRate:9.3
SliderMultiplier:1.9
SliderTickRate:2

[Events]
//Background and Video events
0,0,"jeemz_bg.jpg",0,0
Video,0,"Reee.avi"
//Break Periods
//Storyboard Layer 0 (Background)
//Storyboard Layer 1 (Fail)
//Storyboard Layer 2 (Pass)
//Storyboard Layer 3 (Foreground)
//Storyboard Sound Samples

[TimingPoints]
1503,389.61038961039,4,2,11,40,1,0
1503,-100,4,2,11,40,0,0
1892,-100,4,2,11,40,0,0
2671,-100,4,2,11,40,0,0
3451,-100,4,2,11,40,0,0
4230,-100,4,2,11,40,0,0
8126,-100,4,2,11,40,0,0
8905,-100,4,2,11,40,0,0
12022,-100,4,2,11,40,0,0
12412,-100,4,2,11,40,0,0
13969,359.281437125748,4,2,22,65,1,0
13969,-100,4,2,22,65,0,0
19537,-100,4,2,22,65,0,0
19717,-100,4,2,22,50,0,0
21154,-100,4,2,22,50,0,0
21693,-100,4,2,22,50,0,0
22591,-100,4,2,22,50,0,0
22951,-100,4,2,22,50,0,0
24028,-100,4,2,22,50,0,0
24388,-100,4,2,22,50,0,0
25466,-100,4,2,22,50,0,0
25825,-100,4,2,22,50,0,0
26903,-100,4,2,22,50,0,0
27262,-100,4,2,22,50,0,0
30495,-100,4,2,22,50,0,0
31214,-100,4,2,22,65,0,0
39837,-100,4,2,22,70,0,0
42711,-100,4,2,22,75,0,0
48460,-100,4,2,22,65,0,0
51334,-100,4,2,22,70,0,0
53849,-100,4,2,22,60,0,0
57082,-100,4,2,22,70,0,0
59238,-100,4,2,22,55,0,0
59957,-83.3333333333333,4,2,22,80,0,1
69657,-83.3333333333333,4,2,22,70,0,0
70286,-100,4,2,22,70,0,0
71454,-83.3333333333333,4,2,22,80,0,1
77202,-83.3333333333333,4,2,22,70,0,1
80076,-83.3333333333333,4,2,22,85,0,1
82951,-83.3333333333333,4,2,22,80,0,1
86543,-83.3333333333333,4,2,22,45,0,1
86723,-83.3333333333333,4,2,22,55,0,1
86903,-83.3333333333333,4,2,22,65,0,1
87082,-83.3333333333333,4,2,22,75,0,1
87262,-100,4,2,22,50,0,0

[Colours]
Combo1 : 52,152,219
Combo2 : 155,89,182
Combo3 : 253,121,168
Combo4 : 231,76,60

[HitObjects]
421,296,723,6,0,L|443:91,1,190,0|0,0:0|0:0,0:0:0:0:
329,315,1308,2,0,L|278:312,1,47.5,0|0,0:0|0:0,0:0:0:0:
154,279,1503,6,0,L|146:149,1,95,2|0,0:0|0:0,0:0:0:0:
329,315,1892,2,0,L|505:224,2,190,0|0|0,0:0|0:0|0:0,0:0:0:0:
41,349,3061,1,2,0:0:0:0:
289,356,3451,2,0,L|268:137,1,190,0|0,0:0|0:0,0:0:0:0:
44,103,4230,1,0,0:0:0:0:
404,75,4619,5,2,0:0:0:0:
210,228,5009,2,0,L|1:267,1,190,0|0,0:0|0:0,0:0:0:0:
336,348,5788,1,0,0:0:0:0:
28,355,6178,2,0,P|92:227|143:186,1,190,2|0,0:0|0:0,0:0:0:0:
359,137,6957,2,0,L|162:100,1,190,0|0,0:0|0:0,0:0:0:0:
483,226,7736,5,2,0:0:0:0:
235,270,8126,2,0,L|24:293,2,190,0|0|0,0:0|0:0|0:0,0:0:0:0:
13,364,9295,2,0,L|237:381,1,190,2|0,0:0|0:0,0:0:0:0:
497,143,10074,2,0,L|281:173,1,190,0|0,0:0|0:0,0:0:0:0:
16,50,10853,5,2,0:0:0:0:
288,118,11243,1,0,0:0:0:0:
197,135,11437,1,0,0:0:0:0:
153,215,11632,1,0,0:0:0:0:
188,300,11827,1,0,0:0:0:0:
276,327,12022,1,0,0:0:0:0:
117,358,12217,1,0,0:0:0:0:
410,315,12412,1,0,0:0:0:0:
452,326,13580,5,0,0:0:0:0:
482,291,13677,1,0,0:0:0:0:
478,245,13774,1,0,0:0:0:0:
441,218,13872,1,0,0:0:0:0:
179,163,13969,6,0,L|61:151,1,95,6|0,0:0|0:0,0:0:0:0:
254,100,14328,1,8,0:0:0:0:
68,202,14507,1,0,0:0:0:0:
60,248,14596,1,0,0:0:0:0:
52,295,14686,1,0,0:0:0:0:
336,348,14867,1,0,0:0:0:0:
37,355,15046,2,0,P|41:300|69:256,1,95,8|0,0:0|0:0,0:0:0:0:
119,263,15316,1,0,0:0:0:0:
369,246,15406,5,2,0:0:0:0:
223,196,15585,1,0,0:0:0:0:
406,147,15765,2,0,L|533:129,1,95,8|2,0:0|0:0,0:0:0:0:
462,96,16034,1,0,0:0:0:0:
411,77,16124,1,0,0:0:0:0:
124,53,16304,1,2,0:0:0:0:
472,175,16483,6,0,P|415:188|504:316,1,285,12|8,0:0|0:0,0:0:0:0:
430,326,17112,1,8,0:0:0:0:
242,359,17202,2,0,L|132:364,1,95,8|0,0:0|0:0,0:0:0:0:
321,298,17561,1,0,0:0:0:0:
27,282,17741,1,0,0:0:0:0:
411,248,17921,1,4,0:0:0:0:
256,192,18100,12,0,19537,0:0:0:0:
317,237,19717,6,0,P|433:161|413:98,1,190,6|0,0:0|0:0,0:0:0:0:
293,30,20256,1,0,0:0:0:0:
138,122,20436,2,0,L|344:139,1,190,2|8,0:0|0:0,0:0:0:0:
213,222,20974,2,0,L|141:231,1,47.5,0|0,0:0|0:0,0:0:0:0:
375,310,21154,2,0,L|481:326,1,95,2|0,0:0|0:0,0:0:0:0:
317,378,21513,5,2,0:0:0:0:
170,364,21693,1,0,0:0:0:0:
339,284,21873,2,0,L|452:268,1,95,2|0,0:0|0:0,0:0:0:0:
165,184,22232,2,0,L|40:162,1,95,10|0,0:0|0:0,0:0:0:0:
132,148,22501,1,0,0:0:0:0:
343,115,22591,6,0,L|457:103,2,95,0|0|0,0:0|0:0|0:0,0:0:0:0:
151,153,23130,2,0,P|192:226|305:270,1,190,0|0,0:0|0:0,0:0:0:0:
157,321,23669,1,8,0:0:0:0:
317,361,23849,2,0,L|254:368,1,47.5,0|0,0:0|0:0,0:0:0:0:
72,340,24028,6,0,P|45:268|52:208,1,95,2|0,0:0|0:0,0:0:0:0:
202,197,24388,2,0,L|230:78,1,95,2|0,0:0|0:0,0:0:0:0:
428,72,24747,1,2,0:0:0:0:
350,116,24926,1,0,0:0:0:0:
365,204,25106,1,10,0:0:0:0:
452,222,25286,2,0,L|509:225,1,47.5,0|0,0:0|0:0,0:0:0:0:
305,297,25466,5,2,0:0:0:0:
183,297,25645,1,0,0:0:0:0:
308,358,25825,1,0,0:0:0:0:
442,375,26004,1,0,0:0:0:0:
188,195,26184,2,0,L|70:198,1,95,2|0,0:0|0:0,0:0:0:0:
265,123,26543,1,8,0:0:0:0:
426,74,26723,2,0,L|361:68,1,47.5,0|0,0:0|0:0,0:0:0:0:
146,62,26903,6,0,L|39:62,2,95,2|0|2,0:0|0:0|0:0,0:0:0:0:
299,188,27442,1,0,0:0:0:0:
103,273,27621,2,0,L|212:291,1,95,2|0,0:0|0:0,0:0:0:0:
472,85,27980,2,0,L|359:66,1,95,10|0,0:0|0:0,0:0:0:0:
56,157,28340,5,2,0:0:0:0:
192,126,28519,1,0,0:0:0:0:
48,72,28699,1,0,0:0:0:0:
220,248,28879,2,0,L|342:263,1,95,2|0,0:0|0:0,0:0:0:0:
48,331,29238,1,2,0:0:0:0:
354,349,29418,1,10,0:0:0:0:
200,364,29597,1,2,0:0:0:0:
477,266,29777,5,2,0:0:0:0:
314,166,29957,1,2,0:0:0:0:
361,159,30046,1,0,0:0:0:0:
408,153,30136,1,2,0:0:0:0:
87,93,30316,5,10,0:0:0:0:
160,149,30495,1,0,0:0:0:0:
170,241,30675,1,0,0:0:0:0:
111,312,30854,1,0,0:0:0:0:
19,319,31034,1,0,0:0:0:0:
346,345,31214,6,0,L|459:358,1,95,6|0,0:0|0:0,0:0:0:0:
247,272,31573,1,0,0:0:0:0:
421,242,31753,1,0,0:0:0:0:
457,212,31842,1,0,0:0:0:0:
474,168,31932,1,2,0:0:0:0:
359,122,32112,1,0,0:0:0:0:
94,60,32292,2,0,L|210:50,1,95,10|0,0:0|0:0,0:0:0:0:
250,49,32561,1,0,0:0:0:0:
43,165,32651,6,0,L|36:272,1,95,2|0,0:0|0:0,0:0:0:0:
150,314,33010,1,0,0:0:0:0:
426,343,33190,1,0,0:0:0:0:
255,353,33370,1,2,0:0:0:0:
423,254,33549,1,0,0:0:0:0:
376,245,33638,1,0,0:0:0:0:
329,237,33728,1,10,0:0:0:0:
493,156,33909,2,0,L|424:145,1,47.5,0|0,0:0|0:0,0:0:0:0:
223,89,34088,6,0,L|95:73,1,95,2|0,0:0|0:0,0:0:0:0:
287,166,34448,1,2,0:0:0:0:
105,259,34627,2,0,L|170:274,1,47.5,0|0,0:0|0:0,0:0:0:0:
359,362,34807,2,0,L|485:346,1,95,2|0,0:0|0:0,0:0:0:0:
155,352,35166,1,10,0:0:0:0:
326,257,35346,2,0,L|274:245,1,47.5,0|0,0:0|0:0,0:0:0:0:
66,197,35525,6,0,P|39:156|39:85,1,95,2|0,0:0|0:0,0:0:0:0:
165,84,35885,2,0,L|183:29,1,47.5,0|0,0:0|0:0,0:0:0:0:
381,27,36064,2,0,L|463:26,2,47.5,0|0|2,0:0|0:0|0:0,0:0:0:0:
190,206,36424,2,0,L|244:212,1,47.5,0|0,0:0|0:0,0:0:0:0:
434,349,36603,2,0,L|493:358,2,47.5,2|0|8,0:0|0:0|0:0,0:0:0:0:
163,337,36963,6,0,P|102:320|56:288,1,95,2|0,0:0|0:0,0:0:0:0:
366,244,37322,1,0,0:0:0:0:
210,192,37501,1,0,0:0:0:0:
206,144,37590,1,0,0:0:0:0:
203,97,37680,1,2,0:0:0:0:
359,66,37861,1,0,0:0:0:0:
44,47,38040,2,0,L|57:148,1,95,10|2,0:0|0:0,0:0:0:0:
112,154,38310,1,0,0:0:0:0:
336,264,38400,5,2,0:0:0:0:
180,301,38579,1,0,0:0:0:0:
360,355,38759,2,0,L|352:249,1,95,0|0,0:0|0:0,0:0:0:0:
35,270,39118,2,0,L|47:169,1,95,2|8,0:0|0:0,0:0:0:0:
101,154,39388,1,8,0:0:0:0:
313,144,39477,1,14,0:0:0:0:
151,73,39657,2,0,L|235:70,1,47.5,8|8,0:0|0:0,0:0:0:0:
421,229,39837,6,0,L|219:235,1,190,6|0,0:0|0:0,0:0:0:0:
407,336,40376,1,2,0:0:0:0:
126,138,40555,2,0,L|9:111,2,95,8|0|2,0:0|0:0|0:0,0:0:0:0:
388,111,41094,1,8,0:0:0:0:
228,137,41274,1,0,0:0:0:0:
488,222,41454,2,0,L|367:235,1,95,8|0,0:0|0:0,0:0:0:0:
111,329,41813,2,0,L|99:398,1,47.5,0|0,0:0|0:0,0:0:0:0:
306,370,41992,6,0,P|415:341|438:294,1,142.5,6|0,0:0|0:0,0:0:0:0:
220,218,42352,2,0,L|168:217,1,47.5,8|0,0:0|0:0,0:0:0:0:
367,147,42531,2,0,L|282:135,1,47.5,2|0,0:0|0:0,0:0:0:0:
72,80,42711,5,6,0:0:0:0:
214,259,42891,2,0,P|185:199|57:166,1,190
449,356,43430,2,0,L|321:372,1,95,8|0,0:0|0:0,0:0:0:0:
193,344,43789,1,0,0:0:0:0:
360,273,43968,1,0,0:0:0:0:
73,202,44148,5,2,0:0:0:0:
327,162,44328,2,0,L|461:135,1,95,8|0,0:0|0:0,0:0:0:0:
244,93,44687,1,2,0:0:0:0:
499,44,44867,2,0,L|375:28,1,95,8|0,0:0|0:0,0:0:0:0:
164,228,45226,1,10,0:0:0:0:
327,262,45406,1,0,0:0:0:0:
53,365,45585,5,6,0:0:0:0:
215,320,45765,2,0,P|150:223|50:207,1,190,0|0,0:0|0:0,0:0:0:0:
424,223,46304,2,0,L|445:118,1,95,12|0,0:0|0:0,0:0:0:0:
253,66,46663,2,0,L|373:49,1,95,2|2,0:0|0:0,0:0:0:0:
71,129,47022,5,2,0:0:0:0:
317,207,47202,2,0,L|176:217,1,95,8|2,0:0|0:0,0:0:0:0:
383,307,47561,2,0,L|372:365,1,47.5,0|0,0:0|0:0,0:0:0:0:
159,360,47741,2,0,L|51:367,1,95,2|0,0:0|0:0,0:0:0:0:
254,346,48100,2,0,L|310:339,1,47.5,2|0,0:0|0:0,0:0:0:0:
69,200,48280,2,0,L|-3:191,1,47.5,0|0,0:0|0:0,0:0:0:0:
295,137,48460,5,6,0:0:0:0:
422,109,48639,1,0,0:0:0:0:
293,46,48819,1,8,0:0:0:0:
157,46,48998,1,0,0:0:0:0:
448,212,49178,2,0,L|308:231,1,95,2|0,0:0|0:0,0:0:0:0:
150,333,49537,2,0,L|38:346,1,95,10|0,0:0|0:0,0:0:0:0:
403,344,49897,5,2,0:0:0:0:
252,218,50076,1,0,0:0:0:0:
204,212,50165,1,0,0:0:0:0:
157,207,50255,1,2,0:0:0:0:
330,149,50436,1,0,0:0:0:0:
18,98,50615,5,10,0:0:0:0:
146,58,50795,1,0,0:0:0:0:
414,53,50974,2,0,L|359:42,1,47.5,10|8,0:0|0:0,0:0:0:0:
102,338,51154,2,0,L|149:332,1,47.5,8|8,0:0|0:0,0:0:0:0:
426,349,51334,6,0,P|377:284|253:249,1,190,6|8,0:0|0:0,0:0:0:0:
458,159,51873,2,0,L|339:151,2,95,2|0|0,0:0|0:0|0:0,0:0:0:0:
193,59,52412,1,10,0:0:0:0:
363,152,52591,2,0,L|276:165,1,47.5,0|0,0:0|0:0,0:0:0:0:
103,197,52771,6,0,P|49:232|59:318,1,142.5
283,357,53130,2,0,L|167:377,1,95,10|0,0:0|0:0,0:0:0:0:
458,332,53489,1,2,0:0:0:0:
298,244,53669,2,0,L|382:234,1,47.5,8|8,0:0|0:0,0:0:0:0:
118,279,53849,6,0,P|42:137|220:82,1,380,6|8,0:0|0:0,0:0:0:0:
74,68,54747,1,0,0:0:0:0:
217,171,54927,1,2,0:0:0:0:
375,214,55106,1,0,0:0:0:0:
66,234,55286,6,0,L|51:340,1,95,14|0,0:0|0:0,0:0:0:0:
115,347,55555,1,0,0:0:0:0:
343,358,55645,1,2,0:0:0:0:
191,347,55825,2,0,L|116:344,1,47.5,0|0,0:0|0:0,0:0:0:0:
385,234,56004,6,0,L|490:215,1,95,6|0,0:0|0:0,0:0:0:0:
226,112,56364,1,2,0:0:0:0:
380,62,56543,2,0,L|318:56,1,47.5,8|8,0:0|0:0,0:0:0:0:
112,175,56723,2,0,L|36:181,1,47.5,8|8,0:0|0:0,0:0:0:0:
285,320,56903,2,0,L|363:333,1,47.5,8|8,0:0|0:0,0:0:0:0:
63,360,57082,5,6,0:0:0:0:
197,307,57262,1,0,0:0:0:0:
60,251,57442,1,10,0:0:0:0:
325,198,57621,1,0,0:0:0:0:
269,194,57710,1,0,0:0:0:0:
212,189,57800,1,2,0:0:0:0:
481,85,57980,1,0,0:0:0:0:
184,81,58160,5,10,0:0:0:0:
238,74,58249,1,8,0:0:0:0:
293,67,58339,1,8,0:0:0:0:
349,61,58429,1,8,0:0:0:0:
91,142,58519,1,10,0:0:0:0:
432,299,58699,1,10,0:0:0:0:
463,289,59239,5,0,0:0:0:0:
440,282,59283,1,0,0:0:0:0:
423,265,59328,1,0,0:0:0:0:
417,243,59373,1,0,0:0:0:0:
421,220,59418,1,0,0:0:0:0:
436,201,59463,1,0,0:0:0:0:
458,193,59508,1,0,0:0:0:0:
237,152,59597,2,0,L|155:159,1,47.5,8|8,0:0|0:0,0:0:0:0:
466,60,59777,2,0,L|393:60,1,47.5,8|8,0:0|0:0,0:0:0:0:
123,68,59957,6,0,L|110:211,1,113.999996520996,4|0,0:0|0:0,0:0:0:0:
289,244,60316,2,0,L|437:265,1,113.999996520996,8|0,0:0|0:0,0:0:0:0:
110,330,60675,1,2,0:0:0:0:
425,258,60855,1,0,0:0:0:0:
264,164,61034,2,0,L|141:156,1,113.999996520996,10|0,0:0|0:0,0:0:0:0:
214,124,61304,1,0,0:0:0:0:
439,76,61394,6,0,L|319:63,1,113.999996520996,0|0,0:0|0:0,0:0:0:0:
44,282,61753,2,0,L|169:272,1,113.999996520996,8|0,0:0|0:0,0:0:0:0:
321,297,62112,1,2,0:0:0:0:
163,375,62292,1,0,0:0:0:0:
482,309,62471,2,0,L|465:184,1,113.999996520996,10|0,0:0|0:0,0:0:0:0:
396,184,62741,1,0,0:0:0:0:
154,129,62831,6,0,L|29:118,1,113.999996520996,0|0,0:0|0:0,0:0:0:0:
346,59,63190,2,0,L|197:51,1,113.999996520996,8|0,0:0|0:0,0:0:0:0:
372,167,63549,1,2,0:0:0:0:
70,262,63729,1,0,0:0:0:0:
230,305,63909,2,0,L|357:323,1,113.999996520996,10|0,0:0|0:0,0:0:0:0:
282,301,64178,1,0,0:0:0:0:
28,158,64268,6,0,L|149:144,1,113.999996520996,2|0,0:0|0:0,0:0:0:0:
430,73,64627,1,10,0:0:0:0:
276,55,64807,2,0,L|194:70,1,56.9999982604981,0|0,0:0|0:0,0:0:0:0:
467,214,64986,2,0,L|341:234,1,113.999996520996,2|0,0:0|0:0,0:0:0:0:
208,336,65346,1,10,0:0:0:0:
446,355,65525,1,0,0:0:0:0:
71,335,65705,5,6,0:0:0:0:
333,324,65885,1,0,0:0:0:0:
174,245,66064,1,10,0:0:0:0:
334,220,66244,1,0,0:0:0:0:
390,210,66333,1,0,0:0:0:0:
446,200,66423,1,0,0:0:0:0:
184,108,66603,1,0,0:0:0:0:
329,93,66783,2,0,L|475:78,1,113.999996520996,10|0,0:0|0:0,0:0:0:0:
376,55,67052,1,0,0:0:0:0:
123,24,67142,6,0,P|62:62|30:169,1,170.999994781494,2|0,0:0|0:0,0:0:0:0:
263,236,67501,1,10,0:0:0:0:
106,283,67681,2,0,L|95:367,2,56.9999982604981,0|0|0,0:0|0:0|0:0,0:0:0:0:
455,372,68040,1,0,0:0:0:0:
289,348,68220,5,10,0:0:0:0:
232,330,68309,1,8,0:0:0:0:
462,239,68399,1,8,0:0:0:0:
405,218,68489,1,8,0:0:0:0:
174,195,68579,6,0,L|51:175,1,113.999996520996,6|0,0:0|0:0,0:0:0:0:
363,120,68939,1,10,0:0:0:0:
108,60,69118,1,0,0:0:0:0:
491,59,69298,2,0,L|370:27,1,113.999996520996,2|0,0:0|0:0,0:0:0:0:
110,165,69657,6,0,P|195:194|67:304,1,341.999989562989,2|0,0:0|0:0,0:0:0:0:
24,309,70286,1,0,0:0:0:0:
248,343,70376,2,0,L|303:347,1,47.5,8|8,0:0|0:0,0:0:0:0:
239,296,70555,2,0,L|185:304,1,47.5,8|8,0:0|0:0,0:0:0:0:
383,218,70735,2,0,L|502:209,1,95,10|8,0:0|0:0,0:0:0:0:
293,136,71094,2,0,L|216:144,1,47.5,2|0,0:0|0:0,0:0:0:0:
485,94,71274,2,0,L|416:83,1,47.5,0|0,0:0|0:0,0:0:0:0:
207,42,71454,6,0,P|138:66|112:172,1,170.999994781494,6|0,0:0|0:0,0:0:0:0:
408,326,71813,2,0,L|293:342,1,113.999996520996,8|0,0:0|0:0,0:0:0:0:
149,300,72172,1,2,0:0:0:0:
294,241,72352,1,0,0:0:0:0:
17,129,72531,2,0,L|152:108,1,113.999996520996,10|0,0:0|0:0,0:0:0:0:
441,75,72891,6,0,B|461:155|461:155|429:290,1,170.999994781494,0|0,0:0|0:0,0:0:0:0:
223,343,73250,1,8,0:0:0:0:
354,342,73430,1,0,0:0:0:0:
210,255,73609,2,0,L|75:254,1,113.999996520996,2|0,0:0|0:0,0:0:0:0:
363,214,73968,1,10,0:0:0:0:
418,202,74057,1,0,0:0:0:0:
459,164,74147,1,0,0:0:0:0:
475,110,74237,1,0,0:0:0:0:
239,60,74328,5,4,0:0:0:0:
105,45,74507,1,0,0:0:0:0:
246,72,74687,1,8,0:0:0:0:
388,87,74867,1,0,0:0:0:0:
94,190,75046,1,2,0:0:0:0:
44,216,75135,1,0,0:0:0:0:
24,268,75225,1,0,0:0:0:0:
305,333,75406,1,10,0:0:0:0:
14,322,75585,1,0,0:0:0:0:
375,218,75765,6,0,L|507:208,2,113.999996520996,6|0|10,0:0|0:0|0:0,0:0:0:0:
217,198,76304,1,0,0:0:0:0:
224,142,76393,1,0,0:0:0:0:
261,99,76483,1,2,0:0:0:0:
434,73,76663,1,0,0:0:0:0:
133,25,76843,2,0,L|9:14,1,113.999996520996,10|0,0:0|0:0,0:0:0:0:
319,294,77202,6,0,L|467:277,1,113.999996520996,6|0,0:0|0:0,0:0:0:0:
103,217,77561,1,10,0:0:0:0:
243,192,77741,1,0,0:0:0:0:
299,183,77830,1,0,0:0:0:0:
355,174,77920,1,0,0:0:0:0:
180,111,78100,1,0,0:0:0:0:
466,89,78280,5,10,0:0:0:0:
313,50,78460,1,0,0:0:0:0:
256,41,78549,1,0,0:0:0:0:
200,32,78639,1,2,0:0:0:0:
382,124,78819,1,0,0:0:0:0:
54,91,78998,5,10,0:0:0:0:
206,186,79178,1,0,0:0:0:0:
209,242,79267,1,0,0:0:0:0:
213,299,79357,1,0,0:0:0:0:
373,361,79537,1,0,0:0:0:0:
93,368,79717,2,0,L|63:298,1,56.9999982604981,10|8,0:0|0:0,0:0:0:0:
325,289,79897,2,0,L|352:235,1,56.9999982604981,8|8,0:0|0:0,0:0:0:0:
119,181,80076,6,0,P|35:159|17:77,1,170.999994781494,2|0,0:0|0:0,0:0:0:0:
269,42,80436,2,0,L|403:31,1,113.999996520996,10|0,0:0|0:0,0:0:0:0:
87,109,80795,1,10,0:0:0:0:
365,134,80974,1,0,0:0:0:0:
46,262,81154,6,0,P|64:320|284:265,1,341.999989562989,6|8,0:0|0:0,0:0:0:0:
265,237,81783,1,8,0:0:0:0:
31,149,81873,2,0,L|47:88,1,56.9999982604981,8|8,0:0|0:0,0:0:0:0:
239,60,82052,2,0,L|311:49,1,56.9999982604981,8|8,0:0|0:0,0:0:0:0:
499,169,82232,6,0,L|475:353,1,170.999994781494,6|0,0:0|0:0,0:0:0:0:
224,341,82591,2,0,L|350:314,1,113.999996520996,2|0,0:0|0:0,0:0:0:0:
41,257,82951,5,6,0:0:0:0:
184,209,83130,1,0,0:0:0:0:
30,144,83310,1,8,0:0:0:0:
308,155,83489,1,0,0:0:0:0:
317,98,83578,1,0,0:0:0:0:
327,42,83668,1,2,0:0:0:0:
161,24,83849,1,0,0:0:0:0:
460,148,84028,1,8,0:0:0:0:
307,279,84208,2,0,L|413:298,1,56.9999982604981,8|8,0:0|0:0,0:0:0:0:
162,359,84388,5,2,0:0:0:0:
28,312,84567,1,0,0:0:0:0:
165,269,84747,1,8,0:0:0:0:
307,279,84927,2,0,L|375:270,1,56.9999982604981,0|0,0:0|0:0,0:0:0:0:
159,157,85106,2,0,L|34:144,2,113.999996520996,2|0|10,0:0|0:0|0:0,0:0:0:0:
224,163,85555,1,0,0:0:0:0:
484,168,85645,1,8,0:0:0:0:
159,317,85825,6,0,P|240:252|368:234,1,227.999993041992,6|0,0:0|0:0,0:0:0:0:
206,195,86364,2,0,L|190:130,1,56.9999982604981,2|0,0:0|0:0,0:0:0:0:
301,131,86543,2,0,L|318:66,1,56.9999982604981,8|8,0:0|0:0,0:0:0:0:
120,35,86723,2,0,L|61:11,1,56.9999982604981,10|8,0:0|0:0,0:0:0:0:
368,16,86903,2,0,L|447:5,1,56.9999982604981,8|8,0:0|0:0,0:0:0:0:
66,171,87082,2,0,L|-10:159,1,56.9999982604981,10|8,0:0|0:0,0:0:0:0:
491,263,87262,5,6,0:0:0:0:
206,137,87621,1,0,0:0:0:0:
293,164,87800,1,0,0:0:0:0:
324,251,87980,1,0,0:0:0:0:
275,328,88159,1,0,0:0:0:0:
91,352,88339,1,2,0:0:0:0:
