osu file format v14

[General]
AudioFilename: audio.mp3
AudioLeadIn: 0
PreviewTime: 190878
Countdown: 0
SampleSet: Soft
StackLeniency: 0.3
Mode: 0
LetterboxInBreaks: 0
WidescreenStoryboard: 0

[Editor]
DistanceSpacing: 1.1
BeatDivisor: 4
GridSize: 32
TimelineZoom: 2.1

[Metadata]
Title:Sentimental Crisis
TitleUnicode:センチメンタルクライシス
Artist:halca
ArtistUnicode:halca
Creator:Jval93700
Version:Extra
Source:かぐや様は告らせたい ~天才たちの恋愛頭脳戦~
Tags:Kaguya-sama wa kokurasetai tensai-tachi no renai zunosen Kaguya Wants to be Confessed To: The Geniuses' War of Love and Brains Kaguya-sama: Love Is War Jpop Japanese Anime Ending ED BaAR_Vendel realy0_
BeatmapID:1984695
BeatmapSetID:950323

[Difficulty]
HPDrainRate:6.5
CircleSize:4.5
OverallDifficulty:8.2
ApproachRate:9.1
SliderMultiplier:1.9
SliderTickRate:1

[Events]
//Background and Video events
0,0,"bg.jpg",0,0
//Break Periods
//Storyboard Layer 0 (Background)
//Storyboard Layer 1 (Fail)
//Storyboard Layer 2 (Pass)
//Storyboard Layer 3 (Foreground)
//Storyboard Layer 4 (Overlay)
//Storyboard Sound Samples

[TimingPoints]
595,389.61038961039,4,2,1,30,1,0
3711,-250,4,2,1,36,0,0
15789,-250,4,2,1,50,0,0
16178,359.281437125748,4,2,1,70,1,0
16178,-90.9090909090909,4,2,1,70,0,0
20489,-100,4,2,1,70,0,0
20848,-111.111111111111,4,2,1,70,0,0
21207,-125,4,2,1,70,0,0
21926,-100,4,2,1,73,0,0
24441,-200,4,2,1,73,0,0
24980,-100,4,2,1,50,0,0
25339,-100,4,2,1,60,0,0
25519,-100,4,2,1,55,0,0
25698,-100,4,2,1,50,0,0
25878,-166.666666666667,4,2,1,50,0,0
27495,-100,4,2,1,40,0,0
27675,-133.333333333333,4,2,1,55,0,0
28932,-100,4,2,1,40,0,0
29112,-133.333333333333,4,2,1,55,0,0
30369,-100,4,2,1,40,0,0
30549,-133.333333333333,4,2,1,55,0,0
31806,-100,4,2,1,40,0,0
31986,-133.333333333333,4,2,1,55,0,0
33243,-100,4,2,1,40,0,0
33423,-133.333333333333,4,2,1,55,0,0
34680,-100,4,2,1,40,0,0
34860,-133.333333333333,4,2,1,55,0,0
36297,-133.333333333333,4,2,1,64,0,0
37734,-133.333333333333,4,2,1,72,0,0
39172,-121.951219512195,4,2,1,55,0,0
47435,-83.3333333333333,4,2,1,55,0,0
47794,-142.857142857143,4,2,1,65,0,0
49950,-83.3333333333333,4,2,1,65,0,0
50309,-142.857142857143,4,2,1,65,0,0
55878,-142.857142857143,4,2,1,70,0,0
56058,-142.857142857143,4,2,1,65,0,0
56237,-142.857142857143,4,2,1,60,0,0
56417,-142.857142857143,4,2,1,65,0,0
59291,-117.647058823529,4,2,1,70,0,0
61806,-142.857142857143,4,2,1,58,0,0
63243,-142.857142857143,4,2,1,65,0,0
65040,-100,4,2,1,75,0,0
67195,-83.3333333333333,4,2,1,60,0,0
67914,-89.2857142857143,4,2,1,85,0,1
73663,-100,4,2,1,78,0,1
76177,-89.2857142857143,4,2,1,85,0,1
79052,-89.2857142857143,4,2,1,85,0,0
79411,-89.2857142857143,4,2,1,85,0,1
85160,-100,4,2,1,75,0,1
87674,-89.2857142857143,4,2,1,85,0,1
90908,-100,4,2,1,75,0,1
93422,-89.2857142857143,4,2,1,85,0,1
95219,-89.2857142857143,4,2,1,85,0,0
96657,-100,4,2,1,75,0,0
97195,-83.3333333333333,4,2,1,75,0,0
100788,-166.666666666667,4,2,1,60,0,0
102405,-133.333333333333,4,2,1,55,0,0
108154,-133.333333333333,4,2,1,62,0,0
111028,-133.333333333333,4,2,1,50,0,0
111567,-133.333333333333,4,2,1,57,0,0
111926,-133.333333333333,4,2,1,65,0,0
113183,-133.333333333333,4,2,1,45,0,0
113902,-121.951219512195,4,2,1,55,0,0
121447,-100,4,2,1,55,0,0
122166,-83.3333333333333,4,2,1,55,0,0
122525,-142.857142857143,4,2,1,65,0,0
124680,-83.3333333333333,4,2,1,65,0,0
125039,-142.857142857143,4,2,1,65,0,0
134022,-117.647058823529,4,2,1,70,0,0
136537,-142.857142857143,4,2,1,58,0,0
137974,-142.857142857143,4,2,1,65,0,0
139770,-100,4,2,1,75,0,0
142645,-89.2857142857143,4,2,1,85,0,1
148393,-100,4,2,1,75,0,1
150907,-89.2857142857143,4,2,1,85,0,1
153782,-89.2857142857143,4,2,1,85,0,0
154142,-89.2857142857143,4,2,1,85,0,1
159890,-100,4,2,1,75,0,1
162404,-89.2857142857143,4,2,1,85,0,1
165639,-100,4,2,1,75,0,1
168153,-89.2857142857143,4,2,1,85,0,1
169950,-76.9230769230769,4,2,1,85,0,1
171387,-95.2380952380952,4,2,1,80,0,0
172645,-76.9230769230769,4,2,1,87,0,0
173722,-111.111111111111,4,2,1,87,0,0
174082,-111.111111111111,4,2,1,70,0,0
175519,-95.2380952380952,4,2,1,82,0,0
176956,-95.2380952380952,4,2,1,70,0,0
177675,-95.2380952380952,4,2,1,60,0,0
178393,-95.2380952380952,4,2,1,70,0,0
182704,-76.9230769230769,4,2,1,80,0,0
183243,-95.2380952380952,4,2,1,80,0,0
185758,-74.0740740740741,4,2,1,87,0,0
189710,-111.111111111111,4,2,1,75,0,0
191507,-76.9230769230769,4,2,1,85,0,1
194381,-76.9230769230769,4,2,1,80,0,0
197255,-89.2857142857143,4,2,1,75,0,1
197615,-100,4,2,1,75,0,1
199769,-89.2857142857143,4,2,1,85,0,1
202645,-89.2857142857143,4,2,1,85,0,0
203004,-89.2857142857143,4,2,1,85,0,1
208752,-100,4,2,1,75,0,1
211266,-89.2857142857143,4,2,1,85,0,1
214501,-100,4,2,1,75,0,1
217015,-89.2857142857143,4,2,1,85,0,1
218812,-89.2857142857143,4,2,1,85,0,0
220249,-89.2857142857143,4,2,1,45,0,0
220788,-89.2857142857143,4,2,1,50,0,0
221327,-89.2857142857143,4,2,1,55,0,0
223124,-90.9090909090909,4,2,1,70,0,0
227794,-111.111111111111,4,2,1,70,0,0
228154,-125,4,2,1,70,0,0
228872,-100,4,2,1,73,0,0
231387,-200,4,2,1,73,0,0
232824,-200,4,2,1,60,0,0
234621,-200,4,2,1,30,0,0

[Colours]
Combo1 : 221,221,221
Combo2 : 214,120,97
Combo3 : 220,90,152
Combo4 : 230,81,85

[HitObjects]
89,117,2932,5,0,3:0:0:0:
151,59,3322,1,0,3:0:0:0:
244,157,3711,5,2,0:0:0:0:
182,215,4101,1,0,3:0:0:0:
264,240,4491,1,0,3:0:0:0:
244,157,4880,1,0,3:0:0:0:
327,76,5270,2,0,P|371:69|409:82,1,76,2|0,0:0|3:0,0:0:0:0:
445,185,6049,1,0,3:0:0:0:
411,264,6439,1,0,3:0:0:0:
331,97,6828,6,0,P|375:90|413:103,1,76,2|0,0:0|3:0,0:0:0:0:
449,206,7607,1,0,3:0:0:0:
415,285,7997,1,0,3:0:0:0:
280,154,8387,2,0,L|290:238,1,76,2|0,0:0|3:0,0:0:0:0:
174,344,9166,2,0,L|182:268,1,76,2|0,0:0|3:0,0:0:0:0:
62,133,9945,5,2,0:0:0:0:
124,187,10335,2,0,P|153:174|211:178,2,76,0|2|0,3:0|0:0|3:0,0:0:0:0:
236,68,11504,1,2,0:0:0:0:
268,222,12283,2,0,B|346:199|331:244|415:220,1,133,0|0,3:0|0:0,0:0:0:0:
431,206,13062,5,2,0:0:0:0:
440,122,13257,1,0,0:0:0:0:
337,58,13452,1,2,0:0:0:0:
346,142,13647,1,0,0:0:0:0:
241,208,13841,1,2,0:0:0:0:
250,124,14036,1,0,0:0:0:0:
166,55,14231,2,0,L|116:61,1,38,2|0,0:0|0:0,0:0:0:0:
55,114,14620,5,4,3:0:0:0:
286,192,15789,5,2,0:0:0:0:
240,194,15887,1,2,0:0:0:0:
200,216,15984,1,2,0:0:0:0:
183,258,16082,1,2,0:0:0:0:
183,302,16179,6,0,P|207:259|126:138,1,209.000006378174,6|10,0:0|0:0,0:0:0:0:
245,24,16716,1,8,0:0:0:0:
281,14,16806,1,8,0:0:0:0:
317,24,16896,1,10,0:0:0:0:
471,24,17076,1,8,0:0:0:0:
443,49,17166,1,8,0:0:0:0:
425,82,17255,1,10,0:0:0:0:
417,119,17345,1,8,0:0:0:0:
421,156,17435,1,8,0:0:0:0:
438,189,17525,1,8,0:0:0:0:
466,214,17615,6,0,P|461:274|321:302,1,209.000006378174,6|10,1:0|0:0,0:0:0:0:
265,174,18154,1,8,0:0:0:0:
275,137,18243,1,8,0:0:0:0:
285,100,18333,1,10,0:0:0:0:
157,162,18513,2,0,L|166:233,1,52.2500015945435,8|8,0:0|0:0,0:0:0:0:
238,322,18692,1,10,0:0:0:0:
196,317,18782,1,8,0:0:0:0:
154,312,18872,1,8,0:0:0:0:
112,307,18962,1,8,0:0:0:0:
81,336,19052,6,0,B|75:261|75:261|41:224|41:224|32:138,1,209.000006378174,4|8,0:0|0:0,0:0:0:0:
123,52,19591,1,8,0:0:0:0:
158,39,19680,1,8,0:0:0:0:
195,47,19770,1,8,0:0:0:0:
236,211,19950,1,8,0:0:0:0:
241,173,20040,1,8,0:0:0:0:
263,142,20130,1,10,0:0:0:0:
295,122,20219,1,8,0:0:0:0:
332,115,20309,1,8,0:0:0:0:
369,121,20399,1,8,0:0:0:0:
395,148,20489,6,0,L|390:196,1,47.5,2|0,1:0|0:0,0:0:0:0:
231,258,20669,2,0,L|236:210,1,47.5,0|0,1:0|0:0,0:0:0:0:
368,131,20848,2,0,L|371:179,1,42.7499986953736,2|0,1:0|0:0,0:0:0:0:
258,275,21028,2,0,L|257:232,1,42.7499986953736,0|0,1:0|0:0,0:0:0:0:
339,119,21207,2,0,L|350:169,1,38,2|0,1:0|0:0,0:0:0:0:
287,287,21387,2,0,L|280:241,1,38,0|0,1:0|0:0,0:0:0:0:
200,108,21567,1,8,0:0:0:0:
200,108,21926,5,6,0:0:0:0:
76,230,22106,1,0,1:0:0:0:
61,228,22195,1,0,1:0:0:0:
46,226,22285,1,8,0:0:0:0:
140,67,22465,2,0,L|89:74,1,47.5,0|0,1:0|1:0,0:0:0:0:
0,92,22645,1,0,1:0:0:0:
166,198,22824,1,2,1:0:0:0:
205,35,23004,2,0,L|303:24,1,95,10|2,0:0|1:0,0:0:0:0:
379,72,23273,1,0,1:0:0:0:
393,84,23363,5,6,3:0:0:0:
318,255,23543,1,2,1:0:0:0:
256,141,23722,1,10,0:0:0:0:
409,239,23902,1,2,1:0:0:0:
423,236,23992,1,0,1:0:0:0:
437,233,24082,1,0,1:0:0:0:
282,335,24261,1,10,0:0:0:0:
256,141,24441,6,0,B|272:180|272:180|188:162,1,118.75,6|0,1:0|0:0,0:0:0:0:
131,111,24980,1,8,0:0:0:0:
93,105,25070,1,8,0:0:0:0:
55,100,25160,1,8,0:0:0:0:
188,21,25339,1,0,1:0:0:0:
256,141,25519,1,0,1:0:0:0:
181,225,25698,1,0,1:0:0:0:
370,191,25878,6,0,B|451:213|496:119|436:44|351:82|351:82|314:102|290:52|346:37,1,341.999989562989,6|0,0:0|0:0,0:0:0:0:
252,134,27136,1,0,1:0:0:0:
370,191,27315,1,0,1:0:0:0:
400,310,27495,2,0,L|428:314,2,23.75,2|0|0,1:0|1:0|1:0,0:0:0:0:
383,322,27675,6,0,B|324:304|324:304|234:332,1,142.500005435944,4|0,1:0|0:0,0:0:0:0:
169,212,28213,1,2,1:0:0:0:
101,299,28393,2,0,L|113:379,1,71.2500027179719,2|0,0:0|0:0,0:0:0:0:
16,209,28752,1,8,1:0:0:0:
89,123,28932,1,2,0:0:0:0:
87,132,29022,1,0,0:0:0:0:
86,142,29112,6,0,B|131:135|131:135|156:142|156:142|212:137,1,106.875004076958,4|0,3:0|0:0,0:0:0:0:
224,124,29471,2,0,L|240:34,1,71.2500027179719,2|0,0:0|1:0,0:0:0:0:
329,197,29830,1,2,0:0:0:0:
224,124,30010,1,2,0:0:0:0:
200,279,30189,1,10,1:0:0:0:
329,197,30369,1,0,1:0:0:0:
325,205,30459,1,0,1:0:0:0:
321,213,30549,6,0,L|466:220,1,142.500005435944,4|0,3:0|0:0,0:0:0:0:
374,84,31088,2,0,B|291:57|307:115|212:86,1,142.500005435944,0|0,1:0|0:0,0:0:0:0:
177,237,31627,1,8,1:0:0:0:
90,153,31806,1,2,1:0:0:0:
86,144,31896,1,0,1:0:0:0:
82,135,31986,6,0,L|159:126,1,71.2500027179719,4|0,3:0|0:0,0:0:0:0:
44,285,32345,2,0,L|114:293,1,71.2500027179719,2|0,0:0|1:0,0:0:0:0:
241,168,32704,1,2,0:0:0:0:
241,168,32884,2,0,L|232:238,1,71.2500027179719,2|8,0:0|1:0,0:0:0:0:
336,343,33243,2,0,L|339:374,2,23.75,2|0|0,1:0|1:0|1:0,0:0:0:0:
328,324,33423,6,0,P|380:337|463:283,1,142.500005435944,4|0,3:0|0:0,0:0:0:0:
466,114,33962,1,2,1:0:0:0:
366,171,34142,2,0,L|376:242,1,71.2500027179719,2|0,0:0|0:0,0:0:0:0:
286,79,34501,1,8,1:0:0:0:
266,187,34680,1,2,1:0:0:0:
264,196,34770,1,0,1:0:0:0:
262,205,34860,6,0,B|218:197|218:197|144:213,1,106.875004076958,4|0,3:0|0:0,0:0:0:0:
132,229,35219,2,0,L|123:312,1,71.2500027179719,2|0,0:0|1:0,0:0:0:0:
38,100,35579,1,2,0:0:0:0:
132,229,35758,1,2,0:0:0:0:
232,50,35938,1,10,1:0:0:0:
232,50,36297,5,10,0:0:0:0:
306,193,36477,1,0,1:0:0:0:
352,12,36657,1,0,1:0:0:0:
76,18,36836,5,10,0:0:0:0:
120,206,37016,1,0,1:0:0:0:
228,70,37195,1,2,1:0:0:0:
269,306,37375,5,10,0:0:0:0:
324,86,37555,1,2,1:0:0:0:
184,262,37734,5,10,0:0:0:0:
132,54,37914,1,10,0:0:0:0:
107,51,38004,1,10,0:0:0:0:
82,48,38094,1,10,0:0:0:0:
334,9,38273,1,10,0:0:0:0:
481,185,39172,6,0,B|423:181|423:181|386:200|386:200|330:196,1,155.800002377319,6|8,0:0|0:0,0:0:0:0:
82,73,39710,1,2,0:0:0:0:
224,106,39890,1,2,1:0:0:0:
150,234,40070,1,2,1:0:0:0:
63,66,40249,1,10,0:0:0:0:
240,0,40429,1,2,1:0:0:0:
343,192,40609,6,0,B|399:166|399:166|438:169|438:169|492:148,1,155.800002377319,4|8,3:0|0:0,0:0:0:0:
336,215,41148,1,2,0:0:0:0:
476,303,41327,1,2,1:0:0:0:
437,95,41507,1,2,1:0:0:0:
440,77,41597,1,0,1:0:0:0:
443,59,41686,1,10,0:0:0:0:
298,136,41866,1,2,1:0:0:0:
298,136,41956,1,0,1:0:0:0:
298,136,42046,6,0,P|249:127|217:135,1,77.9000011886597,4|0,3:0|0:0,0:0:0:0:
261,318,42405,2,0,P|232:276|204:257,1,77.9000011886597,10|0,0:0|0:0,0:0:0:0:
89,103,42764,2,0,P|101:136|101:179,1,77.9000011886597,2|0,1:0|0:0,0:0:0:0:
39,365,43124,2,0,P|38:329|55:291,1,77.9000011886597,10|0,0:0|1:0,0:0:0:0:
224,170,43483,6,0,B|278:154|278:154|319:159|319:159|378:142,1,155.800002377319,4|8,3:0|0:0,0:0:0:0:
374,142,44201,1,2,1:0:0:0:
267,264,44381,1,2,1:0:0:0:
264,281,44471,1,0,1:0:0:0:
261,298,44561,1,10,0:0:0:0:
188,84,44740,1,2,1:0:0:0:
418,68,44920,6,0,P|454:103|435:204,1,155.800002377319,4|8,3:0|0:0,0:0:0:0:
334,342,45459,1,2,0:0:0:0:
439,199,45639,1,2,1:0:0:0:
261,216,45818,1,2,0:0:0:0:
391,62,45998,1,10,0:0:0:0:
463,269,46177,1,2,0:0:0:0:
295,100,46357,6,0,B|236:91|236:91|197:104|197:104|138:97,1,155.800002377319,4|8,3:0|0:0,0:0:0:0:
142,97,47076,1,2,1:0:0:0:
209,274,47255,1,8,0:0:0:0:
213,291,47345,1,8,0:0:0:0:
218,308,47435,6,0,B|167:356|98:332|98:332|125:318|140:296,1,170.999994781494,12|0,0:0|0:0,0:0:0:0:
156,222,47794,6,0,B|170:171|170:171|140:92,1,132.999995941162,6|2,1:0|1:0,0:0:0:0:
141,96,48333,1,2,0:0:0:0:
349,36,48513,2,0,L|344:105,1,66.4999979705811,8|2,0:0|0:0,0:0:0:0:
329,206,48872,1,2,1:0:0:0:
353,13,49052,1,8,0:0:0:0:
437,177,49231,1,0,1:0:0:0:
276,27,49411,1,8,0:0:0:0:
233,227,49591,5,0,1:0:0:0:
165,122,49770,1,0,1:0:0:0:
165,122,49860,1,0,1:0:0:0:
165,122,49950,6,0,P|106:100|116:185,1,170.999994781494,6|0,1:0|0:0,0:0:0:0:
161,234,50309,6,0,B|148:310|148:310|133:291,1,99.7499969558717,2|0,0:0|0:0,0:0:0:0:
73,249,50669,5,4,1:0:0:0:
296,201,50848,2,0,L|311:344,1,132.999995941162,0|0,1:0|1:0,0:0:0:0:
412,104,51387,2,0,L|344:97,1,66.4999979705811,8|0,0:0|0:0,0:0:0:0:
296,201,51746,1,0,1:0:0:0:
345,97,51926,1,2,0:0:0:0:
154,43,52106,5,2,1:0:0:0:
188,253,52285,2,0,P|175:213|85:172,1,132.999995941162,8|2,0:0|0:0,0:0:0:0:
0,313,52824,1,8,0:0:0:0:
188,253,53004,1,2,1:0:0:0:
104,372,53183,1,10,0:0:0:0:
82,151,53363,1,0,1:0:0:0:
243,314,53543,5,6,0:0:0:0:
243,314,53722,2,0,P|290:292|373:331,1,132.999995941162,0|0,1:0|1:0,0:0:0:0:
373,214,54261,2,0,L|390:351,1,132.999995941162,8|2,0:0|0:0,0:0:0:0:
510,168,54800,1,2,0:0:0:0:
293,221,54980,5,2,1:0:0:0:
438,43,55160,2,0,P|449:104|410:170,1,132.999995941162,8|2,0:0|1:0,0:0:0:0:
401,171,55609,1,0,1:0:0:0:
384,174,55698,1,8,0:0:0:0:
221,63,55878,1,2,1:0:0:0:
365,0,56058,1,2,1:0:0:0:
368,187,56237,1,0,1:0:0:0:
368,187,56327,1,0,1:0:0:0:
368,187,56417,6,0,L|221:167,1,132.999995941162,4|0,0:0|1:0,0:0:0:0:
136,303,56956,1,0,1:0:0:0:
18,165,57136,2,0,L|89:152,1,66.4999979705811,10|0,0:0|0:0,0:0:0:0:
286,195,57495,1,2,1:0:0:0:
190,94,57675,1,0,1:0:0:0:
224,326,57854,6,0,P|280:317|357:371,1,132.999995941162,6|2,1:0|0:0,0:0:0:0:
398,201,58393,1,0,1:0:0:0:
207,342,58573,1,10,0:0:0:0:
348,369,58752,1,0,1:0:0:0:
238,177,58932,1,10,0:0:0:0:
205,172,59022,1,8,0:0:0:0:
172,167,59112,1,8,0:0:0:0:
139,163,59201,1,8,0:0:0:0:
101,184,59291,6,0,P|126:129|76:43,1,161.500003080368,6|8,0:0|0:0,0:0:0:0:
89,201,59830,1,2,1:0:0:0:
273,70,60010,2,0,L|291:216,1,121.125002310276,0|0,1:0|0:0,0:0:0:0:
263,263,60369,1,10,0:0:0:0:
414,148,60549,1,2,1:0:0:0:
414,148,60639,1,0,1:0:0:0:
414,148,60728,6,0,P|458:158|495:245,1,121.125002310276,2|0,0:0|0:0,0:0:0:0:
463,293,61088,1,10,0:0:0:0:
463,293,61447,1,10,0:0:0:0:
295,341,61627,1,10,0:0:0:0:
254,343,61716,1,8,0:0:0:0:
214,345,61806,6,0,B|185:290|122:271|66:300|66:300|-6:226,1,265.999991882324,6|8,0:0|0:0,0:0:0:0:
12,167,62884,2,0,L|0:233,1,66.4999979705811,2|2,1:0|1:0,0:0:0:0:
172,73,63243,1,14,0:0:0:0:
231,350,63513,5,0,1:0:0:0:
231,350,63603,1,10,0:0:0:0:
200,213,63782,1,8,0:0:0:0:
399,161,63962,2,0,L|380:269,1,99.7499969558717,14|0,0:0|0:0,0:0:0:0:
366,334,64321,1,10,0:0:0:0:
295,179,64501,1,10,0:0:0:0:
302,143,64591,1,8,0:0:0:0:
310,107,64680,1,10,0:0:0:0:
107,161,64860,1,2,1:0:0:0:
125,154,64950,1,0,1:0:0:0:
143,147,65040,5,6,1:0:0:0:
143,147,65399,1,10,0:0:0:0:
58,335,65579,1,0,1:0:0:0:
29,331,65669,1,0,1:0:0:0:
0,327,65758,1,2,1:0:0:0:
215,268,65938,1,0,1:0:0:0:
104,56,66118,1,10,0:0:0:0:
147,38,66207,1,8,0:0:0:0:
194,41,66297,1,8,0:0:0:0:
235,64,66387,1,8,0:0:0:0:
261,103,66477,5,8,0:0:0:0:
218,356,66657,1,8,0:0:0:0:
352,273,67195,2,0,L|392:267,6,28.4999991302491,2|0|0|0|0|0|0,0:0|0:0|0:0|0:0|0:0|0:0|0:0,0:0:0:0:
426,191,67555,1,10,0:0:0:0:
374,185,67645,1,8,0:0:0:0:
322,179,67734,1,8,0:0:0:0:
270,173,67824,1,8,0:0:0:0:
218,167,67914,6,0,P|238:230|185:312,1,159.600001948242,6|0,0:0|0:0,0:0:0:0:
89,331,68273,1,10,0:0:0:0:
326,286,68453,1,0,1:0:0:0:
141,111,68633,2,0,L|117:224,1,106.400001298828,2|0,1:0|1:0,0:0:0:0:
231,52,68992,1,10,0:0:0:0:
374,185,69172,1,0,1:0:0:0:
394,179,69261,1,0,1:0:0:0:
414,174,69351,6,0,B|453:224|453:224|426:325,1,159.600001948242,4|0,0:0|0:0,0:0:0:0:
351,367,69710,1,10,0:0:0:0:
233,160,69890,1,0,1:0:0:0:
414,174,70070,1,2,1:0:0:0:
195,284,70249,1,0,1:0:0:0:
269,37,70429,2,0,P|313:76|328:141,1,106.400001298828,10|0,0:0|1:0,0:0:0:0:
336,218,70698,1,0,1:0:0:0:
331,242,70788,6,0,P|389:238|457:319,1,159.600001948242,4|0,1:0|0:0,0:0:0:0:
420,384,71148,1,10,0:0:0:0:
331,242,71327,1,0,1:0:0:0:
161,375,71507,2,0,P|147:311|165:264,1,106.400001298828,2|0,1:0|1:0,0:0:0:0:
264,131,71866,2,0,L|381:144,1,106.400001298828,10|0,0:0|1:0,0:0:0:0:
150,25,72225,6,0,B|190:122|127:95|159:200,1,159.600001948242,4|0,0:0|0:0,0:0:0:0:
230,223,72585,2,0,P|285:239|322:299,1,106.400001298828,10|0,0:0|1:0,0:0:0:0:
50,338,72944,1,2,1:0:0:0:
230,223,73124,1,0,1:0:0:0:
82,119,73303,1,10,0:0:0:0:
310,228,73483,1,0,1:0:0:0:
230,12,73663,5,6,0:0:0:0:
230,12,74022,1,10,0:0:0:0:
384,151,74201,1,0,1:0:0:0:
399,147,74291,1,0,1:0:0:0:
414,143,74381,1,0,1:0:0:0:
226,115,74561,1,0,1:0:0:0:
483,102,74740,1,10,0:0:0:0:
368,287,74920,1,0,1:0:0:0:
363,302,75010,1,0,1:0:0:0:
358,317,75100,6,0,L|253:337,1,95,2|0,1:0|0:0,0:0:0:0:
447,239,75459,1,10,0:0:0:0:
197,193,75639,1,0,1:0:0:0:
200,208,75729,1,0,1:0:0:0:
202,223,75818,2,0,L|295:205,1,95,0|0,1:0|0:0,0:0:0:0:
232,62,76177,2,0,P|187:69|172:76,1,53.2000006494141,10|0,0:0|0:0,0:0:0:0:
21,23,76357,2,0,P|66:30|81:37,1,53.2000006494141,8|0,0:0|0:0,0:0:0:0:
90,211,76537,5,6,0:0:0:0:
326,79,76716,1,0,1:0:0:0:
84,182,76896,5,10,0:0:0:0:
351,219,77076,1,0,1:0:0:0:
179,321,77255,5,10,0:0:0:0:
214,107,77435,1,0,1:0:0:0:
437,228,77615,5,14,0:0:0:0:
437,228,78153,1,8,0:0:0:0:
437,243,78243,1,8,0:0:0:0:
437,258,78333,1,8,0:0:0:0:
469,230,78422,1,0,1:0:0:0:
477,188,78512,1,0,1:0:0:0:
466,146,78602,1,0,1:0:0:0:
435,115,78692,6,0,L|372:106,1,53.2000006494141,10|0,0:0|1:0,0:0:0:0:
155,81,78872,1,8,0:0:0:0:
194,336,79052,1,2,0:0:0:0:
238,354,79142,1,2,0:0:0:0:
283,336,79232,1,2,0:0:0:0:
301,291,79322,1,2,0:0:0:0:
283,247,79411,6,0,B|226:223|226:223|123:242,1,159.600001948242,6|0,0:0|0:0,0:0:0:0:
46,280,79770,2,0,L|55:169,1,106.400001298828,10|0,0:0|1:0,0:0:0:0:
221,64,80130,1,2,1:0:0:0:
283,247,80309,1,0,1:0:0:0:
408,25,80489,2,0,P|356:7|297:19,1,106.400001298828,10|0,0:0|1:0,0:0:0:0:
221,64,80758,1,0,1:0:0:0:
205,78,80848,6,0,P|273:93|321:180,1,159.600001948242,4|0,0:0|0:0,0:0:0:0:
283,247,81207,1,10,0:0:0:0:
94,188,81387,1,0,1:0:0:0:
245,370,81567,1,2,1:0:0:0:
319,164,81746,1,0,1:0:0:0:
113,289,81926,2,0,P|115:239|89:182,1,106.400001298828,10|0,0:0|1:0,0:0:0:0:
36,127,82195,1,0,1:0:0:0:
21,117,82285,6,0,B|105:65|106:127|196:87,1,159.600001948242,4|0,0:0|0:0,0:0:0:0:
232,25,82645,1,10,0:0:0:0:
255,233,82824,1,0,1:0:0:0:
356,89,83004,2,0,P|406:82|470:118,1,106.400001298828,2|0,1:0|1:0,0:0:0:0:
315,289,83363,1,10,0:0:0:0:
169,134,83543,1,0,1:0:0:0:
427,180,83722,6,0,L|394:344,1,159.600001948242,4|0,0:0|0:0,0:0:0:0:
302,375,84082,1,10,0:0:0:0:
245,207,84261,1,0,1:0:0:0:
260,173,84351,1,0,1:0:0:0:
275,139,84441,1,2,1:0:0:0:
417,303,84621,1,0,1:0:0:0:
396,297,84710,1,0,1:0:0:0:
375,291,84800,1,10,0:0:0:0:
245,207,84980,1,0,1:0:0:0:
131,362,85160,5,6,0:0:0:0:
131,362,85519,1,10,0:0:0:0:
69,219,85698,1,0,1:0:0:0:
74,203,85788,1,0,1:0:0:0:
79,187,85878,1,0,1:0:0:0:
259,139,86058,1,0,1:0:0:0:
142,346,86237,1,10,0:0:0:0:
311,249,86417,1,0,1:0:0:0:
326,245,86507,1,0,1:0:0:0:
341,241,86597,5,2,1:0:0:0:
179,127,86776,1,0,1:0:0:0:
363,20,86956,1,10,0:0:0:0:
116,42,87136,1,0,1:0:0:0:
100,39,87225,1,0,1:0:0:0:
84,36,87315,2,0,L|88:156,1,95,0|0,1:0|1:0,0:0:0:0:
178,318,87675,1,10,0:0:0:0:
220,296,87764,1,8,0:0:0:0:
267,292,87854,1,8,0:0:0:0:
312,308,87944,1,8,0:0:0:0:
340,346,88034,5,14,0:0:0:0:
272,120,88213,1,0,1:0:0:0:
440,240,88393,5,10,0:0:0:0:
181,190,88573,1,0,1:0:0:0:
405,68,88752,5,10,0:0:0:0:
127,122,88932,1,0,1:0:0:0:
340,346,89112,5,14,0:0:0:0:
340,346,89651,1,8,0:0:0:0:
345,331,89740,1,8,0:0:0:0:
350,316,89830,2,0,L|359:250,1,53.2000006494141,8|0,0:0|1:0,0:0:0:0:
245,242,90010,2,0,L|236:176,1,53.2000006494141,0|0,1:0|1:0,0:0:0:0:
404,85,90189,2,0,L|292:83,1,106.400001298828,6|0,1:0|0:0,0:0:0:0:
208,46,90459,1,2,0:0:0:0:
189,35,90549,1,8,0:0:0:0:
349,183,90728,1,2,0:0:0:0:
106,222,90908,5,4,0:0:0:0:
106,222,91267,1,10,0:0:0:0:
166,350,91447,1,2,1:0:0:0:
269,179,91627,1,2,1:0:0:0:
80,136,91806,1,0,1:0:0:0:
247,288,91986,1,8,0:0:0:0:
333,99,92166,1,8,0:0:0:0:
347,70,92255,1,8,0:0:0:0:
360,41,92345,5,10,0:0:0:0:
328,229,92525,1,0,1:0:0:0:
147,249,92704,2,0,P|120:196|127:149,1,95,8|0,0:0|1:0,0:0:0:0:
331,323,93064,1,2,1:0:0:0:
331,323,93423,1,10,0:0:0:0:
416,102,93603,1,8,0:0:0:0:
124,150,93782,5,10,0:0:0:0:
243,19,94142,2,0,L|236:84,1,53.2000006494141,2|0,1:0|1:0,0:0:0:0:
295,146,94321,2,0,L|302:211,1,53.2000006494141,2|0,1:0|1:0,0:0:0:0:
189,329,94501,1,0,1:0:0:0:
167,326,94591,1,0,1:0:0:0:
146,323,94680,1,0,1:0:0:0:
124,321,94770,1,0,1:0:0:0:
102,319,94860,1,8,0:0:0:0:
129,267,94950,1,8,0:0:0:0:
183,244,95040,1,8,0:0:0:0:
241,249,95130,1,8,0:0:0:0:
286,284,95219,5,8,0:0:0:0:
271,298,96297,1,8,0:0:0:0:
235,270,96386,1,8,0:0:0:0:
187,266,96476,1,8,0:0:0:0:
143,284,96566,1,8,0:0:0:0:
121,327,96657,6,0,L|113:166,1,142.5,6|0,1:0|0:0,0:0:0:0:
69,104,97016,1,8,0:0:0:0:
271,298,97195,2,0,B|363:245|358:317|458:265,1,170.999994781494,2|0,0:0|0:0,0:0:0:0:
490,203,97555,1,2,1:0:0:0:
328,370,97734,1,8,0:0:0:0:
407,59,97914,6,0,B|360:103|360:103|386:213,1,170.999994781494,6|0,1:0|0:0,0:0:0:0:
435,275,98273,1,2,1:0:0:0:
239,162,98453,1,8,0:0:0:0:
509,112,98633,2,0,P|452:72|356:113,1,170.999994781494,6|0,1:0|0:0,0:0:0:0:
327,183,98992,1,2,1:0:0:0:
141,302,99172,1,8,0:0:0:0:
166,58,99351,5,6,0:0:0:0:
166,58,99710,1,2,1:0:0:0:
215,198,99890,1,2,1:0:0:0:
53,246,100070,1,2,1:0:0:0:
225,176,100249,1,10,0:0:0:0:
147,344,100429,1,10,0:0:0:0:
57,113,100609,1,10,0:0:0:0:
235,154,100788,6,0,B|316:114|303:185|397:192|450:134|459:66|410:19,1,313.49999043274,2|0,0:0|0:0,0:0:0:0:
385,5,101866,1,0,1:0:0:0:
307,69,102046,1,0,1:0:0:0:
443,157,102225,1,2,1:0:0:0:
443,157,102315,1,0,1:0:0:0:
443,157,102405,6,0,P|457:237|439:315,1,142.500005435944,6|0,0:0|1:0,0:0:0:0:
360,357,102944,1,2,0:0:0:0:
277,237,103124,2,0,P|229:219|153:271,1,142.500005435944,2|0,0:0|1:0,0:0:0:0:
98,365,103663,1,0,1:0:0:0:
98,365,103752,1,0,1:0:0:0:
98,365,103842,6,0,L|10:357,1,71.2500027179719,2|0,1:0|0:0,0:0:0:0:
34,201,104201,2,0,L|122:193,1,71.2500027179719,2|0,1:0|0:0,0:0:0:0:
185,305,104561,1,2,0:0:0:0:
293,244,104740,1,2,1:0:0:0:
380,333,104920,2,0,P|429:340|463:329,1,71.2500027179719,2|0,1:0|0:0,0:0:0:0:
480,159,105279,6,0,B|423:140|423:140|339:175,1,142.500005435944,4|0,3:0|1:0,0:0:0:0:
255,129,105818,1,0,1:0:0:0:
363,34,105998,2,0,B|280:1|288:57|209:28,1,142.500005435944,0|0,1:0|1:0,0:0:0:0:
255,129,106537,1,2,1:0:0:0:
151,215,106716,6,0,P|91:196|35:220,1,106.875004076958,2|0,0:0|0:0,0:0:0:0:
26,234,107076,2,0,L|19:319,1,71.2500027179719,2|0,1:0|0:0,0:0:0:0:
7,130,107435,1,2,0:0:0:0:
145,95,107615,2,0,L|152:180,1,71.2500027179719,2|0,1:0|1:0,0:0:0:0:
281,38,107974,1,2,1:0:0:0:
281,38,108064,1,0,1:0:0:0:
281,38,108154,6,0,L|274:193,1,142.500005435944,6|0,0:0|1:0,0:0:0:0:
332,263,108692,1,2,1:0:0:0:
332,263,108782,1,0,1:0:0:0:
332,263,108872,1,2,1:0:0:0:
219,328,109052,2,0,L|174:322,2,35.625001358986,0|0|0,1:0|1:0|1:0,0:0:0:0:
272,179,109411,2,0,L|223:186,1,35.625001358986,2|0,1:0|1:0,0:0:0:0:
150,235,109591,6,0,L|157:152,1,71.2500027179719,2|0,1:0|1:0,0:0:0:0:
89,124,109860,1,0,1:0:0:0:
76,136,109950,2,0,L|70:206,1,71.2500027179719,2|0,1:0|1:0,0:0:0:0:
150,235,110219,1,0,1:0:0:0:
163,223,110309,1,2,1:0:0:0:
225,86,110489,1,2,1:0:0:0:
383,86,110669,1,2,0:0:0:0:
383,86,111028,5,10,0:0:0:0:
367,104,111118,1,8,0:0:0:0:
356,125,111207,1,8,0:0:0:0:
350,149,111297,1,8,0:0:0:0:
347,173,111387,1,8,0:0:0:0:
349,197,111477,1,8,0:0:0:0:
357,220,111567,1,10,0:0:0:0:
318,201,111657,1,8,0:0:0:0:
275,196,111746,1,8,0:0:0:0:
235,212,111836,1,8,0:0:0:0:
209,246,111926,1,10,0:0:0:0:
172,279,112016,1,8,0:0:0:0:
123,289,112106,1,10,0:0:0:0:
73,283,112195,1,8,0:0:0:0:
30,257,112285,1,10,0:0:0:0:
13,209,112375,1,8,0:0:0:0:
17,159,112465,5,10,0:0:0:0:
174,76,112645,1,10,0:0:0:0:
188,77,112734,1,10,0:0:0:0:
202,78,112824,1,10,0:0:0:0:
123,289,113004,1,10,0:0:0:0:
268,204,113183,1,2,0:0:0:0:
179,179,113363,1,2,0:0:0:0:
212,314,113543,1,2,0:0:0:0:
123,289,113723,1,2,0:0:0:0:
358,344,113902,6,0,B|276:367|290:313|195:340,1,155.800002377319,4|8,0:0|0:0,0:0:0:0:
447,249,114441,1,2,0:0:0:0:
358,344,114621,1,2,1:0:0:0:
286,225,114800,1,2,1:0:0:0:
286,225,114890,1,0,1:0:0:0:
286,225,114980,1,10,0:0:0:0:
374,129,115160,1,0,1:0:0:0:
156,187,115339,6,0,P|222:172|290:240,1,155.800002377319,4|8,3:0|0:0,0:0:0:0:
187,334,115878,1,2,0:0:0:0:
71,242,116058,1,2,1:0:0:0:
227,141,116237,1,2,1:0:0:0:
238,139,116327,1,0,1:0:0:0:
249,137,116417,1,10,0:0:0:0:
95,81,116597,1,2,1:0:0:0:
95,81,116686,1,0,1:0:0:0:
95,81,116776,6,0,L|105:178,1,77.9000011886597,4|0,3:0|0:0,0:0:0:0:
257,237,117136,1,10,0:0:0:0:
356,127,117315,1,0,1:0:0:0:
356,127,117404,1,0,1:0:0:0:
356,127,117495,2,0,L|346:224,1,77.9000011886597,2|0,1:0|1:0,0:0:0:0:
261,330,117854,2,0,P|324:315|382:349,1,116.85000178299,10|0,0:0|0:0,0:0:0:0:
395,365,118213,5,4,3:0:0:0:
487,257,118393,1,0,0:0:0:0:
356,127,118573,2,0,L|346:224,1,77.9000011886597,8|0,0:0|0:0,0:0:0:0:
426,69,118932,1,2,1:0:0:0:
252,17,119112,1,2,1:0:0:0:
252,17,119201,1,0,1:0:0:0:
252,17,119291,1,10,0:0:0:0:
356,127,119471,1,2,0:0:0:0:
187,174,119651,6,0,L|195:75,1,77.9000011886597,4|0,3:0|0:0,0:0:0:0:
58,253,120010,1,8,0:0:0:0:
187,174,120189,1,2,0:0:0:0:
234,343,120369,1,2,1:0:0:0:
181,193,120549,1,2,0:0:0:0:
365,221,120728,1,10,0:0:0:0:
228,362,120908,1,2,1:0:0:0:
267,136,121088,5,4,3:0:0:0:
267,136,121447,2,0,B|322:127|322:127|357:133|357:133|424:122,1,142.5,4|0,1:0|0:0,0:0:0:0:
478,109,121806,1,2,1:0:0:0:
411,253,121986,1,8,0:0:0:0:
413,267,122076,1,8,0:0:0:0:
415,284,122166,6,0,B|454:314|454:314|444:176,1,170.999994781494,12|0,0:0|0:0,0:0:0:0:
402,111,122525,6,0,B|351:119|351:119|317:112|317:112|264:121,1,132.999995941162,4|2,1:0|1:0,0:0:0:0:
271,119,123064,1,2,0:0:0:0:
209,326,123243,2,0,L|199:246,1,66.4999979705811,8|2,0:0|0:0,0:0:0:0:
136,146,123603,1,2,1:0:0:0:
312,219,123782,1,8,0:0:0:0:
218,65,123962,1,0,1:0:0:0:
200,260,124142,1,8,0:0:0:0:
39,147,124321,5,0,1:0:0:0:
114,40,124501,1,0,1:0:0:0:
114,40,124591,1,0,1:0:0:0:
114,40,124680,6,0,P|177:72|232:57,1,113.999996520996
350,22,125040,5,10,0:0:0:0:
403,75,125160,1,8,0:0:0:0:
407,149,125279,1,8,0:0:0:0:
363,210,125399,5,4,1:0:0:0:
226,139,125579,2,0,B|171:145|171:145|150:163|150:163|89:172,1,132.999995941162,0|0,1:0|1:0,0:0:0:0:
347,229,126118,2,0,P|364:283|343:363,1,132.999995941162,8|0,0:0|1:0,0:0:0:0:
240,291,126657,1,2,0:0:0:0:
363,210,126836,5,2,1:0:0:0:
201,117,127016,2,0,B|146:123|146:123|125:141|125:141|64:150,1,132.999995941162,8|2,0:0|0:0,0:0:0:0:
278,26,127555,1,8,0:0:0:0:
379,191,127734,1,2,1:0:0:0:
215,138,127914,1,10,0:0:0:0:
407,33,128094,1,0,1:0:0:0:
178,44,128273,5,6,0:0:0:0:
178,44,128453,2,0,P|102:65|87:132,1,132.999995941162,0|0,1:0|1:0,0:0:0:0:
156,310,128992,2,0,B|172:271|172:271|146:175,1,132.999995941162,4|2,1:0|0:0,0:0:0:0:
79,256,129531,1,2,0:0:0:0:
283,180,129710,5,2,1:0:0:0:
262,352,129890,2,0,B|334:313|327:365|402:331,1,132.999995941162,8|2,0:0|1:0,0:0:0:0:
403,325,130339,1,0,1:0:0:0:
413,312,130429,1,8,0:0:0:0:
283,180,130609,1,2,1:0:0:0:
471,138,130788,1,2,1:0:0:0:
296,196,130968,1,0,1:0:0:0:
343,28,131148,6,0,B|355:105,1,66.4999979705811,4|0,0:0|0:0,0:0:0:0:
350,110,131417,1,0,1:0:0:0:
346,126,131507,1,0,1:0:0:0:
234,196,131686,1,0,1:0:0:0:
239,211,131776,1,0,1:0:0:0:
244,226,131866,2,0,L|246:315,1,66.4999979705811,10|0,0:0|0:0,0:0:0:0:
69,245,132225,1,2,1:0:0:0:
155,105,132405,1,0,1:0:0:0:
164,323,132585,6,0,P|126:264|63:245,1,132.999995941162,6|2,1:0|0:0,0:0:0:0:
28,139,133124,1,0,1:0:0:0:
266,102,133303,1,10,0:0:0:0:
108,38,133483,1,0,1:0:0:0:
256,222,133663,1,10,0:0:0:0:
294,202,133752,1,8,0:0:0:0:
337,197,133842,1,8,0:0:0:0:
377,211,133932,1,8,0:0:0:0:
407,242,134022,6,0,L|409:103,1,121.125002310276,4|0,0:0|0:0,0:0:0:0:
409,39,134381,1,8,0:0:0:0:
222,125,134561,1,2,1:0:0:0:
377,211,134740,2,0,L|378:118,1,80.750001540184,0|0,1:0|0:0,0:0:0:0:
173,49,135100,1,10,0:0:0:0:
230,233,135279,1,2,1:0:0:0:
230,233,135369,1,0,1:0:0:0:
230,233,135459,6,0,B|165:214|170:254|103:238,1,121.125002310276,2|0,0:0|0:0,0:0:0:0:
35,194,135818,1,10,0:0:0:0:
35,194,136177,1,10,0:0:0:0:
176,40,136357,1,10,0:0:0:0:
216,38,136447,1,8,0:0:0:0:
253,52,136537,6,0,B|306:81|357:54|357:54|386:88|386:88|444:64|504:108,1,265.999991882324,6|8,0:0|0:0,0:0:0:0:
490,165,137615,2,0,P|485:130|498:90,1,66.4999979705811,2|2,1:0|1:0,0:0:0:0:
441,291,137974,1,12,0:0:0:0:
264,149,138243,5,0,1:0:0:0:
264,149,138333,1,8,0:0:0:0:
217,285,138513,1,8,0:0:0:0:
347,79,138692,2,0,L|358:187,1,99.7499969558717,12|0,0:0|0:0,0:0:0:0:
368,249,139052,1,8,0:0:0:0:
229,91,139231,1,8,0:0:0:0:
189,84,139321,1,8,0:0:0:0:
150,97,139411,1,8,0:0:0:0:
309,312,139591,1,0,1:0:0:0:
300,280,139681,1,0,1:0:0:0:
280,255,139770,5,6,1:0:0:0:
280,255,140130,1,10,0:0:0:0:
150,97,140309,1,2,1:0:0:0:
184,90,140399,1,0,1:0:0:0:
217,85,140489,1,0,1:0:0:0:
96,261,140669,1,0,1:0:0:0:
308,133,140848,1,10,0:0:0:0:
281,94,140938,1,8,0:0:0:0:
238,73,141028,1,8,0:0:0:0:
191,72,141118,1,8,0:0:0:0:
150,97,141207,5,8,0:0:0:0:
286,339,141387,1,8,0:0:0:0:
308,133,141567,2,0,L|332:104,5,31.6666666666667,0|0|0|0|0|0,1:0|0:0|1:0|0:0|1:0|0:0,0:0:0:0:
259,191,141926,1,6,0:0:0:0:
89,45,142106,1,0,1:0:0:0:
111,37,142195,1,0,1:0:0:0:
134,38,142285,1,2,1:0:0:0:
182,57,142375,1,2,1:0:0:0:
208,102,142465,1,2,1:0:0:0:
201,154,142555,1,2,1:0:0:0:
166,201,142645,6,0,P|137:271|167:345,1,159.600001948242,6|0,0:0|0:0,0:0:0:0:
46,379,143004,2,0,P|61:332|31:269,1,106.400001298828,10|0,0:0|1:0,0:0:0:0:
120,108,143363,1,2,1:0:0:0:
303,217,143543,1,0,1:0:0:0:
296,25,143722,2,0,P|231:51|205:91,1,106.400001298828,10|0,0:0|1:0,0:0:0:0:
205,162,143992,1,0,1:0:0:0:
205,181,144082,6,0,P|171:242|70:233,1,159.600001948242,4|0,0:0|0:0,0:0:0:0:
19,170,144441,2,0,L|33:52,1,106.400001298828,10|0,0:0|1:0,0:0:0:0:
306,130,144800,1,2,1:0:0:0:
120,38,144980,1,0,1:0:0:0:
211,218,145160,1,10,0:0:0:0:
326,14,145339,1,0,1:0:0:0:
326,14,145429,1,0,1:0:0:0:
326,14,145519,6,0,B|416:-3|394:50|491:39,1,159.600001948242,4|0,1:0|0:0,0:0:0:0:
446,127,145878,2,0,P|431:183|456:237,1,106.400001298828,10|0,0:0|1:0,0:0:0:0:
315,381,146237,1,2,1:0:0:0:
446,225,146417,1,0,1:0:0:0:
232,168,146597,1,10,0:0:0:0:
332,360,146776,1,0,1:0:0:0:
446,127,146956,6,0,B|390:93|390:93|291:109,1,159.600001948242,4|0,0:0|0:0,0:0:0:0:
232,168,147315,1,10,0:0:0:0:
109,334,147495,1,0,1:0:0:0:
173,111,147675,1,2,1:0:0:0:
315,257,147854,1,0,1:0:0:0:
391,65,148034,2,0,P|324:59|277:87,1,106.400001298828,10|0,0:0|1:0,0:0:0:0:
211,268,148393,5,6,0:0:0:0:
211,268,148752,1,10,0:0:0:0:
81,143,148932,1,0,1:0:0:0:
65,142,149022,1,0,1:0:0:0:
49,141,149112,1,0,1:0:0:0:
196,71,149291,1,0,1:0:0:0:
212,288,149471,1,10,0:0:0:0:
370,172,149651,1,0,1:0:0:0:
385,173,149740,1,0,1:0:0:0:
400,176,149830,6,0,P|427:220|425:278,1,95,2|0,0:0|0:0,0:0:0:0:
283,362,150189,1,10,0:0:0:0:
212,175,150369,1,0,1:0:0:0:
214,143,150459,1,0,1:0:0:0:
227,114,150549,1,0,1:0:0:0:
127,256,150728,1,0,1:0:0:0:
311,58,150908,1,10,0:0:0:0:
273,28,150998,1,8,0:0:0:0:
225,18,151088,1,8,0:0:0:0:
178,29,151177,1,8,0:0:0:0:
145,64,151267,5,14,0:0:0:0:
346,196,151447,1,0,1:0:0:0:
236,359,151627,5,10,0:0:0:0:
429,188,151806,1,0,1:0:0:0:
332,57,151986,5,10,0:0:0:0:
512,180,152166,1,0,1:0:0:0:
249,237,152345,5,14,0:0:0:0:
249,237,152884,1,8,0:0:0:0:
252,250,152974,1,8,0:0:0:0:
255,265,153064,1,8,0:0:0:0:
278,229,153154,1,0,1:0:0:0:
279,186,153243,1,0,1:0:0:0:
266,145,153333,1,0,1:0:0:0:
233,117,153423,6,0,L|170:123,1,53.2000006494141,10|0,0:0|1:0,0:0:0:0:
0,240,153603,1,8,0:0:0:0:
35,56,153782,1,2,0:0:0:0:
79,41,153872,1,2,0:0:0:0:
127,47,153962,1,2,0:0:0:0:
162,79,154052,1,2,0:0:0:0:
180,122,154142,6,0,P|248:152|336:112,1,159.600001948242,6|0,0:0|0:0,0:0:0:0:
373,46,154501,2,0,L|475:78,1,106.400001298828,10|0,0:0|1:0,0:0:0:0:
339,243,154860,1,2,1:0:0:0:
254,57,155040,1,0,1:0:0:0:
445,191,155219,2,0,P|461:248|439:301,1,106.400001298828,10|0,0:0|1:0,0:0:0:0:
380,348,155489,1,0,1:0:0:0:
367,361,155579,6,0,B|271:328|293:390|195:367,1,159.600001948242,4|0,0:0|0:0,0:0:0:0:
146,302,155938,1,10,0:0:0:0:
245,134,156118,1,0,1:0:0:0:
94,228,156297,1,2,1:0:0:0:
35,40,156477,1,0,1:0:0:0:
236,33,156657,2,0,P|255:89|237:145,1,106.400001298828,10|0,0:0|1:0,0:0:0:0:
295,209,156926,1,0,1:0:0:0:
315,201,157016,6,0,B|409:176|384:239|481:219,1,159.600001948242,4|0,0:0|0:0,0:0:0:0:
495,130,157375,1,10,0:0:0:0:
358,288,157555,1,0,1:0:0:0:
244,133,157734,1,2,1:0:0:0:
468,221,157914,1,0,1:0:0:0:
412,15,158094,1,10,0:0:0:0:
315,201,158273,1,0,1:0:0:0:
290,221,158363,1,0,1:0:0:0:
259,231,158453,6,0,P|187:221|116:282,1,159.600001948242,4|0,0:0|0:0,0:0:0:0:
151,361,158812,1,10,0:0:0:0:
186,146,158992,1,0,1:0:0:0:
221,134,159082,1,0,1:0:0:0:
257,139,159172,1,2,1:0:0:0:
88,71,159351,1,0,1:0:0:0:
88,71,159441,1,0,1:0:0:0:
88,71,159531,1,10,0:0:0:0:
138,241,159710,1,0,1:0:0:0:
316,49,159890,5,6,0:0:0:0:
316,49,160249,1,10,0:0:0:0:
444,230,160429,1,0,1:0:0:0:
476,222,160519,1,0,1:0:0:0:
508,214,160609,1,0,1:0:0:0:
296,169,160788,1,0,1:0:0:0:
473,58,160968,1,10,0:0:0:0:
228,6,161148,1,0,1:0:0:0:
222,38,161237,1,0,1:0:0:0:
214,70,161327,5,2,1:0:0:0:
278,285,161507,1,0,1:0:0:0:
55,206,161686,1,10,0:0:0:0:
214,70,161866,1,0,1:0:0:0:
219,102,161955,1,0,1:0:0:0:
224,135,162046,2,0,L|209:249,1,95,0|0,1:0|1:0,0:0:0:0:
410,115,162405,1,10,0:0:0:0:
442,150,162495,1,8,0:0:0:0:
453,196,162585,1,8,0:0:0:0:
447,243,162675,1,8,0:0:0:0:
423,283,162764,5,14,0:0:0:0:
214,70,162944,1,0,1:0:0:0:
410,115,163124,5,10,0:0:0:0:
180,216,163303,1,0,1:0:0:0:
425,93,163483,5,10,0:0:0:0:
262,337,163663,1,0,1:0:0:0:
114,113,163842,5,14,0:0:0:0:
114,113,164381,1,8,0:0:0:0:
115,139,164471,1,8,0:0:0:0:
116,165,164561,1,8,0:0:0:0:
142,125,164651,1,0,1:0:0:0:
182,100,164740,1,0,1:0:0:0:
229,96,164830,1,0,1:0:0:0:
273,112,164920,2,0,P|327:127|382:109,1,106.400001298828,6|0,1:0|0:0,0:0:0:0:
442,47,165189,1,2,0:0:0:0:
451,30,165279,1,8,0:0:0:0:
417,249,165459,1,2,0:0:0:0:
229,96,165638,5,4,0:0:0:0:
229,96,165998,1,10,0:0:0:0:
299,230,166177,1,2,1:0:0:0:
138,181,166357,1,2,1:0:0:0:
287,33,166537,1,0,1:0:0:0:
311,252,166716,1,8,0:0:0:0:
153,68,166896,1,8,0:0:0:0:
163,43,166986,1,8,0:0:0:0:
173,18,167076,5,10,0:0:0:0:
229,244,167255,1,0,1:0:0:0:
73,78,167435,1,8,0:0:0:0:
43,293,167615,1,0,1:0:0:0:
43,293,167704,1,0,1:0:0:0:
43,293,167794,2,0,P|94:308|142:298,1,95,2|0,1:0|1:0,0:0:0:0:
273,109,168154,1,10,0:0:0:0:
355,336,168333,1,8,0:0:0:0:
320,346,168423,1,8,0:0:0:0:
285,356,168513,5,10,0:0:0:0:
285,356,168872,2,0,P|289:322|301:292,1,53.2000006494141,2|0,1:0|1:0,0:0:0:0:
185,273,169052,2,0,P|181:239|169:209,1,53.2000006494141,2|0,1:0|1:0,0:0:0:0:
290,89,169231,1,0,1:0:0:0:
310,83,169321,1,0,1:0:0:0:
331,82,169411,1,0,1:0:0:0:
351,86,169501,1,0,1:0:0:0:
369,96,169591,1,8,0:0:0:0:
323,122,169680,1,8,0:0:0:0:
269,118,169770,1,8,0:0:0:0:
232,79,169860,1,8,0:0:0:0:
231,25,169950,6,0,P|246:92|163:172,1,185.249991519928,12|0,0:0|0:0,0:0:0:0:
80,129,170309,1,10,0:0:0:0:
71,99,170399,1,8,0:0:0:0:
72,68,170489,1,10,0:0:0:0:
27,301,170669,1,10,0:0:0:0:
66,339,170758,1,8,0:0:0:0:
119,352,170848,1,10,0:0:0:0:
173,342,170938,1,8,0:0:0:0:
213,303,171028,1,10,0:0:0:0:
253,264,171118,1,8,0:0:0:0:
307,254,171208,1,8,0:0:0:0:
360,267,171298,1,8,0:0:0:0:
399,305,171387,5,6,0:0:0:0:
469,137,171567,2,0,P|419:115|359:133,1,99.7499969558717,2|8,0:0|1:0,0:0:0:0:
294,176,171836,1,0,1:0:0:0:
273,166,171926,2,0,L|215:176,1,49.8749984779358,2|0,1:0|1:0,0:0:0:0:
360,267,172106,1,0,1:0:0:0:
315,55,172285,1,10,0:0:0:0:
255,269,172465,1,10,1:0:0:0:
110,85,172645,6,0,B|126:57|159:55|159:55|120:114|148:178,1,185.249991519928,6|0,1:0|0:0,0:0:0:0:
255,269,173004,2,0,B|298:288|298:288|226:330|161:283,1,185.249991519928,6|0,1:0|0:0,0:0:0:0:
272,168,173363,2,0,B|383:147|338:233|469:205,1,185.249991519928,6|0,1:0|0:0,0:0:0:0:
485,62,173722,2,0,B|446:87|394:71|394:71|419:102,1,128.249996086121,6|0,1:0|0:0,0:0:0:0:
445,209,174082,1,8,0:0:0:0:
449,250,174172,1,8,0:0:0:0:
454,291,174261,5,8,0:0:0:0:
190,157,174441,1,8,0:0:0:0:
426,224,174800,1,10,0:0:0:0:
430,265,174890,1,8,0:0:0:0:
435,306,174980,1,10,0:0:0:0:
304,90,175160,1,10,0:0:0:0:
256,298,175339,1,10,0:0:0:0:
62,199,175519,6,0,B|121:213|121:213|197:152,1,149.624995433808,4|0,0:0|0:0,0:0:0:0:
194,66,175878,1,2,1:0:0:0:
43,190,176058,1,8,0:0:0:0:
239,0,176237,2,0,L|226:105,1,99.7499969558717,2|0,1:0|0:0,0:0:0:0:
356,250,176597,1,2,1:0:0:0:
459,76,176776,1,10,0:0:0:0:
256,94,176956,1,0,1:0:0:0:
241,96,177046,1,0,1:0:0:0:
226,98,177136,5,8,0:0:0:0:
308,334,177315,1,8,0:0:0:0:
260,79,177675,1,2,1:0:0:0:
245,81,177765,1,0,1:0:0:0:
230,83,177855,1,10,0:0:0:0:
184,211,178034,1,2,1:0:0:0:
313,256,178213,1,2,1:0:0:0:
375,82,178393,6,0,B|291:54|306:106|227:82,1,149.624995433808,4|0,1:0|0:0,0:0:0:0:
154,49,178752,1,2,1:0:0:0:
332,153,178932,1,8,0:0:0:0:
63,183,179112,2,0,P|119:160|186:226,1,149.624995433808,4|0,1:0|0:0,0:0:0:0:
236,280,179471,1,10,0:0:0:0:
272,295,179561,1,8,0:0:0:0:
311,288,179651,1,10,0:0:0:0:
411,181,179830,1,0,1:0:0:0:
284,42,180010,5,4,0:0:0:0:
284,42,180369,1,0,1:0:0:0:
293,62,180549,1,2,0:0:0:0:
204,198,180728,1,2,1:0:0:0:
132,17,180908,1,2,0:0:0:0:
364,92,181088,1,10,0:0:0:0:
204,198,181267,6,0,P|186:258|201:308,1,99.7499969558717,2|0,0:0|1:0,0:0:0:0:
374,187,181627,2,0,P|380:138|363:91,1,99.7499969558717,2|0,0:0|1:0,0:0:0:0:
271,355,181986,2,0,L|382:340,1,99.7499969558717,2|0,0:0|1:0,0:0:0:0:
210,120,182345,1,8,0:0:0:0:
207,159,182435,1,8,0:0:0:0:
204,198,182525,1,8,0:0:0:0:
26,311,182704,6,0,B|37:288|62:273|62:273|111:333|196:298|196:298|186:335|158:334,1,246.999988693238,6|2,0:0|0:0,0:0:0:0:
65,176,183243,2,0,P|57:127|89:66,1,99.7499969558717,10|0,1:0|0:0,0:0:0:0:
248,23,183603,1,0,1:0:0:0:
248,23,183782,1,0,0:0:0:0:
273,220,183962,2,0,P|224:228|163:196,1,99.7499969558717,8|0,1:0|1:0,0:0:0:0:
133,109,184231,1,0,1:0:0:0:
126,90,184321,6,0,B|216:63|192:124|292:99,1,149.624995433808,4|0,3:0|0:0,0:0:0:0:
352,50,184680,2,0,P|343:118|365:157,1,99.7499969558717,10|0,1:0|0:0,0:0:0:0:
467,259,185040,1,2,1:0:0:0:
232,190,185219,1,0,0:0:0:0:
333,359,185399,1,10,0:0:0:0:
372,350,185489,1,8,0:0:0:0:
412,342,185579,1,8,0:0:0:0:
308,51,185758,6,0,B|321:93|296:121|296:121|231:77|170:119,1,192.375000733852,14|0,0:0|0:0,0:0:0:0:
133,175,186118,1,2,1:0:0:0:
336,288,186297,1,10,0:0:0:0:
308,51,186477,1,0,1:0:0:0:
308,51,186657,1,0,1:0:0:0:
212,347,186836,6,0,B|199:305|224:277|224:277|289:321|350:279,1,192.375000733852,12|0,0:0|0:0,0:0:0:0:
396,194,187195,1,0,1:0:0:0:
201,18,187375,1,8,0:0:0:0:
224,277,187555,1,0,1:0:0:0:
224,277,187734,1,0,1:0:0:0:
404,13,187914,6,0,P|413:51|404:92,1,64.1250002446175,8|0,0:0|1:0,0:0:0:0:
299,176,188094,1,8,0:0:0:0:
272,152,188183,2,0,P|263:114|272:73,1,64.1250002446175,8|0,0:0|1:0,0:0:0:0:
407,302,188363,1,8,0:0:0:0:
362,276,188453,1,8,0:0:0:0:
310,277,188543,1,8,0:0:0:0:
269,309,188633,6,0,B|213:357|148:312|148:312|76:332,1,192.375000733852,6|0,1:0|0:0,0:0:0:0:
208,241,188992,2,0,B|260:203|226:135|226:135|177:128|154:168,1,192.375000733852,6|0,1:0|0:0,0:0:0:0:
48,30,189351,2,0,B|102:3|160:21|133:48|192:68|247:36,1,192.375000733852,6|0,1:0|0:0,0:0:0:0:
431,37,189710,6,0,P|391:15|396:99,1,170.999994781494,6|0,1:0|0:0,0:0:0:0:
406,116,190160,1,0,1:0:0:0:
413,137,190249,1,0,1:0:0:0:
416,162,190339,1,0,1:0:0:0:
412,196,190429,1,8,0:0:0:0:
399,228,190519,1,8,0:0:0:0:
381,271,190609,1,8,0:0:0:0:
386,317,190698,1,8,0:0:0:0:
420,348,190788,5,10,0:0:0:0:
187,193,190968,1,8,0:0:0:0:
187,193,191507,6,0,P|196:271|162:320,1,123.499994346619,6|0,0:0|1:0,0:0:0:0:
88,354,191776,1,8,0:0:0:0:
68,356,191866,1,10,0:0:0:0:
295,263,192046,1,8,0:0:0:0:
104,173,192225,1,2,1:0:0:0:
241,127,192405,1,0,1:0:0:0:
10,42,192585,6,0,B|65:6|129:42|129:42|190:78|259:37,1,246.999988693238,6|0,1:0|0:0,0:0:0:0:
426,112,193124,1,2,0:0:0:0:
432,135,193213,1,2,0:0:0:0:
438,158,193303,1,10,0:0:0:0:
285,306,193483,1,8,0:0:0:0:
295,263,193573,1,8,0:0:0:0:
305,220,193663,1,10,0:0:0:0:
478,373,193842,1,0,1:0:0:0:
285,306,194022,1,2,1:0:0:0:
446,181,194201,1,0,1:0:0:0:
260,65,194381,6,0,P|274:110|216:178,1,123.499994346619,4|0,1:0|1:0,0:0:0:0:
149,178,194651,1,0,1:0:0:0:
137,174,194740,1,10,0:0:0:0:
239,320,194920,1,8,0:0:0:0:
262,313,195010,1,8,0:0:0:0:
285,306,195100,1,10,0:0:0:0:
205,107,195279,1,8,0:0:0:0:
176,98,195369,1,8,0:0:0:0:
147,89,195459,1,10,0:0:0:0:
171,39,195549,1,8,0:0:0:0:
221,14,195639,1,8,0:0:0:0:
275,21,195728,1,8,0:0:0:0:
318,56,195818,6,0,P|333:120|387:149,1,123.499994346619,4|0,0:0|0:0,0:0:0:0:
471,133,196088,1,0,0:0:0:0:
494,125,196177,1,10,0:0:0:0:
418,275,196357,2,0,P|431:315|446:338,2,61.7499971733095,8|8|10,0:0|0:0|0:0,0:0:0:0:
273,180,196716,1,8,0:0:0:0:
230,170,196806,1,8,0:0:0:0:
190,187,196896,2,0,B|148:253|202:318|202:318|228:270,1,185.249991519928,14|0,0:0|0:0,0:0:0:0:
273,180,197255,6,0,B|357:152|333:213|447:184,1,159.600001948242,6|0,1:0|0:0,0:0:0:0:
476,112,197615,1,10,0:0:0:0:
413,283,197794,1,0,1:0:0:0:
412,298,197884,1,0,1:0:0:0:
411,313,197974,1,0,1:0:0:0:
273,180,198154,1,0,1:0:0:0:
386,20,198333,1,10,0:0:0:0:
488,187,198513,1,0,1:0:0:0:
491,218,198603,1,0,1:0:0:0:
494,249,198692,6,0,P|442:266|392:254,1,95,2|0,1:0|0:0,0:0:0:0:
237,72,199052,1,10,0:0:0:0:
137,259,199231,1,0,1:0:0:0:
143,290,199321,1,0,1:0:0:0:
150,321,199411,1,0,1:0:0:0:
318,201,199591,1,0,1:0:0:0:
119,94,199770,2,0,L|96:159,1,53.2000006494141,10|0,0:0|1:0,0:0:0:0:
23,326,199950,1,8,0:0:0:0:
60,346,200040,1,8,0:0:0:0:
102,343,200130,5,14,0:0:0:0:
250,155,200309,1,0,1:0:0:0:
407,258,200489,5,10,0:0:0:0:
246,78,200669,1,0,1:0:0:0:
103,164,200848,5,10,0:0:0:0:
242,1,201028,1,0,1:0:0:0:
193,298,201207,5,14,0:0:0:0:
193,298,201746,1,8,0:0:0:0:
192,313,201836,1,8,0:0:0:0:
191,328,201926,1,8,0:0:0:0:
167,292,202016,1,0,1:0:0:0:
160,249,202106,1,0,1:0:0:0:
170,208,202195,1,0,1:0:0:0:
194,172,202285,6,0,L|249:163,1,53.2000006494141,10|0,0:0|1:0,0:0:0:0:
495,109,202465,1,8,0:0:0:0:
332,367,202645,1,2,0:0:0:0:
300,331,202734,1,2,0:0:0:0:
304,283,202824,1,2,0:0:0:0:
338,250,202914,1,2,0:0:0:0:
385,248,203004,6,0,P|454:252|513:179,1,159.600001948242,6|0,0:0|0:0,0:0:0:0:
478,91,203363,2,0,P|408:80|371:97,1,106.400001298828,10|0,0:0|1:0,0:0:0:0:
245,240,203722,1,2,1:0:0:0:
376,92,203902,1,0,1:0:0:0:
181,35,204082,2,0,P|162:92|179:146,1,106.400001298828,10|0,0:0|1:0,0:0:0:0:
136,226,204351,1,0,1:0:0:0:
126,248,204441,6,0,B|11:246|11:246|61:203,1,159.600001948242,4|0,0:0|0:0,0:0:0:0:
79,121,204800,2,0,P|82:61|52:13,1,106.400001298828,10|0,0:0|1:0,0:0:0:0:
222,162,205160,1,2,1:0:0:0:
13,243,205339,1,0,1:0:0:0:
196,342,205519,1,10,0:0:0:0:
116,122,205698,1,0,1:0:0:0:
120,106,205788,1,0,1:0:0:0:
124,90,205878,6,0,B|210:51|199:111|299:72,1,159.600001948242,4|0,0:0|0:0,0:0:0:0:
355,40,206237,1,10,0:0:0:0:
320,249,206417,1,0,1:0:0:0:
467,86,206597,1,2,1:0:0:0:
490,226,206776,1,0,1:0:0:0:
279,78,206956,1,10,0:0:0:0:
327,279,207136,1,0,1:0:0:0:
334,310,207226,1,0,1:0:0:0:
341,341,207315,6,0,P|271:312|189:336,1,159.600001948242,4|0,0:0|0:0,0:0:0:0:
111,365,207675,1,10,0:0:0:0:
171,143,207854,1,0,1:0:0:0:
202,137,207944,1,0,1:0:0:0:
233,131,208034,1,2,1:0:0:0:
91,246,208213,1,0,1:0:0:0:
69,244,208303,1,0,1:0:0:0:
47,243,208393,1,10,0:0:0:0:
156,71,208573,1,0,1:0:0:0:
282,281,208752,5,6,0:0:0:0:
282,281,209112,1,10,0:0:0:0:
406,162,209291,1,0,1:0:0:0:
421,159,209381,1,0,1:0:0:0:
436,156,209471,1,0,1:0:0:0:
259,99,209651,1,0,1:0:0:0:
402,275,209830,1,10,0:0:0:0:
473,64,210010,1,0,1:0:0:0:
458,67,210100,1,0,1:0:0:0:
443,70,210190,5,2,1:0:0:0:
223,188,210369,1,0,1:0:0:0:
357,346,210549,1,10,0:0:0:0:
327,90,210728,1,0,1:0:0:0:
312,87,210818,1,0,1:0:0:0:
297,84,210908,1,0,1:0:0:0:
105,219,211088,1,0,1:0:0:0:
383,180,211267,1,10,0:0:0:0:
407,222,211357,1,8,0:0:0:0:
412,270,211447,1,8,0:0:0:0:
393,314,211537,1,8,0:0:0:0:
357,346,211627,5,14,0:0:0:0:
169,122,211806,1,0,1:0:0:0:
383,180,211986,5,10,0:0:0:0:
211,335,212166,1,0,1:0:0:0:
232,68,212345,5,10,0:0:0:0:
407,290,212524,1,0,1:0:0:0:
471,27,212704,5,14,0:0:0:0:
471,27,213243,1,8,0:0:0:0:
470,48,213333,1,8,0:0:0:0:
468,69,213423,1,8,0:0:0:0:
429,51,213513,1,0,1:0:0:0:
386,48,213603,1,0,1:0:0:0:
344,55,213692,1,0,1:0:0:0:
310,81,213782,2,0,L|298:204,1,106.400001298828,6|0,1:0|0:0,0:0:0:0:
341,266,214052,1,2,0:0:0:0:
354,279,214142,1,8,0:0:0:0:
191,170,214321,1,2,0:0:0:0:
435,151,214501,5,4,0:0:0:0:
435,151,214860,1,10,0:0:0:0:
310,81,215040,1,2,1:0:0:0:
242,245,215219,1,2,1:0:0:0:
297,69,215399,1,0,1:0:0:0:
369,243,215579,1,8,0:0:0:0:
284,57,215758,1,8,0:0:0:0:
271,45,215848,1,8,0:0:0:0:
258,33,215938,5,10,0:0:0:0:
132,209,216118,1,0,1:0:0:0:
332,175,216297,1,8,0:0:0:0:
332,175,216477,1,0,1:0:0:0:
170,27,216657,1,2,1:0:0:0:
123,242,216836,1,0,0:0:0:0:
284,57,217016,1,10,0:0:0:0:
347,261,217195,1,8,0:0:0:0:
358,296,217285,1,8,0:0:0:0:
368,331,217375,5,10,0:0:0:0:
368,331,217734,2,0,P|381:298|386:263,1,53.2000006494141,2|0,1:0|1:0,0:0:0:0:
369,157,217914,2,0,P|346:129|319:107,1,53.2000006494141,2|0,1:0|1:0,0:0:0:0:
167,92,218094,1,0,1:0:0:0:
164,112,218183,1,0,1:0:0:0:
163,133,218273,1,0,1:0:0:0:
166,154,218363,1,0,1:0:0:0:
170,174,218453,1,8,0:0:0:0:
155,225,218543,1,8,0:0:0:0:
115,260,218632,1,8,0:0:0:0:
62,269,218722,1,8,0:0:0:0:
13,247,218812,5,8,0:0:0:0:
114,328,220249,5,2,0:0:0:0:
98,244,220429,1,2,0:0:0:0:
152,169,220609,1,2,0:0:0:0:
271,284,220788,5,2,0:0:0:0:
287,200,220968,1,2,0:0:0:0:
233,125,221148,1,2,0:0:0:0:
98,244,221327,5,2,0:0:0:0:
75,161,221507,1,2,0:0:0:0:
141,37,221686,5,10,0:0:0:0:
141,37,221866,1,10,0:0:0:0:
300,68,222046,1,10,0:0:0:0:
300,68,222225,1,10,0:0:0:0:
75,161,222405,1,10,0:0:0:0:
321,211,222585,1,8,0:0:0:0:
321,211,222675,1,8,0:0:0:0:
321,211,222764,6,0,L|368:197,5,35.4666670996094
301,280,223124,6,0,P|364:311|456:218,1,209.000006378174,6|10,0:0|0:0,0:0:0:0:
411,72,223663,1,8,0:0:0:0:
375,66,223752,1,8,0:0:0:0:
338,61,223842,1,10,0:0:0:0:
167,166,224022,1,8,0:0:0:0:
200,151,224112,1,8,0:0:0:0:
236,150,224201,1,10,0:0:0:0:
270,161,224291,1,8,0:0:0:0:
295,186,224381,1,8,0:0:0:0:
311,218,224471,1,8,0:0:0:0:
310,254,224561,6,0,B|186:255|243:331|121:340,1,209.000006378174,6|10,1:0|0:0,0:0:0:0:
24,208,225100,1,8,0:0:0:0:
30,171,225189,1,8,0:0:0:0:
36,135,225279,1,10,0:0:0:0:
215,47,225459,1,8,0:0:0:0:
222,82,225549,1,8,0:0:0:0:
229,117,225639,1,10,0:0:0:0:
236,152,225728,1,8,0:0:0:0:
243,187,225818,1,8,0:0:0:0:
250,222,225908,1,8,0:0:0:0:
257,257,225998,6,0,B|305:297|376:263|376:263|472:271,1,209.000006378174,4|8,0:0|0:0,0:0:0:0:
415,97,226537,1,8,0:0:0:0:
379,87,226627,1,8,0:0:0:0:
343,94,226716,1,8,0:0:0:0:
174,202,226896,2,0,P|207:189|241:187,1,52.2500015945435,8|8,0:0|0:0,0:0:0:0:
292,296,227076,1,10,0:0:0:0:
266,322,227166,1,8,0:0:0:0:
233,337,227255,1,8,0:0:0:0:
196,341,227345,1,8,0:0:0:0:
159,336,227435,6,0,L|139:277,1,52.2500015945435,6|0,0:0|0:0,0:0:0:0:
63,175,227615,2,0,L|75:113,1,52.2500015945435,0|0,1:0|0:0,0:0:0:0:
213,267,227794,2,0,L|208:207,1,42.7499986953736,2|0,0:0|0:0,0:0:0:0:
171,119,227974,2,0,L|198:62,1,42.7499986953736,0|0,1:0|0:0,0:0:0:0:
283,214,228154,2,0,L|295:157,1,38,2|0,1:0|0:0,0:0:0:0:
277,80,228333,2,0,L|318:32,1,38,0|0,1:0|0:0,0:0:0:0:
423,185,228513,1,8,0:0:0:0:
423,185,228872,6,0,L|406:331,1,142.5,6|0,0:0|1:0,0:0:0:0:
334,367,229231,1,8,0:0:0:0:
231,216,229411,1,0,1:0:0:0:
231,216,229501,1,0,1:0:0:0:
231,216,229591,1,0,1:0:0:0:
423,185,229770,1,2,1:0:0:0:
279,288,229950,1,10,0:0:0:0:
264,94,230130,1,2,1:0:0:0:
264,94,230219,1,0,1:0:0:0:
264,94,230309,5,6,3:0:0:0:
147,246,230489,1,2,1:0:0:0:
122,44,230669,1,10,0:0:0:0:
15,204,230848,1,2,1:0:0:0:
15,204,230938,1,0,1:0:0:0:
15,204,231028,1,0,1:0:0:0:
130,23,231207,1,10,0:0:0:0:
228,270,231387,6,0,B|279:263|279:263|300:268|300:268|350:262,1,118.75,6|0,1:0|0:0,0:0:0:0:
399,204,231926,1,8,0:0:0:0:
406,169,232016,1,8,0:0:0:0:
412,133,232106,1,8,0:0:0:0:
446,336,232285,1,0,1:0:0:0:
345,262,232465,1,0,1:0:0:0:
289,337,232645,1,0,1:0:0:0:
412,133,232824,6,0,B|359:112|308:144|308:144|256:179|201:152|201:152|192:183|242:197,1,285,6|0,0:0|0:0,0:0:0:0:
310,259,234082,1,0,1:0:0:0:
317,279,234261,1,0,1:0:0:0:
249,78,234621,5,4,3:0:0:0:
