osu file format v14

[General]
AudioFilename: audio.mp3
AudioLeadIn: 0
PreviewTime: 190878
Countdown: 0
SampleSet: Soft
StackLeniency: 0.4
Mode: 0
LetterboxInBreaks: 0
WidescreenStoryboard: 0

[Editor]
Bookmarks: 16289,17726,19163,20600,22030,24544,25982,27778,39275,47898,50053,50772,53646,54365,56521,59395,61910,63347,64065,65143,68018,72329,73766,77718,79515,82389,85263,89215,90293,90652,91012,96760,99455,102509,108257,114006,122269,122628,124784,125503,128377,129095,131251,134125,136640,138077,138796,142748,147059,148497,152449,154245,157119,159994,163946,165024,165383,165742,171491,175622,178497,179215,180113,182808,185862,186401,186940,187479,188018,189814,191610,192688,194485,195922,197000,197359,201311,203107,205982,208856,212808,213886,214245,214604,223227,224664,226101,227538,228976,231491,232928
DistanceSpacing: 2
BeatDivisor: 4
GridSize: 16
TimelineZoom: 1.8

[Metadata]
Title:Sentimental Crisis
TitleUnicode:センチメンタルクライシス
Artist:halca
ArtistUnicode:halca
Creator:Jval93700
Version:BaAR's Expert
Source:かぐや様は告らせたい ~天才たちの恋愛頭脳戦~
Tags:Kaguya-sama wa kokurasetai tensai-tachi no renai zunosen Kaguya Wants to be Confessed To: The Geniuses' War of Love and Brains Kaguya-sama: Love Is War Jpop Japanese Anime Ending ED BaAR_Vendel realy0_
BeatmapID:2018269
BeatmapSetID:950323

[Difficulty]
HPDrainRate:6.2
CircleSize:4
OverallDifficulty:8.1
ApproachRate:9
SliderMultiplier:1.7
SliderTickRate:1

[Events]
//Background and Video events
0,0,"bg.jpg",0,0
//Break Periods
//Storyboard Layer 0 (Background)
//Storyboard Layer 1 (Fail)
//Storyboard Layer 2 (Pass)
//Storyboard Layer 3 (Foreground)
//Storyboard Sound Samples

[TimingPoints]
595,389.61038961039,4,2,1,30,1,0
2932,-142.857142857143,4,2,1,30,0,0
3711,-142.857142857143,4,2,1,36,0,0
15789,-142.857142857143,4,2,1,50,0,0
16178,359.281437125748,4,2,1,70,1,0
21926,-100,4,2,1,73,0,0
22195,-100,4,2,1,5,0,0
22285,-100,4,2,1,73,0,0
24980,-100,4,2,1,50,0,0
25339,-100,4,2,1,60,0,0
25519,-100,4,2,1,55,0,0
25698,-100,4,2,1,50,0,0
25878,-142.857142857143,4,2,1,50,0,0
27046,-142.857142857143,4,2,1,5,0,0
27136,-142.857142857143,4,2,1,50,0,0
27495,-142.857142857143,4,2,1,40,0,0
27675,-142.857142857143,4,2,1,55,0,0
28932,-142.857142857143,4,2,1,40,0,0
29112,-142.857142857143,4,2,1,55,0,0
30369,-142.857142857143,4,2,1,40,0,0
30459,-142.857142857143,4,2,1,5,0,0
30549,-142.857142857143,4,2,1,55,0,0
31806,-142.857142857143,4,2,1,40,0,0
31986,-142.857142857143,4,2,1,55,0,0
33243,-142.857142857143,4,2,1,40,0,0
33423,-142.857142857143,4,2,1,55,0,0
34680,-142.857142857143,4,2,1,40,0,0
34860,-142.857142857143,4,2,1,55,0,0
36297,-111.111111111111,4,2,1,64,0,0
37734,-111.111111111111,4,2,1,72,0,0
39172,-100,4,2,1,55,0,0
43752,-100,4,2,1,5,0,0
43842,-100,4,2,1,55,0,0
46627,-100,4,2,1,5,0,0
46716,-100,4,2,1,55,0,0
47794,-142.857142857143,4,2,1,65,0,0
50219,-142.857142857143,4,2,1,5,0,0
50309,-142.857142857143,4,2,1,65,0,0
50579,-142.857142857143,4,2,1,5,0,0
50669,-142.857142857143,4,2,1,65,0,0
55878,-142.857142857143,4,2,1,70,0,0
56058,-142.857142857143,4,2,1,65,0,0
56237,-142.857142857143,4,2,1,60,0,0
56417,-100,4,2,1,65,0,0
59291,-100,4,2,1,70,0,0
61806,-100,4,2,1,58,0,0
63243,-100,4,2,1,65,0,0
64231,-100,4,2,1,5,0,0
64321,-100,4,2,1,65,0,0
65040,-100,4,2,1,75,0,0
67195,-125,4,2,1,60,0,0
67465,-125,4,2,1,5,0,0
67555,-100,4,2,1,60,0,0
67914,-90.9090909090909,4,2,1,85,0,1
73663,-90.9090909090909,4,2,1,78,0,1
73932,-90.9090909090909,4,2,1,5,0,1
74022,-90.9090909090909,4,2,1,78,0,1
75369,-90.9090909090909,4,2,1,5,0,1
75459,-90.9090909090909,4,2,1,78,0,1
76177,-90.9090909090909,4,2,1,85,0,1
78064,-90.9090909090909,4,2,1,5,0,1
78154,-90.9090909090909,4,2,1,85,0,1
79052,-90.9090909090909,4,2,1,85,0,0
79411,-90.9090909090909,4,2,1,85,0,1
85160,-90.9090909090909,4,2,1,75,0,1
85429,-90.9090909090909,4,2,1,5,0,1
85519,-90.9090909090909,4,2,1,75,0,1
87674,-90.9090909090909,4,2,1,85,0,1
89112,-125,4,2,1,85,0,1
89561,-125,4,2,1,5,0,1
89651,-90.9090909090909,4,2,1,85,0,1
90459,-90.9090909090909,4,2,1,5,0,1
90549,-90.9090909090909,4,2,1,85,0,1
90818,-90.9090909090909,4,2,1,5,0,1
90908,-90.9090909090909,4,2,1,75,0,1
93422,-90.9090909090909,4,2,1,85,0,1
95219,-100,4,2,1,85,0,0
96657,-100,4,2,1,75,0,0
100788,-142.857142857143,4,2,1,60,0,0
101776,-142.857142857143,4,2,1,5,0,0
101866,-142.857142857143,4,2,1,60,0,0
102405,-111.111111111111,4,2,1,55,0,0
108154,-111.111111111111,4,2,1,62,0,0
110938,-111.111111111111,4,2,1,5,0,0
111028,-111.111111111111,4,2,1,50,0,0
111567,-111.111111111111,4,2,1,57,0,0
111926,-111.111111111111,4,2,1,65,0,0
112106,-111.111111111111,4,2,1,65,0,0
112285,-111.111111111111,4,2,1,65,0,0
113183,-111.111111111111,4,2,1,45,0,0
113902,-100,4,2,1,55,0,0
118483,-100,4,2,1,5,0,0
118573,-100,4,2,1,55,0,0
121357,-100,4,2,1,5,0,0
121447,-100,4,2,1,55,0,0
122435,-100,4,2,1,5,0,0
122525,-142.857142857143,4,2,1,65,0,0
131147,-100,4,2,1,65,0,0
131417,-100,4,2,1,5,0,0
131507,-100,4,2,1,65,0,0
134022,-100,4,2,1,70,0,0
136537,-100,4,2,1,58,0,0
137974,-100,4,2,1,65,0,0
138962,-100,4,2,1,5,0,0
139052,-100,4,2,1,65,0,0
139770,-100,4,2,1,75,0,0
142645,-90.9090909090909,4,2,1,85,0,1
148393,-90.9090909090909,4,2,1,75,0,1
148663,-90.9090909090909,4,2,1,5,0,1
148752,-90.9090909090909,4,2,1,75,0,1
150100,-90.9090909090909,4,2,1,5,0,1
150189,-90.9090909090909,4,2,1,75,0,1
150907,-90.9090909090909,4,2,1,85,0,1
152794,-90.9090909090909,4,2,1,5,0,1
152884,-90.9090909090909,4,2,1,85,0,1
153782,-90.9090909090909,4,2,1,85,0,0
154142,-90.9090909090909,4,2,1,85,0,1
159890,-90.9090909090909,4,2,1,75,0,1
160160,-90.9090909090909,4,2,1,5,0,1
160249,-90.9090909090909,4,2,1,75,0,1
161597,-90.9090909090909,4,2,1,5,0,1
161686,-90.9090909090909,4,2,1,75,0,1
162404,-90.9090909090909,4,2,1,85,0,1
163842,-125,4,2,1,85,0,1
164291,-125,4,2,1,5,0,1
164381,-90.9090909090909,4,2,1,85,0,1
165189,-90.9090909090909,4,2,1,5,0,1
165279,-90.9090909090909,4,2,1,85,0,1
165549,-90.9090909090909,4,2,1,5,0,1
165639,-90.9090909090909,4,2,1,75,0,1
168153,-90.9090909090909,4,2,1,85,0,1
171387,-90.9090909090909,4,2,1,80,0,0
172645,-90.9090909090909,4,2,1,87,0,0
173722,-125,4,2,1,87,0,0
173992,-125,4,2,1,5,0,0
174082,-100,4,2,1,70,0,0
175519,-100,4,2,1,82,0,0
175788,-100,4,2,1,5,0,0
175878,-100,4,2,1,82,0,0
176956,-100,4,2,1,70,0,0
177675,-100,4,2,1,60,0,0
178393,-100,4,2,1,70,0,0
178663,-100,4,2,1,5,0,0
178752,-100,4,2,1,70,0,0
180010,-100,4,2,1,70,0,0
182704,-100,4,2,1,80,0,0
185758,-100,4,2,1,87,0,0
188902,-100,4,2,1,5,0,0
188992,-100,4,2,1,87,0,0
189261,-100,4,2,1,5,0,0
189351,-100,4,2,1,87,0,0
189621,-100,4,2,1,5,0,0
189710,-100,4,2,1,75,0,0
191507,-76.9230769230769,4,2,1,85,0,0
192225,-76.9230769230769,4,2,1,85,0,0
192585,-125,4,2,1,85,0,0
194381,-76.9230769230769,4,2,1,80,0,0
196896,-125,4,2,1,80,0,0
197166,-125,4,2,1,5,0,0
197255,-90.9090909090909,4,2,1,75,0,1
197525,-90.9090909090909,4,2,1,5,0,1
197615,-90.9090909090909,4,2,1,75,0,1
198962,-90.9090909090909,4,2,1,5,0,1
199052,-90.9090909090909,4,2,1,75,0,1
199769,-90.9090909090909,4,2,1,85,0,1
201657,-90.9090909090909,4,2,1,5,0,1
201746,-90.9090909090909,4,2,1,85,0,1
202645,-90.9090909090909,4,2,1,85,0,0
203004,-90.9090909090909,4,2,1,85,0,1
208752,-90.9090909090909,4,2,1,75,0,1
209022,-90.9090909090909,4,2,1,5,0,1
209112,-90.9090909090909,4,2,1,75,0,1
210459,-90.9090909090909,4,2,1,5,0,1
210549,-90.9090909090909,4,2,1,75,0,1
211266,-90.9090909090909,4,2,1,85,0,1
212704,-125,4,2,1,85,0,1
213154,-125,4,2,1,5,0,1
213243,-90.9090909090909,4,2,1,85,0,1
214052,-90.9090909090909,4,2,1,5,0,1
214142,-90.9090909090909,4,2,1,85,0,1
214411,-90.9090909090909,4,2,1,5,0,1
214501,-90.9090909090909,4,2,1,75,0,1
217015,-90.9090909090909,4,2,1,85,0,1
218812,-100,4,2,1,85,0,0
220249,-100,4,2,1,45,0,0
220788,-100,4,2,1,50,0,0
221327,-125,4,2,1,55,0,0
222585,-100,4,2,1,55,0,0
223124,-76.9230769230769,4,2,1,70,0,0
228872,-100,4,2,1,73,0,0
229142,-100,4,2,1,5,0,0
229231,-100,4,2,1,73,0,0
232824,-100,4,2,1,60,0,0
234261,-100,4,2,1,60,0,0
234441,-100,4,2,1,60,0,0
234621,-100,4,2,1,30,0,0

[Colours]
Combo1 : 221,221,221
Combo2 : 214,120,97
Combo3 : 220,90,152
Combo4 : 230,81,85

[HitObjects]
83,73,3711,5,2,0:0:0:0:
390,292,5270,5,2,0:0:0:0:
86,310,6828,5,2,0:0:0:0:
237,106,8387,5,2,0:0:0:0:
403,357,9945,5,2,0:0:0:0:
456,271,10335,1,0,3:0:0:0:
408,182,10724,1,2,0:0:0:0:
307,179,11114,1,0,3:0:0:0:
116,301,11504,5,2,0:0:0:0:
63,215,11893,1,2,0:2:0:0:
111,126,12283,1,0,3:0:0:0:
212,123,12672,1,2,0:2:0:0:
456,271,13062,5,2,0:0:0:0:
456,271,13452,2,0,L|459:202,1,59.4999981842042,2|0,0:0|0:0,0:2:0:0:
375,154,13841,2,0,L|371:87,1,59.4999981842042,2|0,0:0|0:0,0:2:0:0:
280,60,14231,2,0,L|282:-10,1,59.4999981842042,2|2,0:0|0:2,0:2:0:0:
161,15,14620,1,4,3:0:0:0:
41,53,15789,6,0,L|37:108,1,29.7499990921021,2|2,0:0|0:0,0:2:0:0:
86,157,15984,2,0,L|88:186,1,29.7499990921021,2|2,0:0|0:0,0:2:0:0:
40,282,16178,5,6,0:0:0:0:
221,340,16357,5,8,0:2:0:0:
221,340,16447,1,8,0:2:0:0:
221,340,16537,1,10,0:0:0:0:
40,377,16716,5,8,0:0:0:0:
40,377,16806,1,8,0:0:0:0:
40,377,16896,1,10,0:0:0:0:
166,229,17076,5,8,0:0:0:0:
166,229,17166,1,8,0:0:0:0:
166,229,17255,1,10,0:0:0:0:
192,245,17345,1,8,0:0:0:0:
224,248,17435,1,8,0:0:0:0:
254,237,17524,1,8,0:0:0:0:
276,215,17614,5,6,1:0:0:0:
179,100,17794,5,8,0:2:0:0:
179,100,17884,1,8,0:2:0:0:
179,100,17974,1,10,0:0:0:0:
384,116,18154,5,8,0:0:0:0:
384,116,18244,1,8,0:0:0:0:
384,116,18334,1,10,0:0:0:0:
272,13,18513,5,8,0:0:0:0:
240,11,18602,1,8,0:0:0:0:
208,10,18692,1,10,0:0:0:0:
176,8,18782,1,8,0:0:0:0:
144,7,18872,1,8,0:0:0:0:
0,143,19052,5,4,0:0:0:0:
166,229,19231,5,8,0:2:0:0:
166,229,19321,1,8,0:2:0:0:
166,229,19411,1,8,0:0:0:0:
72,74,19591,5,8,0:0:0:0:
72,74,19680,1,8,0:0:0:0:
72,74,19770,1,8,0:0:0:0:
78,282,19950,5,8,0:0:0:0:
78,282,20040,1,8,0:0:0:0:
78,282,20130,1,10,0:0:0:0:
104,315,20219,1,8,0:0:0:0:
141,334,20309,1,8,0:0:0:0:
183,335,20399,1,8,0:0:0:0:
222,320,20489,6,0,L|219:269,1,42.5,2|0,1:0|0:0,0:2:0:0:
363,275,20669,2,0,L|366:224,1,42.5,0|0,1:0|0:0,0:2:0:0:
197,189,20848,2,0,L|194:138,1,42.5,2|0,1:0|0:0,0:2:0:0:
338,144,21028,2,0,L|341:93,1,42.5,0|0,1:0|0:0,0:2:0:0:
181,34,21207,5,2,1:0:0:0:
372,20,21387,1,0,1:0:0:0:
197,189,21567,1,8,0:0:0:0:
197,189,21926,6,0,P|135:175|79:203,1,127.5,6|0,0:0|1:0,0:2:0:0:
40,278,22285,2,0,L|51:368,1,85,8|0,0:0|1:0,0:2:0:0:
51,362,22554,1,0,1:0:0:0:
51,362,22644,1,0,1:0:0:0:
0,160,22824,1,2,1:0:0:0:
149,270,23003,1,10,0:0:0:0:
221,90,23183,1,2,1:0:0:0:
221,90,23273,1,0,1:0:0:0:
221,90,23363,5,6,3:0:0:0:
79,203,23542,1,2,1:0:0:0:
306,264,23722,2,0,P|320:197|312:156,1,85,10|2,0:0|1:0,0:2:0:0:
318,181,23991,1,0,1:0:0:0:
318,181,24081,1,0,1:0:0:0:
149,270,24261,1,10,0:0:0:0:
148,41,24440,6,0,P|60:36|37:118,1,170,6|0,1:0|0:2,0:2:0:0:
224,216,24979,5,8,0:0:0:0:
224,216,25069,1,8,0:0:0:0:
224,216,25159,1,8,0:0:0:0:
197,364,25339,1,0,1:0:0:0:
326,252,25518,1,0,1:0:0:0:
359,353,25698,1,0,1:0:0:0:
293,151,25878,6,0,B|342:118|394:123|394:123|488:126|463:233|355:209|387:40|521:40,1,386.749988197327,6|0,0:0|0:2,0:2:0:0:
498,42,27135,5,0,1:0:0:0:
507,66,27315,1,0,1:0:0:0:
512,91,27494,1,2,1:0:0:0:
477,281,27674,6,0,P|417:249|354:271,1,118.999996368408,4|0,1:0|0:0,0:2:0:0:
217,357,28213,1,2,1:0:0:0:
275,291,28393,2,0,P|275:227|261:153,1,118.999996368408,2|8,0:0|1:0,0:2:0:0:
165,57,28931,1,2,0:0:0:0:
335,0,29111,6,0,P|374:7|401:33,1,59.4999981842042,4|0,3:0|0:2,0:2:0:0:
361,113,29471,2,0,P|380:147|378:184,1,59.4999981842042,2|0,0:0|1:0,0:2:0:0:
266,172,29830,1,2,0:0:0:0:
266,172,30009,1,2,0:0:0:0:
378,271,30189,2,0,L|487:261,1,89.2499972763062,10|0,1:0|1:0,0:2:0:0:
494,240,30548,6,0,P|510:192|488:120,1,118.999996368408,4|0,3:0|0:0,0:2:0:0:
381,53,31087,2,0,P|365:101|387:173,1,118.999996368408,0|0,1:0|0:0,0:2:0:0:
249,202,31626,1,8,1:0:0:0:
378,271,31806,1,2,1:0:0:0:
165,261,31986,6,0,P|153:221|160:180,1,59.4999981842042,4|0,3:0|0:0,0:2:0:0:
237,144,32345,2,0,P|249:184|242:225,1,59.4999981842042,2|0,0:0|1:0,0:2:0:0:
169,106,32704,1,2,0:0:0:0:
169,106,32884,1,2,0:0:0:0:
39,189,33063,1,8,1:0:0:0:
66,52,33243,1,2,1:0:0:0:
20,221,33423,6,0,P|12:302|18:357,1,118.999996368408,4|0,3:0|0:0,0:2:0:0:
138,199,33961,1,2,1:0:0:0:
235,353,34141,2,0,P|290:338|318:278,1,118.999996368408,2|8,0:0|1:0,0:2:0:0:
256,180,34680,1,2,1:0:0:0:
435,118,34860,6,0,L|431:193,1,59.4999981842042,4|0,3:0|0:2,0:2:0:0:
503,252,35219,2,0,L|507:327,1,59.4999981842042,2|0,0:0|1:0,0:2:0:0:
423,381,35578,1,2,0:0:0:0:
423,381,35758,1,2,0:0:0:0:
317,286,35938,2,0,P|281:273|249:273,1,59.4999981842042,10|0,1:0|0:2,0:2:0:0:
111,361,36297,5,10,0:0:0:0:
163,167,36476,1,0,1:0:0:0:
191,316,36656,1,0,1:0:0:0:
81,188,36836,2,0,P|93:115|180:86,1,152.999995330811,10|2,0:0|1:0,0:2:0:0:
328,227,37375,1,10,0:0:0:0:
128,256,37554,1,2,1:0:0:0:
383,330,37734,5,10,0:0:0:0:
328,89,37914,1,10,0:0:0:0:
328,89,38003,1,10,0:0:0:0:
328,89,38093,1,10,0:0:0:0:
266,326,38273,1,10,0:0:0:0:
52,106,39172,6,0,B|141:70|138:151|226:112,1,170,6|8,0:0|0:0,0:2:0:0:
86,194,39710,1,2,0:0:0:0:
183,28,39890,1,2,1:0:0:0:
247,204,40069,1,2,1:0:0:0:
52,106,40249,1,10,0:0:0:0:
20,266,40428,1,2,1:0:0:0:
215,116,40608,6,0,P|302:124|338:206,1,170,4|8,3:0|0:0,0:2:0:0:
300,342,41147,1,2,0:0:0:0:
445,226,41327,1,2,1:0:0:0:
247,204,41506,1,2,1:0:0:0:
247,204,41596,1,0,1:0:0:0:
247,204,41686,2,0,L|150:217,1,85,10|2,0:0|1:0,0:2:0:0:
68,293,41955,1,0,1:0:0:0:
68,293,42045,6,0,L|165:306,1,85,4|0,3:0|0:0,0:2:0:0:
320,372,42405,2,0,P|330:309|322:271,1,85,10|0,0:0|0:0,0:2:0:0:
436,141,42764,2,0,P|376:163|347:189,1,85,2|0,1:0|0:0,0:2:0:0:
178,156,43123,2,0,P|227:196|264:208,1,85,10|0,0:0|1:0,0:2:0:0:
372,45,43482,6,0,L|233:31,1,127.5,4|0,3:0|0:2,0:2:0:0:
159,66,43842,2,0,L|58:76,1,85,8|0,0:0|0:2,0:2:0:0:
246,203,44201,1,2,1:0:0:0:
245,32,44381,1,2,1:0:0:0:
245,32,44470,1,0,1:0:0:0:
245,32,44560,1,10,0:0:0:0:
108,176,44740,1,2,1:0:0:0:
339,136,44920,6,0,B|366:188|366:188|350:309,1,170,4|8,3:0|0:0,0:2:0:0:
246,203,45458,1,2,0:0:0:0:
203,374,45638,1,2,1:0:0:0:
236,173,45818,1,2,0:0:0:0:
412,359,45997,1,10,0:0:0:0:
194,288,46177,1,2,0:0:0:0:
339,136,46357,6,0,P|398:143|438:213,1,127.5,4|0,3:0|0:2,0:2:0:0:
457,272,46716,2,0,P|466:226|487:182,1,85,8|0,0:0|0:2,0:2:0:0:
314,55,47075,2,0,P|330:93|338:135,1,85,2|8,1:0|0:0,0:2:0:0:
278,213,47345,1,8,0:0:0:0:
278,213,47435,2,0,L|166:201,1,85,12|8,0:0|0:2,0:2:0:0:
128,137,47704,1,0,0:0:0:0:
128,137,47794,6,0,P|70:159|52:217,1,118.999996368408,6|2,1:0|1:0,0:2:0:0:
100,306,48333,1,2,0:0:0:0:
278,213,48512,2,0,P|291:274|291:351,1,118.999996368408,8|2,0:0|1:0,0:2:0:0:
345,159,49051,1,8,0:0:0:0:
193,203,49231,5,0,1:0:0:0:
374,276,49411,2,0,P|420:269|447:190,1,118.999996368408,8|0,0:0|1:0,0:2:0:0:
423,130,49860,1,0,1:0:0:0:
423,130,49949,2,0,P|414:78|413:34,1,89.2499972763062,6|0,1:0|0:0,0:2:0:0:
328,57,50309,2,0,P|286:29|237:49,1,89.2499972763062,2|0,0:0|0:0,0:2:0:0:
176,135,50668,5,4,1:0:0:0:
278,213,50848,2,0,L|270:331,1,118.999996368408,0|0,1:0|1:0,0:2:0:0:
81,331,51387,2,0,L|74:213,1,118.999996368408,8|0,0:0|1:0,0:2:0:0:
48,128,51925,1,2,0:0:0:0:
182,274,52105,5,2,1:0:0:0:
225,123,52285,2,0,P|279:105|348:144,1,118.999996368408,8|2,0:0|0:0,0:2:0:0:
389,279,52824,1,8,0:0:0:0:
423,140,53003,1,2,1:0:0:0:
407,290,53183,1,10,0:0:0:0:
405,129,53363,1,0,1:0:0:0:
303,341,53542,5,6,0:0:0:0:
480,337,53722,2,0,P|489:261|449:217,1,118.999996368408,2|0,0:2|0:2,0:2:0:0:
265,176,54261,2,0,L|325:171,1,59.4999981842042,8|0,0:0|0:2,0:2:0:0:
448,34,54620,1,2,0:0:0:0:
316,65,54800,1,2,0:0:0:0:
423,140,54979,5,2,1:0:0:0:
259,271,55159,2,0,P|255:231|256:203,1,59.4999981842042,8|0,0:0|0:2,0:2:0:0:
159,59,55518,1,2,1:0:0:0:
159,59,55608,1,0,1:0:0:0:
159,59,55698,1,8,0:0:0:0:
113,194,55878,1,2,1:0:0:0:
328,156,56057,1,2,1:0:0:0:
185,143,56237,1,0,1:0:0:0:
106,321,56417,6,0,L|-16:315,1,85,4|2,0:0|0:2,0:2:0:0:
113,194,56776,1,0,1:0:0:0:
205,358,56955,1,0,1:0:0:0:
331,238,57135,2,0,P|337:189|323:145,1,85,10|0,0:0|0:0,0:2:0:0:
182,60,57495,2,0,P|175:101|184:142,1,85,2|0,1:0|1:0,0:2:0:0:
331,238,57854,6,0,L|433:232,1,85,6|2,1:0|0:2,0:2:0:0:
289,362,58213,2,0,L|187:356,1,85,2|0,0:0|1:0,0:2:0:0:
184,142,58572,1,10,0:0:0:0:
184,142,58931,5,10,0:0:0:0:
142,134,59022,1,8,0:0:0:0:
105,151,59112,1,8,0:0:0:0:
84,188,59200,1,8,0:0:0:0:
89,229,59291,6,0,L|97:346,1,85,6|0,0:0|0:2,0:2:0:0:
254,187,59650,1,8,0:0:0:0:
294,277,59830,2,0,L|286:394,2,85,2|0|2,1:0|1:0|0:2,0:2:0:0:
198,53,60369,1,10,0:0:0:0:
210,273,60548,1,2,1:0:0:0:
210,273,60638,1,0,1:0:0:0:
210,273,60728,6,0,P|260:269|299:278,1,85,2|0,0:0|0:2,0:2:0:0:
463,174,61087,2,0,P|421:181|379:177,1,85,10|0,0:0|0:2,0:2:0:0:
274,73,61446,1,10,0:0:0:0:
479,13,61626,1,10,0:0:0:0:
476,42,61715,1,8,0:0:0:0:
474,74,61805,5,6,0:0:0:0:
107,23,62524,1,8,0:0:0:0:
171,282,62884,5,2,1:0:0:0:
171,282,63063,1,2,1:0:0:0:
273,156,63243,2,0,P|279:101|270:61,1,85,14|0,0:0|0:2,0:2:0:0:
273,72,63512,1,0,1:0:0:0:
273,72,63602,5,10,0:0:0:0:
193,24,63782,1,8,0:0:0:0:
51,199,63961,2,0,L|179:189,1,127.5,14|0,0:0|0:0,0:2:0:0:
256,244,64321,6,0,L|304:249,1,42.5,10|0,0:0|0:2,0:2:0:0:
427,310,64500,1,10,0:0:0:0:
448,291,64591,1,8,0:0:0:0:
460,266,64679,1,10,0:0:0:0:
459,238,64769,1,0,3:2:0:0:
446,213,64859,1,2,1:0:0:0:
424,196,64949,1,0,1:0:0:0:
396,191,65039,6,0,P|375:149|379:98,1,85,6|2,1:0|0:2,0:2:0:0:
307,332,65399,1,10,0:0:0:0:
217,157,65578,1,0,1:0:0:0:
217,157,65668,1,0,1:0:0:0:
217,157,65758,1,2,1:0:0:0:
326,251,65937,1,0,1:0:0:0:
77,337,66117,5,10,0:0:0:0:
52,302,66206,1,8,0:0:0:0:
44,261,66296,1,8,0:0:0:0:
55,220,66386,1,8,0:0:0:0:
82,188,66476,5,8,0:0:0:0:
307,332,66656,1,8,0:0:0:0:
374,44,67195,6,0,P|431:47|469:75,1,102,2|0,0:0|0:0,0:2:0:0:
473,155,67554,5,10,0:0:0:0:
472,187,67645,1,8,0:0:0:0:
470,219,67733,1,8,0:0:0:0:
469,251,67823,1,8,0:0:0:0:
468,282,67914,6,0,L|359:271,1,93.5000028533936,6|0,0:0|0:2,0:2:0:0:
195,145,68273,2,0,L|304:134,1,93.5000028533936,10|0,0:0|1:0,0:2:0:0:
466,72,68632,1,2,1:0:0:0:
250,26,68812,1,0,1:0:0:0:
368,182,68992,2,0,P|382:232|367:287,1,93.5000028533936,10|0,0:0|1:0,0:2:0:0:
104,178,69351,6,0,P|96:132|110:87,1,93.5000028533936,4|2,0:0|0:2,0:2:0:0:
233,304,69710,2,0,L|124:293,1,93.5000028533936,10|0,0:0|1:0,0:2:0:0:
0,182,70069,1,2,1:0:0:0:
4,348,70249,1,0,1:0:0:0:
104,178,70429,2,0,L|96:76,1,93.5000028533936,10|0,0:0|1:0,0:2:0:0:
286,0,70788,6,0,L|278:102,1,93.5000028533936,4|0,1:0|0:2,0:2:0:0:
381,278,71147,2,0,P|436:268|475:235,1,93.5000028533936,10|0,0:0|1:0,0:2:0:0:
278,93,71506,2,0,P|223:103|184:136,1,93.5000028533936,2|0,1:0|1:0,0:2:0:0:
368,181,71866,1,10,0:0:0:0:
176,261,72045,1,0,1:0:0:0:
278,93,72225,5,4,0:0:0:0:
309,345,72405,1,2,0:2:0:0:
110,196,72584,2,0,P|53:195|14:204,1,93.5000028533936,10|0,0:0|1:0,0:2:0:0:
17,202,72854,1,8,0:2:0:0:
17,202,72943,1,2,1:0:0:0:
140,73,73123,1,0,1:0:0:0:
71,300,73303,1,10,0:0:0:0:
43,106,73482,1,0,1:0:0:0:
269,226,73662,6,0,P|333:200|320:120,1,140.25000428009,6|0,0:0|0:2,0:2:0:0:
256,93,74021,2,0,P|254:43|256:-3,1,93.5000028533936,10|0,0:0|1:0,0:2:0:0:
434,135,74381,1,0,1:0:0:0:
483,10,74560,1,0,1:0:0:0:
483,216,74740,1,10,0:0:0:0:
481,239,74830,1,0,1:0:0:0:
479,262,74919,1,0,1:0:0:0:
477,285,75009,1,0,1:0:0:0:
475,309,75099,6,0,P|406:289|334:289,1,140.25000428009,2|0,1:0|0:2,0:2:0:0:
269,226,75459,2,0,P|277:171|274:111,1,93.5000028533936,10|0,0:0|1:0,0:2:0:0:
133,278,75818,2,0,P|133:324|140:370,1,93.5000028533936,0|0,1:0|0:0,0:2:0:0:
34,184,76177,1,10,0:0:0:0:
59,159,76266,1,0,0:0:0:0:
91,148,76356,1,8,0:0:0:0:
126,152,76446,1,0,0:0:0:0:
156,170,76536,5,6,0:0:0:0:
21,285,76716,1,0,1:0:0:0:
63,56,76896,5,10,0:0:0:0:
133,278,77076,1,0,1:0:0:0:
315,103,77255,5,10,0:0:0:0:
73,33,77435,1,0,1:0:0:0:
133,278,77614,6,0,B|216:266|216:266|270:300|270:300|360:288,1,233.750007133484,14|0,0:0|0:2,0:2:0:0:
445,316,78153,5,8,0:0:0:0:
463,290,78242,1,8,0:0:0:0:
474,260,78332,1,8,0:0:0:0:
477,228,78422,1,0,1:0:0:0:
471,197,78512,1,0,1:0:0:0:
457,169,78602,1,0,1:0:0:0:
436,145,78691,5,10,0:0:0:0:
293,208,78872,1,8,0:0:0:0:
407,61,79051,1,2,0:0:0:0:
226,26,79231,1,2,0:0:0:0:
134,277,79411,6,0,P|117:222|130:167,1,93.5000028533936,6|0,0:0|0:2,0:2:0:0:
366,151,79770,2,0,P|383:206|370:261,1,93.5000028533936,10|0,0:0|1:0,0:2:0:0:
208,344,80129,1,2,1:0:0:0:
405,384,80309,1,0,1:0:0:0:
178,361,80489,2,0,L|68:366,1,93.5000028533936,10|0,0:0|1:0,0:2:0:0:
293,208,80848,5,4,0:0:0:0:
308,373,81027,1,2,0:2:0:0:
173,184,81207,2,0,P|195:133|240:101,1,93.5000028533936,10|0,0:0|1:0,0:2:0:0:
413,232,81566,2,0,P|391:283|346:315,1,93.5000028533936,2|0,1:0|1:0,0:2:0:0:
178,361,81925,2,0,B|197:310|197:310|178:224,1,140.25000428009,10|0,0:0|1:0,0:2:0:0:
92,199,82285,6,0,L|-3:209,1,93.5000028533936,4|0,0:0|0:2,0:2:0:0:
24,29,82644,2,0,L|119:39,1,93.5000028533936,10|0,0:0|1:0,0:2:0:0:
311,110,83003,1,2,1:0:0:0:
146,127,83183,1,0,1:0:0:0:
345,205,83363,2,0,P|389:180|415:127,1,93.5000028533936,10|0,0:0|1:0,0:2:0:0:
182,267,83722,6,0,P|179:314|178:361,1,93.5000028533936,4|2,0:0|0:2,0:2:0:0:
345,205,84081,2,0,P|343:158|340:111,1,93.5000028533936,10|0,0:0|1:0,0:2:0:0:
340,111,84351,1,0,1:0:0:0:
340,111,84440,1,2,1:0:0:0:
135,155,84620,2,0,L|133:202,1,46.7500014266968,0|0,1:0|1:0,0:2:0:0:
321,302,84800,1,10,0:0:0:0:
234,101,84979,1,0,1:0:0:0:
83,292,85159,6,0,P|21:272|26:178,1,140.25000428009,6|0,0:0|0:2,0:2:0:0:
7,204,85518,1,10,0:0:0:0:
221,220,85698,1,0,1:0:0:0:
221,220,85788,1,0,1:0:0:0:
221,220,85878,2,0,L|317:211,1,93.5000028533936,0|0,1:0|1:0,0:2:0:0:
137,73,86237,2,0,L|41:64,1,93.5000028533936,10|0,0:0|1:0,0:2:0:0:
43,64,86506,1,0,1:0:0:0:
43,64,86596,5,2,1:0:0:0:
106,180,86776,1,0,1:0:0:0:
270,2,86955,1,10,0:0:0:0:
259,140,87135,1,0,1:0:0:0:
259,140,87225,1,0,1:0:0:0:
259,140,87315,1,0,1:0:0:0:
178,0,87494,1,0,1:0:0:0:
229,239,87674,5,10,0:0:0:0:
274,247,87763,1,8,0:0:0:0:
318,232,87853,1,8,0:0:0:0:
348,197,87943,1,8,0:0:0:0:
357,152,88033,6,0,L|352:35,1,93.5000028533936,14|0,0:0|1:0,0:2:0:0:
156,161,88393,5,10,0:0:0:0:
409,263,88572,1,0,1:0:0:0:
95,299,88752,5,10,0:0:0:0:
348,197,88931,1,0,1:0:0:0:
75,62,89112,6,0,P|6:98|15:193,1,170,14|0,0:0|0:2,0:2:0:0:
74,276,89650,5,8,0:0:0:0:
97,274,89739,1,8,0:0:0:0:
120,272,89829,1,8,0:0:0:0:
143,271,89919,1,0,1:0:0:0:
167,269,90009,1,0,1:0:0:0:
190,267,90099,1,0,1:0:0:0:
213,266,90189,6,0,B|235:197|235:197|205:109,1,140.25000428009,6|2,1:0|0:0,0:2:0:0:
213,0,90549,6,0,B|191:69|191:69|221:157,1,140.25000428009,12|0,0:0|0:2,0:2:0:0:
390,237,90908,5,4,0:0:0:0:
297,77,91087,1,2,0:2:0:0:
213,266,91267,1,10,0:0:0:0:
367,148,91447,2,0,L|310:148,1,46.7500014266968,2|2,1:0|0:0,0:0:0:0:
121,139,91626,1,2,1:0:0:0:
312,272,91806,1,0,1:0:0:0:
59,340,91986,2,0,L|63:234,1,93.5000028533936,8|8,0:0|0:0,0:2:0:0:
63,246,92255,1,8,0:0:0:0:
63,246,92345,5,10,0:0:0:0:
277,170,92524,1,0,1:0:0:0:
60,33,92704,1,8,0:0:0:0:
184,245,92884,1,0,1:0:0:0:
184,245,92973,1,2,0:2:0:0:
184,245,93063,2,0,L|188:351,1,93.5000028533936,2|2,1:0|0:2,0:2:0:0:
297,77,93423,1,10,0:0:0:0:
121,139,93602,1,8,0:0:0:0:
121,139,93692,1,8,0:2:0:0:
121,139,93782,6,0,L|169:146,1,46.7500014266968,10|0,0:0|0:2,0:2:0:0:
323,163,93962,2,0,L|276:169,1,46.7500014266968,2|0,0:2|0:2,0:2:0:0:
137,238,94141,2,0,L|185:245,1,46.7500014266968,2|0,1:0|1:0,0:2:0:0:
339,262,94321,2,0,L|292:268,1,46.7500014266968,2|0,1:0|1:0,0:2:0:0:
90,337,94500,5,0,1:0:0:0:
50,312,94591,1,0,1:0:0:0:
27,272,94679,1,0,1:0:0:0:
25,225,94769,1,0,1:0:0:0:
44,183,94860,5,8,0:0:0:0:
94,205,94949,1,8,0:0:0:0:
150,208,95039,1,8,0:0:0:0:
202,187,95129,1,8,0:0:0:0:
243,149,95219,1,8,0:0:0:0:
454,22,96297,5,8,0:0:0:0:
455,64,96386,1,8,0:0:0:0:
457,106,96476,1,8,0:0:0:0:
459,149,96566,1,8,0:0:0:0:
460,191,96656,6,0,P|354:218|320:164,1,170,6|8,1:0|0:0,0:2:0:0:
145,30,97195,2,0,L|151:114,1,85,2|0,0:0|0:2,0:2:0:0:
234,249,97554,2,0,L|227:333,1,85,2|8,1:0|0:0,0:2:0:0:
24,63,97914,6,0,L|30:147,1,85,6|0,1:0|0:2,0:2:0:0:
113,282,98273,2,0,L|106:366,1,85,2|8,1:0|0:0,0:2:0:0:
207,153,98632,2,0,P|144:140|111:146,1,85,6|0,1:0|0:2,0:2:0:0:
23,356,98992,2,0,P|86:369|119:363,1,85,2|8,1:0|0:0,0:2:0:0:
263,221,99351,6,0,P|275:268|281:310,1,85,6|0,0:0|0:2,0:2:0:0:
277,384,99710,1,2,1:0:0:0:
135,245,99890,1,2,1:0:0:0:
353,199,100069,1,2,1:0:0:0:
128,82,100249,1,10,0:0:0:0:
187,345,100428,1,10,0:0:0:0:
295,132,100608,1,10,0:0:0:0:
135,245,100788,6,0,B|75:201|8:214|8:214|57:153|55:97|16:27,1,327.249990013123,2|0,0:0|0:0,0:2:0:0:
20,35,101866,5,0,1:0:0:0:
96,0,102045,1,0,1:0:0:0:
301,187,102405,6,0,P|358:175|363:69,1,152.999995330811,6|0,0:0|1:0,0:2:0:0:
319,19,102943,1,2,0:0:0:0:
210,148,103123,2,0,L|133:144,1,76.4999976654053,2|0,0:0|0:2,0:2:0:0:
17,250,103483,2,0,L|93:246,1,76.4999976654053,0|0,1:0|1:0,0:2:0:0:
229,320,103842,6,0,P|244:261|232:219,1,76.4999976654053,2|0,1:0|0:0,0:2:0:0:
210,148,104201,2,0,B|299:117|280:189|371:153,1,152.999995330811,2|2,1:0|0:0,0:2:0:0:
464,264,104740,1,2,1:0:0:0:
508,182,104920,2,0,P|493:123|505:81,1,76.4999976654053,2|0,1:0|0:0,0:2:0:0:
343,5,105279,6,0,P|288:21|301:125,1,152.999995330811,4|0,3:0|1:0,0:2:0:0:
356,157,105818,1,0,1:0:0:0:
404,231,105997,2,0,L|408:317,2,76.4999976654053,0|0|0,1:0|0:2|1:0,0:2:0:0:
356,157,106536,1,2,1:0:0:0:
245,302,106716,6,0,P|186:282|167:262,1,76.4999976654053,2|0,0:0|0:2,0:2:0:0:
88,333,107075,2,0,P|65:274|68:247,1,76.4999976654053,2|0,1:0|0:0,0:2:0:0:
121,130,107434,1,2,0:0:0:0:
121,130,107614,1,2,1:0:0:0:
63,50,107794,1,0,1:0:0:0:
63,50,107974,1,6,1:0:0:0:
237,6,108154,6,0,B|262:57|262:57|247:154,1,152.999995330811,6|0,0:0|1:0,0:2:0:0:
186,227,108692,1,2,1:0:0:0:
321,306,108872,2,0,P|376:297|403:303,2,76.4999976654053,2|0|0,1:0|1:0|1:0,0:2:0:0:
261,383,109411,1,2,1:0:0:0:
186,227,109590,6,0,L|194:126,1,76.4999976654053,2|0,1:0|1:0,0:2:0:0:
54,294,109950,2,0,L|46:193,1,76.4999976654053,2|0,1:0|1:0,0:2:0:0:
171,366,110309,1,2,1:0:0:0:
171,366,110488,1,2,1:0:0:0:
186,227,110668,2,0,P|252:222|290:254,1,114.749996498108,2|0,0:0|0:2,0:2:0:0:
327,338,111027,5,10,0:0:0:0:
327,318,111118,1,8,0:0:0:0:
327,299,111206,1,8,0:0:0:0:
328,280,111296,1,8,0:0:0:0:
328,261,111386,1,8,0:0:0:0:
328,242,111477,1,8,0:0:0:0:
329,223,111567,1,10,0:0:0:0:
329,204,111657,1,8,0:0:0:0:
329,185,111746,5,8,0:0:0:0:
367,192,111836,1,8,0:0:0:0:
404,184,111925,1,10,0:0:0:0:
435,163,112015,1,8,0:0:0:0:
456,131,112105,1,10,0:0:0:0:
463,94,112195,1,8,0:0:0:0:
454,56,112284,1,10,0:0:0:0:
433,25,112374,1,8,0:0:0:0:
400,5,112464,5,10,0:0:0:0:
184,132,112644,1,10,0:0:0:0:
184,132,112734,1,10,0:0:0:0:
184,132,112824,1,10,0:0:0:0:
435,163,113003,1,10,0:0:0:0:
126,378,113722,5,2,0:0:0:0:
126,378,113812,1,2,0:2:0:0:
126,378,113902,2,0,P|95:319|138:207,1,170,4|8,0:0|0:0,0:2:0:0:
223,384,114440,1,2,0:0:0:0:
3,348,114620,1,2,1:0:0:0:
181,298,114800,1,2,1:0:0:0:
19,153,114980,2,0,L|11:60,1,85,10|0,0:0|1:0,0:2:0:0:
217,45,115339,6,0,B|243:97|243:97|219:222,1,170,4|8,3:0|0:0,0:2:0:0:
349,284,115878,1,2,0:0:0:0:
181,298,116057,1,2,1:0:0:0:
324,185,116237,1,2,1:0:0:0:
223,384,116417,1,10,0:0:0:0:
349,284,116596,1,2,1:0:0:0:
349,284,116686,1,0,1:0:0:0:
349,284,116776,6,0,P|366:349|365:384,1,85,4|0,3:0|0:0,0:2:0:0:
221,206,117135,2,0,P|224:163|238:123,1,85,10|0,0:0|1:0,0:2:0:0:
393,32,117495,2,0,P|410:97|409:132,1,85,2|0,1:0|1:0,0:2:0:0:
203,29,117854,1,10,0:0:0:0:
324,185,118033,1,0,0:2:0:0:
181,10,118213,6,0,P|126:30|147:112,1,127.5,4|0,3:0|0:2,0:2:0:0:
180,159,118572,2,0,L|177:260,1,85,8|0,0:0|0:0,0:2:0:0:
27,355,118931,1,2,1:0:0:0:
83,189,119111,1,2,1:0:0:0:
83,189,119201,1,0,1:0:0:0:
83,189,119291,1,10,0:0:0:0:
228,332,119470,1,2,0:0:0:0:
291,104,119650,6,0,B|394:67|367:153|475:107,1,170,4|8,3:0|0:0,0:2:0:0:
422,15,120189,1,2,0:0:0:0:
330,190,120369,2,0,L|335:283,1,85,2|2,1:0|0:0,0:2:0:0:
212,83,120728,1,10,0:0:0:0:
414,158,120908,1,2,1:0:0:0:
185,180,121087,6,0,P|126:144|113:70,1,127.5,4|0,3:0|0:2,0:2:0:0:
154,20,121447,2,0,P|209:28|265:18,1,85,4|0,1:0|0:2,0:2:0:0:
414,158,121806,2,0,P|371:155|329:163,1,85,2|8,1:0|0:0,0:2:0:0:
265,228,122075,1,8,0:0:0:0:
265,228,122165,2,0,B|251:296|251:296|281:360,1,127.5,12|0,0:0|0:0,0:2:0:0:
174,368,122525,6,0,P|119:381|77:329,1,118.999996368408,4|2,1:0|1:0,0:2:0:0:
72,245,123063,1,2,0:0:0:0:
236,109,123243,2,0,P|281:159|353:151,1,118.999996368408,8|2,0:0|1:0,0:2:0:0:
179,212,123782,1,8,0:0:0:0:
190,16,123961,5,0,1:0:0:0:
63,126,124141,2,0,L|72:248,1,118.999996368408,8|0,0:0|1:0,0:2:0:0:
108,323,124590,1,0,1:0:0:0:
108,323,124680,2,0,P|154:327|186:335,1,59.4999981842042,6|0,1:0|0:2,0:2:0:0:
344,384,125039,5,10,0:0:0:0:
364,362,125130,1,0,3:2:0:0:
373,334,125218,1,0,3:2:0:0:
372,305,125308,1,0,3:2:0:0:
358,278,125398,5,4,1:0:0:0:
179,212,125578,2,0,L|188:90,1,118.999996368408,0|0,1:0|1:0,0:2:0:0:
396,98,126117,2,0,P|342:133|286:110,1,118.999996368408,8|0,0:0|1:0,0:2:0:0:
255,15,126656,1,2,0:0:0:0:
206,189,126836,5,2,1:0:0:0:
360,276,127015,2,0,P|424:286|477:242,1,118.999996368408,8|2,0:0|0:0,0:2:0:0:
293,117,127554,2,0,L|303:202,1,59.4999981842042,8|2,0:0|1:0,0:2:0:0:
248,328,127914,2,0,L|258:243,1,59.4999981842042,10|0,0:0|1:0,0:2:0:0:
126,51,128273,5,4,0:0:0:0:
61,124,128452,2,0,P|111:151|181:133,1,118.999996368408,2|0,0:2|1:0,0:2:0:0:
292,16,128992,2,0,P|283:65|287:101,1,59.4999981842042,4|0,1:0|0:2,0:2:0:0:
397,191,129351,1,2,0:0:0:0:
277,180,129530,1,2,0:0:0:0:
373,53,129710,5,2,1:0:0:0:
266,199,129890,2,0,L|271:284,1,59.4999981842042,8|0,0:0|0:2,0:2:0:0:
404,366,130249,1,2,1:0:0:0:
433,361,130338,1,0,0:0:0:0:
462,357,130428,1,8,0:0:0:0:
397,191,130608,1,2,1:0:0:0:
254,355,130788,1,2,1:0:0:0:
269,258,130967,1,0,1:0:0:0:
51,336,131147,6,0,P|24:269|54:217,1,127.5,4|0,0:0|1:0,0:2:0:0:
120,174,131506,2,0,P|132:104|123:58,1,85,0|0,1:0|1:0,0:2:0:0:
88,12,131776,1,0,1:0:0:0:
88,12,131866,2,0,L|-9:18,1,85,10|0,0:0|0:0,0:2:0:0:
230,87,132225,1,2,1:0:0:0:
41,122,132405,1,0,1:0:0:0:
257,219,132584,6,0,L|354:225,1,85,6|0,1:0|0:2,0:2:0:0:
486,294,132944,2,0,L|442:206,1,85,2|0,0:0|1:0,0:2:0:0:
437,59,133303,2,0,L|383:140,1,85,10|0,0:0|1:0,0:2:0:0:
218,304,133662,5,10,0:0:0:0:
190,288,133751,1,8,0:0:0:0:
171,263,133841,1,8,0:0:0:0:
162,232,133931,1,8,0:0:0:0:
166,201,134021,6,0,P|188:152|222:126,1,85,4|0,0:0|0:2,0:2:0:0:
390,129,134381,1,8,0:0:0:0:
279,0,134560,2,0,P|293:70|296:180,1,170,2|0,1:0|0:0,0:2:0:0:
141,24,135099,1,10,0:0:0:0:
58,174,135279,2,0,L|68:233,1,42.5,2|0,1:0|1:0,0:2:0:0:
89,328,135459,6,0,P|144:335|177:319,1,85,2|0,0:0|0:2,0:2:0:0:
296,168,135818,2,0,P|241:161|208:177,1,85,10|0,0:0|0:2,0:2:0:0:
345,331,136177,1,10,0:0:0:0:
435,199,136357,1,10,0:0:0:0:
436,226,136446,1,8,0:0:0:0:
438,253,136536,5,6,0:0:0:0:
128,377,137255,1,8,0:0:0:0:
198,91,137614,5,2,1:0:0:0:
198,91,137794,1,2,1:0:0:0:
53,235,137974,2,0,P|50:295|71:340,1,85,12|0,0:0|0:2,0:2:0:0:
57,317,138243,1,0,1:0:0:0:
57,317,138333,5,8,0:0:0:0:
155,265,138512,1,8,0:0:0:0:
295,380,138692,2,0,L|429:369,1,127.5,12|0,0:0|0:0,0:2:0:0:
498,317,139052,6,0,P|502:289|500:268,1,42.5,8|0,0:0|0:2,0:2:0:0:
365,153,139231,1,8,0:0:0:0:
336,154,139320,1,8,0:0:0:0:
312,168,139410,1,8,0:0:0:0:
295,191,139500,1,0,3:2:0:0:
289,218,139590,1,0,1:0:0:0:
296,245,139680,1,0,1:0:0:0:
313,267,139770,6,0,L|421:258,1,85,6|2,1:0|0:2,0:2:0:0:
211,330,140129,1,10,0:0:0:0:
205,137,140309,1,2,1:0:0:0:
205,137,140399,1,0,1:0:0:0:
205,137,140488,1,0,1:0:0:0:
313,267,140668,1,0,1:0:0:0:
56,224,140848,5,10,0:0:0:0:
40,185,140937,1,8,0:0:0:0:
49,144,141027,1,8,0:0:0:0:
78,114,141117,1,8,0:0:0:0:
120,107,141207,5,8,0:0:0:0:
78,336,141387,1,8,0:0:0:0:
239,219,141567,6,0,L|232:173,3,42.5,0|0|0|2,1:0|0:2|0:0|0:2,0:2:0:0:
313,267,141926,6,0,P|355:266|403:240,1,85,6|8,0:0|0:2,0:2:0:0:
417,218,142195,1,8,0:2:0:0:
393,194,142284,1,2,0:0:0:0:
379,163,142374,1,2,0:0:0:0:
375,130,142464,1,2,0:0:0:0:
382,96,142554,1,2,0:0:0:0:
399,67,142645,6,0,P|335:49|297:55,1,93.5000028533936,6|0,0:0|0:2,0:2:0:0:
121,163,143003,2,0,P|185:181|223:175,1,93.5000028533936,10|0,0:0|1:0,0:2:0:0:
217,0,143363,1,2,1:0:0:0:
90,69,143542,1,0,1:0:0:0:
297,148,143722,2,0,L|307:255,1,93.5000028533936,10|0,0:0|1:0,0:2:0:0:
109,333,144081,5,4,0:0:0:0:
121,163,144261,1,2,0:2:0:0:
260,331,144441,2,0,P|317:342|365:327,1,93.5000028533936,10|0,0:0|1:0,0:2:0:0:
387,151,144800,2,0,P|330:140|282:155,1,93.5000028533936,2|0,1:0|1:0,0:2:0:0:
137,250,145159,2,0,B|116:216|116:216|121:157,1,93.5000028533936,10|0,0:0|1:0,0:2:0:0:
178,93,145428,1,0,1:0:0:0:
178,93,145518,6,0,L|174:-16,1,93.5000028533936,4|0,1:0|0:2,0:2:0:0:
10,142,145878,2,0,L|6:251,1,93.5000028533936,10|0,0:0|1:0,0:2:0:0:
169,345,146237,1,2,1:0:0:0:
29,351,146417,1,0,1:0:0:0:
208,192,146596,2,0,P|266:187|324:219,1,93.5000028533936,10|0,0:0|1:0,0:2:0:0:
251,366,146956,6,0,L|247:257,1,93.5000028533936,4|2,0:0|0:2,0:2:0:0:
384,90,147315,2,0,L|380:199,1,93.5000028533936,10|0,0:0|1:0,0:2:0:0:
380,183,147584,1,8,0:2:0:0:
380,183,147674,1,2,1:0:0:0:
247,272,147854,2,0,L|176:268,1,46.7500014266968,0|2,1:0|0:2,0:2:0:0:
53,183,148033,1,10,0:0:0:0:
219,163,148213,1,0,1:0:0:0:
75,37,148393,6,0,P|11:49|16:134,1,140.25000428009,6|0,0:0|0:2,0:2:0:0:
53,183,148752,2,0,P|65:236|64:285,1,93.5000028533936,10|0,0:0|1:0,0:2:0:0:
65,274,149021,1,0,1:0:0:0:
65,274,149111,1,0,1:0:0:0:
196,140,149291,1,0,1:0:0:0:
257,316,149470,5,10,0:0:0:0:
255,327,149561,1,8,0:2:0:0:
254,339,149651,1,0,1:0:0:0:
252,350,149739,1,0,1:0:0:0:
251,362,149830,6,0,P|336:366|386:303,1,140.25000428009,2|0,0:0|0:2,0:2:0:0:
415,252,150189,2,0,P|416:205|427:160,1,93.5000028533936,10|0,0:0|1:0,0:2:0:0:
427,160,150458,1,0,1:0:0:0:
427,160,150548,1,0,1:0:0:0:
472,333,150728,1,0,1:0:0:0:
277,209,150908,1,10,0:0:0:0:
512,225,151087,1,8,0:0:0:0:
512,225,151177,1,8,0:0:0:0:
512,225,151267,5,14,0:0:0:0:
251,362,151446,1,0,1:0:0:0:
208,121,151626,5,10,0:0:0:0:
429,281,151806,1,0,1:0:0:0:
447,92,151985,5,10,0:0:0:0:
277,209,152165,1,0,1:0:0:0:
199,15,152345,6,0,P|274:3|211:88,1,233.750007133484,14|0,0:0|0:2,0:2:0:0:
107,84,152884,5,8,0:0:0:0:
97,114,152973,1,8,0:0:0:0:
98,146,153063,1,8,0:0:0:0:
112,176,153153,1,0,1:0:0:0:
128,204,153243,1,0,1:0:0:0:
132,236,153333,1,0,1:0:0:0:
121,267,153422,5,10,0:0:0:0:
0,194,153602,1,8,0:0:0:0:
213,304,153782,1,2,0:0:0:0:
32,353,153961,1,2,0:0:0:0:
226,208,154141,6,0,L|342:210,1,93.5000028533936,6|0,0:0|0:2,0:2:0:0:
409,378,154500,2,0,L|293:380,1,93.5000028533936,10|0,0:0|1:0,0:2:0:0:
121,267,154860,1,2,1:0:0:0:
319,209,155039,1,0,1:0:0:0:
94,98,155219,2,0,P|82:162|100:209,1,93.5000028533936,10|0,0:0|1:0,0:2:0:0:
230,333,155578,5,4,0:0:0:0:
43,319,155758,1,2,0:2:0:0:
226,208,155938,2,0,P|238:144|220:97,1,93.5000028533936,10|0,0:0|1:0,0:2:0:0:
354,340,156297,2,0,B|307:351|307:351|260:342,1,93.5000028533936,2|0,1:0|1:0,0:2:0:0:
136,259,156656,2,0,L|132:364,1,93.5000028533936,10|0,0:0|1:0,0:2:0:0:
42,319,156925,1,0,1:0:0:0:
42,319,157015,6,0,L|38:214,1,93.5000028533936,4|2,0:0|0:2,0:2:0:0:
137,44,157375,1,10,0:0:0:0:
0,140,157554,1,0,1:0:0:0:
197,183,157734,2,0,P|249:190|300:169,1,93.5000028533936,2|0,1:0|1:0,0:2:0:0:
302,5,158093,2,0,P|257:-8|211:0,1,93.5000028533936,10|0,0:0|1:0,0:2:0:0:
137,44,158363,1,0,1:0:0:0:
137,44,158453,6,0,P|91:51|46:38,1,93.5000028533936,4|2,0:0|0:2,0:2:0:0:
159,271,158812,1,10,0:0:0:0:
253,84,158991,1,0,1:0:0:0:
253,84,159081,1,0,1:0:0:0:
253,84,159171,1,2,1:0:0:0:
76,177,159351,2,0,L|80:243,1,46.7500014266968,0|0,1:0|1:0,0:2:0:0:
91,368,159530,1,10,0:0:0:0:
0,278,159710,1,0,1:0:0:0:
235,195,159890,6,0,P|284:222|276:320,1,140.25000428009,6|0,0:0|0:2,0:2:0:0:
215,348,160249,2,0,P|154:336|101:348,1,93.5000028533936,10|0,0:0|1:0,0:2:0:0:
123,340,160518,1,0,1:0:0:0:
123,340,160608,1,0,1:0:0:0:
95,207,160788,1,0,1:0:0:0:
291,300,160968,2,0,P|337:303|382:292,1,93.5000028533936,10|0,0:0|1:0,0:2:0:0:
436,217,161237,1,0,1:0:0:0:
436,217,161327,6,0,B|405:170|405:170|417:58,1,140.25000428009,2|0,1:0|0:2,0:2:0:0:
345,37,161686,2,0,P|298:40|253:29,1,93.5000028533936,10|0,0:0|1:0,0:2:0:0:
253,29,161955,1,0,1:0:0:0:
253,29,162045,1,0,1:0:0:0:
325,209,162225,1,0,1:0:0:0:
77,267,162405,5,10,0:0:0:0:
66,222,162494,1,8,0:0:0:0:
85,180,162584,1,8,0:0:0:0:
125,157,162674,1,8,0:0:0:0:
170,163,162764,5,14,0:0:0:0:
127,374,162943,1,0,1:0:0:0:
320,237,163123,5,10,0:0:0:0:
77,267,163303,1,0,1:0:0:0:
389,364,163482,5,10,0:0:0:0:
127,374,163662,1,0,1:0:0:0:
320,237,163842,6,0,B|415:194|397:287|501:241,1,170,14|0,0:0|0:2,0:2:0:0:
507,167,164381,5,8,0:0:0:0:
504,143,164470,1,8,0:0:0:0:
502,120,164560,1,8,0:0:0:0:
500,97,164650,1,0,1:0:0:0:
498,73,164740,1,0,1:0:0:0:
496,50,164830,1,0,1:0:0:0:
493,28,164920,6,0,P|419:45|357:92,1,140.25000428009,6|2,1:0|0:0,0:2:0:0:
198,155,165279,6,0,P|272:172|334:219,1,140.25000428009,12|0,0:0|0:2,0:2:0:0:
349,339,165638,5,4,0:0:0:0:
481,248,165818,1,2,0:2:0:0:
272,279,165997,1,10,0:0:0:0:
458,342,166177,1,2,1:0:0:0:
358,130,166357,2,0,L|366:28,1,93.5000028533936,2|0,1:0|1:0,0:2:0:0:
272,279,166716,1,8,0:0:0:0:
481,248,166896,1,8,0:0:0:0:
278,183,167075,6,0,P|203:179|166:191,1,93.5000028533936,10|0,0:0|1:0,0:2:0:0:
129,369,167435,2,0,P|175:376|221:369,1,93.5000028533936,8|0,0:0|1:0,0:2:0:0:
221,369,167704,1,0,1:0:0:0:
221,369,167794,1,2,1:0:0:0:
113,266,167973,1,0,1:0:0:0:
206,74,168153,1,10,0:0:0:0:
375,251,168333,1,8,0:0:0:0:
378,218,168423,1,8,0:0:0:0:
381,185,168513,6,0,L|386:119,1,46.7500014266968,10|0,0:0|0:2,0:2:0:0:
304,5,168692,2,0,L|309:71,1,46.7500014266968,0|0,0:2|0:2,0:2:0:0:
279,207,168872,2,0,L|284:141,1,46.7500014266968,2|0,1:0|1:0,0:2:0:0:
202,27,169052,2,0,L|207:93,1,46.7500014266968,2|0,1:0|1:0,0:2:0:0:
113,266,169231,5,0,1:0:0:0:
67,265,169320,1,0,1:0:0:0:
30,237,169410,1,0,1:0:0:0:
17,193,169500,1,0,1:0:0:0:
33,150,169590,1,8,0:0:0:0:
71,125,169680,1,8,0:0:0:0:
117,127,169769,1,8,0:0:0:0:
153,157,169859,1,8,0:0:0:0:
164,201,169949,5,12,0:0:0:0:
0,60,170129,1,8,0:2:0:0:
245,57,170309,1,10,0:0:0:0:
17,193,170488,1,10,0:0:0:0:
235,290,170668,5,10,0:0:0:0:
236,260,170757,1,8,0:0:0:0:
237,231,170847,1,10,0:0:0:0:
238,202,170937,1,8,0:0:0:0:
239,173,171027,1,10,0:0:0:0:
241,144,171117,1,8,0:0:0:0:
242,114,171206,1,0,0:2:0:0:
243,85,171296,1,0,0:2:0:0:
244,56,171387,6,0,P|306:73|358:69,1,93.5000028533936,6|2,0:0|0:0,0:2:0:0:
512,16,171746,1,8,1:0:0:0:
382,234,171925,1,2,1:0:0:0:
382,234,172015,1,0,1:0:0:0:
382,234,172105,1,0,1:0:0:0:
406,0,172285,1,10,0:0:0:0:
512,160,172464,1,10,1:0:0:0:
244,56,172644,5,6,1:0:0:0:
388,348,173003,1,6,1:0:0:0:
63,326,173363,1,6,1:0:0:0:
63,326,173722,6,0,P|92:275|77:211,1,102,6|0,1:0|0:0,0:2:0:0:
6,127,174081,5,8,0:0:0:0:
3,156,174171,1,8,0:0:0:0:
0,186,174261,1,8,0:0:0:0:
207,68,174440,1,8,0:0:0:0:
182,351,174800,5,10,0:0:0:0:
182,351,174890,1,8,0:0:0:0:
182,351,174980,1,10,0:0:0:0:
256,213,175159,1,10,0:0:0:0:
338,346,175339,1,10,0:0:0:0:
137,153,175518,6,0,P|164:81|222:71,1,127.5,4|0,0:0|0:0,0:2:0:0:
284,107,175878,2,0,L|379:96,1,85,2|8,1:0|0:0,0:2:0:0:
471,272,176237,2,0,L|376:261,1,85,2|0,1:0|0:0,0:2:0:0:
165,247,176596,1,2,1:0:0:0:
389,172,176776,1,10,0:0:0:0:
207,68,176956,2,0,L|199:136,1,42.5,0|0,1:0|1:0,0:2:0:0:
170,336,177135,5,8,0:0:0:0:
54,107,177315,1,8,0:0:0:0:
54,107,177854,5,10,0:0:0:0:
47,213,178033,1,2,1:0:0:0:
40,319,178213,1,2,1:0:0:0:
168,146,178393,6,0,P|218:156|240:231,1,127.5,4|0,1:0|0:0,0:2:0:0:
191,300,178752,2,0,L|201:391,1,85,2|8,1:0|0:0,0:2:0:0:
335,151,179111,2,0,L|345:60,1,85,4|0,1:0|0:2,0:2:0:0:
437,349,179470,1,10,0:0:0:0:
437,349,179560,1,8,0:0:0:0:
437,349,179650,1,10,0:0:0:0:
287,303,179830,1,0,1:0:0:0:
427,135,180009,6,0,P|471:128|525:131,2,85,4|0|0,0:0|0:2|1:0,0:2:0:0:
273,212,180548,1,2,0:0:0:0:
335,151,180728,2,0,L|325:60,1,85,2|2,1:0|0:0,0:2:0:0:
155,208,181087,1,10,0:0:0:0:
130,45,181267,6,0,P|170:31|242:40,1,85,2|0,0:0|1:0,0:2:0:0:
155,208,181626,2,0,P|115:222|43:213,1,85,2|0,0:0|1:0,0:2:0:0:
4,59,181986,2,0,L|-2:166,1,85,2|0,0:0|1:0,0:2:0:0:
46,358,182345,2,0,L|41:281,1,42.5,8|8,0:0|0:0,0:2:0:0:
155,208,182525,2,0,L|150:284,1,42.5,8|0,0:0|0:2,0:2:0:0:
276,378,182704,6,0,P|330:374|352:256,1,170,6|2,0:0|0:0,0:2:0:0:
241,131,183243,2,0,P|317:142|361:130,1,85,10|0,1:0|0:0,0:2:0:0:
435,0,183602,1,0,1:0:0:0:
292,41,183782,1,0,0:0:0:0:
487,141,183962,2,0,L|495:256,1,85,8|0,1:0|1:0,0:2:0:0:
441,300,184231,1,0,1:0:0:0:
441,300,184321,6,0,L|433:415,1,85,4|0,3:0|0:2,0:2:0:0:
257,188,184680,2,0,P|290:153|350:141,1,85,10|0,1:0|0:0,0:2:0:0:
328,354,185039,1,2,1:0:0:0:
328,354,185219,1,0,0:0:0:0:
157,215,185399,5,10,0:0:0:0:
155,193,185488,1,8,0:0:0:0:
154,172,185578,1,8,0:0:0:0:
152,151,185668,1,8,0:2:0:0:
151,130,185758,6,0,P|67:95|13:161,1,170,14|2,0:0|1:0,0:2:0:0:
47,363,186297,1,10,0:0:0:0:
105,296,186476,1,0,1:0:0:0:
60,220,186656,1,0,1:0:0:0:
257,188,186836,6,0,B|288:239|288:239|267:352,1,170,12|0,0:0|1:0,0:2:0:0:
157,215,187375,1,8,0:0:0:0:
332,75,187734,1,0,1:0:0:0:
254,145,187914,6,0,L|258:205,1,42.5,8|0,0:0|1:0,0:2:0:0:
365,321,188093,1,8,0:0:0:0:
393,320,188182,1,8,0:0:0:0:
418,308,188272,1,0,1:0:0:0:
436,287,188362,1,8,0:0:0:0:
444,260,188452,1,8,0:0:0:0:
439,232,188542,1,8,0:0:0:0:
424,209,188632,6,0,L|412:51,1,127.5,6|0,1:0|0:0,0:2:0:0:
263,17,188991,6,0,L|251:175,1,127.5,6|0,1:0|0:0,0:2:0:0:
102,209,189351,6,0,L|90:51,1,127.5,6|0,1:0|0:0,0:2:0:0:
202,278,189710,6,0,P|147:330|56:321,1,170,6|0,1:0|0:0,0:2:0:0:
46,296,190159,1,0,1:0:0:0:
62,277,190248,1,0,1:0:0:0:
73,256,190338,1,0,1:0:0:0:
80,233,190428,1,8,0:0:0:0:
82,209,190518,1,8,0:0:0:0:
79,185,190608,1,8,0:0:0:0:
70,162,190697,1,8,0:0:0:0:
56,142,190787,5,10,0:0:0:0:
313,208,190967,1,8,0:0:0:0:
0,55,191507,6,0,L|4:0,1,55.2499974708558,6|0,0:0|0:2,0:2:0:0:
168,178,191686,5,0,1:0:0:0:
195,174,191775,1,8,0:0:0:0:
222,171,191866,2,0,L|216:95,1,55.2499974708558,10|0,0:0|0:2,0:2:0:0:
58,322,192045,5,8,0:0:0:0:
31,318,192136,1,8,0:2:0:0:
4,315,192225,2,0,L|10:239,1,55.2499974708558,2|0,1:0|0:2,0:2:0:0:
74,129,192405,2,0,L|80:205,1,55.2499974708558,0|0,1:0|0:2,0:2:0:0:
233,360,192585,6,0,P|312:373|365:275,1,204,6|2,1:0|0:0,0:2:0:0:
365,276,193213,1,2,0:0:0:0:
365,276,193303,1,10,0:0:0:0:
210,255,193482,1,8,0:0:0:0:
210,255,193572,1,8,0:0:0:0:
210,255,193662,5,10,0:0:0:0:
231,100,193842,1,0,1:0:0:0:
386,121,194021,1,2,1:0:0:0:
365,276,194201,1,0,1:0:0:0:
466,70,194381,5,4,1:0:0:0:
237,9,194560,5,0,1:0:0:0:
196,16,194650,1,0,1:0:0:0:
163,41,194740,1,10,0:0:0:0:
294,229,194920,5,8,0:0:0:0:
308,189,195010,1,8,0:0:0:0:
303,148,195100,1,10,0:0:0:0:
74,168,195278,5,8,0:0:0:0:
102,200,195368,1,8,0:0:0:0:
140,216,195458,1,10,0:0:0:0:
138,243,195549,1,8,0:0:0:0:
137,271,195639,1,8,0:0:0:0:
136,298,195728,1,8,0:0:0:0:
135,326,195817,5,4,0:0:0:0:
0,182,195997,5,0,0:0:0:0:
1,214,196087,1,0,0:0:0:0:
2,248,196177,1,10,0:0:0:0:
218,67,196357,5,8,0:0:0:0:
215,105,196447,1,8,0:0:0:0:
213,146,196537,1,10,0:0:0:0:
0,0,196716,5,8,0:0:0:0:
4,46,196806,1,8,0:0:0:0:
6,95,196896,2,0,L|119:80,1,102,14|0,0:0|0:0,0:2:0:0:
294,3,197255,6,0,P|363:23|352:114,1,140.25000428009,6|0,1:0|0:0,0:2:0:0:
313,158,197614,2,0,P|311:213|313:263,1,93.5000028533936,10|0,0:0|1:0,0:2:0:0:
312,251,197884,1,0,1:0:0:0:
312,251,197973,1,0,1:0:0:0:
215,105,198153,1,0,1:0:0:0:
125,289,198333,2,0,P|127:344|125:394,1,93.5000028533936,10|0,0:0|1:0,0:2:0:0:
35,374,198602,1,0,1:0:0:0:
35,374,198692,6,0,P|8:312|54:246,1,140.25000428009,2|0,1:0|0:2,0:2:0:0:
113,198,199051,2,0,B|131:150|131:150|117:89,1,93.5000028533936,10|0,0:0|1:0,0:2:0:0:
121,108,199321,1,0,1:0:0:0:
121,108,199411,1,0,1:0:0:0:
218,268,199590,1,0,1:0:0:0:
305,78,199770,5,10,0:0:0:0:
339,80,199859,1,0,1:0:0:0:
374,83,199949,1,8,0:0:0:0:
409,86,200039,1,8,0:0:0:0:
444,89,200129,5,14,0:0:0:0:
248,158,200309,1,0,1:0:0:0:
455,269,200488,5,10,0:0:0:0:
243,175,200668,1,0,1:0:0:0:
321,384,200848,5,10,0:0:0:0:
227,183,201028,1,0,1:0:0:0:
496,150,201207,6,0,L|483:395,1,233.750007133484,14|0,0:0|0:2,0:2:0:0:
319,384,201746,5,8,0:0:0:0:
290,360,201835,1,8,0:0:0:0:
275,326,201925,1,8,0:0:0:0:
276,289,202015,1,0,1:0:0:0:
293,256,202105,1,0,1:0:0:0:
323,234,202195,1,0,1:0:0:0:
359,227,202285,5,10,0:0:0:0:
129,222,202464,1,8,0:0:0:0:
327,123,202644,1,2,0:0:0:0:
151,34,202824,1,2,0:0:0:0:
359,227,203003,6,0,P|434:212|454:196,1,93.5000028533936,6|0,0:0|0:2,0:2:0:0:
342,5,203363,2,0,P|267:20|247:36,1,93.5000028533936,10|0,0:0|1:0,0:2:0:0:
153,201,203722,1,2,1:0:0:0:
151,34,203902,1,0,1:0:0:0:
170,219,204081,2,0,L|177:322,1,93.5000028533936,10|0,0:0|1:0,0:2:0:0:
249,112,204440,5,4,0:0:0:0:
66,151,204620,1,2,0:2:0:0:
273,227,204800,2,0,P|327:206|366:163,1,93.5000028533936,10|0,0:0|1:0,0:2:0:0:
238,19,205159,2,0,L|250:130,1,93.5000028533936,2|0,1:0|1:0,0:2:0:0:
443,270,205518,2,0,L|455:159,1,93.5000028533936,10|0,0:0|1:0,0:2:0:0:
453,177,205788,1,0,1:0:0:0:
453,177,205878,5,4,0:0:0:0:
302,333,206057,1,2,0:2:0:0:
248,111,206237,2,0,P|305:133|330:164,1,93.5000028533936,10|0,0:0|1:0,0:2:0:0:
179,259,206596,2,0,P|131:297|92:303,1,93.5000028533936,2|0,1:0|1:0,0:2:0:0:
85,125,206956,2,0,P|75:64|89:27,1,93.5000028533936,10|0,0:0|1:0,0:2:0:0:
173,26,207225,1,0,1:0:0:0:
173,26,207315,6,0,L|275:17,1,93.5000028533936,4|2,0:0|0:2,0:2:0:0:
418,164,207674,2,0,L|316:155,1,93.5000028533936,10|0,0:0|1:0,0:2:0:0:
324,155,207943,1,0,1:0:0:0:
324,155,208033,1,2,1:0:0:0:
174,212,208213,2,0,L|180:270,1,46.7500014266968,0|0,1:0|1:0,0:2:0:0:
206,384,208393,1,10,0:0:0:0:
302,247,208572,1,0,1:0:0:0:
78,349,208752,6,0,P|14:295|42:220,1,140.25000428009,6|0,0:0|0:2,0:2:0:0:
69,173,209111,2,0,P|80:107|70:71,1,93.5000028533936,10|0,0:0|1:0,0:2:0:0:
74,81,209381,1,0,1:0:0:0:
74,81,209470,1,0,1:0:0:0:
174,212,209650,1,0,1:0:0:0:
246,17,209830,2,0,L|353:31,1,93.5000028533936,10|0,0:0|1:0,0:2:0:0:
419,71,210099,1,0,1:0:0:0:
419,71,210189,6,0,B|397:118|397:118|422:230,1,140.25000428009,2|0,1:0|0:2,0:2:0:0:
356,320,210548,2,0,P|342:259|297:208,1,93.5000028533936,10|0,0:0|1:0,0:2:0:0:
325,233,210818,1,0,1:0:0:0:
325,233,210908,1,0,1:0:0:0:
186,291,211087,1,0,1:0:0:0:
171,64,211267,5,10,0:0:0:0:
216,66,211356,1,8,0:0:0:0:
253,94,211446,1,8,0:0:0:0:
267,138,211536,1,8,0:0:0:0:
255,182,211626,5,14,0:0:0:0:
57,142,211806,1,0,1:0:0:0:
325,233,211985,5,10,0:0:0:0:
82,288,212165,1,0,1:0:0:0:
398,181,212345,5,10,0:0:0:0:
171,64,212524,1,0,1:0:0:0:
269,333,212704,6,0,P|361:350|425:289,1,170,14|0,0:0|0:2,0:2:0:0:
426,199,213243,5,8,0:0:0:0:
425,175,213332,1,8,0:0:0:0:
424,152,213422,1,8,0:0:0:0:
423,128,213512,1,0,1:0:0:0:
423,105,213602,1,0,1:0:0:0:
422,82,213692,1,0,1:0:0:0:
421,58,213782,6,0,P|352:64|289:25,1,140.25000428009,6|2,1:0|0:0,0:2:0:0:
155,113,214141,6,0,P|224:107|287:146,1,140.25000428009,12|0,0:0|0:2,0:2:0:0:
325,233,214500,5,4,0:0:0:0:
111,224,214680,1,2,0:2:0:0:
283,141,214860,1,10,0:0:0:0:
275,342,215039,1,2,1:0:0:0:
200,199,215219,1,2,1:0:0:0:
426,199,215399,1,0,1:0:0:0:
275,342,215578,1,8,0:0:0:0:
290,148,215758,1,8,0:0:0:0:
290,148,215848,1,8,0:0:0:0:
290,148,215937,5,10,0:0:0:0:
394,318,216117,1,0,1:0:0:0:
491,126,216297,2,0,P|448:107|382:109,1,93.5000028533936,8|0,0:0|1:0,0:2:0:0:
402,104,216566,1,2,0:2:0:0:
402,104,216656,1,2,1:0:0:0:
319,261,216836,1,0,0:0:0:0:
173,41,217015,1,10,0:0:0:0:
228,218,217195,1,8,0:0:0:0:
228,218,217285,1,8,0:0:0:0:
228,218,217375,6,0,L|234:152,1,46.7500014266968,10|0,0:0|0:2,0:2:0:0:
172,40,217555,2,0,L|177:87,1,46.7500014266968,0|0,0:2|0:2,0:2:0:0:
112,226,217734,2,0,L|118:160,1,46.7500014266968,2|0,1:0|1:0,0:2:0:0:
56,48,217914,2,0,L|60:95,1,46.7500014266968,2|0,1:0|1:0,0:2:0:0:
228,218,218093,5,0,1:0:0:0:
270,230,218182,1,0,1:0:0:0:
316,221,218272,1,0,1:0:0:0:
350,191,218362,1,0,1:0:0:0:
367,149,218453,5,8,0:0:0:0:
369,203,218542,1,8,0:0:0:0:
371,257,218632,1,8,0:0:0:0:
375,312,218722,1,8,0:0:0:0:
377,365,218812,1,8,0:0:0:0:
267,127,220249,5,2,0:0:0:0:
43,338,221327,5,2,0:0:0:0:
43,338,221506,1,2,0:0:0:0:
100,260,221686,6,0,P|106:209|100:180,2,68,10|10|10,0:0|0:0|0:0,0:2:0:0:
186,304,222225,1,10,0:0:0:0:
186,304,222405,1,10,0:0:0:0:
221,136,222585,6,0,L|278:138,1,42.5,8|8,0:0|0:0,0:2:0:0:
378,74,222764,1,0,0:0:0:0:
396,102,222853,1,0,0:2:0:0:
403,135,222943,1,0,0:0:0:0:
398,168,223033,1,0,0:2:0:0:
381,198,223123,5,6,0:0:0:0:
421,290,223303,5,8,0:2:0:0:
389,302,223393,1,8,0:2:0:0:
355,302,223483,1,10,0:0:0:0:
295,383,223662,5,8,0:0:0:0:
269,361,223752,1,8,0:0:0:0:
252,331,223842,1,10,0:0:0:0:
151,321,224021,5,8,0:0:0:0:
157,287,224111,1,8,0:0:0:0:
174,257,224201,1,10,0:0:0:0:
192,228,224291,1,8,0:0:0:0:
201,194,224380,1,8,0:0:0:0:
196,160,224470,1,8,0:0:0:0:
181,130,224560,5,6,1:0:0:0:
41,252,224740,5,8,0:2:0:0:
42,279,224829,1,8,0:2:0:0:
44,307,224919,1,10,0:0:0:0:
181,130,225099,5,8,0:0:0:0:
182,103,225188,1,8,0:0:0:0:
184,75,225278,1,10,0:0:0:0:
38,197,225458,5,8,0:0:0:0:
39,224,225549,1,8,0:0:0:0:
41,252,225638,1,10,0:0:0:0:
64,265,225727,1,8,0:0:0:0:
91,270,225817,1,8,0:0:0:0:
119,267,225907,1,8,0:0:0:0:
143,255,225997,5,4,0:0:0:0:
290,79,226177,5,8,0:2:0:0:
277,109,226267,1,8,0:2:0:0:
275,141,226357,1,8,0:0:0:0:
366,368,226536,5,8,0:0:0:0:
342,333,226626,1,8,0:0:0:0:
307,311,226716,1,8,0:0:0:0:
165,139,226896,5,8,0:0:0:0:
220,140,226985,1,8,0:0:0:0:
275,141,227075,1,10,0:0:0:0:
330,143,227165,1,8,0:0:0:0:
385,144,227255,2,0,L|452:145,1,55.2499974708558,8|8,0:0|0:0,0:2:0:0:
512,304,227435,6,0,L|505:243,1,55.2499974708558,6|0,0:0|0:0,0:2:0:0:
307,311,227614,2,0,L|313:256,1,55.2499974708558,0|0,1:0|0:0,0:2:0:0:
508,125,227794,6,0,L|501:64,1,55.2499974708558,2|0,0:0|0:0,0:2:0:0:
303,132,227974,2,0,L|309:77,1,55.2499974708558,0|0,1:0|0:0,0:2:0:0:
512,304,228153,5,2,1:0:0:0:
307,311,228333,1,0,1:0:0:0:
406,89,228512,1,8,0:0:0:0:
406,89,228872,6,0,P|345:56|280:80,1,127.5,6|0,0:0|1:0,0:2:0:0:
219,125,229231,2,0,L|131:117,1,85,8|0,0:0|1:0,0:2:0:0:
134,117,229500,1,0,1:0:0:0:
134,117,229590,1,0,1:0:0:0:
201,297,229770,1,2,1:0:0:0:
300,163,229949,1,10,0:0:0:0:
97,209,230129,2,0,L|100:268,1,42.5,2|0,1:0|1:0,0:2:0:0:
317,291,230309,5,6,3:0:0:0:
79,351,230488,1,2,1:0:0:0:
217,207,230668,1,10,0:0:0:0:
54,101,230848,1,2,1:0:0:0:
54,101,230937,1,0,1:0:0:0:
54,101,231027,1,0,1:0:0:0:
99,251,231207,1,10,0:0:0:0:
270,63,231387,6,0,P|339:79|334:179,1,170,6|2,1:0|0:2,0:2:0:0:
172,15,231925,5,8,0:0:0:0:
172,15,232015,1,8,0:0:0:0:
172,15,232105,1,8,0:0:0:0:
217,207,232285,1,0,1:0:0:0:
384,0,232464,1,0,1:0:0:0:
323,181,232644,1,0,1:0:0:0:
510,304,232824,5,6,0:0:0:0:
256,192,232914,12,0,234620,0:2:0:0:
