osu file format v14

[General]
AudioFilename: audio.mp3
AudioLeadIn: 0
PreviewTime: 768
Countdown: 0
SampleSet: Soft
StackLeniency: 0.4
Mode: 0
LetterboxInBreaks: 0
WidescreenStoryboard: 1

[Editor]
Bookmarks: 65850,140581,169323,195191
DistanceSpacing: 1.3
BeatDivisor: 4
GridSize: 16
TimelineZoom: 2.700006

[Metadata]
Title:Sentimental Crisis
TitleUnicode:センチメンタルクライシス
Artist:halca
ArtistUnicode:halca
Creator:Hitsukuya
Version:I love you
Source:かぐや様は告らせたい ~天才たちの恋愛頭脳戦~
Tags:Kaguya-sama wa kokurasetai tensai-tachi no renai zunosen kaguya wants to be confessed the genius war of love and brains is full size japanese anime ending pop j-pop jpop shady -[Shady]- iceluin Mimilie Suzuhara Lulu
BeatmapID:2560878
BeatmapSetID:1171966

[Difficulty]
HPDrainRate:5
CircleSize:4.2
OverallDifficulty:8.4
ApproachRate:9
SliderMultiplier:1.72
SliderTickRate:1

[Events]
//Background and Video events
0,0,"kaguya.png",0,0
//Break Periods
//Storyboard Layer 0 (Background)
//Storyboard Layer 1 (Fail)
//Storyboard Layer 2 (Pass)
//Storyboard Layer 3 (Foreground)
//Storyboard Layer 4 (Overlay)
//Storyboard Sound Samples
Sample,866,0,"keysound/E6_intro.wav",30
Sample,1255,0,"keysound/D6_intro.wav",30
Sample,1645,0,"keysound/C#6_intro.wav",30
Sample,2034,0,"keysound/E6_intro.wav",30
Sample,2424,0,"keysound/B6_intro.wav",30
Sample,2814,0,"keysound/A6_intro.wav",30
Sample,3593,0,"keysound/E6_intro.wav",30
Sample,3982,0,"keysound/B6_intro.wav",30
Sample,4372,0,"keysound/A6_intro.wav",30
Sample,5151,0,"keysound/E6_intro.wav",30
Sample,5541,0,"keysound/B6_intro.wav",30
Sample,5930,0,"keysound/B6_intro.wav",30
Sample,6320,0,"keysound/C#7_intro.wav",30
Sample,6710,0,"keysound/D7_intro.wav",30
Sample,7099,0,"keysound/C#7_intro.wav",30
Sample,7489,0,"keysound/B6_intro.wav",30
Sample,7878,0,"keysound/B6_intro.wav",30
Sample,8268,0,"keysound/C#7_intro_long.wav",30
Sample,10216,0,"keysound/B6_intro_long.wav",30
Sample,10995,0,"keysound/A6_intro_long.wav",30

[TimingPoints]
866,389.61038961039,4,2,1,30,1,0
866,-142.857142857143,4,2,1,30,0,0
13723,-83.3333333333333,4,2,1,40,0,0
14114,359.281437125748,4,2,1,60,1,0
14114,-111.111111111111,4,2,2,70,0,0
18515,-111.111111111111,4,2,1,5,0,0
18605,-111.111111111111,4,2,1,70,0,0
18694,-111.111111111111,4,2,1,5,0,0
18784,-111.111111111111,4,2,1,70,0,0
18874,-111.111111111111,4,2,1,5,0,0
18964,-111.111111111111,4,2,1,70,0,0
19054,-111.111111111111,4,2,1,5,0,0
19144,-111.111111111111,4,2,1,70,0,0
19233,-111.111111111111,4,2,1,5,0,0
19323,-111.111111111111,4,2,1,70,0,0
19413,-111.111111111111,4,2,1,5,0,0
19503,-125,4,2,1,70,0,0
19862,-100,4,2,1,60,0,0
20131,-100,4,2,1,5,0,0
20221,-100,4,2,1,60,0,0
20401,-100,4,1,2,60,0,0
20760,-100,4,2,1,60,0,0
21119,-100,4,1,2,60,0,0
21479,-100,4,2,1,60,0,0
21838,-100,4,1,2,60,0,0
22197,-100,4,2,1,60,0,0
22377,-142.857142857143,4,2,1,60,0,0
22826,-142.857142857143,4,2,1,5,0,0
22916,-100,4,1,2,60,0,0
23275,-100,4,2,1,60,0,0
23814,-250.000000000001,4,2,1,60,0,0
25341,-250.000000000001,4,2,1,5,0,0
25431,-125,4,2,1,60,0,0
25611,-142.857142857143,4,2,3,40,0,0
34233,-100,4,2,1,50,0,0
34323,-100,4,2,1,5,0,0
34413,-100,4,2,1,50,0,0
34503,-100,4,2,1,5,0,0
34593,-100,4,2,1,60,0,0
35670,-100,4,1,2,70,0,0
37108,-111.111111111111,4,2,1,60,0,0
38814,-111.111111111111,4,2,1,5,0,0
38904,-111.111111111111,4,2,1,60,0,0
40251,-111.111111111111,4,2,1,5,0,0
40341,-111.111111111111,4,2,1,60,0,0
42048,-111.111111111111,4,2,1,5,0,0
42138,-111.111111111111,4,2,1,60,0,0
44563,-111.111111111111,4,2,1,5,0,0
44653,-111.111111111111,4,2,1,60,0,0
45191,-111.111111111111,4,1,2,60,0,0
45730,-142.857142857143,4,2,1,50,0,0
46988,-142.857142857143,4,1,2,50,0,0
47167,-142.857142857143,4,2,1,60,0,0
48155,-142.857142857143,4,2,1,5,0,0
48245,-142.857142857143,4,2,1,50,0,0
49233,-142.857142857143,4,2,1,5,0,0
49323,-142.857142857143,4,2,1,50,0,0
52108,-142.857142857143,4,2,1,5,0,0
52198,-142.857142857143,4,2,1,50,0,0
52467,-142.857142857143,4,2,1,5,0,0
52557,-142.857142857143,4,2,1,50,0,0
53814,-142.857142857143,4,1,2,50,0,0
54353,-125,4,2,1,50,0,0
56509,-125,4,1,2,50,0,0
56778,-125,4,2,1,5,0,0
56868,-125,4,1,2,50,0,0
57227,-100,4,2,1,60,0,0
57497,-100,4,2,1,5,0,0
57587,-100,4,2,1,60,0,0
58934,-100,4,2,1,5,0,0
59024,-100,4,2,1,60,0,0
59563,-100,4,1,2,60,0,0
59742,-125,4,2,1,60,0,0
61539,-100,4,2,1,60,0,0
62167,-100,4,2,1,5,0,0
62257,-100,4,1,2,60,0,0
62976,-100,4,2,1,70,0,0
64054,-100,4,1,2,70,0,0
65131,-66.6666666666667,4,2,1,70,0,0
65176,-66.6666666666667,4,2,1,5,0,0
65221,-66.6666666666667,4,2,1,70,0,0
65266,-66.6666666666667,4,2,1,5,0,0
65311,-66.6666666666667,4,2,1,70,0,0
65356,-66.6666666666667,4,2,1,5,0,0
65401,-66.6666666666667,4,2,1,70,0,0
65446,-66.6666666666667,4,2,1,5,0,0
65491,-76.9230769230769,4,2,1,70,0,0
65850,-83.3333333333333,4,2,1,80,0,1
66119,-83.3333333333333,4,2,1,5,0,1
66209,-83.3333333333333,4,2,1,80,0,1
67557,-83.3333333333333,4,2,1,5,0,1
67647,-83.3333333333333,4,2,1,80,0,1
68994,-83.3333333333333,4,2,1,5,0,1
69084,-83.3333333333333,4,2,1,80,0,1
69353,-83.3333333333333,4,2,1,5,0,1
69443,-83.3333333333333,4,2,1,80,0,1
70431,-83.3333333333333,4,2,1,5,0,1
70521,-83.3333333333333,4,2,1,80,0,1
70611,-83.3333333333333,4,2,1,5,0,1
70700,-83.3333333333333,4,2,1,80,0,1
71868,-83.3333333333333,4,2,1,5,0,1
71958,-83.3333333333333,4,2,1,80,0,1
72856,-83.3333333333333,4,2,1,80,0,1
73036,-83.3333333333333,4,2,1,80,0,1
73305,-83.3333333333333,4,2,1,5,0,1
73395,-83.3333333333333,4,2,1,80,0,1
74113,-83.3333333333333,4,2,1,80,0,1
74473,-83.3333333333333,4,2,1,80,0,1
75551,-111.111111111111,4,2,1,60,0,0
76000,-111.111111111111,4,2,1,5,0,0
76090,-111.111111111111,4,1,2,60,0,0
76628,-111.111111111111,4,2,1,70,0,0
77347,-83.3333333333333,4,2,1,80,0,1
77616,-83.3333333333333,4,2,1,5,0,1
77706,-83.3333333333333,4,2,1,80,0,1
79054,-83.3333333333333,4,2,1,5,0,1
79144,-83.3333333333333,4,2,1,80,0,1
80491,-83.3333333333333,4,2,1,5,0,1
80581,-83.3333333333333,4,2,1,80,0,1
80850,-83.3333333333333,4,2,1,5,0,1
80940,-83.3333333333333,4,2,1,80,0,1
81928,-83.3333333333333,4,2,1,5,0,1
82018,-83.3333333333333,4,2,1,80,0,1
82108,-83.3333333333333,4,2,1,5,0,1
82197,-83.3333333333333,4,2,1,80,0,1
83365,-83.3333333333333,4,2,1,5,0,1
83455,-83.3333333333333,4,2,1,80,0,1
84622,-83.3333333333333,4,2,1,5,0,1
84712,-83.3333333333333,4,2,1,80,0,1
84802,-83.3333333333333,4,2,1,5,0,1
84892,-83.3333333333333,4,2,1,80,0,1
85611,-83.3333333333333,4,2,1,80,0,1
85970,-83.3333333333333,4,2,1,80,0,1
86239,-83.3333333333333,4,2,1,5,0,1
86329,-83.3333333333333,4,2,1,80,0,1
87048,-125,4,2,1,60,0,0
87497,-83.3333333333333,4,2,1,5,0,0
87587,-83.3333333333333,4,1,2,80,0,0
87766,-90.9090909090909,4,1,2,80,0,0
88125,-111.111111111111,4,2,1,80,0,0
88485,-83.3333333333333,4,2,1,80,0,0
88844,-76.9230769230769,4,2,1,80,0,1
89652,-76.9230769230769,4,2,1,5,0,1
89742,-76.9230769230769,4,2,1,80,0,1
90102,-76.9230769230769,4,1,2,80,0,1
90281,-76.9230769230769,4,2,1,80,0,1
91090,-76.9230769230769,4,2,1,5,0,1
91180,-76.9230769230769,4,2,1,80,0,1
91539,-76.9230769230769,4,1,2,80,0,1
91718,-76.9230769230769,4,2,1,80,0,1
91988,-76.9230769230769,4,2,1,5,0,1
92078,-76.9230769230769,4,2,1,80,0,1
92437,-76.9230769230769,4,2,2,80,0,1
93155,-125,4,2,1,60,0,0
94593,-111.111111111111,4,2,1,60,0,0
95401,-111.111111111111,4,2,1,5,0,0
95491,-111.111111111111,4,2,1,60,0,0
96119,-111.111111111111,4,2,1,5,0,0
96209,-111.111111111111,4,2,1,60,0,0
96838,-111.111111111111,4,2,1,5,0,0
96928,-111.111111111111,4,2,1,60,0,0
97557,-111.111111111111,4,2,1,5,0,0
97646,-111.111111111111,4,1,2,60,0,0
98185,-111.111111111111,4,2,1,60,0,0
98724,-249.999999999999,4,2,1,60,0,0
100072,-249.999999999999,4,2,1,5,0,0
100161,-125,4,2,1,60,0,0
100341,-125,4,2,1,50,0,0
100611,-125,4,2,1,5,0,0
100700,-125,4,2,1,50,0,0
103485,-125,4,2,1,5,0,0
103575,-125,4,2,1,50,0,0
104652,-111.111111111111,4,2,1,50,0,0
104922,-111.111111111111,4,2,1,5,0,0
105012,-111.111111111111,4,2,1,50,0,0
105281,-111.111111111111,4,2,1,5,0,0
105371,-125,4,2,1,50,0,0
106090,-111.111111111111,4,2,1,40,0,0
108964,-100,4,2,2,50,0,0
109862,-100,4,2,2,60,0,0
110401,-100,4,2,2,70,0,0
111838,-111.111111111111,4,2,1,60,0,0
112108,-111.111111111111,4,2,1,5,0,0
112197,-111.111111111111,4,2,1,60,0,0
114982,-111.111111111111,4,2,1,5,0,0
115071,-111.111111111111,4,2,1,60,0,0
116778,-111.111111111111,4,2,1,5,0,0
116867,-111.111111111111,4,2,1,60,0,0
117407,-111.111111111111,4,1,2,60,0,0
117587,-111.111111111111,4,2,1,60,0,0
117856,-111.111111111111,4,2,1,5,0,0
117945,-111.111111111111,4,2,1,60,0,0
120461,-142.857142857143,4,2,1,50,0,0
121090,-142.857142857143,4,2,1,5,0,0
121179,-142.857142857143,4,2,1,50,0,0
122078,-142.857142857143,4,1,2,50,0,0
122437,-142.857142857143,4,2,1,50,0,0
126838,-142.857142857143,4,2,1,5,0,0
126927,-142.857142857143,4,2,1,50,0,0
127197,-142.857142857143,4,2,1,5,0,0
127286,-142.857142857143,4,2,1,50,0,0
129084,-125,4,2,1,50,0,0
130072,-125,4,2,1,5,0,0
130161,-125,4,2,1,50,0,0
131239,-125,4,1,2,50,0,0
131509,-125,4,2,1,5,0,0
131599,-125,4,1,2,50,0,0
131958,-100,4,2,1,60,0,0
132227,-100,4,2,1,5,0,0
132317,-100,4,2,1,60,0,0
133664,-100,4,2,1,5,0,0
133754,-100,4,2,1,60,0,0
134293,-100,4,1,2,60,0,0
134473,-125,4,2,1,60,0,0
136269,-100,4,2,1,60,0,0
136898,-100,4,2,1,5,0,0
136988,-100,4,1,2,60,0,0
137706,-100,4,2,1,60,0,0
138784,-100,4,1,2,60,0,0
139862,-66.6666666666667,4,2,1,60,0,0
139907,-66.6666666666667,4,2,1,5,0,0
139952,-66.6666666666667,4,2,1,60,0,0
139997,-66.6666666666667,4,2,1,5,0,0
140042,-66.6666666666667,4,2,1,60,0,0
140087,-66.6666666666667,4,2,1,5,0,0
140132,-66.6666666666667,4,2,1,60,0,0
140177,-66.6666666666667,4,2,1,5,0,0
140222,-76.9230769230769,4,2,1,60,0,0
140581,-83.3333333333333,4,2,1,80,0,1
140850,-83.3333333333333,4,2,1,5,0,1
140940,-83.3333333333333,4,2,1,80,0,1
142287,-83.3333333333333,4,2,1,5,0,1
142377,-83.3333333333333,4,2,1,80,0,1
143724,-83.3333333333333,4,2,1,5,0,1
143814,-83.3333333333333,4,2,1,80,0,1
145161,-83.3333333333333,4,2,1,5,0,1
145251,-83.3333333333333,4,2,1,80,0,1
145341,-83.3333333333333,4,2,1,5,0,1
145431,-83.3333333333333,4,2,1,80,0,1
146599,-83.3333333333333,4,2,1,5,0,1
146689,-83.3333333333333,4,2,1,80,0,1
147587,-83.3333333333333,4,2,1,80,0,1
147766,-83.3333333333333,4,2,1,80,0,1
148036,-83.3333333333333,4,2,1,5,0,1
148126,-83.3333333333333,4,2,1,80,0,1
148844,-83.3333333333333,4,1,2,80,0,1
149203,-83.3333333333333,4,2,1,80,0,1
150281,-111.111111111111,4,2,1,60,0,0
150730,-111.111111111111,4,2,1,5,0,0
150820,-111.111111111111,4,1,2,70,0,0
151359,-111.111111111111,4,2,1,70,0,0
152078,-83.3333333333333,4,2,1,80,0,1
152347,-83.3333333333333,4,2,1,5,0,1
152437,-83.3333333333333,4,2,1,80,0,1
153784,-83.3333333333333,4,2,1,5,0,1
153874,-83.3333333333333,4,2,1,80,0,1
155221,-83.3333333333333,4,2,1,5,0,1
155311,-83.3333333333333,4,2,1,80,0,1
156658,-83.3333333333333,4,2,1,5,0,1
156748,-83.3333333333333,4,2,1,80,0,1
156838,-83.3333333333333,4,2,1,5,0,1
156928,-83.3333333333333,4,2,1,80,0,1
158096,-83.3333333333333,4,2,1,5,0,1
158186,-83.3333333333333,4,2,1,80,0,1
160341,-83.3333333333333,4,2,1,80,0,1
160700,-83.3333333333333,4,2,1,80,0,1
160970,-83.3333333333333,4,2,1,5,0,1
161060,-83.3333333333333,4,2,1,80,0,1
161778,-125,4,2,1,60,0,0
162227,-83.3333333333333,4,2,1,5,0,0
162317,-83.3333333333333,4,1,2,60,0,0
162496,-90.9090909090909,4,1,2,60,0,0
162855,-111.111111111111,4,2,1,80,0,0
163215,-83.3333333333333,4,2,1,80,0,0
163575,-76.9230769230769,4,2,1,80,0,1
164383,-76.9230769230769,4,2,1,5,0,1
164473,-76.9230769230769,4,2,1,80,0,1
164832,-76.9230769230769,4,1,2,80,0,1
165012,-76.9230769230769,4,2,1,80,0,1
165820,-76.9230769230769,4,2,1,5,0,1
165910,-76.9230769230769,4,2,1,80,0,1
166269,-76.9230769230769,4,1,2,80,0,1
166449,-76.9230769230769,4,2,1,80,0,1
166718,-76.9230769230769,4,2,1,5,0,1
166808,-76.9230769230769,4,2,1,80,0,1
167167,-76.9230769230769,4,1,2,80,0,1
167886,-76.9230769230769,4,2,1,80,0,1
168605,-76.9230769230769,4,1,2,60,0,1
169323,-90.9090909090908,4,2,1,60,0,0
170670,-90.9090909090908,4,2,1,5,0,0
170760,-90.9090909090908,4,2,1,60,0,0
171030,-90.9090909090908,4,2,1,5,0,0
171120,-90.9090909090908,4,2,1,60,0,0
171389,-90.9090909090908,4,2,1,5,0,0
171479,-90.9090909090908,4,2,1,60,0,0
171748,-90.9090909090908,4,2,1,5,0,0
171838,-90.9090909090908,4,2,1,60,0,0
172197,-111.111111111111,4,2,1,60,0,0
176599,-111.111111111111,4,2,1,5,0,0
176688,-111.111111111111,4,2,1,60,0,0
177317,-111.111111111111,4,2,1,5,0,0
177406,-111.111111111111,4,2,1,60,0,0
177946,-99.9999999999999,4,2,1,60,0,0
179473,-99.9999999999999,4,2,1,5,0,0
179563,-99.9999999999999,4,2,1,60,0,0
179832,-99.9999999999999,4,2,1,5,0,0
179922,-99.9999999999999,4,2,1,60,0,0
180191,-99.9999999999999,4,2,1,5,0,0
180281,-99.9999999999999,4,2,1,60,0,0
182527,-99.9999999999999,4,2,1,5,0,0
182617,-99.9999999999999,4,2,1,60,0,0
182886,-99.9999999999999,4,2,1,5,0,0
182976,-99.9999999999999,4,2,1,60,0,0
185940,-99.9999999999999,4,2,1,5,0,0
186030,-99.9999999999999,4,1,2,60,0,0
186569,-99.9999999999999,4,2,1,60,0,0
186838,-99.9999999999999,4,2,1,5,0,0
186928,-99.9999999999999,4,2,1,60,0,0
187197,-99.9999999999999,4,2,1,5,0,0
187287,-99.9999999999999,4,2,1,60,0,0
187557,-99.9999999999999,4,2,1,5,0,0
187647,-99.9999999999999,4,2,1,60,0,0
188006,-99.9999999999999,4,2,1,5,0,0
188096,-99.9999999999999,4,1,2,60,0,0
189443,-99.9999999999999,4,2,1,60,0,0
190341,-99.9999999999999,4,1,2,60,0,0
190521,-99.9999999999999,4,2,1,60,0,0
191419,-99.9999999999999,4,1,2,60,0,0
191599,-99.9999999999999,4,2,1,60,0,0
192317,-90.9090909090909,4,1,2,80,0,1
194832,-200,4,2,1,60,0,0
195102,-200,4,2,1,5,0,0
195191,-83.3333333333333,4,2,1,80,0,1
195461,-83.3333333333333,4,2,1,5,0,1
195551,-83.3333333333333,4,2,1,80,0,1
196898,-83.3333333333333,4,2,1,5,0,1
196988,-83.3333333333333,4,2,1,80,0,1
199143,-111.111111111111,4,2,1,60,0,0
199593,-111.111111111111,4,2,1,5,0,0
199682,-111.111111111111,4,1,2,70,0,0
200221,-111.111111111111,4,2,1,70,0,0
200670,-111.111111111111,4,2,1,5,0,0
200760,-111.111111111111,4,2,1,70,0,0
200850,-111.111111111111,4,2,1,5,0,0
200940,-83.3333333333333,4,2,1,80,0,1
201209,-83.3333333333333,4,2,1,5,0,1
201299,-83.3333333333333,4,2,1,80,0,1
202646,-83.3333333333333,4,2,1,5,0,1
202736,-83.3333333333333,4,2,1,80,0,1
204084,-83.3333333333333,4,2,1,5,0,1
204174,-83.3333333333333,4,2,1,80,0,1
204443,-83.3333333333333,4,2,1,5,0,1
204533,-83.3333333333333,4,2,1,80,0,1
205521,-83.3333333333333,4,2,1,5,0,1
205611,-83.3333333333333,4,2,1,80,0,1
205700,-83.3333333333333,4,2,1,5,0,1
205790,-83.3333333333333,4,2,1,80,0,1
206958,-83.3333333333333,4,2,1,5,0,1
207048,-83.3333333333333,4,2,1,80,0,1
208215,-83.3333333333333,4,2,1,5,0,1
208305,-83.3333333333333,4,2,1,80,0,1
208395,-83.3333333333333,4,2,1,5,0,1
208485,-83.3333333333333,4,2,1,80,0,1
209832,-83.3333333333333,4,2,1,5,0,1
209922,-83.3333333333333,4,2,1,80,0,1
210640,-125,4,2,1,60,0,0
211090,-83.3333333333333,4,2,1,5,0,0
211180,-83.3333333333333,4,1,2,80,0,0
211359,-90.9090909090909,4,1,2,80,0,0
211718,-111.111111111111,4,2,1,80,0,0
212078,-83.3333333333333,4,2,1,80,0,0
212347,-83.3333333333333,4,2,1,5,0,0
212437,-76.9230769230769,4,2,1,80,0,1
213245,-76.9230769230769,4,2,1,5,0,1
213335,-76.9230769230769,4,2,1,80,0,1
213694,-76.9230769230769,4,1,2,80,0,1
213874,-76.9230769230769,4,2,1,80,0,1
214682,-76.9230769230769,4,2,1,5,0,1
214772,-76.9230769230769,4,2,1,80,0,1
215131,-76.9230769230769,4,1,2,80,0,1
215311,-76.9230769230769,4,2,1,80,0,1
215581,-76.9230769230769,4,2,1,5,0,1
215671,-76.9230769230769,4,2,1,80,0,1
216748,-111.111111111111,4,2,1,60,0,0
218185,-200,4,2,1,30,0,0
218724,-200,4,2,1,40,0,0
219263,-200,4,2,1,50,0,0
219622,-111.111111111111,4,2,1,60,0,0
220700,-66.6666666666667,4,2,1,60,0,0
220745,-66.6666666666667,4,2,1,5,0,0
220790,-66.6666666666667,4,2,1,60,0,0
220835,-66.6666666666667,4,2,1,5,0,0
220880,-66.6666666666667,4,2,1,60,0,0
220925,-66.6666666666667,4,2,1,5,0,0
220970,-66.6666666666667,4,2,1,60,0,0
221015,-66.6666666666667,4,2,1,5,0,0
221060,-111.111111111111,4,2,2,70,0,0
225461,-111.111111111111,4,2,1,5,0,0
225551,-111.111111111111,4,2,1,60,0,0
225640,-111.111111111111,4,2,1,5,0,0
225730,-111.111111111111,4,2,1,60,0,0
225820,-111.111111111111,4,2,1,5,0,0
225910,-111.111111111111,4,2,1,60,0,0
226000,-111.111111111111,4,2,1,5,0,0
226090,-111.111111111111,4,2,1,60,0,0
226179,-111.111111111111,4,2,1,5,0,0
226269,-111.111111111111,4,2,1,60,0,0
226359,-111.111111111111,4,2,1,5,0,0
226449,-125,4,2,1,60,0,0
226808,-100,4,2,1,60,0,0
227078,-100,4,2,1,5,0,0
227167,-100,4,2,1,60,0,0
229323,-142.857142857143,4,2,1,60,0,0
229772,-142.857142857143,4,2,1,5,0,0
229862,-100,4,2,1,60,0,0
230760,-102.040816326531,4,2,1,60,0,0
232557,-102.040816326531,4,2,1,40,0,0

[Colours]
Combo1 : 141,138,137
Combo2 : 255,128,128
Combo3 : 243,175,192
Combo4 : 153,81,81

[HitObjects]
47,162,866,5,2,0:0:0:0:
129,153,1255,1,2,0:0:0:0:
213,147,1645,1,2,0:0:0:0:
183,59,2034,6,0,B|124:47|124:47|66:68,1,120.399996325684,2|2,0:0|0:0,0:0:0:0:
83,247,2814,2,0,B|139:259|139:259|198:235,1,120.399996325684,2|0,0:0|0:0,0:0:0:0:
286,82,3593,38,0,B|302:59|302:59|319:126|319:126|309:150,2,120.399996325684,2|2|2,0:0|0:0|0:0,0:0:0:0:
286,82,4762,1,2,0:0:0:0:
214,225,5151,2,0,B|276:202|274:247|343:221,1,120.399996325684,2|2,0:0|0:0,0:0:0:0:
402,166,5930,2,0,B|384:225|384:225|401:281,1,120.399996325684,2|2,0:0|0:0,0:0:0:0:
496,366,6710,2,0,B|446:363|446:363|425:373|425:373|371:371,2,120.399996325684,2|2|2,0:0|0:0|0:0,0:0:0:0:
311,278,7878,1,2,0:0:0:0:
301,383,8268,6,0,P|327:350|302:270,1,120.399996325684,2|0,0:0|0:0,0:0:0:0:
162,371,9047,1,2,0:0:0:0:
173,267,9437,2,0,P|142:316|161:371,1,120.399996325684,2|0,0:0|0:0,0:0:0:0:
252,221,10216,38,0,B|261:179|261:179|251:152|251:152|262:96,2,120.399996325684,2|0|2,0:0|0:0|0:0,0:0:0:0:
382,319,11385,5,2,0:0:0:0:
399,313,11580,1,2,0:0:0:0:
484,232,11775,37,2,0:0:0:0:
467,226,11970,1,2,0:0:0:0:
382,145,12164,5,2,0:0:0:0:
399,139,12359,1,2,0:0:0:0:
484,58,12554,37,2,0:0:0:0:
484,58,13723,5,2,0:0:0:0:
450,38,13820,1,2,0:0:0:0:
411,32,13917,1,2,0:0:0:0:
374,38,14015,1,2,0:0:0:0:
341,57,14114,6,0,B|303:65|303:65|266:55,1,77.3999976379395,6|0,0:1|1:0,0:0:0:0:
338,190,14383,1,0,1:0:0:0:
338,190,14473,2,0,B|350:153|350:153|378:126,1,77.3999976379395,2|0,1:0|1:0,0:0:0:0:
226,121,14742,1,0,1:0:0:0:
226,121,14832,2,0,B|251:150|251:150|260:187,1,77.3999976379395,2|0,1:0|1:0,0:0:0:0:
177,317,15191,5,0,1:0:0:0:
200,299,15280,1,0,1:0:0:0:
228,293,15370,1,0,1:0:0:0:
256,300,15460,1,0,1:0:0:0:
278,318,15551,38,0,L|359:315,1,77.3999976379395,6|0,1:0|1:0,0:0:0:0:
494,373,15820,1,0,1:0:0:0:
494,373,15910,2,0,L|417:376,1,77.3999976379395,2|0,1:0|1:0,0:0:0:0:
494,256,16179,1,0,1:0:0:0:
494,256,16269,2,0,L|416:253,1,77.3999976379395,2|0,1:0|1:0,0:0:0:0:
270,80,16628,5,0,1:0:0:0:
280,106,16717,1,0,1:0:0:0:
282,135,16807,1,0,1:0:0:0:
275,163,16897,1,0,1:0:0:0:
259,187,16987,1,6,1:0:0:0:
183,257,17167,1,0,1:0:0:0:
174,286,17257,1,0,1:0:0:0:
176,316,17347,1,0,1:0:0:0:
305,324,17527,1,0,1:0:0:0:
314,295,17617,1,0,1:0:0:0:
311,265,17707,1,0,1:0:0:0:
175,177,17886,37,0,1:0:0:0:
150,162,17975,1,0,1:0:0:0:
121,158,18065,1,2,1:0:0:0:
94,167,18155,1,0,1:0:0:0:
72,186,18245,2,0,L|73:235,1,38.6999988189698,0|0,1:0|1:0,0:0:0:0:
192,47,18425,6,0,L|187:100,1,38.6999988189698,6|0,3:2|0:0,0:0:0:0:
200,63,18605,2,0,L|195:116,1,38.6999988189698,2|0,3:2|0:0,0:0:0:0:
268,210,18784,38,0,L|263:157,1,38.6999988189698,2|0,3:2|0:0,0:0:0:0:
276,194,18964,2,0,L|271:141,1,38.6999988189698,2|0,3:2|0:0,0:0:0:0:
344,47,19143,6,0,L|339:100,1,38.6999988189698,2|0,3:2|0:0,0:0:0:0:
352,63,19323,2,0,L|347:116,1,38.6999988189698,2|0,3:2|0:0,0:0:0:0:
430,153,19503,6,0,L|506:159,1,68.8,2|2,0:1|0:0,0:0:0:0:
419,167,19772,1,2,0:0:0:0:
407,184,19862,6,0,B|388:233|388:233|400:278|400:278|414:246,1,129,6|0,0:0|0:0,0:0:0:0:
411,250,20221,2,0,B|366:239|366:239|313:251,1,86,8|0,0:0|0:0,0:0:0:0:
312,255,20491,1,0,0:0:0:0:
312,255,20581,1,0,0:0:0:0:
149,370,20760,5,2,1:2:0:0:
300,335,20940,1,10,0:0:0:0:
158,247,21119,2,0,L|153:300,1,43,2|0,0:2|0:0,0:0:0:0:
239,177,21299,5,2,1:2:0:0:
88,212,21479,1,2,1:2:0:0:
230,300,21658,1,10,0:0:0:0:
165,110,21838,1,2,0:2:0:0:
165,110,21928,1,0,0:0:0:0:
165,110,22018,1,0,0:0:0:0:
39,277,22197,1,2,1:2:0:0:
332,224,22377,6,0,B|385:205|431:240|431:240|406:253|385:249,1,150.499995407105,6|0,0:0|0:0,0:0:0:0:
332,224,22916,22,0,L|335:158,1,43,0|0,0:0|0:0,0:0:0:0:
349,42,23096,1,0,0:0:0:0:
420,164,23275,1,0,1:0:0:0:
291,106,23455,1,8,3:0:0:0:
428,78,23634,1,8,3:0:0:0:
177,27,23814,22,0,B|160:63|178:88|178:88|176:108|161:131|161:131|178:149|188:176|188:176|170:197|166:237|166:237|165:200|146:177,1,292.4,4|0,0:0|0:0,0:0:0:0:
88,215,25431,6,0,P|94:232|96:249,1,34.4,2|0,0:0|0:0,0:0:0:0:
39,314,25611,38,0,B|96:298|96:298|161:318,1,120.399996325684,2|0,0:0|0:0,0:0:0:0:
299,351,26149,1,0,1:2:0:0:
227,348,26329,2,0,B|270:365|270:365|321:356|321:356|277:346,1,120.399996325684,2|8,0:0|3:2,0:0:0:0:
154,316,26868,1,2,1:2:0:0:
221,266,27048,6,0,B|264:249|264:249|315:258|315:258|271:268,1,120.399996325684,2|2,1:2|0:0,0:0:0:0:
145,233,27587,2,0,B|144:192|144:192|154:165|154:165|152:106,1,120.399996325684,0|2,1:0|0:0,0:0:0:0:
57,41,28125,2,0,L|56:101,1,60.1999981628419,10|2,3:2|0:0,0:0:0:0:
70,34,28395,1,2,0:0:0:0:
84,29,28485,38,0,B|121:17|155:27|155:27|185:47|185:47|216:57|274:45,2,180.599994488526,2|0|8,0:0|1:0|3:2,0:0:0:0:
47,113,29742,1,2,1:2:0:0:
40,126,29832,1,2,1:2:0:0:
34,140,29922,2,0,B|36:190|36:190|27:215|27:215|28:263,1,120.399996325684,2|2,0:0|0:0,0:0:0:0:
96,309,30461,2,0,L|159:312,1,60.1999981628419,0|2,1:0|0:0,0:0:0:0:
156,311,30820,1,2,0:0:0:0:
271,238,31000,2,0,L|210:240,1,60.1999981628419,8|2,3:2|0:0,0:0:0:0:
339,292,31359,5,2,1:2:0:0:
351,149,31539,1,2,0:0:0:0:
340,279,31718,1,2,0:0:0:0:
347,161,31898,2,0,B|341:204|341:204|349:234|349:234|339:287,1,120.399996325684,2|0,1:2|0:0,0:0:0:0:
477,334,32437,2,0,L|473:273,1,60.1999981628419,8|2,3:2|1:2,0:0:0:0:
467,345,32706,1,2,0:0:0:0:
454,355,32796,38,0,B|367:358|367:358|404:332,1,120.399996325684,2|2,1:2|0:0,0:0:0:0:
253,281,33335,2,0,B|340:278|340:278|303:304,1,120.399996325684,0|2,1:0|0:0,0:0:0:0:
183,318,33874,2,0,P|174:289|176:259,1,60.1999981628419,10|0,3:2|0:0,0:0:0:0:
312,149,34233,22,0,P|288:143|248:144,1,43,2|0,1:2|0:0,0:0:0:0:
184,146,34413,2,0,P|159:150|123:168,1,43,2|0,3:2|0:0,0:0:0:0:
71,205,34593,1,2,3:2:0:0:
249,227,34772,5,0,1:2:0:0:
130,69,34952,1,0,3:2:0:0:
112,283,35131,1,2,3:2:0:0:
228,79,35311,1,2,3:2:0:0:
38,57,35491,1,2,1:2:0:0:
194,294,35670,37,2,0:2:0:0:
2,169,35850,1,10,0:2:0:0:
2,169,35940,1,10,0:2:0:0:
2,169,36030,1,10,0:2:0:0:
312,149,36209,1,2,0:2:0:0:
28,364,37108,22,0,B|19:324|19:324|31:269,1,77.3999976379395,6|0,1:2|3:0,0:0:0:0:
37,271,37377,1,0,3:0:0:0:
37,271,37467,1,0,1:2:0:0:
193,369,37646,1,2,0:0:0:0:
191,293,37826,2,0,B|200:333|200:333|188:388,1,77.3999976379395,2|2,1:2|0:0,0:0:0:0:
114,236,38185,1,10,0:0:0:0:
109,330,38365,1,2,0:0:0:0:
225,185,38545,6,0,B|270:186|270:186|292:202|292:202|355:202,1,116.099996456909,2|0,1:2|0:0,0:0:0:0:
355,204,38904,1,0,1:2:0:0:
236,266,39084,1,2,0:0:0:0:
321,128,39263,1,2,1:2:0:0:
361,285,39443,1,2,3:2:0:0:
361,285,39533,1,0,3:0:0:0:
361,285,39622,1,10,0:0:0:0:
218,108,39802,1,2,0:0:0:0:
155,292,39982,38,0,B|109:302|109:302|69:287|69:287|109:269,1,116.099996456909,2|0,1:2|0:0,0:0:0:0:
92,276,40341,2,0,L|86:355,1,77.3999976379395,2|0,1:2|0:0,0:0:0:0:
27,202,40700,2,0,B|65:193|65:193|108:199,1,77.3999976379395,2|0,1:2|0:0,0:0:0:0:
178,196,41060,2,0,B|140:205|140:205|96:198,1,77.3999976379395,10|0,0:0|0:0,0:0:0:0:
118,47,41419,6,0,L|112:124,1,77.3999976379395,2|0,1:2|3:0,0:0:0:0:
134,36,41688,1,0,3:0:0:0:
152,30,41778,2,0,B|195:29|195:29|227:48|227:48|276:47,1,116.099996456909,0|0,1:2|0:0,0:0:0:0:
282,45,42137,1,0,1:2:0:0:
396,16,42317,38,0,L|450:22,1,38.6999988189698,2|0,3:2|3:0,0:0:0:0:
512,33,42497,1,10,0:0:0:0:
373,105,42676,1,2,0:0:0:0:
435,205,42856,6,0,L|529:199,1,77.3999976379395,2|0,1:2|0:0,0:0:0:0:
361,296,43215,2,0,L|275:290,1,77.3999976379395,0|0,1:2|0:0,0:0:0:0:
441,288,43574,1,2,1:2:0:0:
353,213,43754,1,2,0:0:0:0:
367,380,43934,1,10,0:0:0:0:
447,278,44113,1,2,0:0:0:0:
231,208,44293,38,0,B|161:192|181:237|110:217,1,116.099996456909,2|0,1:2|0:0,0:0:0:0:
103,217,44652,1,0,1:2:0:0:
208,284,44832,1,0,3:0:0:0:
140,147,45012,1,2,1:2:0:0:
124,300,45191,5,8,0:0:0:0:
124,300,45281,1,8,0:0:0:0:
124,300,45371,1,10,0:2:0:0:
278,140,45551,2,0,L|231:134,1,38.6999988189698,0|0,0:0|0:0,0:0:0:0:
386,254,45730,38,0,B|402:278|404:309|404:309|441:257|407:189,1,180.599994488526,6|2,0:0|0:0,0:0:0:0:
330,352,46449,2,0,P|334:314|277:255,1,120.399996325684,8|0,0:0|3:0,0:0:0:0:
119,323,46988,1,8,0:2:0:0:
258,328,47167,1,0,1:0:0:0:
134,320,47347,2,0,B|179:322|179:322|196:334|196:334|254:336,1,120.399996325684,8|0,0:0|3:0,0:0:0:0:
282,256,47796,1,0,3:0:0:0:
286,244,47886,2,0,B|299:210|299:210|283:132,1,90.2999972442628,6|0,3:2|0:0,0:0:0:0:
281,140,48245,2,0,L|203:134,1,60.1999981628419,2|0,3:2|0:0,0:0:0:0:
69,127,48605,5,6,1:2:0:0:
21,221,48784,2,0,B|47:227|73:221|73:221|111:257|111:257|134:249|165:257,1,150.499995407105,0|0,1:2|0:0,0:0:0:0:
172,272,49323,2,0,L|242:279,1,60.1999981628419,8|0,0:0|0:0,0:0:0:0:
302,221,49682,2,0,L|372:228,1,60.1999981628419,0|2,3:0|1:2,0:0:0:0:
426,153,50042,37,2,3:2:0:0:
438,270,50221,2,0,B|435:238|435:238|440:217|440:217|430:193|430:193|425:148,1,120.399996325684,8|2,0:0|0:0,0:0:0:0:
309,21,50760,5,8,0:0:0:0:
425,152,50940,1,2,1:2:0:0:
298,15,51119,37,10,0:2:0:0:
461,50,51299,1,0,1:0:0:0:
328,125,51479,5,6,1:2:0:0:
244,122,51658,1,2,1:2:0:0:
159,118,51838,2,0,L|62:114,1,90.2999972442628,2|0,3:2|0:0,0:0:0:0:
49,35,52197,2,0,P|75:68|56:128,1,90.2999972442628,12|0,0:0|0:0,0:0:0:0:
21,169,52557,1,2,1:2:0:0:
21,169,52736,2,0,B|16:202|16:202|22:243,1,60.1999981628419,2|2,1:2|3:2,0:0:0:0:
126,293,53096,38,0,L|201:289,1,60.1999981628419,8|2,0:0|0:0,0:0:0:0:
292,212,53455,2,0,L|249:205,1,30.0999990814209,2|0,3:2|3:0,0:0:0:0:
184,193,53634,1,0,1:2:0:0:
285,303,53814,1,2,1:2:0:0:
361,162,53994,5,2,1:2:0:0:
279,315,54173,1,0,1:0:0:0:
158,116,54353,38,0,B|214:120|214:120|237:138|237:138|296:144,1,137.6,4|8,0:0|0:0,0:0:0:0:
184,193,54892,1,0,1:2:0:0:
275,52,55072,6,0,L|353:58,1,68.8,2|0,1:2|0:0,0:0:0:0:
429,167,55431,2,0,L|350:160,1,68.8,10|8,0:0|0:3,0:0:0:0:
342,57,55790,38,0,L|420:63,1,68.8,2|0,3:2|0:0,0:0:0:0:
497,173,56149,2,0,L|418:166,1,68.8,10|8,0:0|0:3,0:0:0:0:
497,73,56509,6,0,B|510:125|510:125|492:189,1,103.2,8|0,0:0|0:0,0:0:0:0:
452,237,56868,1,8,0:2:0:0:
438,268,56957,1,8,0:2:0:0:
435,302,57047,1,8,0:2:0:0:
444,335,57137,1,8,0:2:0:0:
464,363,57227,38,0,P|486:313|432:269,1,129,6|0,0:0|0:0,0:0:0:0:
373,355,57587,2,0,P|409:378|451:373,1,86,8|2,0:0|0:0,0:0:0:0:
361,259,57946,2,0,B|356:359|362:358,1,86,0|0,1:0|1:0,0:0:0:0:
437,174,58305,2,0,B|443:270,1,86,10|2,0:0|3:2,0:0:0:0:
427,158,58575,1,0,3:0:0:0:
409,146,58664,6,0,B|359:128|359:128|316:138|316:138|356:152,1,129,2|0,1:2|0:0,0:0:0:0:
345,148,59024,2,0,L|342:52,1,86,10|0,0:0|0:0,0:0:0:0:
187,14,59383,1,2,1:2:0:0:
217,170,59563,1,10,0:2:0:0:
230,153,59652,1,8,0:0:0:0:
238,133,59742,38,0,B|178:119|178:119|135:136|135:136|92:117|92:117|29:129,1,206.4,4|0,1:2|0:0,0:0:0:0:
126,235,60461,6,0,L|130:166,1,68.8,8|0,0:0|0:0,0:0:0:0:
138,49,60820,1,0,1:0:0:0:
131,167,61000,1,0,1:0:0:0:
140,33,61179,38,0,P|181:27|215:42,1,68.8,8|0,0:0|3:0,0:0:0:0:
269,83,61449,1,0,3:0:0:0:
269,83,61539,2,0,P|308:93|355:79,1,86,2|0,1:2|3:0,0:0:0:0:
461,26,61898,6,0,B|455:65|455:65|470:103|470:103|459:170,1,129,8|0,0:0|0:0,0:0:0:0:
459,173,62257,1,0,0:0:0:0:
234,272,62437,1,0,0:0:0:0:
270,250,62526,1,0,0:0:0:0:
312,248,62616,1,8,0:0:0:0:
350,268,62707,1,0,0:0:0:0:
386,289,62796,1,0,0:0:0:0:
428,291,62886,1,0,0:0:0:0:
466,271,62976,21,8,0:0:0:0:
310,165,63155,37,0,1:0:0:0:
424,376,63335,1,8,0:0:0:0:
310,165,63515,6,0,L|308:222,1,43,0|0,3:0|3:0,0:0:0:0:
297,334,63694,1,0,1:0:0:0:
413,206,63874,1,0,1:0:0:0:
146,343,64054,37,10,0:2:0:0:
181,366,64143,1,10,0:2:0:0:
223,373,64233,1,10,0:2:0:0:
265,362,64323,1,10,0:2:0:0:
298,335,64413,5,10,0:2:0:0:
10,271,64593,1,10,0:2:0:0:
10,271,65131,38,0,P|1:290|-1:308,1,32.2500012302399,2|0,0:0|0:0,0:0:0:0:
34,285,65221,2,0,P|43:304|55:317,1,32.2500012302399,2|0,0:0|0:0,0:0:0:0:
60,275,65311,2,0,P|80:280|98:279,1,32.2500012302399,2|0,0:0|0:0,0:0:0:0:
69,248,65401,2,0,P|86:235|96:221,1,32.2500012302399,2|0,0:0|0:0,0:0:0:0:
54,223,65491,5,8,0:0:0:0:
37,184,65580,1,8,0:0:0:0:
40,143,65670,1,8,0:0:0:0:
63,108,65760,1,8,0:0:0:0:
99,87,65850,38,0,B|127:92|153:85|153:85|196:114|196:114|225:100|263:114,1,154.799995275879,6|0,0:0|0:0,0:0:0:0:
328,168,66209,2,0,P|273:188|224:176,1,103.199996850586,10|0,0:0|0:0,0:0:0:0:
386,108,66569,1,2,1:2:0:0:
212,34,66748,1,0,1:2:0:0:
400,115,66928,2,0,B|408:168|408:168|392:221,1,103.199996850586,10|0,0:0|0:0,0:0:0:0:
146,288,67287,6,0,B|198:280|254:309|254:309|227:319|194:320,1,154.799995275879,2|0,1:2|0:0,0:0:0:0:
146,288,67646,2,0,P|130:238|143:181,1,103.199996850586,10|0,0:0|0:0,0:0:0:0:
240,79,68006,1,2,1:2:0:0:
267,238,68185,1,0,1:2:0:0:
236,62,68365,2,0,B|184:53|184:53|122:67,1,103.199996850586,10|0,0:0|0:0,0:0:0:0:
18,280,68724,38,0,P|68:270|42:184,1,154.799995275879,2|0,1:2|0:0,0:0:0:0:
31,208,69084,2,0,B|97:212|97:212|121:196|121:196|195:199,1,154.799995275879,10|0,0:0|0:0,0:0:0:0:
211,200,69443,1,2,1:2:0:0:
69,117,69622,1,0,1:2:0:0:
148,289,69802,2,0,L|263:293,1,103.199996850586,10|0,0:0|0:0,0:0:0:0:
438,197,70161,6,0,B|383:180|383:180|330:190|330:190|379:221,1,154.799995275879,6|0,1:2|0:0,0:0:0:0:
438,197,70521,2,0,L|436:137,1,51.599998425293,10|0,0:0|0:0,0:0:0:0:
436,53,70700,1,0,3:0:0:0:
436,53,70790,1,0,3:0:0:0:
436,53,70880,2,0,P|373:46|324:71,1,103.199996850586,2|0,3:2|3:0,0:0:0:0:
238,70,71149,1,0,3:0:0:0:
238,70,71239,2,0,P|300:76|349:51,1,103.199996850586,10|0,0:2|1:0,0:0:0:0:
159,34,71599,38,0,B|154:82|154:82|169:117|169:117|150:154|150:154|140:122,1,154.799995275879,6|0,1:2|0:0,0:0:0:0:
45,115,71958,2,0,B|92:104|92:104|153:134,1,103.199996850586,10|0,0:0|3:0,0:0:0:0:
126,242,72227,1,0,3:0:0:0:
126,242,72317,2,0,B|79:253|79:253|17:222,1,103.199996850586,0|0,3:0|1:0,0:0:0:0:
371,219,72676,6,0,P|342:222|321:218,1,51.599998425293,10|2,0:0|0:0,0:0:0:0:
245,198,72856,2,0,P|218:186|202:172,1,51.599998425293,2|2,3:2|0:0,0:0:0:0:
193,64,73036,38,0,B|238:49|238:49|303:63|303:63|262:89,1,154.799995275879,2|0,1:2|0:0,0:0:0:0:
188,164,73395,2,0,B|179:114|179:114|195:53,1,103.199996850586,10|0,0:0|3:0,0:0:0:0:
371,16,73664,1,0,3:0:0:0:
371,16,73754,2,0,B|380:66|380:66|364:127,1,103.199996850586,0|0,3:0|1:0,0:0:0:0:
253,336,74113,5,8,0:0:0:0:
294,305,74202,1,8,0:0:0:0:
344,298,74292,1,8,0:0:0:0:
392,315,74382,1,8,0:0:0:0:
427,352,74472,37,14,0:0:0:0:
233,240,74652,1,0,1:0:0:0:
447,169,74832,1,10,0:0:0:0:
273,153,75012,5,0,1:0:0:0:
467,265,75192,1,10,0:0:0:0:
253,336,75372,1,0,1:0:0:0:
466,71,75551,6,0,B|408:70|408:70|369:87|369:87|330:73|330:73|278:73,1,193.499994094849,6|0,1:2|0:0,0:0:0:0:
203,20,76090,5,8,0:0:0:0:
184,53,76179,1,8,0:0:0:0:
182,91,76269,1,8,0:0:0:0:
197,126,76359,1,8,0:0:0:0:
215,159,76448,1,8,0:0:0:0:
217,197,76538,1,8,0:0:0:0:
202,232,76628,5,0,1:0:0:0:
278,73,76808,1,8,0:0:0:0:
117,176,76988,1,8,3:0:0:0:
319,200,77167,1,8,3:0:0:0:
116,329,77347,6,0,B|173:314|173:314|224:338|224:338|174:352,1,154.799995275879,6|0,1:2|0:0,0:0:0:0:
52,384,77706,2,0,B|37:336|37:336|46:277,1,103.199996850586,10|0,0:0|0:0,0:0:0:0:
215,159,78066,1,2,1:2:0:0:
116,329,78245,1,0,1:2:0:0:
100,145,78425,2,0,B|147:135|147:135|212:153,1,103.199996850586,10|0,0:0|0:0,0:0:0:0:
313,304,78784,38,0,B|375:303|375:303|401:322|401:322|464:323,1,154.799995275879,2|0,1:2|0:0,0:0:0:0:
325,208,79143,2,0,P|302:267|320:314,1,103.199996850586,10|0,0:0|0:0,0:0:0:0:
487,211,79503,1,2,1:2:0:0:
323,126,79682,1,0,1:2:0:0:
491,94,79862,2,0,B|505:145|505:145|494:194,1,103.199996850586,10|0,0:0|3:0,0:0:0:0:
393,65,80131,1,0,3:2:0:0:
393,65,80221,6,0,B|330:45|330:45|230:68,1,154.799995275879,6|0,1:2|0:0,0:0:0:0:
238,90,80581,2,0,P|265:42|186:16,1,154.799995275879,8|0,0:0|0:0,0:0:0:0:
169,23,80940,1,2,1:2:0:0:
54,130,81119,1,0,1:2:0:0:
243,193,81299,2,0,L|237:81,1,103.199996850586,10|0,0:0|0:0,0:0:0:0:
100,295,81658,38,0,B|148:316|203:294|203:294|158:273,1,154.799995275879,6|0,1:2|0:0,0:0:0:0:
100,295,82018,2,0,L|100:364,1,51.599998425293,10|0,0:0|0:0,0:0:0:0:
279,273,82197,1,0,3:0:0:0:
279,273,82287,1,0,3:0:0:0:
279,273,82377,2,0,B|330:258|330:258|390:273,1,103.199996850586,2|0,3:2|3:0,0:0:0:0:
478,267,82646,1,0,3:0:0:0:
478,267,82736,2,0,B|427:282|427:282|367:267,1,103.199996850586,10|0,3:2|3:0,0:0:0:0:
404,38,83096,6,0,B|416:97|389:145|389:145|387:116|364:93,1,154.799995275879,6|0,1:2|0:0,0:0:0:0:
281,95,83455,2,0,P|329:80|373:104,1,103.199996850586,10|0,0:0|3:0,0:0:0:0:
430,206,83724,1,0,3:0:0:0:
430,206,83814,2,0,P|382:220|334:191,1,103.199996850586,0|0,3:0|0:0,0:0:0:0:
218,54,84173,37,10,3:2:0:0:
183,37,84262,1,0,3:2:0:0:
144,34,84352,1,0,3:2:0:0:
107,44,84442,1,0,3:2:0:0:
76,67,84533,6,0,L|72:134,1,51.599998425293,2|0,1:2|0:0,0:0:0:0:
67,238,84712,2,0,L|63:305,1,51.599998425293,0|0,1:2|0:0,0:0:0:0:
22,171,84892,2,0,B|71:159|71:159|129:180,1,103.199996850586,10|0,0:0|3:0,0:0:0:0:
109,354,85161,1,0,3:0:0:0:
109,354,85251,2,0,B|60:366|60:366|2:345,1,103.199996850586,0|0,3:0|1:0,0:0:0:0:
194,87,85611,38,0,P|223:92|264:89,1,51.599998425293,10|8,0:2|0:0,0:0:0:0:
374,134,85790,2,0,P|345:129|304:132,1,51.599998425293,8|8,0:0|0:0,0:0:0:0:
197,195,85970,2,0,B|287:165|262:220|346:208,1,154.799995275879,6|0,1:2|0:0,0:0:0:0:
454,177,86329,5,10,0:0:0:0:
217,381,86509,1,0,1:2:0:0:
475,349,86688,37,10,0:0:0:0:
197,195,86868,1,0,1:2:0:0:
345,282,87048,22,0,B|316:286|283:278|283:278|245:308|245:308|214:299|163:312,1,172,6|0,1:2|0:0,0:0:0:0:
112,341,87587,1,0,0:0:0:0:
112,341,87676,1,2,0:2:0:0:
112,341,87766,2,0,P|114:306|111:273,1,47.3000014434815,2|0,0:2|0:0,0:0:0:0:
68,216,87946,2,0,P|66:181|69:148,1,47.3000014434815,0|0,0:0|0:0,0:0:0:0:
104,89,88125,6,0,B|153:88|153:88|175:101|175:101|226:100,1,116.099996456909,6|2,1:2|0:0,0:0:0:0:
236,82,88485,38,0,P|174:95|210:171,1,154.799995275879,6|0,1:2|0:0,0:0:0:0:
270,155,88844,21,6,1:2:0:0:
68,216,89024,1,0,1:0:0:0:
265,303,89203,1,10,0:0:0:0:
97,91,89383,6,0,P|93:118|103:171,1,55.8999974411012,2|0,3:2|3:0,0:0:0:0:
143,237,89563,2,0,P|147:264|137:317,1,55.8999974411012,0|0,1:0|0:0,0:0:0:0:
65,364,89742,37,0,1:0:0:0:
341,275,89922,1,8,0:0:0:0:
184,112,90102,5,8,0:0:0:0:
184,112,90191,1,8,0:0:0:0:
184,112,90281,1,0,1:0:0:0:
270,317,90461,1,0,1:0:0:0:
364,90,90640,1,8,0:0:0:0:
183,242,90820,38,0,P|216:245|250:242,1,55.8999974411012,0|0,3:0|3:0,0:0:0:0:
361,167,91000,2,0,P|389:166|417:169,1,55.8999974411012,0|0,1:0|0:0,0:0:0:0:
508,311,91179,5,0,1:0:0:0:
357,80,91359,1,10,0:0:0:0:
388,316,91539,1,8,1:0:0:0:
388,316,91628,1,8,1:0:0:0:
388,316,91718,38,0,B|331:337|271:317|271:317|303:312|335:287,1,167.699992323304,6|0,0:0|0:0,0:0:0:0:
355,235,92078,5,2,1:2:0:0:
102,138,92257,1,2,1:2:0:0:
339,34,92437,38,0,L|345:114,1,55.8999974411012,10|0,0:2|1:2,0:0:0:0:
225,90,92616,2,0,L|221:146,1,55.8999974411012,2|0,1:2|1:2,0:0:0:0:
363,70,92796,6,0,L|358:14,1,55.8999974411012,10|0,0:2|1:2,0:0:0:0:
199,163,92976,2,0,L|204:108,1,55.8999974411012,2|0,1:2|1:2,0:0:0:0:
431,193,93155,37,14,0:0:0:0:
431,193,94233,6,0,P|432:213|425:243,1,34.4,8|8,0:0|0:0,0:0:0:0:
401,352,94413,2,0,P|400:332|407:302,1,34.4,8|8,0:0|0:0,0:0:0:0:
485,272,94593,6,0,B|457:275|435:268|435:268|392:291|392:291|362:286|334:293,1,154.799995275879,4|8,1:2|0:0,0:0:0:0:
214,335,95131,6,0,P|160:350|107:328,1,116.099996456909,2|0,1:2|0:0,0:0:0:0:
112,253,95491,2,0,P|117:301|96:338,1,77.3999976379395,2|8,3:2|0:0,0:0:0:0:
15,177,95850,38,0,B|45:170|96:180|96:180|70:186|58:200,1,116.099996456909,6|0,1:2|0:0,0:0:0:0:
15,177,96209,2,0,P|6:135|21:94,1,77.3999976379395,2|8,1:2|0:0,0:0:0:0:
96,31,96569,6,0,B|143:31|143:31|166:47|166:47|213:47,1,116.099996456909,6|0,1:2|0:0,0:0:0:0:
226,47,96928,1,2,1:2:0:0:
112,106,97108,1,0,3:0:0:0:
224,195,97287,38,0,B|288:216|276:173|340:191,1,116.099996456909,4|0,1:2|0:0,0:0:0:0:
354,196,97646,5,0,0:0:0:0:
221,283,97826,1,0,0:0:0:0:
249,125,98006,1,0,0:0:0:0:
321,266,98185,37,8,0:0:0:0:
333,109,98365,1,8,0:0:0:0:
221,283,98545,1,8,0:0:0:0:
106,109,98724,6,0,B|121:144|103:181|103:181|124:223|124:223|125:274|125:274|133:219|176:197,1,258,4|0,0:0|0:0,0:0:0:0:
216,252,100161,2,0,P|205:265|198:281,1,34.4,2|0,0:0|0:0,0:0:0:0:
270,303,100341,38,0,B|347:310|347:310|315:283,1,103.2,2|0,1:2|0:0,0:0:0:0:
327,293,100700,2,0,L|324:363,1,68.8,0|2,1:0|0:0,0:0:0:0:
435,308,101060,2,0,B|436:253|436:253|450:233|450:233|450:174,1,137.6,2|0,1:2|1:0,0:0:0:0:
380,24,101599,1,2,0:0:0:0:
380,24,101688,1,2,0:0:0:0:
380,24,101778,6,0,B|344:17|344:17|301:22,1,68.8,2|0,1:2|0:0,0:0:0:0:
300,159,102137,2,0,B|336:166|336:166|379:161,1,68.8,2|0,1:2|0:0,0:0:0:0:
339,91,102497,1,2,1:2:0:0:
257,83,102676,1,2,0:2:0:0:
179,75,102856,2,0,L|74:80,1,103.2,2|2,1:2|0:0,0:0:0:0:
97,172,103215,38,0,P|104:128|58:69,1,103.2,2|0,1:2|0:0,0:0:0:0:
28,166,103575,2,0,L|104:172,1,68.8,0|0,1:0|0:0,0:0:0:0:
247,69,103934,2,0,L|171:75,1,68.8,0|0,1:0|0:0,0:0:0:0:
96,171,104293,2,0,L|172:177,1,68.8,0|2,1:0|0:0,0:0:0:0:
241,146,104563,1,2,0:0:0:0:
241,146,104652,6,0,B|251:194|251:194|232:232|232:232|225:188,1,116.099996456909,2|0,1:2|0:0,0:0:0:0:
151,238,105012,2,0,B|141:190|141:190|160:152|160:152|167:196,1,116.099996456909,2|0,1:2|0:0,0:0:0:0:
196,306,105371,1,2,1:2:0:0:
72,259,105551,1,2,0:0:0:0:
208,312,105730,2,0,L|283:306,1,68.8,0|6,1:2|0:0,0:0:0:0:
339,245,106000,1,2,0:0:0:0:
339,245,106090,38,0,B|377:237|377:237|439:252,1,77.3999976379395,2|2,1:2|0:0,0:0:0:0:
412,384,106359,1,2,0:0:0:0:
412,384,106449,2,0,B|386:355|386:355|368:293,1,77.3999976379395,2|2,1:2|0:0,0:0:0:0:
495,251,106718,1,2,0:0:0:0:
495,251,106808,2,0,B|482:287|482:287|438:334,1,77.3999976379395,2|2,1:2|0:0,0:0:0:0:
339,245,107167,2,0,L|345:149,1,77.3999976379395,0|2,1:0|0:0,0:0:0:0:
350,84,107437,1,2,0:0:0:0:
350,84,107527,6,0,L|260:84,1,77.3999976379395,2|2,1:2|0:0,0:0:0:0:
143,22,107796,1,2,0:0:0:0:
143,22,107886,2,0,L|233:36,1,77.3999976379395,2|2,1:2|0:0,0:0:0:0:
143,142,108155,1,2,0:0:0:0:
143,142,108245,2,0,L|233:127,1,77.3999976379395,2|2,1:2|0:0,0:0:0:0:
66,48,108605,2,0,B|57:85|57:85|68:124,1,77.3999976379395,0|0,1:0|0:0,0:0:0:0:
258,343,108964,5,10,1:2:0:0:
221,365,109053,1,0,1:2:0:0:
179,368,109143,1,0,1:2:0:0:
140,351,109233,1,0,1:2:0:0:
113,319,109323,1,8,1:2:0:0:
74,302,109412,1,0,1:2:0:0:
33,312,109503,5,2,1:2:0:0:
73,325,109592,1,0,1:2:0:0:
110,306,109682,1,8,1:2:0:0:
122,266,109772,1,0,1:2:0:0:
102,230,109862,1,10,1:2:0:0:
70,201,109952,1,0,1:2:0:0:
53,162,110041,1,10,1:2:0:0:
67,122,110131,1,0,1:2:0:0:
104,102,110221,1,10,1:2:0:0:
145,111,110311,1,0,1:2:0:0:
169,146,110401,37,10,1:2:0:0:
33,312,110581,1,2,1:2:0:0:
33,312,110670,1,0,1:2:0:0:
33,312,110760,1,2,1:2:0:0:
8,72,110940,1,2,1:2:0:0:
8,72,111658,21,2,0:0:0:0:
8,72,111748,1,2,0:0:0:0:
8,72,111838,6,0,B|50:71|50:71|69:87|69:87|130:88,1,116.099996456909,6|0,1:2|0:0,0:0:0:0:
149,86,112197,1,8,0:0:0:0:
19,146,112377,1,0,0:3:0:0:
106,11,112557,1,2,1:2:0:0:
140,172,112736,1,2,3:2:0:0:
140,172,112826,1,0,3:2:0:0:
140,172,112916,1,8,0:2:0:0:
10,0,113096,1,2,0:0:0:0:
10,232,113275,38,0,B|49:228|49:228|92:246,1,77.3999976379395,2|0,1:2|0:0,0:0:0:0:
158,254,113634,2,0,B|118:257|118:257|75:239,1,77.3999976379395,8|2,0:0|0:0,0:0:0:0:
223,168,113994,1,2,1:2:0:0:
204,326,114173,1,2,3:2:0:0:
204,326,114263,1,0,3:2:0:0:
204,326,114353,1,10,0:2:0:0:
140,172,114533,1,2,0:0:0:0:
313,288,114712,6,0,B|354:302|354:302|394:288|394:288|366:270,1,116.099996456909,2|0,1:2|0:0,0:0:0:0:
314,210,115072,2,0,L|312:296,1,77.3999976379395,10|0,0:0|0:0,0:0:0:0:
468,175,115431,2,0,L|466:261,1,77.3999976379395,2|0,1:2|0:0,0:0:0:0:
315,132,115790,2,0,L|313:218,1,77.3999976379395,10|0,0:0|0:0,0:0:0:0:
470,98,116149,2,0,L|468:175,1,77.3999976379395,2|0,3:2|3:0,0:0:0:0:
456,83,116419,1,0,3:0:0:0:
442,69,116509,38,0,B|419:68|398:71|398:71|375:58|375:58|351:62|325:57,1,116.099996456909,8|0,0:0|0:0,0:0:0:0:
311,51,116868,1,2,1:2:0:0:
190,97,117048,1,2,3:2:0:0:
190,97,117137,1,0,3:2:0:0:
190,97,117227,1,10,3:2:0:0:
312,150,117407,1,8,1:0:0:0:
192,254,117587,6,0,B|132:276|132:230|64:263,1,116.099996456909,2|0,1:2|0:0,0:0:0:0:
3,259,117946,2,0,P|45:265|84:253,1,77.3999976379395,8|2,0:0|0:0,0:0:0:0:
160,184,118305,1,2,1:2:0:0:
102,328,118485,1,2,0:0:0:0:
83,174,118664,1,10,0:0:0:0:
178,333,118844,1,2,0:0:0:0:
287,198,119024,38,0,B|327:193|327:193|366:201,1,77.3999976379395,2|0,1:2|3:0,0:0:0:0:
383,214,119293,1,0,3:0:0:0:
383,214,119383,1,8,0:0:0:0:
273,276,119563,1,0,0:0:0:0:
425,277,119742,1,2,3:2:0:0:
269,126,119922,1,8,0:0:0:0:
269,126,120012,1,8,0:0:0:0:
269,126,120102,2,0,B|214:121|214:121|190:132|190:132|132:127,1,116.099996456909,6|0,1:2|0:0,0:0:0:0:
110,28,120461,6,0,B|121:93|121:93|105:128|105:128|120:168|120:168|103:235,1,210.699993569946,6|0,1:2|0:0,0:0:0:0:
53,292,121179,2,0,P|110:265|166:281,1,120.399996325684,10|2,0:0|0:0,0:0:0:0:
263,349,121718,1,8,0:0:0:0:
116,360,121898,1,0,1:0:0:0:
278,349,122078,2,0,B|275:301|275:301|283:281|283:281|278:224,1,120.399996325684,8|0,0:0|1:0,0:0:0:0:
220,169,122527,1,0,1:0:0:0:
220,169,122616,38,0,B|274:183|274:183|339:162,1,120.399996325684,6|8,1:2|3:3,0:0:0:0:
389,114,123096,21,12,3:3:0:0:
460,108,123215,5,12,3:3:0:0:
508,161,123335,37,4,0:2:0:0:
413,267,123515,38,0,B|402:317|402:317|424:386,1,120.399996325684,0|0,1:0|1:0,0:0:0:0:
413,267,124054,2,0,P|372:260|332:269,1,60.1999981628419,8|0,0:0|0:0,0:0:0:0:
292,312,124413,2,0,P|251:319|211:310,1,60.1999981628419,0|2,3:0|1:2,0:0:0:0:
180,252,124772,1,2,3:2:0:0:
173,368,124952,38,0,B|193:317|193:317|181:253,1,120.399996325684,8|2,0:0|0:0,0:0:0:0:
95,178,125491,5,8,0:0:0:0:
89,316,125670,1,2,1:2:0:0:
92,161,125850,37,10,0:0:0:0:
0,295,126030,1,0,1:2:0:0:
262,181,126209,5,6,1:2:0:0:
257,96,126389,1,2,1:2:0:0:
253,11,126569,2,0,L|155:25,1,90.2999972442628,2|0,3:2|0:0,0:0:0:0:
173,107,126928,38,0,P|181:62|149:11,1,90.2999972442628,12|0,0:0|0:0,0:0:0:0:
99,121,127287,1,2,1:2:0:0:
99,121,127467,2,0,P|133:127|169:110,1,60.1999981628419,2|2,1:2|3:2,0:0:0:0:
17,31,127826,6,0,L|16:109,1,60.1999981628419,8|2,0:0|0:0,0:0:0:0:
119,254,128185,2,0,L|114:208,1,30.0999990814209,2|0,3:2|3:0,0:0:0:0:
99,121,128365,1,0,1:0:0:0:
24,238,128545,1,2,1:2:0:0:
207,266,128724,1,2,1:2:0:0:
44,360,128904,1,0,1:0:0:0:
44,360,128994,1,0,1:0:0:0:
44,360,129084,38,0,B|86:359|86:359|114:371|114:371|143:359|143:359|188:358,1,137.6,6|8,1:2|0:0,0:0:0:0:
308,352,129622,1,0,1:0:0:0:
204,175,129802,2,0,P|184:218|222:274,1,103.2,2|0,1:2|0:0,0:0:0:0:
272,179,130161,2,0,L|187:174,1,68.8,10|8,0:0|0:3,0:0:0:0:
343,219,130521,2,0,B|350:186|350:186|348:146,1,68.8,2|0,3:2|0:0,0:0:0:0:
206,265,130880,2,0,B|199:298|199:298|201:338,1,68.8,10|8,0:0|0:3,0:0:0:0:
366,326,131239,6,0,P|324:296|274:301,1,103.2,8|0,0:0|0:0,0:0:0:0:
200,333,131599,1,8,0:2:0:0:
168,345,131688,1,8,0:2:0:0:
134,344,131778,1,8,0:2:0:0:
103,329,131868,1,8,0:2:0:0:
82,302,131958,38,0,B|60:247|81:208|81:208|97:230|98:253,1,129,6|0,0:0|0:0,0:0:0:0:
96,237,132317,2,0,P|54:246|15:229,1,86,8|2,0:0|0:0,0:0:0:0:
170,162,132676,2,0,B|176:258,1,86,0|0,1:0|1:0,0:0:0:0:
67,91,133036,2,0,B|61:187,1,86,10|2,0:0|3:2,0:0:0:0:
77,75,133306,1,0,3:0:0:0:
95,63,133395,6,0,B|184:68|184:68|148:86,1,129,2|0,1:2|0:0,0:0:0:0:
148,85,133754,2,0,L|153:-18,1,86,8|0,0:0|0:0,0:0:0:0:
244,181,134113,1,2,1:2:0:0:
346,65,134293,1,8,0:0:0:0:
346,65,134383,1,8,0:0:0:0:
346,65,134473,38,0,B|345:105|345:105|356:141|356:141|341:182|341:182|355:223|355:223|350:277,1,206.4,4|0,0:0|0:0,0:0:0:0:
488,188,135191,2,0,L|411:184,1,68.8,8|0,0:0|0:0,0:0:0:0:
260,181,135551,1,0,1:0:0:0:
351,264,135730,1,0,1:0:0:0:
246,173,135910,2,0,B|212:166|212:166|159:177,1,68.8,8|0,0:0|3:0,0:0:0:0:
173,286,136179,1,0,3:0:0:0:
173,286,136269,6,0,B|215:295|215:295|258:284,1,86,2|0,1:2|3:0,0:0:0:0:
89,185,136628,38,0,B|82:235|82:235|91:263|91:263|83:318,1,129,8|0,0:0|0:0,0:0:0:0:
81,333,136988,1,0,0:0:0:0:
32,122,137167,1,0,0:0:0:0:
68,100,137256,1,0,0:0:0:0:
110,98,137346,1,8,0:0:0:0:
148,118,137437,1,0,0:0:0:0:
184,139,137526,1,0,0:0:0:0:
226,141,137616,1,0,0:0:0:0:
264,121,137706,21,8,0:0:0:0:
79,25,137886,5,0,1:0:0:0:
206,215,138066,1,8,0:0:0:0:
333,36,138245,38,0,L|333:91,1,43,0|0,3:0|3:0,0:0:0:0:
325,248,138425,1,0,1:0:0:0:
211,55,138605,1,0,1:0:0:0:
467,83,138784,5,8,0:0:0:0:
464,125,138874,1,10,0:2:0:0:
462,168,138964,1,10,0:2:0:0:
460,211,139054,1,10,0:2:0:0:
458,254,139143,1,10,0:2:0:0:
262,150,139323,1,10,0:2:0:0:
435,334,139682,37,0,1:0:0:0:
435,334,139772,1,0,1:0:0:0:
435,334,139862,2,0,P|444:354|445:378,1,32.2500012302399,4|0,1:2|0:0,0:0:0:0:
396,340,139952,2,0,P|397:362|390:385,1,32.2500012302399,0|0,1:0|0:0,0:0:0:0:
357,336,140042,2,0,P|350:357|336:377,1,32.2500012302399,0|0,1:0|0:0,0:0:0:0:
321,316,140131,2,0,P|307:334|287:347,1,32.2500012302399,0|0,1:0|0:0,0:0:0:0:
294,286,140221,5,10,0:0:0:0:
250,266,140310,1,10,0:0:0:0:
202,266,140400,1,10,0:0:0:0:
159,285,140490,1,10,0:0:0:0:
122,322,140581,38,0,P|66:335|29:251,1,154.799995275879,6|0,1:2|0:0,0:0:0:0:
126,224,140940,2,0,B|140:281|140:281|111:344,1,103.199996850586,10|0,0:0|0:0,0:0:0:0:
44,175,141299,1,2,1:2:0:0:
243,190,141479,1,0,1:2:0:0:
29,180,141658,2,0,B|15:123|15:123|44:60,1,103.199996850586,10|0,0:0|0:0,0:0:0:0:
206,58,142018,6,0,B|310:67|310:67|251:90,1,154.799995275879,2|0,1:2|0:0,0:0:0:0:
147,106,142377,2,0,P|132:50|159:1,1,103.199996850586,10|0,0:0|0:0,0:0:0:0:
243,190,142736,1,2,1:2:0:0:
29,180,142916,1,0,1:2:0:0:
261,196,143096,2,0,P|276:252|249:301,1,103.199996850586,10|0,0:0|0:0,0:0:0:0:
20,282,143455,38,0,B|80:285|80:285|107:306|107:306|174:312,1,154.799995275879,2|0,1:2|0:0,0:0:0:0:
183,291,143814,2,0,P|133:302|178:384,1,154.799995275879,10|0,0:0|0:0,0:0:0:0:
178,383,144173,1,2,1:2:0:0:
325,319,144353,1,0,1:2:0:0:
186,187,144533,2,0,L|182:306,1,103.199996850586,10|0,0:0|0:0,0:0:0:0:
405,238,144892,6,0,B|343:217|343:217|290:235|290:235|332:252,1,154.799995275879,6|0,1:2|0:0,0:0:0:0:
405,238,145251,2,0,L|402:177,1,51.599998425293,10|0,0:0|0:0,0:0:0:0:
390,22,145431,1,0,3:0:0:0:
390,22,145521,1,0,3:0:0:0:
390,22,145611,2,0,B|336:10|336:10|287:23,1,103.199996850586,2|0,3:2|3:0,0:0:0:0:
289,118,145880,1,0,3:0:0:0:
288,117,145970,2,0,B|338:130|338:130|388:118,1,103.199996850586,10|0,0:2|1:0,0:0:0:0:
218,62,146329,38,0,B|190:66|164:58|164:58|124:87|124:87|98:78|59:86,1,154.799995275879,6|0,1:2|0:0,0:0:0:0:
26,173,146688,2,0,P|87:154|131:170,1,103.199996850586,10|0,0:0|3:0,0:0:0:0:
226,277,146958,1,0,3:0:0:0:
226,277,147048,2,0,P|165:296|121:280,1,103.199996850586,0|0,3:0|1:0,0:0:0:0:
323,168,147407,6,0,P|331:196|333:227,1,51.599998425293,10|2,0:0|0:0,0:0:0:0:
331,310,147587,2,0,P|328:339|320:368,1,51.599998425293,2|2,3:2|0:0,0:0:0:0:
173,215,147766,38,0,B|161:155|184:108|184:108|201:132|207:170,1,154.799995275879,2|0,1:2|0:0,0:0:0:0:
226,277,148125,2,0,P|165:296|121:280,1,103.199996850586,10|0,0:0|3:0,0:0:0:0:
207,153,148395,1,0,3:0:0:0:
207,153,148485,2,0,P|268:134|312:150,1,103.199996850586,0|0,3:0|1:0,0:0:0:0:
423,326,148844,5,8,0:0:0:0:
391,285,148933,1,8,0:0:0:0:
381,235,149023,1,8,0:0:0:0:
394,186,149113,1,8,0:0:0:0:
429,148,149203,37,14,0:0:0:0:
499,344,149383,1,0,1:0:0:0:
436,135,149563,5,10,0:0:0:0:
325,342,149742,1,0,1:0:0:0:
445,123,149922,37,10,0:0:0:0:
512,358,150102,1,0,1:0:0:0:
341,129,150281,22,0,B|306:128|275:121|275:121|220:151|220:151|187:142|138:147,1,193.499994094849,6|0,1:2|0:0,0:0:0:0:
208,29,150820,6,0,L|212:89,1,38.6999988189698,8|8,0:0|0:0,0:0:0:0:
287,200,151000,2,0,L|283:260,1,38.6999988189698,8|8,0:0|0:0,0:0:0:0:
200,330,151179,1,8,0:0:0:0:
200,330,151269,1,8,0:0:0:0:
200,330,151359,5,0,1:0:0:0:
156,145,151539,1,8,0:0:0:0:
103,333,151718,1,8,3:0:0:0:
287,200,151898,1,8,3:0:0:0:
70,116,152078,6,0,B|64:174|64:174|76:211|76:211|70:268,1,154.799995275879,6|0,1:2|0:0,0:0:0:0:
165,121,152437,2,0,P|99:103|57:127,1,103.199996850586,10|0,0:0|0:0,0:0:0:0:
257,205,152796,1,2,1:2:0:0:
69,115,152976,1,0,1:2:0:0:
288,37,153155,2,0,B|304:86|304:86|288:145,1,103.199996850586,10|0,0:0|0:0,0:0:0:0:
184,331,153515,38,0,B|290:326|290:326|248:353,1,154.799995275879,2|0,1:2|0:0,0:0:0:0:
118,384,153874,2,0,B|102:335|102:335|118:276,1,103.199996850586,10|0,0:0|0:0,0:0:0:0:
342,369,154233,1,2,1:2:0:0:
115,285,154413,1,0,1:2:0:0:
343,254,154593,2,0,L|449:263,1,103.199996850586,10|0,0:0|3:0,0:0:0:0:
325,238,154862,1,0,3:2:0:0:
305,224,154952,6,0,B|245:219|245:219|213:240|213:240|147:235,1,154.799995275879,4|0,1:2|0:0,0:0:0:0:
155,199,155311,2,0,P|179:266|108:280,1,154.799995275879,8|0,0:0|0:0,0:0:0:0:
91,277,155670,1,2,1:2:0:0:
166,109,155850,1,0,1:2:0:0:
266,291,156030,1,10,0:0:0:0:
44,182,156209,1,0,3:0:0:0:
44,182,156299,1,0,3:0:0:0:
44,182,156389,38,0,B|45:79|45:79|71:133,1,154.799995275879,6|0,1:2|0:0,0:0:0:0:
67,125,156748,2,0,L|-1:122,1,51.599998425293,10|0,0:0|0:0,0:0:0:0:
149,43,156928,1,0,3:0:0:0:
149,43,157018,1,0,3:0:0:0:
149,43,157108,2,0,B|199:31|199:31|260:52,1,103.199996850586,2|0,3:2|3:0,0:0:0:0:
346,52,157377,1,0,3:0:0:0:
346,52,157467,2,0,B|296:64|296:64|235:43,1,103.199996850586,10|8,3:2|0:3,0:0:0:0:
460,29,157826,6,0,B|473:76|473:76|451:113|451:113|466:146|453:183,1,154.799995275879,6|0,1:2|0:0,0:0:0:0:
291,157,158185,2,0,P|356:140|398:157,1,103.199996850586,10|0,0:0|3:0,0:0:0:0:
511,232,158455,1,0,3:0:0:0:
511,232,158545,2,0,P|446:249|404:232,1,103.199996850586,0|0,3:0|0:0,0:0:0:0:
277,145,158904,1,10,0:2:0:0:
242,127,158993,1,8,0:2:0:0:
204,124,159083,1,8,0:2:0:0:
167,135,159173,1,8,0:2:0:0:
137,159,159263,37,2,1:2:0:0:
254,287,159443,1,0,1:2:0:0:
86,345,159622,2,0,B|135:333|135:333|185:346,1,103.199996850586,10|0,0:0|3:0,0:0:0:0:
186,227,159892,1,0,3:0:0:0:
186,227,159982,2,0,B|135:239|135:239|85:224,1,103.199996850586,0|0,3:0|1:0,0:0:0:0:
309,366,160341,6,0,P|329:351|342:326,1,51.599998425293,10|8,0:2|0:0,0:0:0:0:
318,211,160521,2,0,P|338:226|350:249,1,51.599998425293,8|8,0:0|0:0,0:0:0:0:
254,287,160700,38,0,B|313:287|313:287|348:303|348:303|420:302,1,154.799995275879,6|0,1:2|0:0,0:0:0:0:
468,200,161060,5,10,0:0:0:0:
230,373,161239,1,0,1:2:0:0:
473,379,161419,37,10,0:0:0:0:
234,210,161598,1,0,1:2:0:0:
500,55,161778,22,0,B|472:60|448:50|448:50|393:80|393:80|365:73|336:79,1,172,6|0,1:2|0:0,0:0:0:0:
264,105,162317,1,8,0:0:0:0:
231,117,162406,1,10,0:2:0:0:
197,119,162496,1,10,0:2:0:0:
165,109,162586,1,8,0:0:0:0:
131,102,162676,1,8,0:0:0:0:
97,108,162766,1,8,0:0:0:0:
66,122,162856,6,0,P|21:108|32:41,1,116.099996456909,6|2,1:2|0:0,0:0:0:0:
66,122,163215,38,0,B|63:178|63:178|79:213|79:213|73:279,1,154.799995275879,6|0,1:2|0:0,0:0:0:0:
34,348,163575,21,6,1:2:0:0:
152,182,163754,1,0,1:0:0:0:
212,374,163934,1,10,0:0:0:0:
73,272,164113,6,0,P|99:269|129:269,1,55.8999974411012,2|0,3:2|3:0,0:0:0:0:
230,299,164293,2,0,P|257:299|285:295,1,55.8999974411012,0|0,1:0|0:0,0:0:0:0:
394,120,164473,37,0,1:0:0:0:
367,370,164652,1,8,0:0:0:0:
247,142,164832,5,8,1:2:0:0:
247,142,164922,1,8,1:2:0:0:
247,142,165012,1,0,1:2:0:0:
483,275,165191,1,0,1:0:0:0:
241,374,165371,1,8,0:0:0:0:
458,193,165551,38,0,L|392:191,1,55.8999974411012,0|0,3:0|3:0,0:0:0:0:
274,274,165730,2,0,L|219:276,1,55.8999974411012,0|0,1:0|0:0,0:0:0:0:
89,121,165910,5,0,1:0:0:0:
331,220,166090,1,10,0:0:0:0:
95,353,166269,1,8,0:0:0:0:
95,353,166359,1,8,0:0:0:0:
95,353,166449,38,0,B|104:317|88:286|88:286|102:252|102:252|86:223|88:182,1,167.699992323304,6|0,0:0|0:0,0:0:0:0:
87,106,166808,1,2,1:2:0:0:
13,326,166988,1,2,1:2:0:0:
215,146,167167,5,10,0:2:0:0:
215,146,167257,1,0,1:2:0:0:
215,146,167347,2,0,L|218:227,1,55.8999974411012,2|0,1:2|1:2,0:0:0:0:
301,327,167527,37,10,0:2:0:0:
301,327,167617,1,0,1:2:0:0:
301,327,167707,2,0,L|304:246,1,55.8999974411012,2|0,1:2|1:2,0:0:0:0:
297,90,167886,5,14,0:0:0:0:
139,271,168066,1,0,1:0:0:0:
145,90,168245,37,8,0:0:0:0:
303,271,168425,1,0,1:0:0:0:
433,29,168605,5,8,0:0:0:0:
388,60,168694,1,8,0:2:0:0:
379,114,168784,1,8,0:2:0:0:
411,158,168874,1,8,0:2:0:0:
451,197,168964,1,8,0:2:0:0:
472,247,169053,1,8,0:2:0:0:
467,302,169143,1,8,0:2:0:0:
436,348,169233,1,8,0:2:0:0:
386,372,169323,5,4,1:2:0:0:
230,247,169503,1,2,0:0:0:0:
472,247,169682,1,10,0:0:0:0:
228,148,169862,5,2,3:2:0:0:
228,148,169952,1,8,3:0:0:0:
228,148,170042,1,0,1:2:0:0:
384,273,170221,1,2,1:2:0:0:
142,273,170400,1,8,0:0:0:0:
311,76,170581,38,0,L|301:132,1,47.3000014434815,2|0,0:1|0:0,0:0:0:0:
318,138,170940,2,0,L|326:90,1,47.3000014434815,2|0,0:1|0:0,0:0:0:0:
342,105,171299,2,0,L|333:151,1,47.3000014434815,2|0,0:1|0:0,0:0:0:0:
349,166,171658,2,0,L|357:119,1,47.3000014434815,2|0,0:1|0:0,0:0:0:0:
230,30,172018,5,8,0:0:0:0:
230,30,172108,1,8,0:0:0:0:
230,30,172197,1,8,0:0:0:0:
186,205,172377,1,8,0:0:0:0:
36,36,172736,37,8,0:0:0:0:
36,36,172826,1,8,0:0:0:0:
36,36,172916,1,8,0:0:0:0:
180,104,173096,1,8,0:0:0:0:
13,163,173275,1,8,0:0:0:0:
156,271,173455,6,0,B|211:268|211:268|250:288|250:288|308:287,1,154.799995275879,4|2,0:0|1:2,0:0:0:0:
187,350,173994,1,8,0:0:0:0:
268,209,174173,2,0,L|351:207,1,77.3999976379395,2|0,1:2|3:0,0:0:0:0:
143,277,174533,1,2,1:2:0:0:
371,364,174712,1,10,0:0:0:0:
305,287,174892,2,0,B|303:347|303:346,1,38.6999988189698,0|0,3:0|3:0,0:0:0:0:
431,228,175072,37,8,0:0:0:0:
272,134,175251,1,8,0:0:0:0:
272,134,175790,5,8,0:0:0:0:
371,92,175970,1,2,3:2:0:0:
245,35,176149,1,2,1:2:0:0:
364,178,176329,38,0,B|421:153|418:203|486:176,1,116.099996456909,4|0,1:2|0:0,0:0:0:0:
494,172,176688,1,2,3:2:0:0:
452,104,176868,1,2,1:2:0:0:
388,250,177048,2,0,B|385:291|385:291|397:321|397:321|393:372,1,116.099996456909,6|0,1:2|0:0,0:0:0:0:
319,383,177407,2,0,L|323:329,1,38.6999988189698,10|2,0:0|0:0,0:0:0:0:
389,233,177587,1,10,0:0:0:0:
469,334,177766,1,0,1:2:0:0:
279,243,177946,6,0,B|255:250|231:239|231:239|170:271|170:271|143:259|102:271,1,172,4|0,0:0|1:2,0:0:0:0:
14,328,178485,1,2,3:2:0:0:
171,384,178664,1,2,1:2:0:0:
0,326,178844,1,2,3:2:0:0:
194,258,179024,1,10,0:0:0:0:
109,192,179203,38,0,B|59:172|14:188|14:188|44:204,1,129,6|0,0:0|0:0,0:0:0:0:
41,202,179563,2,0,P|67:150|43:83,1,129,2|0,0:0|0:0,0:0:0:0:
45,85,179922,2,0,B|18:100|18:100|63:116|113:96,1,129,2|0,0:0|0:0,0:0:0:0:
139,92,180281,1,8,0:0:0:0:
139,92,180371,1,8,0:0:0:0:
139,92,180461,1,8,0:0:0:0:
272,29,180640,6,0,B|325:13|325:13|356:36|356:36|396:20|452:38,1,172,6|0,1:2|1:0,0:0:0:0:
315,185,181179,2,0,P|298:146|306:104,1,86,10|0,0:0|0:0,0:0:0:0:
451,200,181539,1,0,1:2:0:0:
301,269,181718,1,0,1:2:0:0:
462,376,181898,2,0,P|478:337|471:295,1,86,8|0,0:0|0:0,0:0:0:0:
440,377,182167,1,0,3:0:0:0:
418,379,182257,38,0,B|363:383|363:383|338:373|338:373|267:379,1,129,2|0,3:2|0:0,0:0:0:0:
301,269,182616,2,0,P|325:331|272:382,1,129,10|0,0:0|0:0,0:0:0:0:
288,257,182976,1,0,1:2:0:0:
209,378,183155,1,0,1:2:0:0:
169,217,183335,1,8,0:0:0:0:
169,217,183425,1,8,0:0:0:0:
169,217,183515,1,8,0:0:0:0:
46,361,183694,6,0,B|51:329|41:300|41:300|64:262|64:262|53:232|61:188,1,172,4|0,0:2|0:0,0:0:0:0:
106,41,184233,1,8,0:0:0:0:
161,194,184413,1,0,3:0:0:0:
110,55,184593,1,0,3:0:0:0:
237,110,184772,38,0,B|295:108|295:108|337:130|337:130|410:126,1,172,4|0,1:2|0:0,0:0:0:0:
260,194,185311,1,8,0:0:0:0:
362,52,185491,1,0,3:0:0:0:
269,183,185670,1,0,3:0:0:0:
146,6,185850,6,0,L|140:69,1,43,4|0,0:0|0:0,0:0:0:0:
53,218,186030,1,8,0:0:0:0:
90,197,186119,1,8,0:0:0:0:
131,200,186209,1,8,0:0:0:0:
164,227,186299,1,8,0:0:0:0:
194,258,186389,1,8,0:0:0:0:
232,273,186478,1,8,0:0:0:0:
275,268,186569,38,0,P|332:253|412:286,1,129,2|0,3:2|0:0,0:0:0:0:
464,171,186928,2,0,P|447:228|378:280,1,129,2|0,3:2|0:0,0:0:0:0:
453,383,187287,2,0,P|411:339|400:254,1,129,2|0,3:2|0:0,0:0:0:0:
464,148,187646,6,0,B|399:148|399:148|367:173|367:173|299:172,1,172,4|0,3:2|0:0,0:0:0:0:
218,107,188096,1,0,0:0:0:0:
218,107,188185,2,0,L|275:103,1,43,0|0,0:0|0:0,0:0:0:0:
209,229,188365,2,0,L|266:233,1,43
142,163,188545,1,0,0:0:0:0:
142,163,188634,1,0,0:0:0:0:
142,163,188724,37,10,1:2:0:0:
86,347,188904,1,10,1:2:0:0:
27,55,189443,6,0,B|71:45|71:45|121:57,1,86,6|8,0:0|3:2,0:0:0:0:
137,65,189712,1,8,3:0:0:0:
137,65,189802,1,10,3:2:0:0:
15,155,189982,1,0,3:0:0:0:
175,212,190161,1,2,3:2:0:0:
37,291,190341,1,0,0:0:0:0:
37,291,190431,1,0,0:0:0:0:
37,291,190521,38,0,B|71:285|98:292|98:292|136:325|136:325|166:331|211:323,1,172,6|0,0:0|0:0,0:0:0:0:
334,191,191060,2,0,P|314:185|288:184,1,43,0|0,3:0|3:0,0:0:0:0:
175,212,191239,1,10,0:0:0:0:
312,330,191419,1,8,0:0:0:0:
312,330,191509,1,8,0:0:0:0:
312,330,191599,1,2,1:2:0:0:
163,202,191778,1,8,0:0:0:0:
356,191,191958,1,2,3:2:0:0:
151,192,192137,1,0,3:2:0:0:
322,341,192317,5,4,0:0:0:0:
434,215,192497,5,8,1:2:0:0:
437,191,192587,1,8,1:2:0:0:
434,167,192676,1,10,1:2:0:0:
461,219,192856,5,8,1:2:0:0:
465,189,192946,1,8,1:2:0:0:
462,157,193035,1,10,1:2:0:0:
489,225,193215,37,8,1:2:0:0:
493,188,193305,1,8,1:2:0:0:
489,149,193394,1,10,1:2:0:0:
475,113,193485,1,8,1:2:0:0:
462,72,193574,1,8,1:2:0:0:
473,32,193664,1,8,1:2:0:0:
504,4,193754,5,14,0:2:0:0:
337,65,193934,37,8,1:2:0:0:
313,68,194024,1,8,1:2:0:0:
289,65,194113,1,10,0:2:0:0:
341,92,194293,5,8,1:2:0:0:
311,96,194383,1,8,1:2:0:0:
279,93,194473,1,10,0:2:0:0:
347,120,194652,37,8,1:2:0:0:
310,123,194742,1,8,1:2:0:0:
269,121,194832,2,0,P|228:111|193:122,1,64.5,2|0,1:0|0:0,0:0:0:0:
147,180,195191,6,0,B|165:136|165:136|150:74|150:74|133:126,1,154.799995275879,6|0,1:2|0:0,0:0:0:0:
46,176,195551,2,0,B|93:190|93:190|153:178,1,103.199996850586,10|0,0:0|3:0,0:0:0:0:
201,17,195820,1,0,3:0:0:0:
201,17,195910,2,0,B|154:3|154:3|94:15,1,103.199996850586,0|0,3:0|1:0,0:0:0:0:
269,121,196269,38,0,P|275:150|270:190,1,51.599998425293,10|2,0:0|0:0,0:0:0:0:
266,253,196449,2,0,P|261:282|243:318,1,51.599998425293,2|2,3:2|0:0,0:0:0:0:
46,176,196628,6,0,B|26:232|46:278|46:278|45:248|70:227,1,154.799995275879,2|0,1:2|0:0,0:0:0:0:
157,226,196988,2,0,P|104:211|56:243,1,103.199996850586,10|0,0:0|3:0,0:0:0:0:
3,337,197257,1,0,3:0:0:0:
3,337,197347,2,0,P|56:352|104:320,1,103.199996850586,0|0,3:0|1:0,0:0:0:0:
273,115,197706,37,8,0:2:0:0:
317,89,197795,1,8,0:2:0:0:
368,86,197885,1,8,0:2:0:0:
416,105,197975,1,8,0:2:0:0:
450,142,198065,5,14,3:2:0:0:
254,216,198245,1,0,1:0:0:0:
412,344,198425,1,10,0:0:0:0:
235,317,198605,37,0,1:0:0:0:
431,243,198785,1,10,0:0:0:0:
273,115,198965,1,0,1:0:0:0:
512,30,199143,6,0,B|394:0|428:73|295:23,1,193.499994094849,6|0,1:2|0:0,0:0:0:0:
233,1,199682,5,8,0:0:0:0:
195,1,199771,1,8,0:0:0:0:
157,1,199861,1,8,0:0:0:0:
125,20,199951,1,8,0:0:0:0:
95,45,200042,1,8,0:0:0:0:
57,54,200131,1,8,0:0:0:0:
20,45,200221,21,0,1:0:0:0:
194,96,200401,1,8,0:0:0:0:
31,194,200581,2,0,L|28:151,1,38.6999988189698,8|0,3:0|0:0,0:0:0:0:
134,221,200760,2,0,L|131:264,1,38.6999988189698,8|0,3:0|0:0,0:0:0:0:
58,355,200940,6,0,B|118:356|118:356|139:371|139:371|214:368,1,154.799995275879,6|0,1:2|0:0,0:0:0:0:
214,271,201299,2,0,P|195:322|209:371,1,103.199996850586,10|0,0:0|0:0,0:0:0:0:
362,272,201658,1,2,1:2:0:0:
205,196,201838,1,0,1:2:0:0:
380,284,202018,2,0,P|398:232|385:184,1,103.199996850586,10|0,0:0|0:0,0:0:0:0:
240,26,202377,38,0,B|235:82|235:82|247:134|247:134|252:113|268:94,1,154.799995275879,4|0,1:2|0:0,0:0:0:0:
240,26,202736,2,0,B|185:10|185:10|132:28,1,103.199996850586,10|0,0:0|0:0,0:0:0:0:
322,149,203096,1,2,1:2:0:0:
101,139,203275,1,0,1:2:0:0:
240,26,203455,2,0,B|295:10|295:10|348:28,1,103.199996850586,10|0,0:0|3:0,0:0:0:0:
426,76,203724,1,0,3:2:0:0:
426,76,203814,6,0,B|420:134|420:134|433:170|433:170|427:242,1,154.799995275879,4|0,1:2|0:0,0:0:0:0:
345,269,204173,2,0,B|421:251|421:251|508:289,1,154.799995275879,8|0,0:0|0:0,0:0:0:0:
512,299,204533,1,2,1:2:0:0:
355,185,204712,1,0,1:2:0:0:
493,128,204892,1,10,0:0:0:0:
412,338,205072,1,0,3:2:0:0:
412,338,205161,1,0,3:2:0:0:
412,338,205251,38,0,B|310:328|310:328|359:314,1,154.799995275879,4|0,1:2|0:0,0:0:0:0:
360,314,205611,2,0,L|356:373,1,51.599998425293,10|0,0:0|0:0,0:0:0:0:
231,251,205790,1,0,3:0:0:0:
231,251,205880,1,0,3:0:0:0:
231,251,205970,2,0,P|183:232|134:243,1,103.199996850586,2|0,3:2|3:0,0:0:0:0:
134,357,206239,1,0,3:0:0:0:
134,357,206329,2,0,P|183:368|230:349,1,103.199996850586,10|0,3:2|3:0,0:0:0:0:
27,293,206688,6,0,B|24:267|37:240|37:240|22:202|22:202|35:177|35:177|38:132,1,154.799995275879,6|0,1:2|0:0,0:0:0:0:
46,45,207048,2,0,B|30:98|30:98|37:151,1,103.199996850586,10|0,0:0|3:0,0:0:0:0:
179,156,207317,1,0,3:0:0:0:
179,156,207407,2,0,B|194:102|194:102|187:49,1,103.199996850586,0|0,3:0|0:0,0:0:0:0:
102,205,207766,37,10,3:2:0:0:
132,228,207855,1,0,3:2:0:0:
168,239,207945,1,0,3:2:0:0:
207,236,208035,1,0,3:2:0:0:
241,219,208125,6,0,P|254:194|263:163,1,51.599998425293,2|0,1:2|0:0,0:0:0:0:
311,118,208305,2,0,P|314:92|313:67,1,51.599998425293,0|0,1:2|0:0,0:0:0:0:
268,14,208485,2,0,P|314:31|366:15,1,103.199996850586,10|0,0:0|3:0,0:0:0:0:
356,174,208754,1,0,3:0:0:0:
356,174,208844,2,0,P|309:156|258:173,1,103.199996850586,0|0,3:0|1:0,0:0:0:0:
311,382,209203,38,0,P|316:353|313:312,1,51.599998425293,10|8,0:2|0:0,0:0:0:0:
356,174,209383,2,0,P|351:203|354:244,1,51.599998425293,8|8,0:0|0:0,0:0:0:0:
417,351,209563,2,0,B|387:261|442:286|430:201,1,154.799995275879,6|0,1:2|0:0,0:0:0:0:
420,99,209922,5,10,0:0:0:0:
241,351,210102,1,0,1:2:0:0:
236,99,210281,37,10,0:0:0:0:
417,351,210461,1,0,1:2:0:0:
490,38,210640,22,0,B|464:45|435:35|435:35|385:65|385:65|353:52|310:65,1,172,6|0,1:2|0:0,0:0:0:0:
236,99,211179,1,0,0:0:0:0:
236,99,211269,1,2,0:2:0:0:
236,99,211359,2,0,P|205:104|169:95,1,47.3000014434815,2|0,0:2|0:0,0:0:0:0:
128,41,211539,2,0,P|97:36|61:45,1,47.3000014434815,0|0,0:0|0:0,0:0:0:0:
9,105,211718,6,0,P|39:154|92:138,1,116.099996456909,6|2,1:2|0:0,0:0:0:0:
94,116,212078,38,0,B|83:181|83:181|92:205|92:205|83:268,1,154.799995275879,6|0,1:2|0:0,0:0:0:0:
67,351,212437,21,6,1:2:0:0:
318,334,212616,1,0,1:0:0:0:
158,170,212796,1,10,0:0:0:0:
212,358,212976,6,0,P|210:326|217:289,1,55.8999974411012,2|0,3:2|3:0,0:0:0:0:
270,188,213155,2,0,P|271:156|265:119,1,55.8999974411012,0|0,1:0|0:0,0:0:0:0:
168,47,213335,37,0,1:0:0:0:
295,267,213515,1,8,0:0:0:0:
413,49,213694,5,8,0:0:0:0:
413,49,213784,1,8,0:0:0:0:
413,49,213874,1,0,1:0:0:0:
182,148,214054,1,0,1:0:0:0:
442,223,214233,1,8,0:0:0:0:
262,19,214413,38,0,L|258:89,1,55.8999974411012,0|0,3:0|3:0,0:0:0:0:
323,209,214593,2,0,L|327:265,1,55.8999974411012,0|0,1:0|0:0,0:0:0:0:
178,337,214772,5,0,1:0:0:0:
451,213,214951,1,10,0:0:0:0:
182,148,215131,37,8,0:0:0:0:
182,148,215221,1,8,0:0:0:0:
182,148,215311,2,0,B|61:148|61:148|114:182,1,167.699992323304,6|0,0:0|0:0,0:0:0:0:
211,247,215670,5,2,1:2:0:0:
61,18,215850,1,2,1:2:0:0:
70,248,216030,38,0,L|138:246,1,55.8999974411012,10|0,0:2|1:2,0:0:0:0:
206,71,216209,2,0,L|262:73,1,55.8999974411012,2|0,1:2|1:2,0:0:0:0:
106,263,216389,6,0,L|50:265,1,55.8999974411012,10|0,0:2|1:2,0:0:0:0:
281,55,216568,2,0,L|199:53,1,55.8999974411012,2|0,1:2|1:2,0:0:0:0:
346,236,216748,37,14,0:0:0:0:
303,233,218185,37,2,0:0:0:0:
308,216,218365,1,2,0:0:0:0:
308,198,218545,1,2,0:0:0:0:
200,270,218724,37,2,0:0:0:0:
195,253,218904,1,2,0:0:0:0:
195,235,219084,1,2,0:0:0:0:
283,311,219263,5,2,0:0:0:0:
367,342,219443,1,2,0:0:0:0:
448,224,219622,37,2,0:0:0:0:
364,255,219802,1,2,0:0:0:0:
277,137,219982,5,2,0:0:0:0:
361,168,220162,1,2,0:0:0:0:
442,50,220341,37,2,0:0:0:0:
358,81,220521,2,0,L|313:64,2,25.7999992126465,0|8|8,0:0|0:0|0:0,0:0:0:0:
276,31,220700,38,0,P|266:48|262:67,1,32.2500012302399,10|0,0:0|0:0,0:0:0:0:
243,10,220790,2,0,L|242:48,1,32.2500012302399,2|0,0:0|0:0,0:0:0:0:
204,1,220880,2,0,L|216:37,1,32.2500012302399,2|0,0:0|0:0,0:0:0:0:
164,5,220970,2,0,L|188:35,1,32.2500012302399,2|0,0:0|0:0,0:0:0:0:
126,21,221060,38,0,P|80:34|39:17,1,77.3999976379395,6|0,0:1|1:2,0:0:0:0:
129,162,221329,1,0,1:2:0:0:
129,162,221419,2,0,P|140:115|175:88,1,77.3999976379395,2|0,1:1|1:0,0:0:0:0:
6,93,221688,1,0,1:0:0:0:
6,93,221778,2,0,P|40:126|46:170,1,77.3999976379395,2|0,1:1|0:0,0:0:0:0:
225,289,222137,5,0,1:0:0:0:
202,271,222226,1,0,1:0:0:0:
174,262,222316,1,0,1:0:0:0:
145,262,222406,1,0,1:0:0:0:
118,272,222497,38,0,L|115:365,1,77.3999976379395,2|0,1:1|0:0,0:0:0:0:
47,154,222766,1,0,1:0:0:0:
47,154,222856,2,0,L|56:248,1,77.3999976379395,2|0,1:1|1:0,0:0:0:0:
198,153,223125,1,0,1:0:0:0:
198,153,223215,2,0,L|189:247,1,77.3999976379395,2|0,1:1|1:0,0:0:0:0:
113,56,223575,5,0,1:0:0:0:
139,43,223664,1,0,1:0:0:0:
167,39,223754,1,0,1:0:0:0:
196,44,223844,1,0,1:0:0:0:
222,56,223934,1,2,1:1:0:0:
291,133,224113,1,0,1:0:0:0:
326,146,224202,1,0,1:0:0:0:
364,139,224292,1,0,1:0:0:0:
376,22,224473,1,0,1:0:0:0:
340,8,224562,1,0,1:0:0:0:
302,15,224652,1,0,1:0:0:0:
469,110,224832,37,0,1:0:0:0:
478,137,224921,1,0,1:0:0:0:
481,166,225011,1,2,1:1:0:0:
477,195,225101,1,0,1:0:0:0:
467,222,225191,2,0,L|415:224,1,38.6999988189698,0|0,1:0|1:0,0:0:0:0:
363,354,225371,6,0,L|368:301,1,38.6999988189698,2|0,3:2|0:0,0:0:0:0:
355,338,225551,2,0,L|360:285,1,38.6999988189698,2|0,3:2|0:0,0:0:0:0:
287,191,225730,38,0,L|292:244,1,38.6999988189698,2|0,3:2|0:0,0:0:0:0:
279,207,225910,2,0,L|284:260,1,38.6999988189698,2|0,3:2|0:0,0:0:0:0:
211,354,226089,6,0,L|216:301,1,38.6999988189698,2|0,3:2|0:0,0:0:0:0:
203,338,226269,2,0,L|208:285,1,38.6999988189698,2|0,3:2|0:0,0:0:0:0:
125,248,226449,6,0,L|54:243,1,68.8,2|0,0:1|0:0,0:0:0:0:
270,99,226808,6,0,B|311:86|361:105|361:105|341:121|311:127,1,129,4|0,0:0|0:0,0:0:0:0:
329,122,227167,2,0,P|331:65|354:32,1,86,8|0,0:0|3:0,0:0:0:0:
363,27,227437,1,0,3:0:0:0:
363,27,227527,1,0,3:0:0:0:
512,226,227706,5,0,1:0:0:0:
453,27,227886,1,8,0:0:0:0:
389,233,228066,2,0,L|446:231,1,43,0|0,3:0|3:0,0:0:0:0:
256,24,228245,5,0,1:2:0:0:
302,234,228425,1,0,1:0:0:0:
363,27,228605,1,8,0:0:0:0:
198,160,228784,1,0,3:0:0:0:
198,160,228874,1,0,3:0:0:0:
198,160,228964,1,0,3:0:0:0:
317,243,229143,1,0,3:0:0:0:
180,336,229323,6,0,B|72:340|72:340|115:310,1,150.499995407105,4|0,0:0|0:0,0:0:0:0:
106,315,229862,2,0,L|108:374,1,43,8|8,0:0|0:0,0:0:0:0:
206,259,230042,1,8,0:0:0:0:
49,216,230221,1,0,3:0:0:0:
224,270,230401,1,0,3:0:0:0:
106,315,230581,1,0,3:0:0:0:
193,46,230760,6,0,B|219:-32|334:-19|370:58|348:174|217:158|223:270|223:270|173:170|71:252|-8:166|-19:80|86:-4|151:71,1,842.799992283936,4|0,0:0|0:0,0:0:0:0:
