osu file format v14

[General]
AudioFilename: audio.mp3
AudioLeadIn: 0
PreviewTime: 65152
Countdown: 0
SampleSet: Soft
StackLeniency: 0.6
Mode: 0
LetterboxInBreaks: 0
WidescreenStoryboard: 1

[Editor]
Bookmarks: 1838,3396,14314,25811,37308,45930,63176,66050,88685,93355,94793,100541,112038,120661,137906,140781,157308,169523,189643,201140,216948,218385,221260,232757,236080
DistanceSpacing: 1
BeatDivisor: 4
GridSize: 8
TimelineZoom: 2.450004

[Metadata]
Title:Sentimental Crisis
TitleUnicode:センチメンタルクライシス
Artist:halca
ArtistUnicode:halca
Creator:-Tynamo
Version:Kw's Insane
Source:かぐや様は告らせたい ~天才たちの恋愛頭脳戦~
Tags:Kaguya-sama wa kokurasetai tensai-tachi no renai zunosen kaguya wants to be confessed the genius war of love japanese anime ending thewhitewhale KwAIMSuckASFuk
BeatmapID:2015623
BeatmapSetID:955003

[Difficulty]
HPDrainRate:5.5
CircleSize:4.1
OverallDifficulty:8
ApproachRate:8.5
SliderMultiplier:1.5
SliderTickRate:1

[Events]
//Background and Video events
0,0,"bg.jpg",0,0
//Break Periods
2,100741,108489
//Storyboard Layer 0 (Background)
//Storyboard Layer 1 (Fail)
//Storyboard Layer 2 (Pass)
//Storyboard Layer 3 (Foreground)
//Storyboard Sound Samples

[TimingPoints]
280,389.61038961039,4,2,1,60,1,0
1059,-333.333333333333,4,2,1,20,0,0
13916,-200,4,2,1,20,0,0
14314,359.281437125748,4,2,1,60,1,0
14314,-100,4,2,1,60,0,0
18625,-66.6666666666667,4,2,1,60,0,0
18984,-76.9230769230769,4,2,1,60,0,0
19343,-100,4,2,1,60,0,0
20062,-83.3333333333333,4,2,1,60,0,0
22577,-100,4,2,1,60,0,0
24014,-200,4,2,1,60,0,0
25182,-200,4,2,1,5,0,0
25272,-200,4,2,1,60,0,0
25811,-200,4,2,1,40,0,0
31559,-142.857142857143,4,2,1,40,0,0
34433,-100,4,2,1,50,0,0
36589,-142.857142857143,4,2,1,40,0,0
37308,-100,4,2,1,60,0,0
45930,-142.857142857143,4,2,1,60,0,0
48805,-100,4,2,1,60,0,0
59942,-142.857142857143,4,2,1,60,0,0
61020,-100,4,2,1,60,0,0
62637,-100,4,2,1,60,0,0
63176,-100,4,2,1,80,0,0
65331,-100,4,2,1,60,0,0
66050,-83.3333333333333,4,2,1,80,0,1
75751,-142.857142857143,4,2,1,80,0,1
76290,-100,4,2,1,80,0,1
76828,-142.857142857143,4,2,1,80,0,1
77547,-83.3333333333333,4,2,1,80,0,1
87248,-142.857142857143,4,2,1,80,0,1
87787,-100,4,2,1,80,0,1
89044,-83.3333333333333,4,2,1,80,0,1
93355,-142.857142857143,4,2,1,60,0,0
93715,-142.857142857143,4,2,1,40,0,0
94433,-100,4,2,1,60,0,0
97846,-200,4,2,1,60,0,0
99912,-200,4,2,1,5,0,0
100001,-200,4,2,1,60,0,0
100541,-142.857142857143,4,2,1,50,0,0
109164,-100,4,2,1,50,0,0
111319,-142.857142857143,4,2,1,40,0,0
112038,-100,4,2,1,60,0,0
120661,-142.857142857143,4,2,1,60,0,0
123535,-100,4,2,1,60,0,0
134673,-142.857142857143,4,2,1,60,0,0
136110,-100,4,2,1,60,0,0
139703,-142.857142857143,4,2,1,60,0,0
140062,-100,4,2,1,60,0,0
140781,-83.3333333333333,4,2,1,80,0,1
150481,-142.857142857143,4,2,1,80,0,1
151200,-100,4,2,1,80,0,1
151918,-142.857142857143,4,2,1,80,0,1
152278,-83.3333333333333,4,2,1,80,0,1
161978,-142.857142857143,4,2,1,80,0,1
162697,-100,4,2,1,80,0,1
163775,-83.3333333333333,4,2,1,80,0,1
169523,-100,4,2,1,60,0,0
178146,-142.857142857143,4,2,1,60,0,0
180840,-100,4,2,1,60,0,0
186769,-100,4,2,1,60,0,0
190721,-142.857142857143,4,2,1,60,0,0
191439,-100,4,2,1,60,0,0
195032,-142.857142857143,4,2,1,60,0,0
195391,-100,4,2,1,60,0,0
199343,-142.857142857143,4,2,1,60,0,0
201140,-83.3333333333333,4,2,1,80,0,1
210840,-142.857142857143,4,2,1,80,0,1
211379,-100,4,2,1,80,0,1
212637,-83.3333333333333,4,2,1,80,0,1
216948,-100,4,2,1,60,0,0
217308,-142.857142857143,4,2,1,40,0,0
218385,-142.857142857143,4,2,1,30,0,0
219822,-142.857142857143,4,2,1,40,0,0
220721,-100,4,2,1,60,0,0
221260,-100,4,2,1,60,0,0
225571,-66.6666666666667,4,2,1,60,0,0
225930,-76.9230769230769,4,2,1,60,0,0
226290,-100,4,2,1,60,0,0
227008,-83.3333333333333,4,2,1,60,0,0
229523,-100,4,2,1,60,0,0
230960,-200,4,2,1,50,0,0
232128,-200,4,2,1,5,0,0
232218,-200,4,2,1,40,0,0
232757,342.857142857143,4,2,1,20,1,0
233099,279.72027972028,4,2,1,20,1,0
233658,402.684563758389,4,2,1,20,1,0
234060,606.060606060606,4,2,1,20,1,0
234666,560.747663551402,4,2,1,20,1,0
235226,863.309352517986,4,2,1,20,1,0

[Colours]
Combo1 : 255,255,108
Combo2 : 0,168,84
Combo3 : 64,128,128
Combo4 : 255,131,70

[HitObjects]
65,218,1059,6,0,L|12:212,1,44.999998626709,2|2,0:0|0:0,0:0:0:0:
129,305,1838,2,0,P|151:306|175:302,1,44.999998626709,2|0,0:0|0:0,0:0:0:0:
214,379,2617,2,0,P|231:365|247:347,1,44.999998626709,0|0,0:0|0:0,0:0:0:0:
280,254,3396,1,2,0:0:0:0:
413,244,3786,2,0,P|391:235|362:232,2,44.999998626709,0|0|0,0:0|0:0|0:0,0:0:0:0:
280,254,4955,5,2,0:0:0:0:
228,132,5344,2,0,P|231:155|243:182,2,44.999998626709,0|0|0,0:0|0:0|0:0,0:0:0:0:
280,254,6513,1,2,0:0:0:0:
235,373,6903,2,0,P|253:358|270:334,1,44.999998626709,2|2,0:0|0:0,0:0:0:0:
280,254,7682,1,2,0:0:0:0:
396,315,8072,6,0,L|445:317,1,44.999998626709,2|0,0:0|0:0,0:0:0:0:
512,228,8851,2,0,L|463:226,1,44.999998626709,0|0,0:0|0:0,0:0:0:0:
376,115,9630,2,0,P|387:129|399:158,1,44.999998626709,2|0,0:0|0:0,0:0:0:0:
297,82,10409,2,0,P|303:65|322:40,1,44.999998626709,0|0,0:0|0:0,0:0:0:0:
312,173,11189,6,0,B|255:247|167:200|201:141|227:135,1,179.999994506836,2|2,0:0|0:0,0:0:0:0:
476,69,13916,6,0,L|480:100,3,18.75,2|2|2|2,0:0|0:0|0:0|0:0,0:0:0:0:
401,38,14314,6,0,L|310:34,1,75,12|8,3:2|0:0,0:0:0:0:
260,79,14583,1,8,0:0:0:0:
258,86,14673,2,0,L|157:90,1,75,10|8,3:2|0:0,0:0:0:0:
116,38,14942,1,8,0:0:0:0:
113,26,15032,2,0,L|12:22,1,75,10|8,3:2|0:0,0:0:0:0:
0,105,15302,1,8,0:0:0:0:
0,105,15391,2,0,L|6:158,1,37.5,10|8,3:2|0:0,0:0:0:0:
72,230,15571,1,8,0:0:0:0:
56,230,15661,1,8,0:0:0:0:
40,229,15751,6,0,P|34:275|41:320,1,75,12|8,3:2|0:0,0:0:0:0:
108,358,16020,1,8,0:0:0:0:
115,361,16110,2,0,P|157:343|193:314,1,75,10|8,3:2|0:0,0:0:0:0:
195,245,16379,1,8,0:0:0:0:
191,231,16469,2,0,P|154:202|111:186,1,75,10|8,3:2|0:0,0:0:0:0:
96,112,16739,1,8,0:0:0:0:
96,112,16828,2,0,L|99:69,1,37.5,10|8,3:2|0:0,0:0:0:0:
192,85,17008,1,8,0:0:0:0:
193,102,17098,1,8,0:0:0:0:
195,117,17188,6,0,L|297:107,1,75,12|8,3:2|0:0,0:0:0:0:
332,59,17457,1,8,0:0:0:0:
339,56,17547,2,0,L|358:143,1,75,10|8,3:2|0:0,0:0:0:0:
427,156,17816,1,8,0:0:0:0:
434,169,17906,2,0,L|393:249,1,75,10|8,3:2|0:0,0:0:0:0:
380,315,18176,1,8,0:0:0:0:
380,315,18266,2,0,L|317:311,1,37.5,10|8,3:2|0:0,0:0:0:0:
261,253,18445,1,8,0:0:0:0:
242,257,18535,1,8,0:0:0:0:
225,262,18625,6,0,L|218:334,3,56.2500021457673,12|0|0|0,3:2|0:0|3:0|0:0,0:0:0:0:
129,309,18984,2,0,L|136:364,3,48.7499977684022,2|0|8|8,3:2|0:0|0:0|0:0,0:0:0:0:
54,347,19343,2,0,L|47:390,3,37.5,8|8|8|8,3:2|0:0|0:0|0:0,0:0:0:0:
10,249,19703,1,10,3:2:0:0:
10,249,20062,6,0,P|4:193|74:204,1,134.999995880127,4|0,3:2|0:0,0:0:0:0:
85,212,20421,2,0,L|183:207,1,89.9999972534181,8|8,0:0|3:0,0:0:0:0:
244,241,20691,1,8,3:0:0:0:
244,241,20781,1,8,3:0:0:0:
329,199,20960,1,8,3:0:0:0:
339,327,21140,1,8,0:0:0:0:
424,349,21319,2,0,L|418:304,1,44.999998626709,0|0,3:0|3:0,0:0:0:0:
493,253,21499,5,0,3:0:0:0:
424,200,21679,1,0,3:0:0:0:
512,99,21858,1,8,0:0:0:0:
439,37,22038,1,8,3:0:0:0:
439,37,22128,1,8,3:0:0:0:
439,37,22218,2,0,L|340:42,1,89.9999972534181,8|8,3:0|0:0,0:0:0:0:
205,23,22577,6,0,B|178:9|178:9|344:21,1,187.5,12|0,0:0|0:0,0:0:0:0:
302,99,23116,5,8,0:0:0:0:
301,110,23206,1,8,0:0:0:0:
300,119,23296,1,8,0:0:0:0:
192,102,23475,1,0,3:0:0:0:
128,161,23655,1,8,3:2:0:0:
51,171,23834,1,0,3:0:0:0:
10,48,24014,6,0,B|12:3|71:-8|136:30|47:176,1,243.75,4|0,0:0|0:0,0:0:0:0:
24,178,25272,5,0,3:0:0:0:
51,291,25451,1,0,3:0:0:0:
184,254,25631,5,2,0:0:0:0:
160,335,25811,2,0,L|242:328,1,75,2|0,3:2|0:0,0:0:0:0:
337,381,26349,2,0,L|283:377,1,37.5,2|2,3:2|0:0,0:0:0:0:
512,220,26888,1,8,0:0:0:0:
380,127,27068,5,0,3:0:0:0:
456,74,27248,2,0,L|464:159,1,75,2|2,0:0|0:0,0:0:0:0:
324,205,27787,1,0,3:0:0:0:
342,124,27966,2,0,L|379:126,1,37.5,0|0,0:0|0:0,0:0:0:0:
262,11,28325,1,8,0:0:0:0:
262,11,28685,6,0,B|232:30|232:30|147:21,2,112.5,0|0|8,3:0|3:0|0:0,0:0:0:0:
67,147,29942,5,2,3:2:0:0:
175,182,30122,2,0,L|169:93,1,75,2|2,3:2|0:0,0:0:0:0:
280,142,30661,1,0,3:0:0:0:
237,265,30840,6,0,P|255:264|274:268,1,37.5,2|2,0:0|0:0,0:0:0:0:
182,333,31200,2,0,P|204:348|214:365,1,37.5,8|2,0:0|0:0,0:0:0:0:
64,367,31559,6,0,P|66:337|57:301,2,52.4999983978272,2|0|0,3:2|0:0|0:0,0:0:0:0:
17,218,32098,2,0,P|47:230|90:232,1,52.4999983978272,2|2,3:2|0:0,0:0:0:0:
278,1,32637,1,8,0:0:0:0:
198,90,32816,5,2,3:2:0:0:
151,18,32996,2,0,P|99:22|36:56,1,104.999996795654,2|2,3:2|0:0,0:0:0:0:
177,173,33535,1,0,3:0:0:0:
89,175,33715,2,0,P|91:141|85:110,1,52.4999983978272,2|2,0:0|0:0,0:0:0:0:
0,304,34074,1,10,0:0:0:0:
0,304,34433,5,2,3:2:0:0:
49,370,34613,1,0,0:0:0:0:
128,291,34793,1,0,0:0:0:0:
211,381,34972,2,0,L|301:385,1,75,0|2,3:0|0:0,0:0:0:0:
410,223,35331,1,0,0:0:0:0:
372,301,35511,2,0,L|288:305,1,75,0|0,0:0|3:0,0:0:0:0:
410,223,35870,5,8,0:0:0:0:
509,162,36050,1,8,0:0:0:0:
510,148,36140,1,8,0:0:0:0:
512,135,36230,1,8,3:2:0:0:
448,0,36409,1,8,3:2:0:0:
385,77,36589,6,0,L|325:80,1,52.4999983978272,0|0,0:0|0:0,0:0:0:0:
266,15,36948,2,0,L|203:12,1,52.4999983978272,0|0,0:0|0:0,0:0:0:0:
63,149,37308,6,0,L|54:0,1,150,6|0,3:2|3:0,0:0:0:0:
141,200,37846,1,0,3:0:0:0:
71,255,38026,2,0,P|29:236|-10:231,1,75,2|0,3:2|3:0,0:0:0:0:
116,329,38385,2,0,P|147:304|196:287,1,75,8|0,3:2|3:0,0:0:0:0:
292,335,38745,6,0,B|309:336|331:353|331:353|278:346|222:364,1,150,2|0,3:2|3:0,0:0:0:0:
410,384,39284,1,0,3:0:0:0:
465,309,39463,2,0,P|464:271|456:234,1,75,2|0,3:2|3:0,0:0:0:0:
475,160,39733,1,0,3:0:0:0:
478,153,39822,2,0,P|428:123|389:109,1,75,8|0,3:2|3:0,0:0:0:0:
361,58,40092,1,0,0:0:0:0:
356,51,40182,6,0,P|318:66|276:90,1,75,2|0,3:2|3:0,0:0:0:0:
321,234,40541,2,0,P|327:193|327:145,1,75,2|0,3:2|3:0,0:0:0:0:
182,117,40900,2,0,P|213:142|255:166,1,75,2|0,3:2|3:0,0:0:0:0:
115,47,41260,1,10,3:2:0:0:
201,18,41439,1,8,3:2:0:0:
27,8,41619,6,0,B|53:38|35:78|35:78|21:118|55:165,1,150,10|10,0:0|0:0,0:0:0:0:
18,315,42158,1,0,0:0:0:0:
142,241,42337,2,0,P|98:243|55:249,1,75,0|0,3:0|3:0,0:0:0:0:
18,315,42607,1,0,3:0:0:0:
22,324,42697,2,0,P|80:332|115:345,1,75,8|8,3:2|0:0,0:0:0:0:
231,384,43056,6,0,P|289:368|407:364,1,150,6|0,3:2|3:0,0:0:0:0:
480,222,43595,1,0,3:0:0:0:
442,300,43775,2,0,P|466:340|482:379,1,75,2|0,3:2|3:0,0:0:0:0:
362,192,44134,1,8,3:2:0:0:
252,225,44313,1,0,3:0:0:0:
362,192,44493,6,0,L|362:101,1,75,0|0,3:0|3:0,0:0:0:0:
400,5,44852,2,0,B|414:10|414:10|293:18,1,112.5,6|0,3:2|0:0,0:0:0:0:
303,32,45212,6,0,L|221:29,1,75,2|8,3:2|3:2,0:0:0:0:
162,72,45481,1,8,0:0:0:0:
146,61,45571,2,0,L|59:58,1,75,12|8,0:0|0:0,0:0:0:0:
17,112,45840,1,8,0:0:0:0:
22,120,45930,6,0,P|36:170|39:234,1,104.999996795654,12|2,0:0|0:0,0:0:0:0:
0,312,46469,1,0,0:0:0:0:
136,382,46649,2,0,P|165:359|112:346,1,104.999996795654,8|2,0:0|0:0,0:0:0:0:
187,248,47188,6,0,P|158:241|136:243,1,52.4999983978272,8|8,0:0|0:0,0:0:0:0:
253,354,47547,2,0,P|287:354|319:341,1,52.4999983978272,8|0,0:0|0:0,0:0:0:0:
431,280,47906,1,8,3:0:0:0:
431,280,47996,1,8,3:0:0:0:
431,280,48086,6,0,P|431:331|441:394,1,104.999996795654,14|2,3:2|0:0,0:0:0:0:
435,94,48805,5,4,3:2:0:0:
511,64,48984,2,0,L|352:71,1,150,0|0,3:0|0:0,0:0:0:0:
248,2,49523,2,0,L|340:-1,1,75,8|0,0:0|0:0,0:0:0:0:
190,74,49882,1,0,0:0:0:0:
115,18,50062,1,0,0:0:0:0:
34,134,50242,6,0,P|19:95|-2:67,1,75,2|8,0:0|0:0,0:0:0:0:
129,169,50601,1,2,0:0:0:0:
83,233,50781,2,0,P|96:187|118:151,1,75,0|10,0:0|0:0,0:0:0:0:
0,287,51140,1,0,3:0:0:0:
106,384,51319,2,0,P|93:338|71:302,1,75,10|0,0:0|3:0,0:0:0:0:
207,332,51679,5,14,3:2:0:0:
316,334,51858,2,0,B|341:314|341:314|217:324,1,150,0|0,3:0|0:0,0:0:0:0:
129,169,52397,2,0,L|208:172,1,75,12|0,0:0|0:0,0:0:0:0:
314,128,52757,1,2,3:2:0:0:
366,201,52936,1,0,3:0:0:0:
488,74,53116,6,0,L|480:-8,1,75,2|8,0:0|0:0,0:0:0:0:
410,119,53475,1,2,0:0:0:0:
479,207,53655,2,0,L|481:157,2,37.5,8|8|8,0:0|0:0|3:2,0:0:0:0:
361,282,54014,1,0,3:0:0:0:
473,384,54194,2,0,L|463:291,1,75,8|8,3:2|3:0,0:0:0:0:
324,384,54553,5,4,3:2:0:0:
219,324,54733,2,0,P|176:337|134:361,1,75,0|8,0:0|0:0,0:0:0:0:
68,331,55092,1,8,3:0:0:0:
165,182,55272,6,0,P|161:227|147:263,1,75,2|0,3:2|0:0,0:0:0:0:
112,110,55631,2,8,P|152:90|191:85,1,75,10|8,0:0|3:0,0:0:0:0:
74,190,55990,2,0,P|37:164|12:133,1,75,2|0,3:2|0:0,0:0:0:0:
112,27,56349,2,0,L|121:113,1,75,10|8,3:2|3:0,0:0:0:0:
249,165,56709,2,0,L|252:127,2,37.5,2|0|0,3:2|0:0|3:0,0:0:0:0:
320,39,57068,1,8,0:0:0:0:
345,36,57158,1,8,0:0:0:0:
370,34,57248,1,8,0:0:0:0:
395,31,57337,1,8,0:0:0:0:
420,29,57427,6,0,B|443:55|420:96|420:96|399:137|431:177,1,150,6|8,0:0|0:0,0:0:0:0:
422,281,57966,1,0,0:0:0:0:
511,261,58146,2,0,L|423:267,1,75,2|0,3:2|3:0,0:0:0:0:
330,384,58505,1,8,3:2:0:0:
234,336,58685,1,0,3:2:0:0:
224,337,58775,1,0,0:0:0:0:
214,339,58864,6,0,P|222:295|248:250,1,75,2|0,0:0|0:0,0:0:0:0:
113,309,59224,2,0,P|97:264|71:234,1,75,10|0,0:0|0:0,0:0:0:0:
58,87,59583,1,2,3:2:0:0:
3,178,59763,2,0,L|-1:135,1,37.5,8|8,0:0|0:0,0:0:0:0:
42,11,59942,6,0,P|89:15|89:159,1,209.999993591309,8|8,0:0|0:0,0:0:0:0:
403,197,61020,5,0,3:0:0:0:
332,241,61200,1,0,3:0:0:0:
228,183,61379,2,0,P|227:147|220:93,1,75,12|0,0:0|3:0,0:0:0:0:
196,33,61649,1,0,3:0:0:0:
202,26,61739,6,0,P|247:25|288:17,1,75,8|0,3:2|3:0,0:0:0:0:
462,92,62098,2,0,P|406:93|349:72,1,112.5,12|0,0:0|0:0,0:0:0:0:
339,86,62457,1,8,3:2:0:0:
403,197,62637,1,8,3:2:0:0:
335,271,62816,1,8,3:2:0:0:
443,384,62996,1,8,3:2:0:0:
455,382,63086,1,8,3:2:0:0:
467,380,63176,5,12,3:2:0:0:
338,356,63355,1,0,3:2:0:0:
168,384,63535,5,8,3:2:0:0:
242,281,63715,1,0,3:2:0:0:
237,271,63805,1,0,3:2:0:0:
232,261,63894,1,12,3:2:0:0:
159,206,64074,1,0,3:2:0:0:
250,90,64254,1,8,0:0:0:0:
251,67,64343,1,8,0:0:0:0:
252,45,64433,1,8,0:0:0:0:
253,22,64523,1,8,0:0:0:0:
254,0,64613,5,12,0:0:0:0:
113,43,64793,1,12,0:0:0:0:
3,351,65331,6,2,L|-2:299,3,37.5,2|2|2|2,0:0|0:0|0:0|0:0,0:0:0:0:
78,315,65691,1,8,0:0:0:0:
99,308,65781,1,8,0:0:0:0:
121,308,65870,1,8,0:0:0:0:
143,314,65960,1,8,0:0:0:0:
160,325,66050,6,0,P|159:283|186:242,1,89.9999972534181,6|0,0:0|0:0,0:0:0:0:
299,378,66409,2,0,P|266:351|254:304,1,89.9999972534181,8|0,0:0|3:0,0:0:0:0:
426,311,66769,2,0,P|388:322|343:303,1,89.9999972534181,0|0,3:0|3:0,0:0:0:0:
471,164,67128,2,0,B|489:143|489:143|501:276,1,134.999995880127,8|0,0:0|3:0,0:0:0:0:
502,273,67487,1,0,3:0:0:0:
387,231,67667,1,0,3:0:0:0:
423,64,67846,6,0,L|529:55,1,89.9999972534181,10|0,0:0|3:0,0:0:0:0:
345,7,68206,2,0,L|236:2,1,89.9999972534181,12|0,0:0|3:0,0:0:0:0:
136,77,68565,1,12,0:0:0:0:
59,21,68745,1,0,3:0:0:0:
47,23,68834,1,0,3:0:0:0:
35,24,68924,2,0,L|29:125,1,89.9999972534181,4|0,0:0|0:0,0:0:0:0:
87,243,69284,6,0,P|39:231|-2:240,1,89.9999972534181,10|0,0:0|3:0,0:0:0:0:
172,230,69643,2,0,P|150:185|117:159,1,89.9999972534181,0|0,3:0|3:0,0:0:0:0:
247,311,70002,2,0,B|259:298|278:291|278:291|215:273|188:347,1,134.999995880127,10|0,0:0|3:0,0:0:0:0:
190,349,70361,1,12,0:0:0:0:
303,382,70541,1,0,3:0:0:0:
458,338,70721,6,0,P|459:291|473:248,1,89.9999972534181,8|8,0:0|0:0,0:0:0:0:
512,176,70990,1,8,0:0:0:0:
503,171,71080,2,0,P|479:149|449:93,1,89.9999972534181,12|8,0:0|0:0,0:0:0:0:
454,21,71349,1,8,0:0:0:0:
457,12,71439,1,12,0:0:0:0:
362,43,71619,1,0,3:0:0:0:
288,190,71799,6,0,P|331:187|377:195,1,89.9999972534181,6|0,0:0|0:0,0:0:0:0:
169,183,72158,2,0,P|195:148|231:117,1,89.9999972534181,8|8,0:0|3:0,0:0:0:0:
305,109,72427,1,8,3:0:0:0:
303,99,72517,1,8,3:0:0:0:
249,15,72697,1,8,3:0:0:0:
113,75,72876,2,0,P|66:67|9:71,1,89.9999972534181,10|8,0:0|3:0,0:0:0:0:
3,142,73146,1,8,3:0:0:0:
0,151,73236,6,0,P|9:201|9:246,1,89.9999972534181,8|8,3:0|3:0,0:0:0:0:
134,232,73595,2,0,P|101:271|67:299,1,89.9999972534181,8|8,0:0|3:0,0:0:0:0:
16,354,73864,1,8,3:0:0:0:
19,365,73954,1,8,3:0:0:0:
121,384,74134,1,8,3:0:0:0:
224,282,74313,1,8,0:0:0:0:
246,280,74403,1,8,0:0:0:0:
268,278,74493,1,8,0:0:0:0:
291,276,74583,1,8,0:0:0:0:
313,274,74673,5,12,0:0:0:0:
354,373,74852,1,8,0:0:0:0:
491,227,75032,5,8,0:0:0:0:
468,353,75212,1,8,0:0:0:0:
324,184,75391,5,12,0:0:0:0:
408,283,75571,1,8,0:0:0:0:
512,144,75751,6,0,B|485:125|430:136|430:136|409:166|407:207,1,157.499995193482,6|0,0:0|3:0,0:0:0:0:
433,280,76379,1,0,3:0:0:0:
432,289,76469,2,0,L|391:286,1,37.5,0|0,3:0|3:0,0:0:0:0:
275,371,76649,1,0,3:0:0:0:
258,367,76739,1,0,3:0:0:0:
241,362,76828,5,2,3:2:0:0:
109,293,77008,1,0,3:0:0:0:
66,384,77188,2,0,P|105:375|124:373,1,52.4999983978272,2|0,3:2|3:0,0:0:0:0:
251,221,77547,6,0,P|214:244|196:294,1,89.9999972534181,6|0,0:0|0:0,0:0:0:0:
289,156,77906,2,0,P|247:142|197:160,1,89.9999972534181,8|0,0:0|3:0,0:0:0:0:
367,147,78266,2,0,P|350:106|304:80,1,89.9999972534181,0|0,3:0|3:0,0:0:0:0:
193,164,78625,2,0,B|163:173|134:152|134:152|98:131|55:158,1,134.999995880127,8|0,0:0|3:0,0:0:0:0:
46,166,78984,1,0,3:0:0:0:
68,69,79164,1,0,3:0:0:0:
36,259,79343,6,0,P|70:313|82:364,1,89.9999972534181,10|0,0:0|3:0,0:0:0:0:
181,300,79703,2,0,P|161:360|130:402,1,89.9999972534181,4|0,0:0|3:0,0:0:0:0:
269,351,80062,2,0,B|285:331|285:331|376:346,1,89.9999972534181,12|0,0:0|3:0,0:0:0:0:
421,384,80331,1,0,3:0:0:0:
431,374,80421,1,4,0:0:0:0:
485,282,80601,1,0,0:0:0:0:
363,187,80781,6,0,P|379:238|409:285,1,89.9999972534181,10|0,0:0|3:0,0:0:0:0:
317,101,81140,2,0,P|288:146|271:199,1,89.9999972534181,0|0,3:0|3:0,0:0:0:0:
164,199,81499,1,10,0:0:0:0:
90,59,81679,1,0,3:0:0:0:
85,50,81769,1,0,3:0:0:0:
79,39,81858,1,12,0:0:0:0:
170,0,82038,1,0,3:0:0:0:
40,127,82218,6,0,P|51:182|50:236,1,89.9999972534181,8|8,0:0|0:0,0:0:0:0:
15,286,82487,1,8,0:0:0:0:
7,294,82577,2,0,P|57:311|89:336,1,89.9999972534181,12|8,0:0|0:0,0:0:0:0:
165,353,82846,1,8,0:0:0:0:
170,366,82936,2,0,P|208:330|257:309,1,89.9999972534181,12|0,0:0|3:0,0:0:0:0:
440,384,83296,6,2,P|390:356|362:315,1,89.9999972534181,4|0,0:0|0:0,0:0:0:0:
429,161,83655,2,0,B|449:140|449:140|448:309,1,179.999994506836,8|8,0:0|3:0,0:0:0:0:
369,236,84194,1,8,3:0:0:0:
240,270,84373,1,10,0:0:0:0:
177,195,84553,1,8,3:0:0:0:
169,187,84643,1,8,3:0:0:0:
160,179,84733,6,0,P|101:172|59:174,1,89.9999972534181,8|8,3:0|3:0,0:0:0:0:
5,99,85092,2,0,P|60:82|97:55,1,89.9999972534181,8|8,0:0|3:0,0:0:0:0:
144,12,85361,1,8,3:0:0:0:
142,3,85451,1,8,3:0:0:0:
215,84,85631,1,8,3:0:0:0:
334,17,85811,1,8,0:0:0:0:
356,15,85900,1,8,0:0:0:0:
378,13,85990,1,8,0:0:0:0:
401,11,86080,1,8,0:0:0:0:
424,9,86170,6,0,B|448:47|471:63|471:63|436:76|419:118,1,134.999995880127,12|0,0:0|0:0,0:0:0:0:
494,161,86529,2,0,B|449:162|423:174|423:174|429:137|402:102,1,134.999995880127,8|0,0:0|0:0,0:0:0:0:
314,110,86888,2,0,B|354:119|407:93,1,89.9999972534181,12|0,0:0|3:0,0:0:0:0:
415,202,87248,6,0,B|455:218|445:269|384:296|345:239,1,157.499995193482,14|0,0:0|3:0,0:0:0:0:
271,226,87876,1,0,3:0:0:0:
263,233,87966,2,0,L|268:289,1,37.5,0|0,3:0|3:0,0:0:0:0:
354,376,88146,1,0,3:0:0:0:
340,373,88236,1,0,3:0:0:0:
326,369,88325,6,0,L|199:375,2,112.5,6|0|0,0:0|0:0|0:0,0:0:0:0:
198,293,89044,6,0,P|148:302|109:325,1,89.9999972534181,12|0,0:0|3:0,0:0:0:0:
30,384,89403,1,8,0:0:0:0:
91,294,89583,1,0,3:0:0:0:
87,283,89673,1,0,0:0:0:0:
86,272,89763,1,8,0:0:0:0:
1,200,89942,1,0,3:0:0:0:
120,55,90122,1,8,0:0:0:0:
28,110,90302,1,8,0:0:0:0:
16,106,90391,1,8,0:0:0:0:
5,101,90481,6,0,L|10:8,1,89.9999972534181,12|0,0:0|3:0,0:0:0:0:
120,55,90840,2,0,L|123:165,1,89.9999972534181,8|0,0:0|3:0,0:0:0:0:
189,211,91200,1,8,0:0:0:0:
241,137,91379,1,0,3:0:0:0:
423,224,91559,2,0,P|370:206|340:177,1,89.9999972534181,8|8,0:0|0:0,0:0:0:0:
327,107,91828,1,8,0:0:0:0:
327,98,91918,6,0,L|326:4,1,89.9999972534181,12|0,0:0|3:0,0:0:0:0:
413,75,92278,1,8,0:0:0:0:
487,30,92457,1,0,3:0:0:0:
499,165,92637,1,8,0:0:0:0:
499,182,92727,1,8,0:0:0:0:
500,200,92816,1,8,0:0:0:0:
501,218,92906,1,8,0:0:0:0:
502,233,92996,2,0,L|506:288,3,44.999998626709,8|8|8|8,0:0|0:0|0:0|0:0,0:0:0:0:
438,384,93355,5,12,0:0:0:0:
198,317,93715,2,0,L|130:312,1,52.4999983978272,0|0,0:0|0:0,0:0:0:0:
89,380,94074,2,0,L|30:385,1,52.4999983978272,0|0,0:0|0:0,0:0:0:0:
61,268,94433,1,8,0:0:0:0:
59,249,94523,1,8,0:0:0:0:
58,230,94613,1,8,0:0:0:0:
56,211,94703,1,8,0:0:0:0:
55,193,94793,6,0,B|47:71|47:71|78:112,1,150,14|8,0:0|0:0,0:0:0:0:
279,59,95331,5,2,0:0:0:0:
143,42,95691,2,0,P|150:90|147:129,1,75,10|0,0:0|0:0,0:0:0:0:
282,72,96050,5,10,0:0:0:0:
155,61,96409,2,0,P|154:109|145:147,1,75,2|0,0:0|0:0,0:0:0:0:
286,84,96769,5,2,0:0:0:0:
164,79,97128,2,0,P|160:127|148:164,1,75,0|0,3:0|3:0,0:0:0:0:
289,94,97487,5,6,0:0:0:0:
289,94,97846,1,8,3:2:0:0:
399,72,98026,1,8,3:2:0:0:
368,150,98206,1,8,3:2:0:0:
494,259,98385,5,8,3:2:0:0:
478,143,98565,1,8,3:2:0:0:
402,296,98745,1,8,3:2:0:0:
353,362,98924,6,0,B|313:328|339:268|339:268|400:248|422:301|422:301|410:293|387:296,1,225,10|0,3:2|3:0,0:0:0:0:
275,384,100182,1,0,3:0:0:0:
59,287,100541,5,2,3:2:0:0:
221,137,109164,5,2,3:2:0:0:
230,137,109254,1,0,0:0:0:0:
239,139,109343,2,0,L|233:81,3,37.5,0|0|0|0,0:0|0:0|0:0|0:0,0:0:0:0:
326,66,109703,1,0,3:0:0:0:
336,65,109793,1,0,0:0:0:0:
347,63,109882,1,2,0:0:0:0:
359,62,109972,1,0,0:0:0:0:
374,61,110062,6,0,P|380:83|377:119,1,37.5,0|0,0:0|0:0,0:0:0:0:
483,142,110242,2,0,P|460:160|434:170,1,37.5,0|0,0:0|0:0,0:0:0:0:
410,253,110421,2,0,P|395:233|386:212,1,37.5,0|0,3:0|0:0,0:0:0:0:
312,170,110601,5,8,0:0:0:0:
233,275,110781,1,8,0:0:0:0:
217,277,110870,1,8,0:0:0:0:
203,279,110960,1,8,3:2:0:0:
33,221,111140,1,8,3:2:0:0:
116,292,111319,6,0,L|117:230,1,52.4999983978272,0|0,0:0|0:0,0:0:0:0:
91,160,111679,2,0,L|87:91,1,52.4999983978272,0|0,0:0|0:0,0:0:0:0:
191,0,112038,6,0,L|27:22,1,150,6|0,3:2|3:0,0:0:0:0:
218,104,112577,1,0,3:0:0:0:
302,87,112757,2,0,P|307:44|325:17,1,75,2|0,3:2|3:0,0:0:0:0:
343,165,113116,2,0,P|374:140|411:132,1,75,8|0,3:2|3:0,0:0:0:0:
455,257,113475,6,0,P|391:230|420:282,1,150,2|0,3:2|3:0,0:0:0:0:
319,384,114014,1,0,3:0:0:0:
255,321,114194,2,0,P|225:308|164:303,1,75,2|0,3:2|3:0,0:0:0:0:
104,318,114463,1,0,3:0:0:0:
109,311,114553,2,0,P|108:268|93:224,1,75,8|0,3:2|3:0,0:0:0:0:
45,167,114822,1,0,0:0:0:0:
55,168,114912,6,0,P|95:141|120:109,1,75,2|0,3:2|3:0,0:0:0:0:
255,25,115272,2,0,P|228:73|224:111,1,75,2|0,3:2|3:0,0:0:0:0:
375,128,115631,2,0,P|345:105|311:89,1,75,2|0,3:2|3:0,0:0:0:0:
274,243,115990,2,0,P|296:197|299:144,1,75,2|8,3:2|0:0,0:0:0:0:
190,264,116349,2,0,B|198:307|226:328|226:328|332:323,1,150,10|10,0:0|0:0,0:0:0:0:
479,369,116888,1,0,0:0:0:0:
425,299,117068,2,0,P|418:274|414:210,1,75,0|0,3:0|3:0,0:0:0:0:
457,157,117337,1,0,3:0:0:0:
463,148,117427,2,0,P|463:105|455:64,1,75,8|8,3:2|0:0,0:0:0:0:
308,142,117787,6,0,B|271:121|271:121|409:104,1,150,6|0,3:2|3:0,0:0:0:0:
261,0,118325,1,0,3:0:0:0:
179,45,118505,2,0,P|187:88|190:144,1,75,2|0,3:2|3:0,0:0:0:0:
67,156,118864,1,8,3:2:0:0:
20,76,119044,1,0,3:0:0:0:
0,224,119224,6,0,B|49:225|73:255|73:255|95:222|137:217,1,150,0|6,3:0|3:2,0:0:0:0:
197,275,119763,1,0,3:0:0:0:
255,384,119942,6,0,L|331:375,1,75,2|8,3:2|3:2,0:0:0:0:
399,342,120212,1,8,0:0:0:0:
409,344,120302,2,0,L|483:346,1,75,12|8,0:0|0:0,0:0:0:0:
509,269,120571,1,8,0:0:0:0:
511,259,120661,6,0,P|478:237|448:177,1,104.999996795654,12|2,0:0|0:0,0:0:0:0:
512,114,121200,1,0,0:0:0:0:
389,52,121379,2,0,P|418:32|487:36,1,104.999996795654,8|2,0:0|0:0,0:0:0:0:
379,135,121918,6,0,L|317:130,1,52.4999983978272,8|8,0:0|0:0,0:0:0:0:
253,69,122278,2,0,L|196:73,1,52.4999983978272,8|0,0:0|0:0,0:0:0:0:
40,0,122637,1,8,3:0:0:0:
40,0,122727,1,8,3:0:0:0:
40,0,122816,6,0,P|49:51|50:114,1,104.999996795654,14|0,3:2|3:2,3:3:0:0:
6,219,123355,1,0,0:0:0:0:
8,228,123445,1,0,0:0:0:0:
10,238,123535,5,4,3:2:0:0:
63,315,123715,2,0,L|212:308,1,150,0|0,3:0|0:0,0:0:0:0:
337,310,124254,2,0,P|328:361|327:395,1,75,8|0,0:0|0:0,0:0:0:0:
430,249,124613,1,0,0:0:0:0:
512,231,124793,1,0,0:0:0:0:
336,194,124972,6,0,P|321:155|300:127,1,75,2|8,0:0|0:0,0:0:0:0:
455,80,125331,1,2,0:0:0:0:
412,147,125511,2,0,P|425:101|447:65,1,75,0|10,0:0|0:0,0:0:0:0:
254,56,125870,1,0,3:0:0:0:
354,69,126050,2,0,P|341:23|319:-13,1,75,10|0,0:0|3:0,0:0:0:0:
230,152,126409,5,14,3:2:0:0:
149,94,126589,2,0,L|62:92,2,75,0|0|0,3:0|0:0|0:0,0:0:0:0:
15,187,127128,2,0,L|93:178,1,75,12|0,0:0|0:0,0:0:0:0:
120,342,127487,1,2,3:2:0:0:
74,273,127667,1,0,3:0:0:0:
233,312,127846,6,0,P|218:355|218:396,1,75,2|8,0:0|0:0,0:0:0:0:
284,228,128206,1,2,0:0:0:0:
325,313,128385,2,0,L|379:306,2,37.5,8|8|8,0:0|0:0|3:2,0:0:0:0:
388,173,128745,1,0,3:0:0:0:
437,250,128924,2,0,L|512:254,1,75,8|0,3:2|3:0,0:0:0:0:
445,98,129284,5,4,3:2:0:0:
340,19,129463,2,0,P|341:33|364:88,1,75,0|8,0:0|0:0,0:0:0:0:
255,57,129822,1,8,3:0:0:0:
141,18,130002,6,0,P|165:13|191:13,2,37.5,2|0|0,3:2|0:0|0:0,0:0:0:0:
118,153,130361,2,0,P|146:113|183:90,1,75,10|8,0:0|3:0,0:0:0:0:
237,242,130721,2,0,P|208:205|201:169,1,75,2|0,3:2|0:0,0:0:0:0:
362,202,131080,2,0,P|324:198|288:177,1,75,10|8,3:2|3:0,0:0:0:0:
413,83,131439,2,0,P|381:110|333:117,1,75,2|0,3:2|3:0,0:0:0:0:
488,165,131799,1,8,0:0:0:0:
487,183,131888,1,8,0:0:0:0:
487,202,131978,1,8,0:0:0:0:
486,221,132068,1,8,0:0:0:0:
485,237,132158,6,0,B|482:347|482:347|462:315|443:302,1,150,6|8,0:0|0:0,0:0:0:0:
383,374,132697,1,0,0:0:0:0:
323,300,132876,2,0,L|235:306,1,75,2|0,3:2|3:0,0:0:0:0:
125,384,133236,1,8,3:2:0:0:
71,302,133415,1,0,3:2:0:0:
66,290,133505,1,0,0:0:0:0:
60,279,133595,6,0,P|98:259|137:259,1,75,2|0,0:0|0:0,0:0:0:0:
240,315,133954,2,0,P|216:272|216:235,1,75,10|0,0:0|0:0,0:0:0:0:
276,154,134313,1,2,3:2:0:0:
378,201,134493,2,0,L|333:209,1,37.5,8|8,0:0|0:0,0:0:0:0:
216,100,134673,2,0,B|275:55|336:101|336:101|382:132|428:102,1,209.999993591309,8|8,0:0|0:0,0:0:0:0:
512,339,135751,5,0,3:0:0:0:
435,384,135930,1,0,3:0:0:0:
320,342,136110,2,0,P|277:329|241:326,1,75,12|0,0:0|3:0,0:0:0:0:
176,349,136379,1,0,3:0:0:0:
166,351,136469,6,0,P|128:356|91:357,1,75,8|0,3:2|3:0,0:0:0:0:
0,192,136828,2,0,B|14:171|14:171|23:277,1,112.5,12|0,0:0|0:0,0:0:0:0:
22,281,137188,1,8,3:2:0:0:
123,209,137367,1,8,3:2:0:0:
139,205,137457,1,8,3:2:0:0:
155,201,137547,1,8,3:2:0:0:
92,102,137727,1,8,3:2:0:0:
81,99,137816,1,8,3:2:0:0:
69,96,137906,5,12,3:2:0:0:
27,7,138086,1,0,3:2:0:0:
184,102,138266,5,8,3:2:0:0:
231,14,138445,1,0,3:2:0:0:
242,12,138535,1,0,3:2:0:0:
252,11,138625,1,12,3:2:0:0:
313,89,138805,1,0,3:2:0:0:
412,16,138984,1,8,0:0:0:0:
434,12,139074,1,8,0:0:0:0:
456,8,139164,1,8,0:0:0:0:
479,4,139254,1,8,0:0:0:0:
500,1,139343,5,12,0:0:0:0:
472,139,139523,1,12,0:0:0:0:
416,205,139703,6,0,L|422:245,3,26.2499991989136,0|0|0|0,0:0|0:0|3:0|3:0,0:0:0:0:
471,302,140062,6,0,L|470:346,3,37.5,8|0|8|8,3:2|0:0|0:0|0:0,0:0:0:0:
387,332,140421,1,8,3:2:0:0:
366,325,140511,1,8,3:2:0:0:
344,325,140601,1,8,3:2:0:0:
322,331,140691,1,8,3:2:0:0:
304,340,140781,6,0,P|305:298|278:257,1,89.9999972534181,6|0,0:0|0:0,0:0:0:0:
319,184,141140,2,0,P|283:176|224:197,1,89.9999972534181,8|0,0:0|3:0,0:0:0:0:
194,109,141499,2,0,P|160:141|147:199,1,89.9999972534181,0|0,3:0|3:0,0:0:0:0:
183,342,141858,2,0,B|221:340|195:258|110:324,1,134.999995880127,8|0,0:0|3:0,0:0:0:0:
104,338,142218,1,0,3:0:0:0:
6,289,142397,1,0,3:0:0:0:
58,126,142577,6,0,L|64:27,1,89.9999972534181,10|0,0:0|3:0,0:0:0:0:
145,185,142936,2,0,L|151:287,1,89.9999972534181,12|0,0:0|3:0,0:0:0:0:
278,95,143296,1,12,0:0:0:0:
350,158,143475,1,0,3:0:0:0:
362,158,143565,1,0,3:0:0:0:
374,159,143655,2,0,L|472:161,1,89.9999972534181,4|0,3:2|3:0,0:0:0:0:
433,373,144014,6,0,P|426:325|456:269,1,89.9999972534181,10|0,0:0|3:0,0:0:0:0:
301,292,144373,2,0,P|339:255|388:242,1,89.9999972534181,0|0,3:0|3:0,0:0:0:0:
253,363,144733,2,0,P|222:315|259:219,1,134.999995880127,10|0,0:0|3:0,0:0:0:0:
250,224,145092,1,12,0:0:0:0:
373,243,145272,1,0,3:0:0:0:
265,130,145451,6,0,P|226:138|183:166,1,89.9999972534181,8|8,0:0|0:0,0:0:0:0:
137,225,145721,1,8,0:0:0:0:
135,235,145811,2,0,P|127:280|142:339,1,89.9999972534181,12|8,0:0|0:0,0:0:0:0:
179,384,146080,1,8,0:0:0:0:
190,384,146170,1,12,0:0:0:0:
70,366,146349,1,0,3:0:0:0:
5,204,146529,6,0,P|10:259|-2:307,1,89.9999972534181,6|0,0:0|0:0,0:0:0:0:
83,155,146888,2,0,P|128:202|141:246,1,89.9999972534181,8|8,0:0|3:0,0:0:0:0:
94,286,147158,1,8,3:0:0:0:
84,288,147248,1,8,3:0:0:0:
187,332,147427,1,8,3:0:0:0:
334,241,147607,2,0,P|313:281|316:342,1,89.9999972534181,10|8,0:0|3:0,0:0:0:0:
375,369,147876,1,8,3:0:0:0:
386,373,147966,6,0,P|430:350|487:352,1,89.9999972534181,8|8,3:0|3:0,0:0:0:0:
414,212,148325,2,0,P|458:220|511:254,1,89.9999972534181,8|8,0:0|3:0,0:0:0:0:
512,315,148595,1,8,3:0:0:0:
512,326,148685,1,8,3:0:0:0:
491,223,148864,1,8,3:0:0:0:
497,95,149044,1,8,0:0:0:0:
500,73,149134,1,8,0:0:0:0:
504,51,149224,1,8,0:0:0:0:
508,28,149313,1,8,0:0:0:0:
512,6,149403,5,12,0:0:0:0:
383,31,149583,1,8,0:0:0:0:
315,188,149763,5,8,0:0:0:0:
240,68,149942,1,0,3:0:0:0:
86,141,150122,5,12,0:0:0:0:
155,16,150302,1,0,3:0:0:0:
157,177,150481,6,0,B|134:150|134:150|9:164,1,157.499995193482,6|0,0:0|3:0,0:0:0:0:
0,240,151110,1,0,3:0:0:0:
3,250,151200,2,0,L|12:291,1,37.5,0|0,3:0|3:0,0:0:0:0:
133,322,151379,1,0,3:0:0:0:
129,336,151469,1,0,3:0:0:0:
123,354,151559,5,2,3:2:0:0:
225,322,151739,1,0,3:0:0:0:
306,384,151918,2,0,P|345:375|368:373,1,52.4999983978272,2|0,3:2|3:0,0:0:0:0:
428,255,152278,6,0,P|428:295|457:346,1,89.9999972534181,6|0,0:0|0:0,0:0:0:0:
359,196,152637,2,0,P|330:241|321:281,1,89.9999972534181,8|0,0:0|3:0,0:0:0:0:
382,110,152996,2,0,P|332:100|289:111,1,89.9999972534181,0|0,3:0|3:0,0:0:0:0:
503,204,153355,2,0,L|506:65,1,134.999995880127,8|0,0:0|3:0,0:0:0:0:
508,52,153715,1,0,3:0:0:0:
422,2,153894,1,0,3:0:0:0:
302,147,154074,6,0,P|347:118|401:108,1,89.9999972534181,10|0,0:0|3:0,0:0:0:0:
208,155,154433,2,0,P|219:111|242:72,1,89.9999972534181,4|0,0:0|3:0,0:0:0:0:
154,225,154793,2,0,P|122:187|105:131,1,89.9999972534181,12|0,0:0|3:0,0:0:0:0:
114,73,155062,1,0,3:0:0:0:
118,62,155152,1,4,0:0:0:0:
16,97,155331,1,0,0:0:0:0:
58,247,155511,6,0,P|70:296|72:359,1,89.9999972534181,10|0,0:0|3:0,0:0:0:0:
205,318,155870,2,0,P|170:363|125:399,1,89.9999972534181,0|0,3:0|3:0,0:0:0:0:
344,384,156230,1,10,0:0:0:0:
446,311,156409,1,0,3:0:0:0:
457,312,156499,1,0,3:0:0:0:
469,312,156589,1,12,0:0:0:0:
372,238,156769,1,0,3:0:0:0:
471,127,156948,6,0,P|469:82|459:38,1,89.9999972534181,8|8,0:0|0:0,0:0:0:0:
385,54,157218,1,8,0:0:0:0:
378,45,157308,2,0,P|341:18|298:5,1,89.9999972534181,12|8,0:0|0:0,0:0:0:0:
244,58,157577,1,8,0:0:0:0:
235,59,157667,2,0,P|195:79|163:111,1,89.9999972534181,12|0,0:0|3:0,0:0:0:0:
12,189,158026,6,0,P|64:189|105:209,1,89.9999972534181,4|0,0:0|0:0,0:0:0:0:
116,384,158385,1,8,0:0:0:0:
22,354,158565,1,8,3:0:0:0:
12,356,158655,1,8,3:0:0:0:
0,359,158745,1,8,3:0:0:0:
93,292,158924,1,8,3:0:0:0:
227,373,159104,1,10,0:0:0:0:
308,316,159284,1,8,3:0:0:0:
320,312,159373,1,8,3:0:0:0:
333,307,159463,6,0,P|377:306|422:321,1,89.9999972534181,8|8,3:0|3:0,0:0:0:0:
452,214,159822,2,0,P|480:249|503:313,1,89.9999972534181,8|8,0:0|3:0,0:0:0:0:
491,363,160092,1,8,3:0:0:0:
490,373,160182,1,8,3:0:0:0:
408,326,160361,1,8,3:0:0:0:
452,214,160541,1,8,0:0:0:0:
455,192,160631,1,8,0:0:0:0:
458,170,160721,1,8,0:0:0:0:
461,147,160811,1,8,0:0:0:0:
465,127,160900,6,0,B|481:30|481:30|446:51,1,134.999995880127,12|0,0:0|0:0,0:0:0:0:
389,101,161260,2,0,B|465:163|465:163|464:122,1,134.999995880127,8|0,0:0|0:0,0:0:0:0:
449,48,161619,2,0,L|356:69,1,89.9999972534181,12|0,0:0|3:0,0:0:0:0:
269,139,161978,2,0,B|237:113|203:137|203:137|164:164|114:129,1,157.499995193482,6|0,0:0|3:0,0:0:0:0:
73,73,162607,1,0,3:0:0:0:
74,64,162697,2,0,L|76:13,1,37.5,0|0,3:0|3:0,0:0:0:0:
7,152,162876,1,0,3:0:0:0:
7,166,162966,1,0,3:0:0:0:
8,180,163056,6,0,L|11:309,2,112.5,6|0|0,0:0|0:0|0:0,0:0:0:0:
96,236,163775,6,0,P|145:240|200:270,1,89.9999972534181,12|0,0:0|3:0,0:0:0:0:
287,373,164134,1,8,0:0:0:0:
360,304,164313,1,0,3:0:0:0:
372,303,164403,1,0,0:0:0:0:
385,302,164493,1,8,0:0:0:0:
474,342,164673,1,0,3:0:0:0:
512,204,164852,1,8,0:0:0:0:
380,160,165032,1,8,0:0:0:0:
368,156,165122,1,8,0:0:0:0:
357,151,165212,6,0,L|362:58,1,89.9999972534181,12|0,0:0|3:0,0:0:0:0:
460,12,165571,2,0,L|469:123,1,89.9999972534181,8|0,0:0|3:0,0:0:0:0:
361,61,165930,1,8,0:0:0:0:
277,96,166110,1,0,3:0:0:0:
184,17,166290,2,0,P|134:26|82:58,1,89.9999972534181,8|8,0:0|0:0,0:0:0:0:
57,109,166559,1,8,0:0:0:0:
58,118,166649,6,0,P|58:165|72:207,1,89.9999972534181,12|0,0:0|3:0,0:0:0:0:
160,251,167008,1,8,0:0:0:0:
76,302,167188,1,0,3:0:0:0:
167,384,167367,1,8,0:0:0:0:
183,382,167457,1,8,0:0:0:0:
201,379,167547,1,8,0:0:0:0:
219,377,167637,1,8,0:0:0:0:
234,375,167727,2,0,L|288:367,3,44.999998626709,8|8|8|8,0:0|0:0|0:0|0:0,0:0:0:0:
327,293,168086,5,12,0:0:0:0:
363,377,168266,1,8,0:0:0:0:
451,295,168445,5,8,0:0:0:0:
471,176,168625,1,8,0:0:0:0:
340,125,168805,5,0,0:0:0:0:
340,107,168894,1,0,0:0:0:0:
339,94,168984,2,0,L|337:39,1,44.999998626709,0|0,0:0|0:0,0:0:0:0:
439,0,169164,2,0,L|432:62,3,44.999998626709,8|8|8|8,3:2|3:2|3:2|3:2,0:0:0:0:
337,49,169523,6,0,P|298:39|249:50,1,75,12|0,3:2|0:0,0:0:0:0:
185,96,169882,1,8,0:0:0:0:
99,37,170062,1,0,3:0:0:0:
89,36,170152,1,0,3:0:0:0:
78,35,170242,5,0,3:0:0:0:
1,104,170421,1,8,0:0:0:0:
34,199,170601,1,8,0:0:0:0:
0,343,170781,5,2,0:0:0:0:
175,275,171140,5,2,0:0:0:0:
341,384,171499,5,2,0:0:0:0:
499,305,171858,5,2,0:0:0:0:
499,305,172218,1,8,0:0:0:0:
496,290,172308,1,8,0:0:0:0:
492,278,172397,5,8,0:0:0:0:
342,217,172577,1,8,0:0:0:0:
409,145,172757,2,0,P|423:189|424:225,1,75,0|8,0:0|0:0,0:0:0:0:
390,286,173026,1,8,0:0:0:0:
386,296,173116,1,8,0:0:0:0:
279,324,173296,1,8,0:0:0:0:
172,209,173475,1,8,0:0:0:0:
256,209,173655,6,0,B|240:243|240:243|101:229,1,150,6|2,0:0|3:2,3:3:0:0:
50,180,174194,1,8,3:2:0:0:
129,51,174373,2,0,P|136:94|129:129,1,75,2|0,3:2|3:0,3:3:0:0:
50,180,174733,1,0,3:0:0:0:
27,328,174912,2,0,P|10:285|11:252,1,75,10|0,0:0|3:0,0:0:0:0:
38,186,175182,1,0,0:0:0:0:
50,180,175272,5,8,0:0:0:0:
173,256,175451,1,8,0:0:0:0:
202,175,175631,2,0,L|286:168,1,75,0|0,0:0|0:0,0:0:0:0:
376,328,175990,2,0,L|286:323,1,75,8|0,0:0|3:0,0:0:0:0:
204,376,176349,1,8,0:0:0:0:
263,250,176529,5,6,3:2:0:0:
506,296,176888,2,0,L|513:371,1,75,0|0,3:0|3:0,0:0:0:0:
509,211,177248,2,0,B|487:201|455:223|455:223|453:171|404:140,1,150,6|8,0:0|0:0,0:0:0:0:
332,137,177697,1,8,0:0:0:0:
323,143,177787,1,8,0:0:0:0:
385,38,177966,1,0,3:0:0:0:
241,51,178146,6,0,L|169:47,1,52.4999983978272,0|0,3:0|3:0,3:3:0:0:
102,81,178505,2,0,L|32:88,1,52.4999983978272,0|0,3:0|3:0,3:3:0:0:
133,181,178864,2,0,P|160:155|168:137,1,52.4999983978272,0|0,3:0|3:0,3:3:0:0:
45,219,179224,1,8,0:0:0:0:
123,269,179403,6,0,P|154:282|188:279,1,52.4999983978272,2|0,3:2|3:0,3:3:0:0:
284,212,179763,2,0,P|257:232|241:265,1,52.4999983978272,2|0,3:2|3:0,3:3:0:0:
254,382,180122,2,0,P|249:348|233:320,1,52.4999983978272,2|0,3:2|3:0,3:3:0:0:
364,333,180481,1,8,0:0:0:0:
368,343,180571,1,8,0:0:0:0:
373,353,180661,1,8,0:0:0:0:
465,311,180840,5,6,3:2:0:0:
369,107,181200,1,0,3:0:0:0:
446,139,181379,2,0,P|450:81|375:103,1,150,8|0,0:0|3:0,0:0:0:0:
318,171,181918,1,0,3:0:0:0:
196,114,182098,2,0,B|176:95|176:95|284:85,1,112.5,8|8,0:0|0:0,0:0:0:0:
278,81,182457,6,0,L|282:6,1,75,10|0,0:0|3:0,0:0:0:0:
196,114,182816,2,0,L|202:202,1,75,10|0,0:0|0:0,0:0:0:0:
269,259,183176,1,0,3:0:0:0:
236,345,183355,1,0,3:0:0:0:
120,278,183535,1,8,0:0:0:0:
110,280,183625,1,8,0:0:0:0:
99,284,183715,1,8,0:0:0:0:
11,384,183894,6,2,L|-1:215,1,150,4|0,3:2|3:0,3:3:0:0:
56,140,184433,1,0,3:0:0:0:
143,153,184613,2,0,P|84:152|63:162,1,75,8|0,3:0|3:0,0:0:0:0:
162,74,184972,6,0,B|206:89|223:124|223:124|211:214,1,150,6|0,3:2|3:0,3:3:0:0:
298,204,185511,1,0,3:0:0:0:
380,187,185691,2,0,P|339:182|298:195,1,75,8|0,3:0|3:0,0:0:0:0:
449,282,186050,2,0,L|451:234,1,37.5,12|0,3:2|0:0,0:0:0:0:
486,147,186230,1,8,3:2:0:0:
484,135,186319,1,8,3:2:0:0:
481,122,186409,2,0,L|476:78,3,37.5,8|8|8|8,3:2|3:2|3:2|3:2,0:0:0:0:
433,24,186769,5,2,0:0:0:0:
305,103,187128,5,2,0:0:0:0:
160,0,187487,5,2,0:0:0:0:
13,137,187846,5,6,0:0:0:0:
13,137,188206,1,0,0:0:0:0:
14,153,188296,1,8,3:2:0:0:
16,166,188385,2,0,L|22:223,1,37.5,8|8,3:2|3:2,0:0:0:0:
6,347,188565,1,8,3:2:0:0:
20,341,188655,1,8,3:2:0:0:
32,341,188745,1,8,3:2:0:0:
45,345,188834,1,8,3:2:0:0:
56,355,188924,5,8,0:0:0:0:
205,317,189104,1,8,0:0:0:0:
481,172,189643,6,0,P|467:212|473:263,1,75,12|8,0:0|0:0,0:0:0:0:
448,322,189912,1,8,0:0:0:0:
441,328,190002,2,0,P|391:310|351:318,1,75,8|8,0:0|0:0,0:0:0:0:
295,329,190272,1,0,0:0:0:0:
290,340,190361,2,0,L|296:386,3,37.5,8|0|8|0,3:2|0:0|3:2|0:0,0:0:0:0:
210,298,190721,6,0,B|166:261|168:212|198:181|198:181|198:201|209:221,1,157.499995193482,14|0,0:0|3:0,0:0:0:0:
276,232,191349,1,0,3:0:0:0:
283,239,191439,2,0,P|318:205|357:191,1,75,8|8,3:2|0:0,0:0:0:0:
411,166,191709,1,8,0:0:0:0:
421,170,191799,2,0,P|437:215|438:270,1,75,8|8,3:2|3:2,0:0:0:0:
341,89,192158,2,0,P|367:58|421:38,1,75,0|0,3:0|3:0,0:0:0:0:
238,21,192517,6,0,L|150:18,1,75,12|8,3:2|0:0,0:0:0:0:
110,78,192787,1,8,0:0:0:0:
105,84,192876,2,0,L|21:90,1,75,8|8,3:2|0:0,0:0:0:0:
9,168,193146,1,8,0:0:0:0:
18,173,193236,2,0,L|45:257,1,75,8|8,3:2|0:0,0:0:0:0:
86,310,193505,1,8,0:0:0:0:
86,310,193595,2,0,L|72:376,1,37.5,8|8,3:2|0:0,0:0:0:0:
184,339,193775,1,8,0:0:0:0:
200,337,193864,1,8,0:0:0:0:
219,335,193954,6,0,P|228:292|211:254,1,75,12|8,3:2|0:0,0:0:0:0:
255,196,194224,1,8,0:0:0:0:
248,187,194313,2,0,P|200:183|167:197,1,75,8|8,3:2|0:0,0:0:0:0:
117,133,194583,1,8,0:0:0:0:
105,139,194673,2,0,P|91:186|103:232,1,75,8|8,3:2|0:0,0:0:0:0:
111,290,194942,1,8,0:0:0:0:
121,293,195032,6,0,L|212:287,1,78.7499975967408,12|0,3:2|0:0,0:0:0:0:
221,300,195391,6,8,L|312:302,1,75,8|8,3:0|3:0,3:3:0:0:
409,366,195751,2,0,L|381:277,1,75,8|8,0:0|3:0,0:0:0:0:
377,216,196020,1,8,3:0:0:0:
379,205,196110,2,0,L|399:118,1,75,8|8,3:0|3:0,0:0:0:0:
470,3,196469,2,0,L|488:88,1,75,10|8,0:0|3:0,0:0:0:0:
470,153,196739,1,8,3:0:0:0:
462,159,196828,6,8,P|419:133|384:133,1,75,8|8,3:0|3:0,3:3:0:0:
289,43,197188,2,0,P|303:77|300:114,1,75,8|8,0:0|3:0,0:0:0:0:
246,172,197457,1,8,3:0:0:0:
237,178,197547,2,0,L|139:184,1,75,8|8,3:0|3:0,0:0:0:0:
111,63,197906,1,8,0:0:0:0:
92,61,197995,1,8,0:0:0:0:
73,60,198085,1,8,0:0:0:0:
54,58,198175,1,8,0:0:0:0:
36,57,198265,5,12,0:0:0:0:
0,154,198445,1,8,3:2:0:0:
112,232,198625,5,8,0:0:0:0:
133,353,198805,1,8,3:2:0:0:
280,337,198984,5,12,0:0:0:0:
193,294,199164,1,8,3:2:0:0:
288,347,199343,2,0,B|341:355|341:355|397:328|397:328|461:334,1,157.499995193482,14|0,0:0|3:2,0:0:0:0:
506,293,199972,1,0,3:2:0:0:
505,281,200062,2,0,L|502:236,1,26.2499991989136,0|0,3:2|3:2,0:0:0:0:
444,164,200242,1,0,3:2:0:0:
446,152,200331,1,0,3:2:0:0:
446,140,200421,5,2,3:2:0:0:
512,21,200601,1,0,3:2:0:0:
414,61,200781,6,0,L|458:54,3,26.2499991989136,2|0|0|0,3:2|3:2|3:2|3:2,0:0:0:0:
338,33,201140,2,0,P|290:22|237:27,1,89.9999972534181,6|0,0:0|0:0,0:0:0:0:
304,117,201499,2,0,P|247:133|223:156,1,89.9999972534181,8|0,0:0|3:0,0:0:0:0:
337,196,201858,2,0,P|318:238|328:285,1,89.9999972534181,0|0,3:0|3:0,0:0:0:0:
454,384,202218,2,0,B|430:361|430:361|300:378,1,134.999995880127,8|0,0:0|3:0,0:0:0:0:
307,378,202577,1,0,3:0:0:0:
239,289,202757,1,0,3:0:0:0:
90,370,202936,6,0,P|130:339|151:297,1,89.9999972534181,10|0,0:0|3:0,0:0:0:0:
35,207,203296,2,0,P|86:227|135:219,1,89.9999972534181,4|0,0:0|3:0,0:0:0:0:
78,75,203655,2,0,P|101:116|138:137,1,89.9999972534181,12|0,0:0|3:0,0:0:0:0:
208,108,203924,1,0,3:0:0:0:
222,106,204014,1,4,3:2:0:0:
306,169,204194,1,0,3:0:0:0:
458,100,204373,6,0,L|461:7,1,89.9999972534181,10|0,0:0|3:0,0:0:0:0:
385,189,204733,2,0,L|380:87,1,89.9999972534181,0|0,3:0|3:0,0:0:0:0:
494,324,205092,2,0,L|508:173,1,134.999995880127,10|0,0:0|3:0,0:0:0:0:
511,167,205451,1,12,0:0:0:0:
418,266,205631,1,0,3:0:0:0:
323,126,205811,6,0,P|372:166|391:208,1,89.9999972534181,8|8,0:0|0:0,0:0:0:0:
332,248,206080,1,8,0:0:0:0:
335,260,206170,2,0,P|325:303|292:346,1,89.9999972534181,12|8,0:0|0:0,0:0:0:0:
223,321,206439,1,8,0:0:0:0:
213,327,206529,1,12,0:0:0:0:
132,270,206709,1,0,3:0:0:0:
15,321,206888,6,0,L|7:216,1,89.9999972534181,4|8,3:2|3:0,0:0:0:0:
110,159,207248,2,0,B|125:128|125:128|113:288,1,179.999994506836,8|8,0:0|3:0,0:0:0:0:
205,218,207787,1,8,3:0:0:0:
192,84,207966,2,0,P|161:51|118:40,1,89.9999972534181,10|8,0:0|3:0,0:0:0:0:
48,60,208236,1,8,3:0:0:0:
42,70,208325,5,8,3:0:0:0:
110,159,208505,1,8,3:0:0:0:
35,310,208685,2,0,P|89:275|135:275,1,89.9999972534181,8|8,0:0|3:0,0:0:0:0:
177,309,208954,1,8,3:0:0:0:
180,321,209044,1,8,3:0:0:0:
260,380,209224,1,8,3:0:0:0:
371,286,209403,1,8,0:0:0:0:
393,284,209492,1,8,0:0:0:0:
415,282,209582,1,8,0:0:0:0:
438,280,209672,1,8,0:0:0:0:
460,279,209763,6,0,P|457:199|404:217,1,134.999995880127,12|0,0:0|0:0,0:0:0:0:
352,173,210122,2,0,P|396:201|377:150,1,134.999995880127,8|0,0:0|0:0,0:0:0:0:
273,144,210481,2,0,P|274:202|300:249,1,89.9999972534181,14|2,0:0|3:2,0:0:0:0:
317,78,210840,2,0,B|275:54|238:73|238:73|202:98|156:66,1,157.499995193482,14|0,0:0|3:0,0:0:0:0:
100,32,211469,1,0,3:0:0:0:
90,27,211559,2,0,L|45:30,1,37.5,0|0,3:0|3:0,0:0:0:0:
36,145,211739,1,0,3:0:0:0:
38,156,211828,1,0,3:0:0:0:
40,172,211918,6,0,P|96:163|152:177,2,112.5,6|0|0,0:0|0:0|0:0,0:0:0:0:
48,322,212637,6,0,P|65:274|103:247,1,89.9999972534181,12|0,0:0|3:0,0:0:0:0:
137,330,212996,1,8,0:0:0:0:
231,383,213176,1,0,3:0:0:0:
240,381,213266,1,0,0:0:0:0:
251,378,213355,1,8,0:0:0:0:
290,288,213535,1,0,3:0:0:0:
429,380,213715,1,8,0:0:0:0:
393,245,213894,1,8,0:0:0:0:
396,231,213984,1,8,0:0:0:0:
399,216,214074,6,0,L|496:223,1,89.9999972534181,12|0,0:0|3:0,0:0:0:0:
343,128,214433,2,0,L|248:132,1,89.9999972534181,8|0,0:0|3:0,0:0:0:0:
180,153,214703,1,0,0:0:0:0:
175,161,214793,1,8,0:0:0:0:
68,123,214972,1,0,3:0:0:0:
165,0,215152,2,0,P|163:52|144:88,1,89.9999972534181,8|8,0:0|0:0,0:0:0:0:
79,113,215421,1,8,0:0:0:0:
68,123,215511,6,0,P|56:181|78:222,1,89.9999972534181,12|0,0:0|3:0,0:0:0:0:
143,264,215870,1,8,0:0:0:0:
58,334,216050,2,0,L|106:340,1,44.999998626709,0|0,3:0|0:0,0:0:0:0:
207,367,216230,1,8,0:0:0:0:
221,365,216319,1,8,0:0:0:0:
236,361,216409,2,0,L|287:351,1,44.999998626709,8|8,0:0|0:0,0:0:0:0:
358,302,216589,1,8,0:0:0:0:
380,304,216678,1,8,0:0:0:0:
402,306,216768,1,8,0:0:0:0:
425,308,216858,1,8,0:0:0:0:
447,310,216948,5,12,0:0:0:0:
474,0,217308,6,0,L|477:66,1,52.4999983978272,0|0,0:0|0:0,0:0:0:0:
401,90,217667,2,0,L|399:155,1,52.4999983978272,0|0,0:0|0:0,0:0:0:0:
461,209,218026,1,0,0:0:0:0:
461,209,218385,6,0,P|469:247|469:275,2,52.4999983978272,2|2|2,0:0|0:0|0:0,0:0:0:0:
394,326,218924,2,0,P|357:313|333:300,2,52.4999983978272,2|2|2,0:0|0:0|0:0,0:0:0:0:
324,207,219463,2,0,P|352:181|376:171,2,52.4999983978272,2|2|2,0:0|0:0|0:0,0:0:0:0:
252,258,220002,5,2,0:0:0:0:
176,224,220182,1,2,0:0:0:0:
103,286,220361,1,2,0:0:0:0:
0,240,220541,1,2,0:0:0:0:
8,123,220721,1,0,0:0:0:0:
18,117,220811,1,0,0:0:0:0:
32,108,220900,2,0,L|71:135,3,37.5,8|0|0|0,3:0|0:0|0:0|0:0,0:0:0:0:
121,74,221260,6,0,P|166:57|216:70,1,75,12|8,3:2|0:0,0:0:0:0:
259,104,221529,1,8,0:0:0:0:
267,110,221619,2,0,P|314:114|353:98,1,75,8|8,3:2|0:0,0:0:0:0:
399,52,221888,1,8,0:0:0:0:
411,46,221978,2,0,P|454:37|504:58,1,75,8|8,3:2|0:0,0:0:0:0:
512,131,222248,1,8,0:0:0:0:
512,131,222337,2,0,L|511:190,1,37.5,8|8,3:2|0:0,0:0:0:0:
454,273,222517,1,8,0:0:0:0:
440,268,222607,1,8,0:0:0:0:
424,261,222697,6,0,P|407:215|383:186,1,75,12|8,3:2|0:0,0:0:0:0:
319,217,222966,1,8,0:0:0:0:
311,209,223056,2,0,P|266:209|224:226,1,75,8|8,3:2|0:0,0:0:0:0:
256,293,223325,1,8,0:0:0:0:
243,300,223415,2,0,P|227:346|230:381,1,75,8|8,3:2|0:0,0:0:0:0:
315,384,223685,1,8,0:0:0:0:
315,384,223775,2,0,L|367:377,1,37.5,8|8,3:2|0:0,0:0:0:0:
228,371,223954,1,8,0:0:0:0:
208,367,224044,1,8,0:0:0:0:
189,363,224134,6,0,L|106:372,1,75,12|8,3:2|0:0,0:0:0:0:
56,316,224403,1,8,0:0:0:0:
47,310,224493,2,0,L|71:226,1,75,8|8,3:2|0:0,0:0:0:0:
146,218,224763,1,8,0:0:0:0:
161,218,224852,2,0,L|215:289,1,75,8|8,3:2|0:0,0:0:0:0:
284,288,225122,1,8,0:0:0:0:
284,288,225212,2,0,L|308:242,1,37.5,8|8,3:2|0:0,0:0:0:0:
329,140,225391,1,8,0:0:0:0:
346,141,225481,1,8,0:0:0:0:
367,143,225571,6,0,L|377:216,3,56.2500021457673,12|0|8|0,3:2|0:0|0:0|0:0,0:0:0:0:
459,107,225930,2,8,L|456:163,3,48.7499977684022,8|0|8|0,3:2|0:0|3:0|3:0,3:3:0:0:
508,16,226290,2,0,L|514:65,3,37.5,8|8|8|8,0:0|0:0|0:0|0:0,0:0:0:0:
395,42,226649,1,8,0:0:0:0:
395,42,227008,6,0,P|341:24|338:99,1,134.999995880127,4|0,3:2|0:0,3:3:0:0:
341,107,227367,2,0,P|363:151|353:202,1,89.9999972534181,8|0,0:0|3:0,0:0:0:0:
292,230,227637,1,0,3:0:0:0:
281,231,227727,1,0,3:0:0:0:
279,329,227906,1,0,3:0:0:0:
150,274,228086,1,8,0:0:0:0:
78,360,228266,2,0,L|131:348,1,44.999998626709,0|0,3:0|3:0,0:0:0:0:
21,297,228445,5,0,3:0:0:0:
76,215,228625,1,0,3:0:0:0:
15,125,228805,1,8,0:0:0:0:
96,18,228984,1,0,3:0:0:0:
108,17,229074,1,0,3:0:0:0:
122,14,229164,2,0,L|229:21,1,89.9999972534181,0|8,3:0|0:0,0:0:0:0:
308,83,229523,6,0,B|327:82|341:110|341:110|264:78|191:111,1,187.5,12|0,0:0|0:0,0:0:0:0:
134,142,230062,1,8,0:0:0:0:
136,155,230152,1,8,0:0:0:0:
138,167,230242,1,8,0:0:0:0:
204,236,230421,1,0,3:0:0:0:
121,326,230601,1,8,0:0:0:0:
184,384,230781,1,0,3:0:0:0:
307,352,230960,6,0,B|310:322|370:326|363:246|314:280|314:280|282:241|244:302|310:322|307:352,1,243.75,6|0,3:2|0:0,0:0:0:0:
375,384,232218,5,2,3:2:0:0:
498,357,232397,1,2,3:2:0:0:
401,153,232757,5,2,0:0:0:0:
