osu file format v14

[General]
AudioFilename: audio.mp3
AudioLeadIn: 0
PreviewTime: 45711
Countdown: 0
SampleSet: Soft
StackLeniency: 0.7
Mode: 0
LetterboxInBreaks: 0
WidescreenStoryboard: 1

[Editor]
DistanceSpacing: 0.8
BeatDivisor: 4
GridSize: 4
TimelineZoom: 3.499999

[Metadata]
Title:Kuchiba Iro no Oto
TitleUnicode:朽葉色の音
Artist:halca
ArtistUnicode:halca
Creator:Laurier
Version:Normal
Source:
Tags:japanese pop 助丸
BeatmapID:2198308
BeatmapSetID:1043158

[Difficulty]
HPDrainRate:4
CircleSize:3
OverallDifficulty:4
ApproachRate:5
SliderMultiplier:1.2
SliderTickRate:1

[Events]
//Background and Video events
0,0,"5d034277d0d3f.jpg",0,0
//Break Periods
//Storyboard Layer 0 (Background)
//Storyboard Layer 1 (Fail)
//Storyboard Layer 2 (Pass)
//Storyboard Layer 3 (Foreground)
//Storyboard Layer 4 (Overlay)
//Storyboard Sound Samples

[TimingPoints]
-1622,333.333333333333,4,2,3,60,1,0
10044,-100,4,2,3,60,0,0
10544,-100,4,2,3,60,0,0
11711,-100,4,2,3,40,0,0
11794,-100,4,2,3,20,0,0
14711,-100,4,2,3,40,0,0
23377,-100,4,2,3,50,0,0
23544,-100,4,2,3,60,0,0
43377,-100,4,2,3,40,0,0
43711,-100,4,2,3,50,0,0
45544,-100,4,2,3,50,0,0
46211,-100,4,2,3,60,0,0
55544,-100,4,2,3,60,0,0
56211,-100,4,2,3,60,0,0
70211,-100,4,2,3,60,0,0
70711,-100,4,2,3,60,0,0
79544,-100,4,2,3,60,0,0
80211,-100,4,2,3,60,0,0
90711,-100,4,2,3,30,0,0
91711,-100,4,2,3,30,0,0
93377,-100,4,2,3,40,0,0
93711,-100,4,2,3,60,0,0
103377,-100,4,2,3,60,0,0

[Colours]
Combo1 : 255,255,187
Combo2 : 191,255,191
Combo3 : 204,204,255
Combo4 : 255,200,255

[HitObjects]
254,322,377,5,8,0:0:0:0:
324,256,711,1,8,0:0:0:0:
255,190,1044,6,0,P|167:206|87:169,1,180,14|10,0:0|0:0,0:0:0:0:
189,67,2044,2,0,P|276:51|356:88,1,180,10|10,0:0|0:0,0:0:0:0:
456,191,3044,2,0,L|439:320,1,120,10|10,0:0|0:0,0:0:0:0:
344,321,3711,6,0,P|254:328|164:337,2,180,14|10|10,0:0|0:0|0:0,0:0:0:0:
255,206,5211,6,0,L|256:127,1,60,10|2,0:0|3:0,0:0:0:0:
256,97,5544,1,2,3:0:0:0:
223,61,5711,2,0,P|163:64|102:75,1,120,10|10,0:0|0:0,0:0:0:0:
54,157,6377,6,0,P|28:240|69:317,1,180,14|10,0:0|0:0,0:0:0:0:
208,277,7377,2,0,L|399:242,2,180,10|10|10,0:0|0:0|0:0,0:0:0:0:
124,229,8711,1,10,0:0:0:0:
206,179,9044,5,14,0:0:0:0:
111,70,9544,1,6,3:2:0:0:
43,197,10044,1,6,3:2:0:0:
256,192,10211,12,4,11711,0:0:0:0:
196,194,14711,6,0,P|255:205|314:194,1,120,2|2,0:0|0:0,0:0:0:0:
404,225,15377,1,2,0:0:0:0:
458,146,15711,6,0,L|439:15,1,120,2|2,0:0|0:0,0:0:0:0:
345,39,16377,2,0,P|286:28|227:39,2,120
158,86,17711,5,0,0:0:0:0:
159,182,18044,2,0,P|218:193|277:182,1,120,2|0,0:0|0:0,0:0:0:0:
366,147,18711,1,2,0:0:0:0:
456,178,19044,1,0,0:0:0:0:
462,273,19377,1,2,0:0:0:0:
383,329,19711,6,0,P|323:328|263:335,1,120,2|2,0:0|0:0,0:0:0:0:
168,342,20377,1,0,0:0:0:0:
186,247,20711,1,0,0:0:0:0:
167,152,21044,6,0,P|100:163|30:158,2,120,0|2|0,0:0|0:0|0:0,0:0:0:0:
135,61,22044,1,2,0:0:0:0:
230,73,22377,6,0,P|297:62|367:67,1,120,2|2,0:0|0:0,0:0:0:0:
441,88,23044,1,2,0:0:0:0:
369,152,23377,1,8,0:0:0:0:
412,172,23544,6,0,L|421:297,1,120,12|8,0:0|0:0,0:0:0:0:
423,339,24044,2,0,P|365:352|312:380,1,120,0|4,3:0|3:0,0:0:0:0:
215,381,24711,2,0,P|156:367|103:339,1,120,8|4,0:0|3:2,0:0:0:0:
10,315,25377,5,10,0:0:0:0:
79,248,25711,2,0,L|79:128,1,120,2|10,3:0|0:0,0:0:0:0:
152,66,26377,6,0,P|101:34|42:38,1,120,2|10,0:0|0:0,0:0:0:0:
79,128,27044,2,0,P|129:159|188:155,1,120,0|8,3:0|0:0,0:0:0:0:
256,87,27711,5,0,3:0:0:0:
257,278,28377,1,0,3:0:0:0:
299,191,28711,2,0,L|419:167,2,120,10|0|10,0:0|0:0|0:0,0:0:0:0:
202,196,29711,5,2,3:0:0:0:
249,112,30044,1,10,0:0:0:0:
152,112,30377,6,0,P|115:157|110:216,1,120,2|10,3:0|0:0,0:0:0:0:
145,306,31044,2,0,L|265:282,1,120,0|10,3:0|0:0,0:0:0:0:
309,273,31544,6,0,L|485:236,1,180,2|10,3:0|0:0,0:0:0:0:
465,142,32377,1,0,3:0:0:0:
445,47,32711,1,8,0:0:0:0:
372,111,33044,6,0,P|316:129|256:130,1,120,4|10,3:2|0:0,0:0:0:0:
169,86,33711,2,0,P|109:86|52:105,1,120,0|8,3:0|0:0,0:0:0:0:
11,129,34211,6,0,P|-20:212|6:298,1,180,6|10,3:2|0:0,0:0:0:0:
68,369,35044,1,10,0:0:0:0:
97,275,35377,1,10,0:0:0:0:
187,241,35711,6,0,L|367:209,1,180,12|8,0:0|0:0,0:0:0:0:
256,114,36711,6,0,L|436:82,2,180,12|10|10,0:0|0:0|0:0,0:0:0:0:
176,60,38044,1,10,0:0:0:0:
171,155,38377,6,0,L|134:351,1,180,12|8,0:0|0:0,0:0:0:0:
268,270,39377,6,0,L|301:93,2,180,12|10|10,0:0|0:0|0:0,0:0:0:0:
329,343,40711,1,2,3:0:0:0:
365,254,41044,6,0,P|422:235|481:230,1,120,12|0,0:0|3:0,0:0:0:0:
492,184,41544,2,0,L|468:51,1,120,8|0,0:0|3:0,0:0:0:0:
432,35,42044,6,0,P|349:61|256:56,1,180,12|10,0:0|0:0,0:0:0:0:
163,35,42877,1,2,3:0:0:0:
115,26,43044,2,0,P|55:21|0:41,1,120,10|10,0:0|0:0,0:0:0:0:
67,109,43711,1,2,0:0:0:0:
74,204,44044,6,0,P|77:297|48:380,2,180,2|2|2,0:0|0:0|0:0,0:0:0:0:
227,87,45711,5,10,0:0:0:0:
256,228,46211,6,0,L|446:191,1,180,14|8,0:0|0:0,0:0:0:0:
477,108,47044,2,0,P|461:51|426:2,1,120,2|10,3:0|0:0,0:0:0:0:
351,63,47711,6,0,P|294:77|234:70,1,120,0|8,3:0|0:0,0:0:0:0:
148,29,48377,1,2,3:0:0:0:
71,87,48711,1,10,0:0:0:0:
160,124,49044,6,0,L|172:265,1,120,0|8,0:0|0:0,0:0:0:0:
256,286,49711,2,0,L|310:260,2,60,2|2|8,3:0|3:0|0:0,0:0:0:0:
223,322,50211,6,0,P|167:338|112:317,1,120,2|2,0:0|3:0,0:0:0:0:
170,243,50877,1,2,0:0:0:0:
74,233,51211,1,10,0:0:0:0:
130,154,51544,6,0,P|217:160|272:228,1,180,6|8,3:2|0:0,0:0:0:0:
363,260,52377,2,0,L|482:245,1,120,2|10,3:0|0:0,0:0:0:0:
490,198,52877,6,0,P|502:110|439:45,1,180,2|8,3:0|0:0,0:0:0:0:
409,136,53711,2,0,L|351:125,1,60,2|2,3:0|3:0,0:0:0:0:
256,104,54211,6,0,L|268:229,1,120,6|2,3:2|3:0,0:0:0:0:
254,318,54877,2,0,L|139:265,1,120,2|2,0:0|3:0,0:0:0:0:
69,208,55544,6,0,L|171:135,1,120,6|2,3:2|3:0,0:0:0:0:
249,89,56211,2,0,P|176:43|95:74,1,180,6|10,3:2|0:0,0:0:0:0:
166,138,57044,5,4,3:2:0:0:
248,186,57377,2,0,L|366:164,2,120,10|2|10,0:0|3:0|0:0,0:0:0:0:
172,245,58377,5,0,0:0:0:0:
262,277,58711,1,10,0:0:0:0:
188,339,59044,2,0,P|130:331|89:289,1,120,2|8,3:0|0:0,0:0:0:0:
75,193,59711,6,0,L|65:73,1,120,2|8,3:0|0:0,0:0:0:0:
160,61,60377,2,0,L|225:40,2,60,2|2|8,3:0|3:0|0:0,0:0:0:0:
167,156,61044,6,0,L|281:119,1,120,0|8,3:0|0:0,0:0:0:0:
372,90,61711,2,0,L|412:33,2,60,2|2|10,0:0|3:0|0:0,0:0:0:0:
431,165,62377,6,0,L|439:284,1,120,6|8,3:2|0:0,0:0:0:0:
358,336,63044,1,0,3:0:0:0:
267,304,63377,1,10,0:0:0:0:
173,276,63711,6,0,P|114:268|59:291,2,120,0|8|2,3:0|0:0|3:0,0:0:0:0:
257,325,64711,1,10,0:0:0:0:
322,254,65044,6,0,L|461:212,1,120,6|8,3:2|0:0,0:0:0:0:
481,236,65544,1,6,3:2:0:0:
493,92,66044,2,0,L|378:126,1,120,6|4,3:2|3:0,0:0:0:0:
329,135,66544,6,0,P|273:152|215:138,1,120,2|0,3:0|3:0,0:0:0:0:
201,92,67044,2,0,L|194:25,1,60,10|10,0:0|0:0,0:0:0:0:
98,36,67544,6,0,P|26:85|25:171,1,180,6|10,3:2|0:0,0:0:0:0:
65,259,68377,2,0,L|124:249,1,60,8|0,0:0|3:0,0:0:0:0:
165,274,68711,1,10,0:0:0:0:
216,355,69044,6,0,L|316:289,1,120,10|10,0:0|0:0,0:0:0:0:
321,193,69711,2,0,L|321:120,1,60,10|10,0:0|0:0,0:0:0:0:
324,36,70211,6,0,P|412:47|500:28,1,180,14|14,0:0|0:0,0:0:0:0:
483,123,71044,2,0,L|483:183,1,60,2|2,3:0|3:0,0:0:0:0:
475,229,71377,2,0,P|416:235|364:264,1,120,10|0,0:0|3:0,0:0:0:0:
288,323,72044,6,0,P|229:335|170:324,1,120,8|2,0:0|3:0,0:0:0:0:
83,283,72711,1,10,0:0:0:0:
67,237,72877,6,0,P|152:212|238:233,1,180,2|8,3:0|0:0,0:0:0:0:
331,207,73711,2,0,L|350:88,1,120,2|8,3:0|0:0,0:0:0:0:
263,47,74377,6,0,P|205:63|145:63,2,120,0|8|0,3:0|0:0|3:0,0:0:0:0:
298,14,75211,2,0,P|326:5|356:1,1,60,10|8,0:0|0:0,0:0:0:0:
403,9,75544,6,0,P|444:50|448:108,1,120,6|0,3:2|3:0,0:0:0:0:
429,152,76044,1,8,0:0:0:0:
349,205,76377,2,0,L|224:205,1,120,2|10,3:0|0:0,0:0:0:0:
180,205,76877,6,0,P|209:122|173:42,1,180,2|8,3:0|0:0,0:0:0:0:
77,54,77711,2,0,L|14:24,2,60,2|2|10,3:0|3:0|0:0,0:0:0:0:
82,101,78211,6,0,L|66:224,1,120,6|2,3:2|3:0,0:0:0:0:
64,315,78877,2,0,L|178:267,1,120,2|2,0:0|3:0,0:0:0:0:
259,223,79544,6,0,L|160:147,1,120,6|2,3:2|3:0,0:0:0:0:
174,54,80211,2,0,P|258:26|343:50,1,180,10|10,0:0|0:0,0:0:0:0:
402,125,81044,5,6,3:2:0:0:
331,190,81377,2,0,L|310:317,1,120,10|2,0:0|3:0,0:0:0:0:
404,331,82044,2,0,L|466:315,2,60,10|2|0,0:0|3:0|0:0,0:0:0:0:
311,308,82711,5,10,0:0:0:0:
218,337,83044,2,0,P|161:354|102:355,1,120,2|8,3:0|0:0,0:0:0:0:
51,272,83711,5,6,3:2:0:0:
121,206,84044,1,8,0:0:0:0:
47,143,84377,2,0,P|49:113|40:84,1,60,2|0,3:0|3:0,0:0:0:0:
67,45,84711,2,0,P|94:58|130:64,1,60,8|2,0:0|0:0,0:0:0:0:
171,64,85044,6,0,L|290:51,1,120,2|10,3:0|0:0,0:0:0:0:
348,128,85711,2,0,L|467:115,1,120,2|10,0:0|0:0,0:0:0:0:
456,211,86377,6,0,P|455:240|444:268,1,60,6|0,3:2|3:0,0:0:0:0:
402,292,86711,2,0,L|268:264,1,120,10|2,0:0|3:0,0:0:0:0:
190,247,87377,1,8,0:0:0:0:
215,339,87711,5,2,3:0:0:0:
123,311,88044,1,10,0:0:0:0:
36,352,88377,1,2,3:0:0:0:
46,256,88711,2,0,L|10:196,1,60,10|8,0:0|0:0,0:0:0:0:
38,162,89044,6,0,L|20:37,1,120,6|10,3:2|0:0,0:0:0:0:
116,52,89711,2,0,P|173:67|233:63,1,120,10|2,0:0|3:2,0:0:0:0:
326,43,90377,5,14,0:0:0:0:
397,106,90711,1,2,0:0:0:0:
306,137,91044,2,0,P|327:225|309:312,1,180,2|2,0:0|0:0,0:0:0:0:
260,322,91711,5,2,0:0:0:0:
339,377,93377,5,4,3:0:0:0:
345,281,93711,2,0,L|400:246,1,60,8|8,0:0|0:0,0:0:0:0:
435,222,94044,2,0,L|435:156,1,60,8|0,0:0|3:0,0:0:0:0:
432,112,94377,6,0,P|383:79|324:72,1,120,14|0,0:0|3:0,0:0:0:0:
279,86,94877,1,10,0:0:0:0:
167,177,95377,6,0,P|253:198|337:171,2,180,10|10|10,0:0|0:0|0:0,0:0:0:0:
205,88,96711,1,10,0:0:0:0:
110,99,97044,6,0,L|67:211,1,120,14|0,0:0|3:0,0:0:0:0:
82,257,97544,2,0,P|122:300|154:351,1,120,10|0,0:0|3:0,0:0:0:0:
202,347,98044,1,10,0:0:0:0:
322,268,98544,6,0,L|380:255,2,60,10|2|2,0:0|3:0|3:0,0:0:0:0:
274,278,99044,2,0,P|242:229|249:171,1,120,10|10,0:0|3:0,0:0:0:0:
337,133,99711,6,0,P|343:74|311:25,1,120,14|0,0:0|3:0,0:0:0:0:
262,25,100211,2,0,L|143:42,1,120,10|0,0:0|3:0,0:0:0:0:
110,78,100711,6,0,P|73:124|30:166,1,120,10|0,0:0|3:0,0:0:0:0:
21,213,101211,2,0,L|38:277,1,60,10|0,0:0|3:0,0:0:0:0:
69,361,101711,5,8,0:0:0:0:
129,286,102044,1,8,0:0:0:0:
200,349,102377,6,0,L|318:331,1,120,6|8,3:2|0:0,0:0:0:0:
333,285,102877,2,0,P|353:200|299:131,1,180,6|6,3:2|3:2,0:0:0:0:
256,192,103544,12,10,104877,0:0:0:0:
