osu file format v14

[General]
AudioFilename: audio.mp3
AudioLeadIn: 0
PreviewTime: 45711
Countdown: 0
SampleSet: Soft
StackLeniency: 0.7
Mode: 0
LetterboxInBreaks: 0
WidescreenStoryboard: 1

[Editor]
DistanceSpacing: 1.9
BeatDivisor: 4
GridSize: 4
TimelineZoom: 2.3

[Metadata]
Title:Kuchiba Iro no Oto
TitleUnicode:朽葉色の音
Artist:halca
ArtistUnicode:halca
Creator:Laurier
Version:Insane
Source:
Tags:japanese pop 助丸
BeatmapID:2183121
BeatmapSetID:1043158

[Difficulty]
HPDrainRate:6
CircleSize:4
OverallDifficulty:7
ApproachRate:9
SliderMultiplier:1.7
SliderTickRate:1

[Events]
//Background and Video events
0,0,"5d034277d0d3f.jpg",0,0
//Break Periods
//Storyboard Layer 0 (Background)
//Storyboard Layer 1 (Fail)
//Storyboard Layer 2 (Pass)
//Storyboard Layer 3 (Foreground)
//Storyboard Layer 4 (Overlay)
//Storyboard Sound Samples

[TimingPoints]
-1622,333.333333333333,4,2,3,60,1,0
10044,-142.857142857143,4,2,3,60,0,0
10544,-100,4,2,3,60,0,0
11711,-500,4,2,3,40,0,0
11794,-500,4,2,3,20,0,0
14711,-142.857142857143,4,2,3,40,0,0
23377,-142.857142857143,4,2,3,50,0,0
23544,-100,4,2,3,60,0,0
43377,-100,4,2,3,40,0,0
43711,-166.666666666667,4,2,3,50,0,0
45544,-166.666666666667,4,2,3,50,0,0
46211,-100,4,2,3,60,0,0
55544,-83.3333333333333,4,2,3,60,0,0
56211,-100,4,2,3,60,0,0
70211,-125,4,2,3,60,0,0
70711,-100,4,2,3,60,0,0
79544,-83.3333333333333,4,2,3,60,0,0
80211,-100,4,2,3,60,0,0
90711,-166.666666666667,4,2,3,30,0,0
91711,-333.333333333333,4,2,3,30,0,0
93377,-333.333333333333,4,2,3,40,0,0
93711,-100,4,2,3,60,0,0
103377,-142.857142857143,4,2,3,60,0,0

[Colours]
Combo1 : 255,255,187
Combo2 : 191,255,191
Combo3 : 204,204,255
Combo4 : 255,200,255

[HitObjects]
341,111,377,5,8,0:0:0:0:
341,111,544,1,0,3:0:0:0:
429,193,711,5,8,0:0:0:0:
389,218,794,1,0,3:0:0:0:
343,226,877,1,0,3:0:0:0:
296,217,960,1,0,3:0:0:0:
256,191,1044,6,0,P|216:180|174:182,2,85,14|0|0,0:0|3:0|3:0,0:0:0:0:
199,311,1544,2,0,P|156:313|116:301,2,85,10|0|0,0:0|3:0|3:0,0:0:0:0:
389,218,2044,2,0,L|380:133,1,85,10|0,0:0|3:0,0:0:0:0:
256,191,2377,1,0,3:0:0:0:
418,173,2544,6,0,L|409:88,1,85,10|0,0:0|3:0,0:0:0:0:
256,191,2877,1,0,3:0:0:0:
281,2,3044,2,0,L|289:86,1,85,10|0,0:0|3:0,0:0:0:0:
312,297,3377,1,10,0:0:0:0:
306,303,3460,1,0,0:0:0:0:
301,310,3543,1,0,3:0:0:0:
296,317,3626,1,0,3:0:0:0:
291,324,3711,6,0,P|206:317|121:315,1,170,14|0,0:0|3:0,0:0:0:0:
0,130,4211,2,0,P|84:136|169:138,1,170,10|0,0:0|3:0,0:0:0:0:
376,27,4711,2,0,P|457:32|496:103,1,170,10|0,0:0|3:0,0:0:0:0:
320,182,5211,1,10,0:0:0:0:
431,265,5377,1,2,3:0:0:0:
413,106,5544,1,2,3:0:0:0:
315,314,5711,5,10,0:0:0:0:
169,138,5877,1,10,0:0:0:0:
320,182,6044,1,10,0:0:0:0:
320,182,6127,1,8,0:0:0:0:
320,182,6211,1,10,0:0:0:0:
320,182,6294,1,8,0:0:0:0:
320,182,6377,6,0,L|414:188,2,85,14|0|0,0:0|3:0|3:0,0:0:0:0:
174,241,6877,2,0,P|89:249|5:262,1,170,10|0,0:0|3:0,0:0:0:0:
156,358,7377,2,0,L|250:364,2,85,10|0|0,0:0|3:0|3:0,0:0:0:0:
5,262,7877,6,0,P|-14:181|31:112,1,170,10|0,0:0|3:0,0:0:0:0:
31,112,8294,1,0,3:0:0:0:
31,112,8377,1,10,0:0:0:0:
139,180,8544,1,0,3:0:0:0:
120,14,8711,1,10,0:0:0:0:
120,14,8794,1,8,0:0:0:0:
120,14,8877,1,8,3:0:0:0:
120,14,8961,1,4,3:0:0:0:
120,14,9044,5,14,0:0:0:0:
265,106,9211,2,0,L|305:92,2,42.5,8|8|8,0:0|0:0|0:0,0:0:0:0:
139,180,9544,1,6,3:2:0:0:
300,239,9711,2,0,L|340:252,2,42.5,8|8|8,0:0|0:0|0:0,0:0:0:0:
139,180,10044,5,6,3:2:0:0:
256,192,10127,12,4,11711,0:0:0:0:
256,192,11794,12,2,14377,0:0:0:0:
176,342,14711,6,0,P|173:312|171:282,1,59.4999981842042,2|2,0:0|0:0,0:0:0:0:
298,237,15044,2,0,P|295:207|293:177,1,59.4999981842042,2|2,0:0|0:0,0:0:0:0:
165,137,15377,2,0,P|162:107|160:77,1,59.4999981842042,2|2,0:0|0:0,0:0:0:0:
308,56,15711,6,0,P|368:55|426:44,1,118.999996368408,2|2,0:0|0:0,0:0:0:0:
426,44,16211,1,2,0:0:0:0:
160,77,16544,2,0,P|130:73|100:71,1,59.4999981842042,2|0,0:0|0:0,0:0:0:0:
0,269,16877,6,0,P|59:263|117:253,1,118.999996368408,2|0,0:0|0:0,0:0:0:0:
230,175,17377,2,0,P|247:199|257:227,1,59.4999981842042,2|0,0:0|0:0,0:0:0:0:
377,280,17711,2,0,P|389:253|395:224,1,59.4999981842042,0|0,0:0|0:0,0:0:0:0:
339,98,18044,1,2,0:0:0:0:
339,98,18211,1,2,0:0:0:0:
339,98,18377,6,0,L|398:92,1,59.4999981842042,0|0,0:0|0:0,0:0:0:0:
184,70,18711,2,0,L|260:63,1,59.4999981842042,2|0,0:0|0:0,0:0:0:0:
30,40,19044,2,0,L|106:33,2,59.4999981842042,0|0|2,0:0|0:0|0:0,0:0:0:0:
72,282,19711,6,0,L|53:164,1,118.999996368408,2|2,0:0|0:0,0:0:0:0:
313,300,20211,2,0,P|254:309|195:300,1,118.999996368408,2|2,0:0|0:0,0:0:0:0:
256,198,20711,1,0,0:0:0:0:
117,74,20877,6,0,P|58:64|0:73,1,118.999996368408,2|0,0:0|0:0,0:0:0:0:
53,164,21377,1,2,0:0:0:0:
53,164,21544,1,0,0:0:0:0:
228,107,21711,2,0,P|229:77|227:47,1,59.4999981842042,0|0,0:0|0:0,0:0:0:0:
368,34,22044,2,0,P|397:35|427:33,1,59.4999981842042,2|2,0:0|0:0,0:0:0:0:
362,158,22377,6,0,L|344:282,1,118.999996368408,2|2,0:0|0:0,0:0:0:0:
459,229,22877,1,2,0:0:0:0:
459,229,23044,1,2,0:0:0:0:
363,370,23211,2,0,P|333:367|303:367,1,59.4999981842042,2|8,0:0|0:0,0:0:0:0:
68,286,23544,6,0,P|152:286|227:247,1,170,12|8,0:0|0:0,0:0:0:0:
356,121,24044,2,0,P|320:98|279:88,1,85,0|8,3:0|3:0,0:0:0:0:
122,186,24377,1,4,3:0:0:0:
188,59,24544,1,0,3:0:0:0:
188,59,24627,1,0,3:0:0:0:
188,59,24711,2,0,L|199:159,1,85,8|0,0:0|0:0,0:0:0:0:
339,346,25044,6,0,L|466:313,1,127.5,4|0,3:2|0:0,0:0:0:0:
498,304,25377,1,10,0:0:0:0:
387,224,25544,1,2,0:0:0:0:
490,135,25711,1,2,3:0:0:0:
490,135,25877,1,2,3:0:0:0:
322,57,26044,1,10,0:0:0:0:
387,224,26211,1,2,3:0:0:0:
442,51,26377,6,0,P|414:82|395:121,1,85,2|0,0:0|3:0,0:0:0:0:
339,346,26711,1,10,0:0:0:0:
254,239,26877,1,2,0:0:0:0:
254,239,26961,1,0,0:0:0:0:
254,239,27044,2,0,L|169:233,1,85,0|2,3:0|3:0,0:0:0:0:
17,107,27377,2,0,L|101:112,1,85,8|2,0:0|0:0,0:0:0:0:
134,100,27627,1,0,0:0:0:0:
134,100,27711,6,0,P|154:62|163:21,1,85,0|0,3:0|0:0,0:0:0:0:
48,236,28044,2,0,P|56:277|76:314,1,85,8|0,0:0|0:0,0:0:0:0:
169,233,28377,1,0,3:0:0:0:
169,233,28544,1,2,3:0:0:0:
76,352,28711,1,10,0:0:0:0:
123,153,28877,6,0,P|205:151|259:213,1,170,2|0,3:0|3:0,0:0:0:0:
359,338,29377,2,0,L|447:319,1,85,10|0,0:0|0:0,0:0:0:0:
507,166,29711,2,0,L|423:183,1,85,2|2,3:0|3:0,0:0:0:0:
259,213,30044,1,10,0:0:0:0:
359,338,30211,1,2,0:0:0:0:
164,381,30377,6,0,P|131:306|168:233,1,170,2|10,3:0|0:0,0:0:0:0:
303,123,30877,1,2,0:0:0:0:
179,65,31044,1,0,3:0:0:0:
179,65,31211,1,2,3:0:0:0:
341,122,31377,1,10,0:0:0:0:
113,137,31544,6,0,B|-10:123|-10:123|19:158,1,170,2|0,3:0|3:0,0:0:0:0:
169,234,32044,2,0,L|252:218,1,85,10|2,0:0|0:0,0:0:0:0:
446,176,32377,1,0,3:0:0:0:
446,176,32544,1,2,3:0:0:0:
349,272,32711,1,8,0:0:0:0:
472,150,32877,1,2,0:0:0:0:
356,2,33044,6,0,P|310:71|328:152,1,170,4|10,3:2|0:0,0:0:0:0:
433,263,33544,1,2,0:0:0:0:
433,263,33627,1,0,0:0:0:0:
433,263,33711,2,0,L|340:272,1,85,0|2,3:0|3:0,0:0:0:0:
108,291,34044,1,8,0:0:0:0:
220,347,34211,6,0,P|229:264|176:201,1,170,6|0,3:2|3:0,0:0:0:0:
61,104,34711,2,0,P|36:138|27:181,1,85,10|0,0:0|3:0,0:0:0:0:
108,291,35044,1,10,0:0:0:0:
108,291,35127,1,8,0:0:0:0:
108,291,35211,1,2,3:0:0:0:
176,201,35377,6,0,L|217:193,1,42.5,10|0,0:0|3:0,0:0:0:0:
237,106,35544,2,0,L|278:98,1,42.5,0|0,3:0|3:0,0:0:0:0:
354,50,35711,5,12,0:0:0:0:
217,193,35877,1,0,3:0:0:0:
217,193,36044,1,0,3:0:0:0:
369,182,36211,5,8,0:0:0:0:
258,336,36377,1,0,3:0:0:0:
258,336,36544,1,0,3:0:0:0:
446,251,36711,2,0,P|466:170|423:99,1,170,12|0,0:0|3:0,0:0:0:0:
256,48,37211,6,0,L|165:39,2,85,10|2|2,0:0|3:0|3:0,0:0:0:0:
169,155,37711,1,10,0:0:0:0:
269,293,37877,1,2,3:0:0:0:
369,182,38044,1,10,0:0:0:0:
369,182,38127,1,0,3:0:0:0:
369,182,38211,1,0,3:0:0:0:
369,182,38294,1,0,3:0:0:0:
369,182,38377,6,0,L|170:156,1,170,12|0,0:0|3:0,0:0:0:0:
0,287,38877,2,0,L|168:309,1,170,8|0,0:0|3:0,0:0:0:0:
466,281,39377,2,0,P|384:273|318:322,1,170,12|0,0:0|3:0,0:0:0:0:
205,346,39877,6,0,L|98:332,1,85,10|2,0:0|3:0,0:0:0:0:
0,287,40211,1,2,3:0:0:0:
0,287,40294,1,0,3:0:0:0:
0,287,40377,2,0,P|20:249|31:209,1,85,10|10,0:0|0:0,0:0:0:0:
48,44,40711,1,2,3:0:0:0:
48,44,40794,1,0,3:0:0:0:
48,44,40877,1,0,3:0:0:0:
48,44,40961,1,0,3:0:0:0:
48,44,41044,6,0,P|128:35|217:30,1,170,12|0,0:0|3:0,0:0:0:0:
481,167,41544,2,0,P|396:176|311:180,1,170,8|0,0:0|3:0,0:0:0:0:
149,128,42044,1,12,0:0:0:0:
214,275,42211,1,0,3:0:0:0:
311,180,42377,1,0,3:0:0:0:
208,310,42544,6,0,L|123:301,1,85,10|2,0:0|3:0,0:0:0:0:
28,112,42877,2,0,L|112:120,1,85,2|10,3:0|0:0,0:0:0:0:
239,67,43211,1,10,0:0:0:0:
181,199,43377,1,10,0:0:0:0:
181,199,43461,1,8,0:0:0:0:
181,199,43544,1,2,3:0:0:0:
181,199,43627,1,0,3:0:0:0:
181,199,43711,6,0,L|295:184,1,101.999996887207,2|2,0:0|0:0,0:0:0:0:
422,103,44211,2,0,L|394:207,1,101.999996887207,2|2,0:0|0:0,0:0:0:0:
338,349,44711,2,0,L|319:289,2,50.9999984436036,0|2|2,0:0|0:0|0:0,0:0:0:0:
256,64,45544,5,0,3:0:0:0:
256,64,45627,1,0,3:0:0:0:
256,64,45711,2,0,L|322:63,1,50.9999984436036,10|10,0:0|0:0,0:0:0:0:
337,46,46211,6,0,P|255:64|174:44,1,170,14|0,0:0|3:0,0:0:0:0:
33,189,46711,2,0,P|65:160|103:143,1,85,8|0,0:0|0:0,0:0:0:0:
202,302,47044,2,0,P|163:284|132:256,2,85,2|2|10,3:0|3:0|0:0,0:0:0:0:
327,247,47544,1,2,0:0:0:0:
217,165,47711,5,0,3:0:0:0:
381,110,47877,1,0,3:0:0:0:
334,281,48044,2,0,L|320:197,1,85,8|0,0:0|0:0,0:0:0:0:
249,0,48377,2,0,L|235:83,1,85,2|2,3:0|3:0,0:0:0:0:
381,110,48711,1,10,0:0:0:0:
417,288,48877,6,0,L|247:273,1,170,2|0,3:0|3:0,0:0:0:0:
45,262,49377,2,0,P|24:299|16:341,1,85,8|0,0:0|0:0,0:0:0:0:
146,142,49711,2,0,P|137:100|117:63,1,85,2|2,3:0|3:0,0:0:0:0:
45,262,50044,1,8,0:0:0:0:
221,232,50211,6,0,L|323:209,1,85,2|0,0:0|3:0,0:0:0:0:
395,49,50544,2,0,L|312:67,1,85,2|8,3:0|0:0,0:0:0:0:
205,315,50877,2,0,P|214:273|221:232,1,85,2|0,0:0|3:0,0:0:0:0:
117,63,51210,1,10,0:0:0:0:
117,63,51377,1,10,0:0:0:0:
312,66,51544,6,0,P|332:149|356:230,1,170,6|0,3:2|3:0,0:0:0:0:
512,128,52044,2,0,P|469:122|427:126,1,85,8|0,0:0|0:0,0:0:0:0:
228,195,52377,1,2,3:0:0:0:
312,66,52544,1,2,3:0:0:0:
312,331,52711,1,10,0:0:0:0:
80,214,52877,6,0,P|149:169|227:194,1,170,2|0,3:0|3:0,0:0:0:0:
177,340,53377,2,0,L|161:256,1,85,8|0,0:0|0:0,0:0:0:0:
130,48,53711,1,2,3:0:0:0:
333,92,53877,2,0,L|317:175,1,85,2|10,3:0|0:0,0:0:0:0:
69,152,54211,6,0,L|236:123,1,170,6|2,3:2|3:0,0:0:0:0:
455,99,54711,1,8,0:0:0:0:
455,99,54877,2,0,P|472:137|479:179,1,85,2|0,0:0|3:0,0:0:0:0:
497,315,55211,2,0,P|454:311|415:295,1,85,2|8,3:0|0:0,0:0:0:0:
257,253,55544,6,0,L|106:280,1,152.999995330811,6|0,3:2|0:0,0:0:0:0:
30,301,55877,2,0,L|132:314,1,101.999996887207,2|8,3:0|0:0,0:0:0:0:
257,253,56211,6,0,P|276:172|240:97,1,170,6|2,3:2|3:0,0:0:0:0:
108,59,56711,1,10,0:0:0:0:
108,59,56794,1,8,0:0:0:0:
108,59,56877,1,8,0:0:0:0:
108,59,56961,1,8,0:0:0:0:
108,59,57044,6,0,L|23:54,1,85,4|0,3:2|0:0,0:0:0:0:
105,185,57377,2,0,L|189:180,1,85,10|0,0:0|0:0,0:0:0:0:
386,168,57711,1,2,3:0:0:0:
313,85,57877,1,2,3:0:0:0:
258,270,58044,1,10,0:0:0:0:
427,247,58211,6,0,P|469:176|436:101,1,170,2|0,3:0|3:0,0:0:0:0:
313,85,58711,2,0,L|213:76,1,85,10|2,0:0|0:0,0:0:0:0:
91,146,59044,1,2,3:0:0:0:
91,146,59211,1,2,3:0:0:0:
259,300,59377,2,0,L|346:291,1,85,8|2,0:0|0:0,0:0:0:0:
104,315,59711,6,0,P|94:230|90:145,1,170,2|8,3:0|0:0,0:0:0:0:
194,33,60211,1,0,0:0:0:0:
194,33,60294,1,0,3:0:0:0:
194,33,60377,2,0,P|199:80|202:123,1,85,2|2,3:0|3:0,0:0:0:0:
93,232,60711,1,8,0:0:0:0:
201,117,60877,1,2,0:0:0:0:
214,326,61044,5,0,3:0:0:0:
214,326,61211,1,0,3:0:0:0:
363,195,61377,1,8,0:0:0:0:
363,195,61544,1,0,3:0:0:0:
452,298,61711,1,2,0:0:0:0:
366,157,61877,1,2,3:0:0:0:
298,320,62044,2,0,P|256:326|213:325,1,85,10|2,0:0|0:0,0:0:0:0:
8,237,62377,6,0,P|50:231|93:232,1,85,6|0,3:2|3:0,0:0:0:0:
251,164,62711,2,0,P|266:102|254:40,1,127.5,8|0,0:0|3:0,0:0:0:0:
226,13,63044,1,0,3:0:0:0:
146,123,63211,1,0,3:0:0:0:
254,247,63377,1,10,0:0:0:0:
335,163,63544,2,0,P|292:158|250:164,1,85,2|0,0:0|3:0,0:0:0:0:
92,231,63877,5,2,3:0:0:0:
264,331,64044,2,0,L|253:246,1,85,8|2,0:0|0:0,0:0:0:0:
434,178,64377,2,0,L|423:93,1,85,2|2,3:0|3:0,0:0:0:0:
299,33,64711,1,10,0:0:0:0:
299,33,64794,1,10,0:0:0:0:
299,33,64877,1,2,3:0:0:0:
82,133,65044,6,0,L|168:114,1,85,6|8,3:2|0:0,0:0:0:0:
198,127,65294,1,8,0:0:0:0:
198,127,65377,1,8,0:0:0:0:
434,178,65544,2,0,L|348:197,1,85,6|8,3:2|0:0,0:0:0:0:
335,227,65794,1,8,0:0:0:0:
335,227,65877,1,8,0:0:0:0:
175,341,66044,2,0,P|93:337|40:274,1,170,6|4,3:2|3:0,0:0:0:0:
12,141,66544,5,2,3:0:0:0:
137,256,66711,1,8,0:0:0:0:
248,128,66877,1,0,3:0:0:0:
248,128,66961,1,0,3:0:0:0:
248,128,67044,1,10,0:0:0:0:
103,38,67211,1,10,0:0:0:0:
107,47,67544,6,0,L|279:35,1,170,6|0,3:2|3:0,0:0:0:0:
449,166,68044,2,0,L|360:172,1,85,10|2,0:0|3:0,0:0:0:0:
109,58,68377,2,0,L|193:51,1,85,8|0,0:0|3:0,0:0:0:0:
443,176,68711,2,0,L|354:182,1,85,10|2,0:0|3:0,0:0:0:0:
85,204,69044,5,10,0:0:0:0:
57,236,69127,1,2,0:0:0:0:
50,277,69210,1,0,3:0:0:0:
65,316,69293,1,0,3:0:0:0:
98,342,69377,1,10,0:0:0:0:
255,344,69544,1,0,3:0:0:0:
255,344,69627,1,0,3:0:0:0:
255,344,69711,1,10,0:0:0:0:
145,264,69877,1,10,0:0:0:0:
261,43,70211,6,0,L|247:193,1,136,14|0,0:0|3:0,0:0:0:0:
245,208,70627,1,0,0:0:0:0:
245,208,70711,6,0,P|286:201|328:193,1,85,14|0,0:0|0:0,0:0:0:0:
261,43,71044,2,0,P|219:49|177:57,2,85,2|2|10,3:0|3:0|0:0,0:0:0:0:
455,37,71544,1,2,0:0:0:0:
455,37,71711,6,0,L|439:124,1,85,0|0,3:0|3:0,0:0:0:0:
415,301,72044,2,0,P|351:301|296:331,1,127.5,8|0,0:0|0:0,0:0:0:0:
276,358,72377,2,0,L|179:362,1,85,2|2,3:0|3:0,0:0:0:0:
90,268,72711,1,10,0:0:0:0:
203,191,72877,6,0,P|223:110|179:40,1,170,2|0,3:0|3:0,0:0:0:0:
36,128,73377,2,0,P|78:133|125:128,1,85,8|0,0:0|0:0,0:0:0:0:
314,37,73711,1,2,3:0:0:0:
224,114,73877,1,2,3:0:0:0:
405,193,74044,1,8,0:0:0:0:
321,136,74211,1,2,0:0:0:0:
321,136,74377,6,0,P|308:177|306:219,1,85,0|2,3:0|3:0,0:0:0:0:
426,378,74711,2,0,P|438:337|440:295,1,85,8|2,0:0|0:0,0:0:0:0:
405,193,75044,1,0,3:0:0:0:
268,315,75211,2,0,L|182:329,1,85,10|8,0:0|0:0,0:0:0:0:
45,189,75544,6,0,P|130:185|202:142,1,170,6|0,3:2|3:0,0:0:0:0:
241,30,76044,1,8,0:0:0:0:
307,129,76211,1,0,0:0:0:0:
406,63,76377,1,2,3:0:0:0:
337,237,76544,1,2,3:0:0:0:
447,191,76711,1,10,0:0:0:0:
307,129,76877,6,0,L|316:298,1,170,2|0,3:0|3:0,0:0:0:0:
457,369,77377,2,0,L|452:284,1,85,8|0,0:0|0:0,0:0:0:0:
447,191,77711,1,2,3:0:0:0:
337,237,77877,2,0,P|296:248|254:253,1,85,2|10,3:0|0:0,0:0:0:0:
50,107,78211,6,0,P|96:100|149:183,1,127.5,6|0,3:2|0:0,0:0:0:0:
140,235,78544,2,0,L|127:320,1,85,2|8,3:0|0:0,0:0:0:0:
24,258,78877,1,2,0:0:0:0:
24,258,78961,1,0,3:0:0:0:
24,258,79044,1,0,3:0:0:0:
149,153,79211,2,0,L|233:142,1,85,2|8,3:0|0:0,0:0:0:0:
488,77,79544,6,0,L|343:127,1,152.999995330811,6|0,3:2|0:0,0:0:0:0:
297,207,79877,2,0,P|289:258|295:308,1,101.999996887207,2|8,3:0|0:0,0:0:0:0:
469,384,80211,6,0,P|495:304|477:221,1,170,10|2,0:0|3:0,0:0:0:0:
379,298,80711,1,10,0:0:0:0:
379,298,80794,1,8,0:0:0:0:
379,298,80877,1,8,0:0:0:0:
379,298,80961,1,8,0:0:0:0:
379,298,81044,6,0,L|294:308,1,85,6|0,3:2|0:0,0:0:0:0:
120,351,81377,2,0,L|150:228,1,127.5,10|0,0:0|3:0,0:0:0:0:
176,145,81711,1,2,3:0:0:0:
69,197,81877,1,2,3:0:0:0:
207,58,82044,1,10,0:0:0:0:
339,137,82211,6,0,P|258:160|175:144,1,170,2|0,3:0|3:0,0:0:0:0:
410,73,82711,2,0,P|429:110|430:155,1,85,10|2,0:0|0:0,0:0:0:0:
351,266,83044,1,2,3:0:0:0:
339,137,83211,1,2,3:0:0:0:
368,296,83377,2,0,L|461:279,1,85,8|2,0:0|0:0,0:0:0:0:
245,239,83711,6,0,L|61:231,1,170,6|8,3:2|0:0,0:0:0:0:
155,339,84211,1,0,0:0:0:0:
166,144,84377,1,2,3:0:0:0:
75,233,84544,1,0,3:0:0:0:
182,60,84711,2,0,P|176:102|165:143,1,85,8|2,0:0|0:0,0:0:0:0:
73,361,85044,6,0,P|113:347|154:338,1,85,2|0,3:0|3:0,0:0:0:0:
397,342,85377,1,10,0:0:0:0:
324,247,85544,1,0,3:0:0:0:
281,358,85711,1,2,0:0:0:0:
321,210,85877,1,0,3:0:0:0:
419,359,86044,2,0,L|502:342,1,85,10|2,0:0|0:0,0:0:0:0:
481,164,86377,6,0,P|400:189|317:176,1,170,6|10,3:2|0:0,0:0:0:0:
217,111,86877,1,2,0:0:0:0:
317,177,87044,1,2,3:0:0:0:
372,44,87211,1,0,3:0:0:0:
150,40,87377,2,0,P|127:76|118:117,1,85,8|2,0:0|0:0,0:0:0:0:
200,307,87711,5,2,3:0:0:0:
200,307,87877,1,0,3:0:0:0:
97,246,88044,2,0,L|11:265,1,85,10|0,0:0|3:0,0:0:0:0:
282,288,88377,2,0,L|196:307,1,85,2|0,3:0|3:0,0:0:0:0:
463,332,88711,2,0,L|377:351,1,85,10|8,0:0|0:0,0:0:0:0:
380,350,88961,1,8,0:0:0:0:
380,350,89044,5,6,3:2:0:0:
421,238,89211,1,0,3:0:0:0:
240,194,89377,5,10,0:0:0:0:
199,306,89544,1,2,3:0:0:0:
421,238,89711,5,10,0:0:0:0:
380,126,89878,1,8,0:0:0:0:
199,82,90044,5,2,3:2:0:0:
240,194,90211,1,0,3:0:0:0:
332,24,90377,5,14,0:0:0:0:
332,24,90711,2,0,L|392:18,1,50.9999984436036,2|2,0:0|0:0,0:0:0:0:
451,127,91044,2,0,L|298:124,1,152.999995330811,2|2,0:0|0:0,0:0:0:0:
209,125,91711,6,0,P|309:142|408:168,1,203.999993774414,2|0,0:0|0:0,0:0:0:0:
257,308,93377,5,4,3:0:0:0:
257,308,93711,5,8,0:0:0:0:
217,322,93794,1,8,0:0:0:0:
175,322,93877,1,8,0:0:0:0:
136,306,93960,1,8,0:0:0:0:
105,276,94044,2,0,L|92:216,1,42.5,8|0,0:0|3:0,0:0:0:0:
29,177,94211,2,0,L|16:117,1,42.5,0|0,3:0|3:0,0:0:0:0:
68,64,94377,6,0,P|150:71|197:140,1,170,14|0,0:0|3:0,0:0:0:0:
257,308,94877,2,0,L|431:278,1,170,10|0,0:0|3:0,0:0:0:0:
512,96,95377,2,0,L|344:124,1,170,10|0,0:0|3:0,0:0:0:0:
197,140,95877,6,0,L|173:227,1,85,10|0,0:0|3:0,0:0:0:0:
174,221,96211,1,0,3:0:0:0:
447,361,96377,2,0,L|423:274,1,85,10|0,0:0|3:0,0:0:0:0:
354,93,96711,2,0,L|330:180,1,85,10|0,0:0|3:0,0:0:0:0:
189,316,97044,6,0,P|104:317|27:352,1,170,14|0,0:0|3:0,0:0:0:0:
93,163,97544,2,0,P|177:161|254:126,1,170,10|0,0:0|3:0,0:0:0:0:
434,19,98044,2,0,P|496:69|479:155,1,170,10|0,0:0|3:0,0:0:0:0:
325,209,98544,5,10,0:0:0:0:
426,271,98711,1,2,3:0:0:0:
420,102,98877,1,2,3:0:0:0:
283,215,99044,1,10,0:0:0:0:
283,215,99127,1,8,0:0:0:0:
283,215,99211,1,10,0:0:0:0:
283,215,99294,1,8,0:0:0:0:
283,215,99377,1,10,3:0:0:0:
243,230,99460,1,8,3:0:0:0:
201,232,99543,1,6,3:0:0:0:
160,221,99626,1,4,3:0:0:0:
124,199,99711,6,0,L|23:195,1,85,14|0,0:0|3:0,0:0:0:0:
70,310,100044,1,0,3:0:0:0:
262,313,100211,2,0,L|243:230,1,85,10|0,0:0|3:0,0:0:0:0:
202,46,100544,1,0,3:0:0:0:
336,124,100711,2,0,P|369:118|430:97,1,85,10|0,0:0|3:0,0:0:0:0:
417,102,101044,1,0,3:0:0:0:
202,46,101211,6,0,P|169:52|108:73,1,85,10|0,0:0|3:0,0:0:0:0:
26,141,101544,1,0,3:0:0:0:
26,141,101627,1,0,3:0:0:0:
26,141,101711,1,8,0:0:0:0:
186,191,101877,1,0,3:0:0:0:
186,191,101961,1,0,3:0:0:0:
186,191,102044,2,0,L|160:250,1,42.5,8|8,0:0|0:0,0:0:0:0:
218,343,102211,2,0,L|235:304,1,42.5,0|0,3:0|3:0,0:0:0:0:
275,229,102377,6,0,P|359:210|443:200,1,170,6|8,3:2|0:0,0:0:0:0:
294,76,102877,2,0,P|210:94|126:102,1,170,6|8,3:2|0:0,0:0:0:0:
18,65,103377,5,6,3:2:0:0:
256,192,103461,12,10,104877,0:0:0:0:
