osu file format v14

[General]
AudioFilename: audio.mp3
AudioLeadIn: 0
PreviewTime: 45711
Countdown: 0
SampleSet: Soft
StackLeniency: 0.7
Mode: 0
LetterboxInBreaks: 0
WidescreenStoryboard: 0

[Editor]
DistanceSpacing: 1.5
BeatDivisor: 4
GridSize: 4
TimelineZoom: 2.3

[Metadata]
Title:Kuchiba Iro no Oto
TitleUnicode:朽葉色の音
Artist:halca
ArtistUnicode:halca
Creator:Laurier
Version:CrystLer
Source:
Tags:japanese pop 助丸
BeatmapID:2180328
BeatmapSetID:1043158

[Difficulty]
HPDrainRate:6.5
CircleSize:4.3
OverallDifficulty:8
ApproachRate:9.4
SliderMultiplier:1.9
SliderTickRate:1

[Events]
//Background and Video events
0,0,"5d034277d0d3f.jpg",0,0
//Break Periods
//Storyboard Layer 0 (Background)
//Storyboard Layer 1 (Fail)
//Storyboard Layer 2 (Pass)
//Storyboard Layer 3 (Foreground)
//Storyboard Layer 4 (Overlay)
//Storyboard Sound Samples

[TimingPoints]
-1622,333.333333333333,4,2,3,60,1,0
10044,-142.857142857143,4,2,3,60,0,0
10544,-100,4,2,3,60,0,0
11711,-500,4,2,3,40,0,0
11794,-500,4,2,3,20,0,0
14711,-142.857142857143,4,2,3,40,0,0
23377,-142.857142857143,4,2,3,50,0,0
23544,-100,4,2,3,60,0,0
43377,-100,4,2,3,40,0,0
43711,-166.666666666667,4,2,3,50,0,0
45544,-166.666666666667,4,2,3,50,0,0
46211,-100,4,2,3,60,0,0
55544,-83.3333333333333,4,2,3,60,0,0
56211,-100,4,2,3,60,0,0
70211,-125,4,2,3,60,0,0
70711,-100,4,2,3,60,0,0
79544,-83.3333333333333,4,2,3,60,0,0
80211,-100,4,2,3,60,0,0
90711,-166.666666666667,4,2,3,30,0,0
91711,-333.333333333333,4,2,3,30,0,0
91794,-333.333333333333,4,2,3,5,0,0
93044,-333.333333333333,4,2,3,10,0,0
93377,-333.333333333333,4,2,3,40,0,0
93711,-100,4,2,3,60,0,0
103377,-142.857142857143,4,2,3,60,0,0

[Colours]
Combo1 : 255,255,187
Combo2 : 191,255,191
Combo3 : 204,204,255
Combo4 : 255,200,255

[HitObjects]
382,181,377,6,0,L|330:196,1,47.5,8|0,0:0|3:0,0:0:0:0:
46,154,544,2,0,L|91:140,1,47.5,0|0,3:0|3:0,0:0:0:0:
301,95,711,1,8,0:0:0:0:
254,100,794,1,0,3:0:0:0:
216,127,877,1,0,3:0:0:0:
196,170,960,1,0,3:0:0:0:
200,217,1044,6,0,P|220:174|217:127,1,95,14|0,0:0|3:0,0:0:0:0:
77,304,1377,1,0,3:0:0:0:
311,238,1544,6,0,P|353:217|381:180,1,95,10|0,0:0|3:0,0:0:0:0:
77,304,1877,1,0,3:0:0:0:
231,345,2044,6,0,L|224:250,1,95,10|0,0:0|3:0,0:0:0:0:
77,304,2377,1,0,3:0:0:0:
381,180,2544,6,0,L|374:85,1,95,10|0,0:0|3:0,0:0:0:0:
481,119,2877,1,0,3:0:0:0:
217,128,3044,6,0,P|169:124|126:105,1,95,10|0,0:0|3:0,0:0:0:0:
8,35,3377,2,0,L|15:85,1,47.5,10|0,0:0|0:0,0:0:0:0:
42,205,3544,2,0,L|73:169,1,47.5,0|0,3:0|3:0,0:0:0:0:
188,44,3711,5,14,0:0:0:0:
99,325,3877,1,0,3:0:0:0:
42,205,4044,1,0,3:0:0:0:
288,255,4211,1,10,0:0:0:0:
117,376,4377,2,0,L|136:280,1,95,0|0,3:0|3:0,0:0:0:0:
194,10,4711,1,10,0:0:0:0:
344,109,4877,1,0,3:0:0:0:
233,169,5044,5,0,3:0:0:0:
412,38,5211,1,10,0:0:0:0:
329,298,5377,1,2,3:0:0:0:
236,130,5544,1,2,3:0:0:0:
365,303,5711,5,10,0:0:0:0:
87,191,5877,1,10,0:0:0:0:
369,102,6044,1,10,0:0:0:0:
342,126,6127,1,8,0:0:0:0:
308,140,6210,1,10,0:0:0:0:
271,142,6293,1,8,0:0:0:0:
236,130,6377,6,0,P|209:53|290:56,1,190,14|0,0:0|3:0,0:0:0:0:
249,237,6877,2,0,L|229:329,1,95,10|0,0:0|3:0,0:0:0:0:
229,329,7211,1,0,3:0:0:0:
290,56,7377,5,10,0:0:0:0:
385,208,7544,2,0,L|476:183,1,95,0|0,3:0|3:0,0:0:0:0:
103,188,7877,5,10,0:0:0:0:
193,345,8044,2,0,L|212:252,1,95,0|0,3:0|3:0,0:0:0:0:
249,237,8294,1,0,3:0:0:0:
249,237,8377,1,10,0:0:0:0:
48,315,8544,1,0,3:0:0:0:
117,35,8711,1,10,0:0:0:0:
148,69,8794,1,8,0:0:0:0:
157,115,8877,1,8,3:0:0:0:
140,159,8961,1,4,3:0:0:0:
103,188,9044,5,14,0:0:0:0:
147,357,9211,1,8,0:0:0:0:
170,351,9294,1,8,0:0:0:0:
193,345,9377,1,8,0:0:0:0:
68,108,9544,5,6,3:2:0:0:
249,237,9711,1,8,0:0:0:0:
261,217,9794,1,8,0:0:0:0:
273,196,9877,1,8,0:0:0:0:
272,43,10044,6,0,L|283:175,1,132.999995941162,6|8,3:2|0:0,0:0:0:0:
387,329,10544,6,0,L|334:352,1,47.5,8|8,0:0|0:0,0:0:0:0:
311,333,10711,1,8,0:0:0:0:
85,96,10877,6,0,L|138:119,1,47.5,8|8,0:0|0:0,0:0:0:0:
170,189,11044,6,0,L|111:208,1,47.5,0|0,3:0|3:0,0:0:0:0:
25,325,11211,6,0,L|70:310,1,47.5,0|0,3:0|3:0,0:0:0:0:
217,204,11377,6,0,L|158:223,1,47.5,8|8,3:0|3:0,0:0:0:0:
66,342,11544,6,0,L|111:327,1,47.5,4|4,3:0|3:0,0:0:0:0:
247,227,11711,6,0,P|364:147|477:234,1,304,4|0,0:0|0:0,0:0:0:0:
349,317,14711,6,0,L|358:250,1,66.4999979705811,2|2,0:0|0:0,0:0:0:0:
381,52,15044,1,2,0:0:0:0:
442,131,15211,1,2,0:0:0:0:
403,16,15377,2,0,P|373:27|340:31,1,66.4999979705811,2|2,0:0|0:0,0:0:0:0:
17,34,15711,6,0,P|83:25|142:52,1,132.999995941162,2|2,0:0|0:0,0:0:0:0:
326,245,16211,2,0,L|216:324,1,132.999995941162,2|2,0:0|0:0,0:0:0:0:
81,186,16711,2,0,L|73:119,1,66.4999979705811,0|2,0:0|0:0,0:0:0:0:
183,142,17044,5,0,0:0:0:0:
99,286,17211,1,0,0:0:0:0:
274,284,17377,2,0,P|306:277|339:277,1,66.4999979705811,2|0,0:0|0:0,0:0:0:0:
475,317,17711,1,0,0:0:0:0:
475,317,17877,1,0,0:0:0:0:
415,114,18044,1,2,0:0:0:0:
339,179,18211,1,2,0:0:0:0:
500,131,18377,6,0,P|497:97|487:66,1,66.4999979705811,0|0,0:0|0:0,0:0:0:0:
301,89,18711,2,0,P|273:107|250:131,1,66.4999979705811,2|0,0:0|0:0,0:0:0:0:
339,277,19044,2,0,P|368:291|401:298,1,66.4999979705811,0|0,0:0|0:0,0:0:0:0:
402,177,19377,1,2,0:0:0:0:
402,177,19544,1,2,0:0:0:0:
168,336,19711,6,0,P|103:329|57:283,1,132.999995941162,2|2,0:0|0:0,0:0:0:0:
169,111,20211,2,0,L|141:267,1,132.999995941162,2|2,0:0|0:0,0:0:0:0:
48,149,20711,1,0,0:0:0:0:
368,132,20877,6,0,L|511:97,1,132.999995941162,2|0,0:0|0:0,0:0:0:0:
331,34,21377,2,0,L|253:52,1,66.4999979705811,2|0,0:0|0:0,0:0:0:0:
232,270,21711,2,0,L|296:255,1,66.4999979705811,0|0,0:0|0:0,0:0:0:0:
396,237,22044,1,2,0:0:0:0:
310,184,22211,1,2,0:0:0:0:
225,303,22377,6,0,P|158:295|92:291,1,132.999995941162,2|2,0:0|0:0,0:0:0:0:
5,222,22877,2,0,P|9:189|9:155,1,66.4999979705811,2|2,0:0|0:0,0:0:0:0:
100,86,23211,2,0,P|132:90|166:90,1,66.4999979705811,2|8,0:0|0:0,0:0:0:0:
489,40,23544,6,0,P|396:34|329:98,1,190,12|8,0:0|0:0,0:0:0:0:
409,239,24044,1,0,3:0:0:0:
267,317,24211,1,8,3:0:0:0:
326,130,24377,1,4,3:0:0:0:
477,293,24544,1,0,3:0:0:0:
441,323,24627,1,0,3:0:0:0:
393,328,24711,2,0,L|294:320,1,95,8|0,0:0|0:0,0:0:0:0:
33,227,25044,6,0,L|172:195,1,142.5,4|0,3:2|0:0,0:0:0:0:
210,210,25377,1,10,0:0:0:0:
179,70,25544,1,2,0:0:0:0:
179,70,25627,1,0,0:0:0:0:
179,70,25711,1,2,3:0:0:0:
39,45,25877,1,2,3:0:0:0:
192,303,26044,2,0,L|211:204,1,95,10|2,0:0|3:0,0:0:0:0:
33,227,26377,5,2,0:0:0:0:
121,118,26544,1,0,3:0:0:0:
295,275,26711,1,10,0:0:0:0:
470,191,26877,1,2,0:0:0:0:
470,191,26961,1,0,0:0:0:0:
470,191,27044,1,0,3:0:0:0:
395,132,27211,1,2,3:0:0:0:
269,363,27377,2,0,P|316:363|360:345,1,95,8|2,0:0|0:0,0:0:0:0:
346,43,27711,6,0,P|302:97|301:167,1,142.5,0|0,3:0|0:0,0:0:0:0:
326,202,28044,1,8,0:0:0:0:
462,301,28211,1,0,0:0:0:0:
462,301,28294,1,0,0:0:0:0:
462,301,28377,1,0,3:0:0:0:
395,132,28544,1,2,3:0:0:0:
79,184,28711,1,10,0:0:0:0:
142,280,28877,6,0,P|186:226|187:156,1,142.5,2|0,3:0|0:0,0:0:0:0:
165,118,29211,1,0,3:0:0:0:
136,381,29377,2,0,P|182:363|221:335,1,95,10|0,0:0|0:0,0:0:0:0:
79,184,29711,1,2,3:0:0:0:
394,189,29877,1,2,3:0:0:0:
272,155,30044,2,0,L|274:250,1,95,10|2,0:0|0:0,0:0:0:0:
327,57,30377,6,0,P|234:56|164:117,1,190,2|10,3:0|0:0,0:0:0:0:
274,250,30877,1,2,0:0:0:0:
274,250,30961,1,0,0:0:0:0:
274,250,31044,1,2,3:0:0:0:
369,160,31211,1,2,3:0:0:0:
274,355,31377,1,10,0:0:0:0:
85,275,31544,6,0,L|274:250,1,190,2|0,3:0|3:0,0:0:0:0:
507,224,32044,1,10,0:0:0:0:
375,123,32211,1,2,0:0:0:0:
402,319,32377,1,0,3:0:0:0:
377,89,32544,1,2,3:0:0:0:
273,249,32711,1,8,0:0:0:0:
377,60,32877,1,2,0:0:0:0:
377,89,32961,1,2,0:0:0:0:
375,123,33044,6,0,L|229:97,1,142.5,4|0,3:2|0:0,0:0:0:0:
165,137,33377,1,10,0:0:0:0:
261,342,33544,2,0,P|274:297|274:250,1,95,2|0,0:0|3:0,0:0:0:0:
166,54,33877,2,0,L|66:75,1,95,2|8,3:0|0:0,0:0:0:0:
177,238,34211,6,0,L|366:257,1,190,6|0,3:2|3:0,0:0:0:0:
337,25,34711,2,0,P|313:66|304:112,1,95,10|0,0:0|3:0,0:0:0:0:
325,352,35044,1,10,0:0:0:0:
325,352,35127,1,8,0:0:0:0:
325,352,35211,1,2,3:0:0:0:
435,190,35377,1,10,0:0:0:0:
388,179,35461,1,0,3:0:0:0:
342,187,35543,1,0,3:0:0:0:
301,211,35627,1,0,3:0:0:0:
272,248,35711,6,0,L|177:239,1,95,12|0,0:0|3:0,0:0:0:0:
63,153,36044,1,0,3:0:0:0:
292,44,36211,2,0,L|387:53,1,95,8|0,0:0|3:0,0:0:0:0:
486,154,36544,1,0,3:0:0:0:
245,143,36711,1,12,0:0:0:0:
347,241,36877,1,0,3:0:0:0:
292,44,37044,1,0,3:0:0:0:
183,295,37211,5,10,0:0:0:0:
183,295,37377,1,2,3:0:0:0:
311,231,37544,1,2,3:0:0:0:
37,125,37711,1,10,0:0:0:0:
175,156,37877,1,2,3:0:0:0:
58,239,38044,1,10,0:0:0:0:
58,239,38127,1,0,3:0:0:0:
58,239,38211,1,0,3:0:0:0:
58,239,38294,1,0,3:0:0:0:
58,239,38377,5,12,0:0:0:0:
130,56,38544,1,0,3:0:0:0:
175,156,38711,1,0,3:0:0:0:
21,28,38877,5,8,0:0:0:0:
221,71,39044,1,0,3:0:0:0:
90,129,39211,1,0,3:0:0:0:
345,124,39377,5,12,0:0:0:0:
233,35,39544,1,0,3:0:0:0:
272,259,39711,1,0,3:0:0:0:
372,88,39877,5,10,0:0:0:0:
419,222,40044,1,2,3:0:0:0:
372,44,40211,1,2,3:0:0:0:
372,88,40294,1,0,3:0:0:0:
372,121,40377,1,10,0:0:0:0:
377,341,40544,1,10,0:0:0:0:
408,332,40627,1,8,0:0:0:0:
440,323,40711,6,0,L|393:311,1,47.5,2|0,3:0|3:0,0:0:0:0:
121,289,40877,2,0,P|105:309|91:338,1,47.5,0|0,3:0|3:0,0:0:0:0:
244,316,41044,6,0,L|228:222,1,95,12|0,0:0|3:0,0:0:0:0:
121,289,41377,1,0,3:0:0:0:
348,238,41544,2,0,L|332:144,1,95,8|0,0:0|3:0,0:0:0:0:
121,289,41877,1,0,3:0:0:0:
15,112,42044,2,0,P|61:125|109:125,1,95,12|0,0:0|3:0,0:0:0:0:
227,46,42377,5,0,3:0:0:0:
121,289,42544,1,10,0:0:0:0:
376,191,42711,1,2,3:0:0:0:
109,125,42877,1,2,3:0:0:0:
217,217,43044,1,10,0:0:0:0:
310,108,43211,1,10,0:0:0:0:
255,362,43377,1,10,0:0:0:0:
255,362,43461,1,8,0:0:0:0:
255,362,43544,1,2,3:0:0:0:
255,362,43627,1,0,3:0:0:0:
255,362,43711,6,0,L|380:334,1,113.999996520996,2|2,0:0|0:0,0:0:0:0:
474,289,44211,2,0,L|461:351,1,56.9999982604981,2|0,0:0|0:0,0:0:0:0:
388,247,44544,2,0,L|375:185,1,56.9999982604981,2|0,0:0|0:0,0:0:0:0:
415,115,44877,1,2,0:0:0:0:
499,233,45044,6,0,P|443:247|387:246,1,113.999996520996,2|0,0:0|0:0,0:0:0:0:
110,193,45544,1,0,3:0:0:0:
110,193,45627,1,0,3:0:0:0:
110,193,45711,1,10,0:0:0:0:
499,233,45877,1,10,0:0:0:0:
26,127,46211,6,0,P|2:216|54:292,1,190,14|0,0:0|3:0,0:0:0:0:
217,286,46711,2,0,L|310:269,1,95,8|0,0:0|0:0,0:0:0:0:
386,288,46961,1,0,3:0:0:0:
386,288,47044,1,2,3:0:0:0:
304,132,47211,1,2,3:0:0:0:
512,230,47377,2,0,L|488:121,1,95,10|2,0:0|0:0,0:0:0:0:
332,4,47711,6,0,L|311:96,1,95,0|0,3:0|3:0,0:0:0:0:
468,322,48044,2,0,P|419:306|331:351,1,142.5,8|0,0:0|0:0,0:0:0:0:
254,350,48377,2,0,L|138:341,1,95,2|2,3:0|3:0,0:0:0:0:
58,137,48711,1,10,0:0:0:0:
87,227,48877,6,0,P|146:158|119:72,1,190,2|0,3:0|3:0,0:0:0:0:
294,266,49377,2,0,P|265:303|252:351,1,95,8|0,0:0|0:0,0:0:0:0:
338,340,49711,1,2,3:0:0:0:
87,227,49877,1,2,3:0:0:0:
252,11,50044,1,8,0:0:0:0:
335,126,50211,1,2,0:0:0:0:
119,72,50377,5,0,3:0:0:0:
253,349,50544,1,2,3:0:0:0:
332,163,50711,1,8,0:0:0:0:
87,227,50877,2,0,L|181:215,1,95,2|0,0:0|3:0,0:0:0:0:
330,196,51211,1,10,0:0:0:0:
148,88,51377,1,8,0:0:0:0:
320,315,51544,6,0,L|335:119,1,190,6|0,3:2|3:0,0:0:0:0:
185,0,52044,2,0,P|137:0|91:11,1,95,8|0,0:0|0:0,0:0:0:0:
87,227,52377,1,2,3:0:0:0:
148,88,52544,1,2,3:0:0:0:
217,356,52711,1,10,0:0:0:0:
87,227,52877,6,0,P|179:205|273:194,1,190,2|0,3:0|3:0,0:0:0:0:
496,337,53377,2,0,P|449:345|401:349,1,95,8|0,0:0|0:0,0:0:0:0:
312,107,53711,1,2,3:0:0:0:
244,273,53877,1,2,3:0:0:0:
436,253,54044,1,10,0:0:0:0:
371,44,54211,6,0,P|304:25|243:59,1,142.5,6|0,3:2|0:0,0:0:0:0:
203,133,54544,2,0,L|94:122,1,95,2|8,3:0|0:0,0:0:0:0:
29,254,54877,1,2,0:0:0:0:
29,254,54961,1,0,3:0:0:0:
29,254,55044,1,0,3:0:0:0:
132,321,55211,1,2,3:0:0:0:
108,123,55377,1,8,0:0:0:0:
132,321,55544,6,0,B|192:327|244:338|244:338|293:308,1,170.999994781494,6|0,3:2|0:0,0:0:0:0:
350,257,55877,2,0,P|342:201|300:166,1,113.999996520996,2|8,3:0|0:0,0:0:0:0:
299,165,56211,6,0,P|349:241|294:308,1,190,6|2,3:2|3:0,0:0:0:0:
92,185,56711,1,10,0:0:0:0:
59,177,56794,1,8,0:0:0:0:
27,170,56877,1,8,0:0:0:0:
0,162,56961,1,8,0:0:0:0:
7,137,57044,6,0,P|21:92|15:45,1,95,4|0,3:2|0:0,0:0:0:0:
74,271,57377,2,0,P|67:317|82:362,1,95,10|0,0:0|0:0,0:0:0:0:
270,245,57711,1,2,3:0:0:0:
145,306,57877,1,2,3:0:0:0:
221,46,58044,1,10,0:0:0:0:
188,149,58211,6,0,L|281:133,1,95,2|0,3:0|0:0,0:0:0:0:
221,46,58544,1,0,3:0:0:0:
433,120,58711,2,0,L|410:218,1,95,10|2,0:0|0:0,0:0:0:0:
170,269,59044,1,2,3:0:0:0:
364,289,59211,1,2,3:0:0:0:
102,366,59377,1,8,0:0:0:0:
268,226,59544,1,2,0:0:0:0:
427,364,59711,6,0,P|336:373|270:309,1,190,2|8,3:0|0:0,0:0:0:0:
275,194,60211,2,0,L|283:147,1,47.5,0|0,0:0|3:0,0:0:0:0:
295,75,60377,1,2,3:0:0:0:
166,182,60544,1,2,3:0:0:0:
364,289,60711,1,8,0:0:0:0:
295,75,60877,1,2,0:0:0:0:
295,75,60961,1,0,0:0:0:0:
295,74,61044,6,0,P|248:86|202:90,1,95,0|0,3:0|3:0,0:0:0:0:
77,268,61377,2,0,P|124:271|170:283,1,95,8|0,0:0|3:0,0:0:0:0:
332,341,61711,1,2,0:0:0:0:
245,194,61877,1,2,3:0:0:0:
437,209,62044,1,10,0:0:0:0:
250,40,62211,1,2,0:0:0:0:
385,25,62377,6,0,L|359:116,1,95,6|0,3:2|3:0,0:0:0:0:
250,40,62711,1,8,0:0:0:0:
250,40,62794,1,0,0:0:0:0:
250,40,62877,1,0,0:0:0:0:
343,204,63044,1,0,3:0:0:0:
470,90,63211,1,0,3:0:0:0:
377,341,63377,1,10,0:0:0:0:
437,209,63544,6,0,P|390:201|343:205,1,95,2|0,0:0|3:0,0:0:0:0:
24,282,63877,1,2,3:0:0:0:
166,349,64044,2,0,L|183:255,1,95,8|2,0:0|0:0,0:0:0:0:
154,31,64377,1,2,3:0:0:0:
53,145,64544,1,2,3:0:0:0:
346,84,64711,1,10,0:0:0:0:
346,84,64794,1,10,0:0:0:0:
346,84,64877,1,2,3:0:0:0:
161,69,65044,5,6,3:2:0:0:
276,321,65211,1,8,0:0:0:0:
276,321,65294,1,8,0:0:0:0:
276,321,65377,1,8,0:0:0:0:
50,63,65544,5,6,3:2:0:0:
316,195,65711,1,8,0:0:0:0:
342,185,65794,1,8,0:0:0:0:
368,175,65877,1,8,0:0:0:0:
64,242,66044,2,0,B|108:264|205:236|205:236|161:208,1,190,6|4,3:2|3:0,0:0:0:0:
108,119,66544,6,0,L|162:126,1,47.5,2|0,3:0|0:0,0:0:0:0:
234,88,66711,1,8,0:0:0:0:
386,145,66877,1,0,3:0:0:0:
386,145,66960,1,0,3:0:0:0:
386,145,67044,2,0,L|376:204,1,47.5,10|8,0:0|0:0,0:0:0:0:
239,280,67211,2,0,L|246:233,1,47.5,10|8,0:0|0:0,0:0:0:0:
358,303,67377,2,0,L|350:349,1,47.5,8|4,3:0|3:0,0:0:0:0:
255,362,67544,6,0,L|290:168,1,190,6|0,3:2|3:0,0:0:0:0:
117,35,68044,2,0,P|69:34|25:50,1,95,10|2,0:0|3:0,0:0:0:0:
112,219,68377,2,0,P|135:260|171:290,1,95,8|0,0:0|3:0,0:0:0:0:
310,154,68711,2,0,P|333:113|342:66,1,95,10|2,0:0|3:0,0:0:0:0:
442,330,69044,5,10,0:0:0:0:
394,309,69127,1,2,0:0:0:0:
342,309,69210,1,0,3:0:0:0:
293,327,69293,1,0,3:0:0:0:
255,362,69377,1,10,0:0:0:0:
32,307,69544,1,0,3:0:0:0:
32,307,69627,1,0,3:0:0:0:
32,307,69711,1,10,0:0:0:0:
187,127,69877,1,10,0:0:0:0:
186,126,70211,6,0,P|113:118|51:161,1,152,14|0,0:0|3:0,0:0:0:0:
51,161,70627,1,0,0:0:0:0:
51,161,70711,6,0,L|59:63,1,95,14|0,0:0|0:0,0:0:0:0:
397,129,71044,1,2,3:0:0:0:
284,282,71211,1,2,3:0:0:0:
168,40,71377,2,0,L|262:31,1,95,10|2,0:0|0:0,0:0:0:0:
505,261,71711,6,0,L|411:270,1,95,0|0,3:0|3:0,0:0:0:0:
109,148,72044,2,0,L|203:139,1,95,8|0,0:0|0:0,0:0:0:0:
393,125,72377,1,2,3:0:0:0:
189,274,72544,1,2,3:0:0:0:
262,30,72711,1,10,0:0:0:0:
166,381,72877,6,0,B|142:247|142:247|189:274,1,190,2|0,3:0|3:0,0:0:0:0:
453,363,73377,2,0,L|357:346,1,95,8|0,0:0|0:0,0:0:0:0:
155,324,73711,1,2,3:0:0:0:
362,208,73877,2,0,P|409:202|455:191,1,95,2|8,3:0|0:0,0:0:0:0:
392,57,74211,1,2,0:0:0:0:
392,57,74294,1,0,0:0:0:0:
392,57,74377,5,0,3:0:0:0:
163,133,74544,2,0,L|110:130,1,47.5,2|0,3:0|0:0,0:0:0:0:
20,122,74711,1,8,0:0:0:0:
206,55,74877,1,2,0:0:0:0:
68,257,75044,1,0,3:0:0:0:
79,13,75211,5,10,0:0:0:0:
174,336,75377,1,8,0:0:0:0:
408,195,75544,6,0,L|220:226,1,190,6|0,3:2|3:0,0:0:0:0:
440,373,76044,2,0,P|450:326|442:280,1,95,8|0,0:0|0:0,0:0:0:0:
306,7,76377,2,0,P|296:53|304:99,1,95,2|2,3:0|3:0,0:0:0:0:
408,195,76711,1,10,0:0:0:0:
33,256,76877,6,0,L|221:225,1,190,2|0,3:0|3:0,0:0:0:0:
408,195,77377,1,8,0:0:0:0:
278,334,77544,1,0,0:0:0:0:
446,113,77711,5,2,3:0:0:0:
497,295,77877,1,2,3:0:0:0:
312,248,78044,1,10,0:0:0:0:
464,23,78211,6,0,L|434:177,1,142.5,6|0,3:2|0:0,0:0:0:0:
420,237,78544,1,2,3:0:0:0:
321,86,78711,1,8,0:0:0:0:
224,190,78877,1,2,0:0:0:0:
224,190,78961,1,0,3:0:0:0:
224,190,79044,2,0,L|118:178,1,95,0|2,3:0|3:0,0:0:0:0:
257,342,79377,1,8,0:0:0:0:
83,101,79544,6,0,P|39:171|68:248,1,170.999994781494,6|0,3:2|0:0,0:0:0:0:
137,275,79877,2,0,L|204:183,1,113.999996520996,2|8,3:0|0:0,0:0:0:0:
205,183,80211,6,2,B|137:276|137:276|99:255|54:245,1,190,10|2,0:0|3:0,0:0:0:0:
291,271,80711,1,10,0:0:0:0:
324,268,80794,1,8,0:0:0:0:
357,265,80877,1,8,0:0:0:0:
390,263,80960,1,8,0:0:0:0:
423,260,81044,6,0,L|442:354,1,95,6|0,3:2|0:0,0:0:0:0:
345,150,81377,2,0,B|388:29|388:29|429:74,1,190,10|2,0:0|3:0,0:0:0:0:
494,144,81877,1,2,3:0:0:0:
276,55,82044,1,10,0:0:0:0:
329,245,82211,6,0,P|238:237|170:299,1,190,2|0,3:0|3:0,0:0:0:0:
170,299,82711,1,10,0:0:0:0:
377,349,82877,1,2,0:0:0:0:
112,210,83044,2,0,P|80:246|68:291,1,95,2|2,3:0|3:0,0:0:0:0:
147,377,83377,1,8,0:0:0:0:
29,133,83544,1,2,0:0:0:0:
76,266,83711,6,0,P|146:276|212:250,1,142.5,6|0,3:2|0:0,0:0:0:0:
176,171,84044,1,8,0:0:0:0:
354,173,84211,1,0,0:0:0:0:
234,44,84377,2,0,L|252:108,1,47.5,2|0,3:0|0:0,0:0:0:0:
354,173,84544,2,0,L|372:109,1,47.5,0|2,3:0|0:0,0:0:0:0:
390,49,84711,1,8,0:0:0:0:
466,291,84877,1,2,0:0:0:0:
176,171,85044,5,2,3:0:0:0:
312,293,85211,1,0,3:0:0:0:
48,174,85377,5,10,0:0:0:0:
246,89,85544,1,0,3:0:0:0:
114,274,85711,5,2,0:0:0:0:
50,134,85877,1,0,3:0:0:0:
65,349,86044,1,10,0:0:0:0:
96,357,86127,1,2,0:0:0:0:
130,355,86210,1,2,0:0:0:0:
160,343,86293,1,2,0:0:0:0:
185,321,86377,6,0,L|204:228,1,95,6|0,3:2|3:0,0:0:0:0:
188,150,86627,1,2,0:0:0:0:
187,149,86711,2,0,P|232:163|279:168,1,95,10|2,0:0|0:0,0:0:0:0:
491,95,87044,1,2,3:0:0:0:
355,235,87211,1,0,3:0:0:0:
379,33,87377,1,8,0:0:0:0:
468,320,87544,1,2,0:0:0:0:
265,284,87711,5,2,3:0:0:0:
265,284,87877,1,0,3:0:0:0:
491,95,88044,2,0,L|475:188,1,95,10|0,0:0|3:0,0:0:0:0:
265,284,88377,2,0,L|171:268,1,95,2|0,3:0|3:0,0:0:0:0:
81,50,88711,2,0,L|174:65,1,95,10|8,0:0|0:0,0:0:0:0:
242,113,88961,1,8,0:0:0:0:
241,113,89044,6,0,P|287:99|334:92,1,95,6|0,3:2|3:0,0:0:0:0:
473,249,89377,2,0,P|462:295|444:339,1,95,10|2,0:0|3:0,0:0:0:0:
235,337,89711,2,0,P|200:304|171:267,1,95,10|8,0:0|0:0,0:0:0:0:
73,81,90044,1,2,3:2:0:0:
12,304,90211,1,0,3:0:0:0:
310,229,90377,5,14,0:0:0:0:
310,229,90711,6,0,L|385:213,1,56.9999982604981,2|2,0:0|0:0,0:0:0:0:
434,172,91044,2,0,P|350:186|267:167,1,170.999994781494,2|2,0:0|0:0,0:0:0:0:
207,86,91711,6,0,P|269:175|222:276,1,227.999993041992,2|0,0:0|0:0,0:0:0:0:
165,185,93377,5,4,3:0:0:0:
165,185,93711,2,0,L|92:208,1,47.5,8|8,0:0|0:0,0:0:0:0:
207,86,93877,2,0,L|252:71,1,47.5,8|8,0:0|0:0,0:0:0:0:
414,39,94044,1,8,0:0:0:0:
436,81,94127,1,0,3:0:0:0:
441,128,94210,1,0,3:0:0:0:
429,174,94293,1,0,3:0:0:0:
402,212,94377,6,0,L|296:205,1,95,14|0,0:0|3:0,0:0:0:0:
82,329,94711,1,0,3:0:0:0:
339,353,94877,1,10,0:0:0:0:
214,134,95044,2,0,L|184:224,1,95,0|0,3:0|3:0,0:0:0:0:
52,166,95377,1,10,0:0:0:0:
414,39,95544,2,0,L|383:128,1,95,0|0,3:0|3:0,0:0:0:0:
214,134,95877,5,10,0:0:0:0:
465,241,96044,2,0,L|434:330,1,95,0|0,3:0|3:0,0:0:0:0:
164,320,96377,2,0,P|211:315|258:313,1,95,10|0,0:0|3:0,0:0:0:0:
383,128,96711,2,0,P|335:132|288:134,1,95,10|0,0:0|3:0,0:0:0:0:
20,78,97044,5,14,0:0:0:0:
151,23,97211,2,0,P|156:71|158:118,1,95,0|0,3:0|3:0,0:0:0:0:
8,375,97544,2,0,P|72:309|163:319,1,190,10|0,0:0|3:0,0:0:0:0:
414,361,98044,1,10,0:0:0:0:
277,193,98211,2,0,L|292:296,1,95,0|0,3:0|3:0,0:0:0:0:
408,125,98544,5,10,0:0:0:0:
291,287,98711,1,2,3:0:0:0:
314,33,98877,1,2,3:0:0:0:
509,138,99044,1,10,0:0:0:0:
486,179,99127,1,8,0:0:0:0:
449,208,99210,1,10,0:0:0:0:
403,220,99293,1,8,0:0:0:0:
356,214,99377,2,0,L|314:258,1,47.5,10|8,3:0|3:0,0:0:0:0:
69,306,99544,2,0,L|102:272,1,47.5,6|4,3:0|3:0,0:0:0:0:
184,206,99711,5,14,0:0:0:0:
361,330,99877,2,0,P|313:333|269:316,1,95,0|0,3:0|3:0,0:0:0:0:
184,206,100211,5,10,0:0:0:0:
266,5,100377,2,0,P|292:44|299:90,1,95,0|0,3:0|3:0,0:0:0:0:
184,206,100711,5,10,0:0:0:0:
11,378,100877,2,0,P|31:335|68:305,1,95,0|0,3:0|3:0,0:0:0:0:
184,206,101211,5,10,0:0:0:0:
184,206,101377,2,0,L|83:196,1,95,0|0,3:0|3:0,0:0:0:0:
28,141,101627,1,0,3:0:0:0:
28,141,101711,2,0,L|122:150,1,95,8|0,0:0|3:0,0:0:0:0:
473,164,102044,1,8,0:0:0:0:
434,191,102127,1,8,0:0:0:0:
388,199,102210,1,0,3:0:0:0:
342,188,102293,1,0,3:0:0:0:
305,159,102377,5,6,3:2:0:0:
243,290,102544,1,8,0:0:0:0:
243,290,102627,1,8,0:0:0:0:
243,290,102710,1,8,0:0:0:0:
396,102,102877,1,6,3:2:0:0:
409,346,103044,1,8,0:0:0:0:
409,346,103127,1,8,0:0:0:0:
409,346,103211,1,8,0:0:0:0:
243,290,103377,6,0,L|77:272,1,166.249994926453,6|0,3:2|0:0,0:0:0:0:
6,312,103877,5,8,0:0:0:0:
181,71,104044,1,8,0:0:0:0:
243,290,104211,1,8,0:0:0:0:
77,126,104377,5,8,0:0:0:0:
369,69,104544,1,8,0:0:0:0:
138,370,104711,1,8,0:0:0:0:
210,181,104877,5,10,0:0:0:0:
