osu file format v14

[General]
AudioFilename: audio.mp3
AudioLeadIn: 0
PreviewTime: 51384
Countdown: 0
SampleSet: Soft
StackLeniency: 0.7
Mode: 0
LetterboxInBreaks: 0
WidescreenStoryboard: 1

[Editor]
DistanceSpacing: 1
BeatDivisor: 4
GridSize: 32
TimelineZoom: 1.9

[Metadata]
Title:Kokuhaku Bungee Jumping (TV Size)
TitleUnicode:告白バンジージャンプ (TV Size)
Artist:halca
ArtistUnicode:halca
Creator:-[Shady]-
Version:Normal
Source:彼女、お借りします
Tags:Kanojo, Okarishimasu Rent-A-Girlfriend Kanokari TMS Entertainment anime japanese ed ending 前山田健一 Kenichi Maeyamada 板垣祐介 Yuusuke Itagaki Amateurre
BeatmapID:2489446
BeatmapSetID:1193921

[Difficulty]
HPDrainRate:4
CircleSize:3
OverallDifficulty:4
ApproachRate:5
SliderMultiplier:1.1
SliderTickRate:1

[Events]
//Background and Video events
0,0,"Kanokari 2.jpg",0,0
//Break Periods
2,47087,49579
//Storyboard Layer 0 (Background)
//Storyboard Layer 1 (Fail)
//Storyboard Layer 2 (Pass)
//Storyboard Layer 3 (Foreground)
//Storyboard Layer 4 (Overlay)
//Storyboard Sound Samples

[TimingPoints]
185,324.324324324324,4,2,1,70,1,0
10563,-100,4,2,1,55,0,0
13157,-100,4,2,1,60,0,0
20941,-100,4,2,1,55,0,0
23536,-100,4,2,1,60,0,0
26130,-100,4,2,1,55,0,0
39103,-100,4,2,1,65,0,0
42347,-100,4,2,1,60,0,0
42995,-100,4,2,1,65,0,0
43644,-100,4,2,1,60,0,0
44293,-100,4,2,1,65,0,0
46887,-100,4,2,1,50,0,0
51428,-100,4,2,1,5,0,0
51590,-100,4,2,1,50,0,0
52076,-100,4,2,1,70,0,0
54347,-100,4,2,1,90,0,0
54671,-90.9090909090909,4,2,1,85,0,1
59212,-100,4,2,1,70,0,0
59860,-90.9090909090909,4,2,1,85,0,1
69590,-100,4,2,1,70,0,0
70239,-90.9090909090909,4,2,1,85,0,1
74779,-100,4,2,1,80,0,0
75428,-100,4,2,1,60,0,0
75752,-100,4,2,1,70,0,0
83212,-90.9090909090909,4,2,1,85,0,1
85806,-100,4,2,1,70,0,0

[Colours]
Combo1 : 167,235,137
Combo2 : 254,132,118
Combo3 : 238,202,134

[HitObjects]
86,99,185,6,0,B|169:79|151:147|260:117,1,165,6|6,1:2|1:2,0:0:0:0:
345,76,995,1,8,0:0:0:0:
345,76,1157,1,8,0:0:0:0:
368,183,1482,6,0,B|285:163|303:231|194:201,1,165,6|6,1:2|1:2,0:0:0:0:
109,160,2293,2,0,P|71:158|52:161,1,55,8|8,0:3|0:3,0:0:0:0:
36,269,2779,6,0,B|119:249|101:317|210:287,1,165,6|6,1:2|1:2,0:0:0:0:
295,246,3589,1,8,0:0:0:0:
295,246,3751,1,8,0:0:0:0:
251,144,4076,5,14,1:2:0:0:
251,144,4239,2,0,P|247:104|290:44,1,110,10|14,0:0|1:2,0:0:0:0:
361,124,4887,1,10,0:0:0:0:
361,124,5049,2,0,P|397:134|419:133,1,55,10|2,0:0|1:2,0:0:0:0:
462,107,5374,6,0,B|434:162|434:162|439:201|439:201|413:264,1,165,6|6,1:2|1:2,0:0:0:0:
373,362,6184,1,8,0:0:0:0:
373,362,6347,1,8,0:0:0:0:
308,273,6671,6,0,B|336:218|336:218|331:179|331:179|357:116,1,165,6|6,1:2|1:2,0:0:0:0:
399,18,7482,2,0,L|347:-1,1,55,8|8,0:3|0:3,0:0:0:0:
240,25,7968,6,0,B|199:10|199:10|166:19|166:19|119:8,1,110,14|10,1:2|1:2,0:0:0:0:
95,50,8455,2,0,P|117:83|109:162,1,110,14|8,1:2|0:0,0:0:0:0:
85,199,8941,1,8,0:0:0:0:
85,199,9103,6,0,P|70:236|81:316,1,110,14|8,1:2|0:1,0:0:0:0:
121,335,9590,1,8,0:1:0:0:
218,283,9914,1,6,1:2:0:0:
327,299,10239,1,6,1:2:0:0:
417,236,10563,5,6,1:2:0:0:
397,16,11212,1,6,1:2:0:0:
191,83,11860,2,0,L|305:69,2,110,6|6|6,1:2|1:2|1:2,0:0:0:0:
81,97,12833,2,0,L|20:106,1,55,8|8,0:0|0:0,0:0:0:0:
35,159,13157,6,0,L|50:267,1,110,6|2,1:2|1:2,0:0:0:0:
105,363,13806,2,0,L|228:341,1,110,2|2,1:2|1:2,0:0:0:0:
231,231,14455,2,0,B|357:209,1,110,2|0,1:2|1:0,0:0:0:0:
395,197,14941,1,10,0:0:0:0:
395,197,15103,2,0,P|384:161|409:90,1,110,2|2,1:2|1:2,0:0:0:0:
489,165,15752,6,0,P|500:206|476:275,1,110,2|2,1:2|1:2,0:0:0:0:
446,319,16239,1,10,0:0:0:0:
338,296,16563,1,10,0:0:0:0:
234,344,16887,2,0,P|225:305|261:233,1,110,10|10,0:0|0:0,0:0:0:0:
291,204,17374,1,2,1:2:0:0:
291,204,17536,2,0,P|300:165|264:93,1,110,10|8,0:0|0:0,0:0:0:0:
231,67,18022,1,2,1:2:0:0:
150,142,18347,6,0,L|35:122,1,110,2|2,1:2|1:2,0:0:0:0:
28,176,18833,2,0,L|10:295,1,110,10|10,0:0|0:0,0:0:0:0:
87,364,19482,1,10,0:0:0:0:
196,350,19806,1,10,0:0:0:0:
196,350,19968,2,0,L|190:237,1,110,10|10,0:0|0:0,0:0:0:0:
151,136,20617,2,0,L|148:74,1,55,8|8,0:0|0:0,0:0:0:0:
146,26,20941,5,6,1:2:0:0:
355,91,21590,1,6,1:2:0:0:
333,310,22239,2,0,L|383:200,2,110,6|6|6,1:2|1:2|1:2,0:0:0:0:
225,286,23212,2,0,L|258:213,1,55,8|8,0:0|0:0,0:0:0:0:
263,183,23536,6,0,P|229:208|160:198,1,110,6|2,1:2|1:2,0:0:0:0:
81,128,24184,2,0,L|96:18,1,110,2|2,1:2|1:2,0:0:0:0:
205,34,24833,2,0,L|319:48,1,110,2|0,1:2|1:0,0:0:0:0:
369,54,25320,1,8,0:0:0:0:
369,54,25482,2,0,P|352:94|359:166,1,110,0|0,1:0|1:0,0:0:0:0:
383,265,26130,6,0,P|337:240|261:251,1,110,6|10,1:2|0:0,0:0:0:0:
232,268,26617,1,6,1:2:0:0:
254,160,26941,2,0,P|261:122|258:96,1,55,10|10,0:0|0:0,0:0:0:0:
233,57,27266,2,0,P|198:37|129:44,1,110,6|2,1:2|1:2,0:0:0:0:
95,85,27752,1,10,0:0:0:0:
95,85,27914,2,0,L|101:195,1,110,6|0,1:2|1:0,0:0:0:0:
104,249,28401,1,10,0:0:0:0:
203,295,28725,6,0,L|196:175,1,110,6|10,1:2|0:0,0:0:0:0:
251,179,29212,2,0,P|279:196|363:189,1,110,10|0,0:0|1:0,0:0:0:0:
401,166,29698,1,6,1:2:0:0:
311,27,30184,1,10,0:2:0:0:
311,27,30347,1,10,0:0:0:0:
409,74,30671,2,0,L|473:61,1,55,8|8,0:0|0:0,0:0:0:0:
505,27,30995,1,2,1:2:0:0:
502,137,31320,6,0,L|488:263,1,110,6|10,1:2|0:0,0:0:0:0:
481,300,31806,1,6,1:2:0:0:
399,226,32130,2,0,L|387:293,1,55,10|10,0:0|0:0,0:0:0:0:
374,333,32455,1,6,1:2:0:0:
264,336,32779,1,4,1:2:0:0:
162,292,33103,2,0,P|182:250|166:174,1,110,6|8,1:2|0:0,0:0:0:0:
152,137,33590,1,8,0:3:0:0:
42,145,33914,6,0,P|22:103|38:27,1,110,6|10,1:2|0:0,0:0:0:0:
77,13,34401,2,0,P|119:-3|191:1,1,110,6|2,1:2|1:2,0:0:0:0:
264,72,35049,2,0,P|306:88|378:84,1,110,6|0,1:2|1:2,0:0:0:0:
418,59,35536,1,8,0:0:0:0:
494,137,35860,1,8,0:0:0:0:
473,243,36184,1,8,0:0:0:0:
382,305,36509,6,0,L|269:292,1,110,4|10,1:2|0:0,0:0:0:0:
217,291,36995,1,6,1:2:0:0:
205,181,37320,2,0,P|180:199|138:209,1,55,0|10,1:0|0:0,0:0:0:0:
103,197,37644,2,0,L|132:318,1,110,6|6,1:2|1:2,0:0:0:0:
25,264,38293,2,0,L|0:157,1,110,14|8,0:0|0:0,0:0:0:0:
6,102,38779,1,8,0:0:0:0:
115,111,39103,6,0,L|100:53,1,55,6|2,1:2|1:2,0:0:0:0:
83,5,39428,1,10,0:0:0:0:
201,35,39752,2,0,L|210:95,1,55,10|10,1:2|0:2,0:0:0:0:
220,143,40077,1,10,0:0:0:0:
325,174,40401,2,0,L|318:120,1,55,2|10,1:2|0:0,0:0:0:0:
309,64,40726,1,10,0:0:0:0:
417,82,41050,2,0,L|423:136,1,55,10|10,0:0|0:0,0:0:0:0:
472,161,41374,2,0,L|464:215,1,55,10|10,0:0|0:0,0:0:0:0:
440,265,41698,6,0,L|513:277,2,55,6|0|0,1:2|1:2|1:2,0:0:0:0:
402,304,42184,1,0,1:2:0:0:
402,304,42347,1,8,0:0:0:0:
293,320,42671,1,8,0:3:0:0:
188,285,42995,6,0,L|115:273,2,55,6|0|0,1:2|1:2|1:2,0:0:0:0:
226,246,43481,1,0,1:2:0:0:
226,246,43644,1,8,0:0:0:0:
335,230,43968,1,8,0:3:0:0:
440,265,44293,6,0,P|461:213|458:148,1,110,6|8,1:2|0:0,0:0:0:0:
405,64,44941,2,0,P|445:50|506:58,2,82.5,10|10|10,0:0|0:0|0:0,0:0:0:0:
355,88,45590,2,0,P|316:110|242:97,1,110,6|0,1:2|1:0,0:0:0:0:
150,63,46239,2,0,L|146:117,1,55,8|0,0:0|1:0,0:0:0:0:
181,159,46563,2,0,L|185:213,1,55,8|0,0:2|1:0,0:0:0:0:
151,257,46887,5,2,0:0:0:0:
85,114,50779,6,0,B|186:88|154:177|307:141,1,220,2|0,0:0|0:0,0:0:0:0:
337,107,51590,1,2,0:0:0:0:
337,107,51752,1,2,0:0:0:0:
400,196,52076,6,0,L|470:186,2,55,6|8|8,1:2|0:0|0:0,0:0:0:0:
357,230,52563,1,6,1:2:0:0:
293,74,53049,6,0,L|223:64,2,55,6|8|8,1:2|0:0|0:0,0:0:0:0:
337,107,53536,1,6,1:2:0:0:
179,154,54022,5,14,1:2:0:0:
259,229,54347,1,14,1:2:0:0:
189,327,54671,6,0,B|147:320|147:320|118:329|118:329|71:316,1,121.000003692627,6|10,1:2|0:0,0:0:0:0:
52,258,55157,2,0,L|73:133,1,121.000003692627,6|6,1:3|1:3,0:0:0:0:
161,57,55806,2,0,B|203:50|203:50|232:59|232:59|279:47,1,121.000003692627,6|4,1:3|1:3,0:0:0:0:
337,33,56293,1,10,0:0:0:0:
359,151,56617,1,2,1:2:0:0:
478,134,56941,1,10,0:0:0:0:
455,253,57266,6,0,L|443:381,1,121.000003692627,6|10,1:2|0:0,0:0:0:0:
386,384,57752,1,6,1:3:0:0:
290,310,58076,2,0,L|283:239,1,60.5000018463135,6|8,1:3|0:0,0:0:0:0:
276,189,58401,2,0,P|248:220|156:220,1,121.000003692627,6|4,1:2|1:3,0:0:0:0:
128,186,58887,1,8,0:0:0:0:
25,143,59212,6,0,L|34:45,2,82.5,2|2|2,0:0|0:0|0:0,0:0:0:0:
16,202,59860,6,0,L|9:335,1,121.000003692627,6|8,1:2|0:0,0:0:0:0:
127,349,60509,2,0,L|134:250,2,90.7500027694703,2|2|6,1:2|1:2|1:3,0:0:0:0:
186,357,61157,2,0,L|332:366,1,121.000003692627,2|8,1:2|0:0,0:0:0:0:
427,372,61806,1,2,1:2:0:0:
399,254,62130,1,8,0:0:0:0:
492,176,62455,6,0,L|485:54,1,121.000003692627,2|10,1:2|0:0,0:0:0:0:
433,24,62941,1,6,1:3:0:0:
321,70,63266,1,6,1:3:0:0:
206,49,63590,1,2,1:2:0:0:
206,49,63752,6,0,L|211:169,1,121.000003692627,10|10,0:0|0:0,0:0:0:0:
328,199,64401,2,0,L|319:324,1,121.000003692627,8|10,0:2|0:0,0:0:0:0:
324,384,64887,1,8,0:2:0:0:
324,384,65049,6,0,P|277:347|216:338,1,121.000003692627,6|10,1:2|0:0,0:0:0:0:
165,369,65536,2,0,P|136:381|53:358,1,121.000003692627,6|6,1:3|1:3,0:0:0:0:
109,251,66184,2,0,P|118:218|94:118,1,121.000003692627,6|4,1:3|1:3,0:0:0:0:
82,76,66671,1,10,0:0:0:0:
199,102,66995,1,2,1:2:0:0:
315,67,67320,1,10,0:0:0:0:
394,158,67644,6,0,L|264:189,1,121.000003692627,6|10,1:2|0:0,0:0:0:0:
217,200,68130,1,6,1:2:0:0:
305,283,68455,2,0,L|234:299,1,60.5000018463135,6|8,1:2|0:0,0:0:0:0:
188,314,68779,6,0,P|150:290|115:209,1,121.000003692627,6|0,1:2|1:0,0:0:0:0:
119,163,69266,1,0,1:0:0:0:
199,85,69590,6,0,L|112:43,2,82.5,2|2|2,0:0|0:0|0:0,0:0:0:0:
236,132,70239,6,0,L|358:81,1,121.000003692627,6|8,1:2|0:0,0:0:0:0:
462,121,70887,2,0,L|376:170,2,90.7500027694703,2|2|6,1:2|1:2|1:3,0:0:0:0:
505,161,71536,2,0,P|514:229|490:294,1,121.000003692627,2|8,1:2|0:0,0:0:0:0:
436,381,72184,1,2,1:2:0:0:
327,327,72509,1,8,1:2:0:0:
212,367,72833,6,0,P|224:328|201:243,1,121.000003692627,0|0,1:2|1:2,0:2:0:0:
160,212,73320,1,6,1:3:0:0:
225,110,73644,1,6,1:3:0:0:
281,5,73968,1,6,0:3:0:0:
281,5,74130,6,0,P|244:20|166:-7,1,121.000003692627,2|10,1:2|0:0,0:0:0:0:
65,31,74779,2,0,P|96:61|109:120,2,82.5,10|10|10,0:0|0:0|0:0,0:0:0:0:
11,15,75428,2,0,P|2:57|4:83,1,55,8|8,0:3|0:3,0:0:0:0:
4,123,75752,6,0,P|27:173|92:208,1,110,6|8,1:2|0:0,0:0:0:0:
183,183,76401,1,2,1:2:0:0:
183,183,76563,2,0,L|294:159,1,110,6|6,1:3|0:3,0:0:0:0:
269,267,77212,2,0,L|380:243,1,110,6|4,1:3|0:3,0:0:0:0:
428,227,77698,1,8,0:0:0:0:
460,331,78022,2,0,L|477:389,1,55,8|8,0:3|0:3,0:0:0:0:
420,383,78347,6,0,B|385:373|385:373|353:375|353:375|313:360,1,110,14|0,1:2|1:2,0:0:0:0:
212,333,78995,1,10,0:0:0:0:
212,333,79157,2,0,P|229:297|218:229,1,110,6|6,1:3|1:3,0:0:0:0:
150,142,79806,2,0,P|133:106|144:38,1,110,6|6,1:3|1:3,0:0:0:0:
249,84,80455,1,6,0:3:0:0:
249,84,80617,6,0,P|286:105|368:89,1,110,2|8,1:2|0:0,0:0:0:0:
428,21,81266,2,0,P|450:56|437:131,1,110,2|8,1:2|0:0,0:0:0:0:
419,173,81752,1,4,0:3:0:0:
419,173,81914,2,0,P|401:213|411:293,1,110,2|8,1:2|0:0,0:0:0:0:
460,372,82563,1,2,1:2:0:0:
350,379,82887,1,8,0:0:0:0:
228,373,83212,6,0,P|244:330|221:244,1,121.000003692627,14|10,0:0|0:0,0:0:0:0:
174,281,83698,2,0,P|133:298|63:273,1,121.000003692627,14|8,0:0|0:0,0:0:0:0:
39,217,84184,2,0,P|27:155|44:97,1,121.000003692627,14|8,0:0|0:0,0:0:0:0:
98,128,84671,2,0,P|139:145|212:118,1,121.000003692627,14|8,0:0|0:0,0:0:0:0:
247,75,85157,1,14,0:0:0:0:
344,2,85482,1,14,0:0:0:0:
421,80,85806,6,0,L|408:144,1,55,8|8,0:3|0:3,0:0:0:0:
404,188,86130,1,4,1:2:0:0:
379,295,86455,2,0,L|325:282,1,55,8|8,0:0|0:0,0:0:0:0:
299,233,86779,2,0,L|245:220,1,55,8|8,0:0|0:0,0:0:0:0:
201,252,87103,5,12,1:2:0:0:
