osu file format v14

[General]
AudioFilename: audio.mp3
AudioLeadIn: 0
PreviewTime: 51384
Countdown: 0
SampleSet: Soft
StackLeniency: 0.7
Mode: 0
LetterboxInBreaks: 0
WidescreenStoryboard: 1

[Editor]
DistanceSpacing: 1
BeatDivisor: 4
GridSize: 32
TimelineZoom: 1.9

[Metadata]
Title:Kokuhaku Bungee Jumping (TV Size)
TitleUnicode:告白バンジージャンプ (TV Size)
Artist:halca
ArtistUnicode:halca
Creator:-[Shady]-
Version:Hard
Source:彼女、お借りします
Tags:Kanojo, Okarishimasu Rent-A-Girlfriend Kanokari TMS Entertainment anime japanese ed ending 前山田健一 Kenichi Maeyamada 板垣祐介 Yuusuke Itagaki Amateurre
BeatmapID:2489340
BeatmapSetID:1193921

[Difficulty]
HPDrainRate:5
CircleSize:3.4
OverallDifficulty:6
ApproachRate:8
SliderMultiplier:1.4
SliderTickRate:1

[Events]
//Background and Video events
0,0,"Kanokari 2.jpg",0,0
//Break Periods
2,47087,50029
//Storyboard Layer 0 (Background)
//Storyboard Layer 1 (Fail)
//Storyboard Layer 2 (Pass)
//Storyboard Layer 3 (Foreground)
//Storyboard Layer 4 (Overlay)
//Storyboard Sound Samples

[TimingPoints]
185,324.324324324324,4,2,1,70,1,0
9347,-100,4,2,1,5,0,0
9428,-100,4,2,1,70,0,0
10563,-111.111111111111,4,2,1,55,0,0
13157,-100,4,2,1,60,0,0
20941,-111.111111111111,4,2,1,55,0,0
23536,-100,4,2,1,60,0,0
26130,-111.111111111111,4,2,1,55,0,0
30103,-111.111111111111,4,2,1,5,0,0
30184,-111.111111111111,4,2,1,55,0,0
39103,-100,4,2,1,65,0,0
42347,-111.111111111111,4,2,1,60,0,0
42995,-100,4,2,1,65,0,0
43644,-111.111111111111,4,2,1,60,0,0
44293,-100,4,2,1,65,0,0
46887,-100,4,2,1,50,0,0
51428,-100,4,2,1,5,0,0
51590,-100,4,2,1,50,0,0
52076,-100,4,2,1,70,0,0
54671,-90.9090909090909,4,2,1,85,0,1
59212,-100,4,2,1,70,0,0
59860,-90.9090909090909,4,2,1,85,0,1
69590,-100,4,2,1,70,0,0
70239,-90.9090909090909,4,2,1,85,0,1
74779,-100,4,2,1,80,0,0
75428,-111.111111111111,4,2,1,60,0,0
75752,-100,4,2,1,70,0,0
83212,-90.9090909090909,4,2,1,85,0,1
85806,-100,4,2,1,70,0,0
86374,-100,4,2,1,5,0,0
86455,-100,4,2,1,70,0,0

[Colours]
Combo1 : 167,235,137
Combo2 : 254,132,118
Combo3 : 238,202,134

[HitObjects]
147,78,185,6,0,L|56:61,2,70,6|2|2,1:2|0:0|0:0,0:0:0:0:
248,103,671,1,6,1:2:0:0:
143,251,995,1,8,0:0:0:0:
143,251,1157,1,8,0:0:0:0:
306,170,1482,6,0,L|397:153,2,70,6|2|2,1:2|0:0|0:0,0:0:0:0:
205,195,1968,1,6,1:2:0:0:
310,343,2293,2,0,L|288:269,1,70,8|8,0:3|0:3,0:0:0:0:
104,220,2779,6,0,L|13:237,2,70,6|2|2,1:2|0:0|0:0,0:0:0:0:
205,195,3265,1,6,1:2:0:0:
100,47,3589,1,8,0:0:0:0:
100,47,3751,1,8,0:0:0:0:
205,195,4076,5,14,1:2:0:0:
250,115,4239,1,10,0:0:0:0:
367,253,4563,2,0,B|417:246|417:246|451:263|451:263|535:256,1,140,14|10,1:2|0:0,0:0:0:0:
469,173,5049,2,0,L|458:97,1,70,10|2,0:0|1:2,0:0:0:0:
450,58,5293,1,2,1:2:0:0:
450,58,5374,6,0,P|497:71|529:69,2,70,6|2|2,1:2|0:0|0:0,0:0:0:0:
354,14,5860,1,6,1:2:0:0:
337,195,6184,1,8,0:0:0:0:
337,195,6347,1,8,0:0:0:0:
157,165,6671,6,0,P|110:178|78:176,2,70,6|2|2,1:2|0:0|0:0,0:0:0:0:
253,121,7157,1,6,1:2:0:0:
270,302,7481,1,8,0:3:0:0:
270,302,7563,1,8,0:3:0:0:
270,302,7644,1,8,0:3:0:0:
253,121,7968,6,0,L|249:42,2,70,14|10|10,1:2|1:2|1:2,0:0:0:0:
348,180,8455,2,0,B|398:173|398:173|442:187|442:187|511:176,1,140,14|8,1:2|0:0,0:0:0:0:
440,100,8941,1,8,0:0:0:0:
348,180,9103,6,0,B|354:223|354:223|345:247|345:247|358:311,1,105,14|0,1:2|0:0,0:0:0:0:
358,327,9428,1,8,0:1:0:0:
270,302,9590,2,0,L|193:323,1,70,8|0,0:1|1:0,0:0:0:0:
161,330,9833,1,0,1:0:0:0:
161,330,9914,2,0,L|147:255,1,70,6|0,1:2|0:0,0:0:0:0:
235,163,10239,2,0,L|221:238,1,70,6|0,1:2|0:0,0:0:0:0:
160,93,10563,5,6,1:2:0:0:
160,93,11212,1,6,1:2:0:0:
160,93,11860,5,6,1:2:0:0:
319,57,12184,1,6,1:2:0:0:
479,24,12509,1,6,1:2:0:0:
425,166,12833,1,8,0:0:0:0:
425,166,12914,1,8,0:0:0:0:
425,166,12995,1,8,0:0:0:0:
300,188,13157,6,0,L|221:202,1,70,6|8,1:2|0:0,0:0:0:0:
252,289,13482,2,0,L|173:275,1,70,2|8,1:2|0:0,0:0:0:0:
125,206,13806,2,0,L|46:220,1,70,2|8,1:2|0:0,0:0:0:0:
80,305,14130,2,0,L|1:291,1,70,2|8,1:2|0:0,0:0:0:0:
56,218,14455,6,0,B|71:162|71:162|62:130|62:130|81:70,1,140,2|0,1:2|1:0,0:0:0:0:
110,5,14941,1,10,0:0:0:0:
110,5,15022,1,2,1:2:0:0:
110,5,15103,2,0,L|188:26,1,70,2|8,1:2|0:0,0:0:0:0:
192,114,15428,2,0,L|139:102,2,35,2|2|10,1:2|1:2|0:0,0:0:0:0:
279,138,15752,6,0,L|362:154,1,70,2|10,1:2|0:0,0:0:0:0:
413,213,16076,1,2,1:2:0:0:
339,267,16239,2,0,L|270:253,1,70,10|0,0:0|1:0,0:0:0:0:
204,198,16563,1,10,0:0:0:0:
204,198,16725,1,2,1:2:0:0:
185,287,16887,6,0,P|178:330|95:355,1,140,10|10,0:0|0:0,0:0:0:0:
34,291,17374,1,2,1:2:0:0:
34,291,17536,2,0,B|43:246|43:246|32:206|32:206|44:135,1,140,10|8,0:0|0:0,0:0:0:0:
130,168,18022,2,0,L|114:82,1,70,2|10,1:2|0:0,0:0:0:0:
43,44,18347,6,0,P|78:17|176:37,1,140,2|2,1:2|1:2,0:0:0:0:
230,95,18833,2,0,L|219:167,1,70,10|0,0:0|1:0,0:0:0:0:
293,216,19157,2,0,L|303:146,1,70,10|0,0:0|1:0,0:0:0:0:
318,37,19482,1,10,0:0:0:0:
318,37,19806,5,10,0:0:0:0:
378,104,19968,2,0,L|453:101,1,70,10|10,0:0|0:0,0:0:0:0:
485,184,20293,2,0,L|415:186,1,70,10|10,0:0|0:0,0:0:0:0:
377,268,20617,2,0,L|412:268,3,35,8|8|8|8,0:0|0:0|0:0|0:0,0:0:0:0:
454,279,20941,5,6,1:2:0:0:
454,279,21590,1,6,1:2:0:0:
454,279,22239,5,6,1:2:0:0:
309,279,22563,1,6,1:2:0:0:
145,279,22887,1,6,1:2:0:0:
184,207,23049,1,8,0:0:0:0:
184,207,23130,1,8,0:0:0:0:
184,207,23212,2,0,L|178:168,3,31.4999990386963,8|8|8|8,0:0|0:0|0:0|0:0,0:0:0:0:
165,132,23536,6,0,P|123:148|93:146,1,70,6|8,1:2|0:0,0:0:0:0:
112,57,23860,2,0,P|154:41|184:43,1,70,2|8,1:2|0:0,0:0:0:0:
255,90,24184,2,0,P|290:103|329:102,1,70,2|8,1:2|0:0,0:0:0:0:
371,26,24509,2,0,P|336:13|297:14,1,70,2|8,1:2|0:0,0:0:0:0:
322,103,24833,6,0,L|329:193,1,70,2|8,1:2|0:0,0:0:0:0:
337,263,25157,1,0,1:0:0:0:
337,263,25320,1,8,0:0:0:0:
425,242,25482,2,0,L|418:332,1,70,0|8,1:0|0:0,0:0:0:0:
349,369,25806,2,0,L|271:358,1,70,0|8,1:0|0:0,0:0:0:0:
176,303,26130,6,0,B|185:262|185:262|212:231|212:231|226:173,1,125.999996154785,6|10,1:2|0:0,0:0:0:0:
180,117,26617,1,6,1:2:0:0:
180,117,26941,1,10,0:0:0:0:
222,189,27103,1,10,0:0:0:0:
305,131,27266,6,0,B|370:113|368:162|453:133,1,125.999996154785,6|2,1:2|1:2,0:0:0:0:
492,88,27752,1,10,0:0:0:0:
417,59,27914,1,6,1:2:0:0:
417,59,28239,1,0,1:0:0:0:
428,139,28401,2,0,L|445:216,1,62.9999980773926,10|2,0:0|1:2,0:0:0:0:
438,301,28725,6,0,P|410:276|315:276,1,125.999996154785,6|10,1:2|0:0,0:0:0:0:
259,320,29212,2,0,P|291:345|318:352,2,62.9999980773926,10|0|0,0:0|1:0|1:0,0:0:0:0:
185,251,29698,6,0,P|178:213|287:160,1,157.499995193482,6|0,1:2|0:0,0:0:0:0:
301,161,30184,1,10,0:2:0:0:
362,105,30347,1,10,0:0:0:0:
310,40,30509,1,8,0:0:0:0:
310,40,30590,1,8,0:0:0:0:
310,40,30671,2,0,L|267:31,3,31.4999990386963,8|8|8|8,0:0|0:0|0:0|0:0,0:0:0:0:
247,59,30995,2,0,L|176:76,1,62.9999980773926,2|0,1:2|1:0,0:0:0:0:
100,80,31320,6,0,L|87:-1,2,62.9999980773926,6|2|10,1:2|1:2|0:0,0:0:0:0:
83,160,31806,1,6,1:2:0:0:
103,322,32130,1,10,0:0:0:0:
138,247,32293,1,10,0:0:0:0:
91,168,32455,5,6,1:2:0:0:
91,168,32779,1,6,1:2:0:0:
91,168,33103,2,0,B|133:158|133:158|172:169|172:169|234:156,1,125.999996154785,6|8,1:2|0:0,0:0:0:0:
286,118,33590,2,0,L|278:83,2,31.4999990386963,10|10|10,0:3|0:3|0:3,0:0:0:0:
323,211,33914,6,0,L|310:279,2,62.9999980773926,6|2|10,1:2|1:2|0:0,0:0:0:0:
386,152,34401,1,6,1:2:0:0:
386,152,34725,1,2,1:2:0:0:
415,228,34887,1,8,0:0:0:0:
476,148,35049,6,0,P|464:98|389:64,1,125.999996154785,6|0,1:2|1:0,0:0:0:0:
326,94,35536,2,0,P|284:103|245:99,1,62.9999980773926,8|0,0:0|1:0,0:0:0:0:
190,67,35860,1,8,0:0:0:0:
115,32,36022,1,0,1:0:0:0:
113,113,36184,2,0,L|123:187,1,62.9999980773926,8|8,0:0|0:0,0:0:0:0:
157,205,36428,1,8,0:0:0:0:
157,205,36509,6,0,L|226:195,2,62.9999980773926,4|2|10,1:2|1:2|0:0,0:0:0:0:
88,249,36995,1,6,1:2:0:0:
191,376,37320,2,0,L|184:333,2,31.4999990386963,10|10|10,0:3|0:3|0:3,0:0:0:0:
274,353,37644,5,6,1:2:0:0:
274,353,37968,1,6,1:2:0:0:
274,353,38293,2,0,P|275:316|353:282,1,125.999996154785,6|8,1:2|0:0,0:0:0:0:
386,351,38779,2,0,P|432:362|462:362,1,62.9999980773926,8|8,0:0|0:0,0:0:0:0:
479,279,39103,6,0,L|468:201,1,70,6|2,1:2|1:2,0:0:0:0:
377,205,39428,2,0,L|366:127,1,70,10|10,0:0|0:0,0:0:0:0:
357,91,39671,1,10,0:0:0:0:
357,91,39752,2,0,P|410:105|437:100,2,70,10|10|10,1:2|0:2|0:0,0:0:0:0:
272,56,40239,1,8,0:0:0:0:
258,146,40401,6,0,P|221:132|183:131,1,70,2|10,1:2|0:0,0:0:0:0:
149,148,40644,1,10,0:0:0:0:
149,148,40725,2,0,P|112:162|74:163,1,70,10|10,0:0|0:0,0:0:0:0:
38,151,40968,1,10,0:0:0:0:
38,151,41049,2,0,L|45:71,2,70,10|10|10,0:0|0:0|0:0,0:0:0:0:
20,240,41536,1,10,0:0:0:0:
87,301,41698,6,0,L|80:375,1,70,6|0,1:2|1:2,0:0:0:0:
178,312,42022,2,0,L|171:386,1,70,0|0,1:2|1:2,0:0:0:0:
258,352,42347,1,8,0:0:0:0:
416,310,42671,2,0,L|375:305,2,31.4999990386963,8|8|8,0:3|0:3|0:3,0:0:0:0:
410,218,42995,6,0,L|417:144,1,70,6|0,1:2|1:0,0:0:0:0:
319,207,43319,2,0,L|326:133,1,70,0|0,1:0|1:0,0:0:0:0:
239,167,43644,1,8,0:0:0:0:
76,144,43968,1,2,1:2:0:0:
213,24,44293,6,0,L|199:106,1,70,6|2,1:2|0:0,0:0:0:0:
156,172,44617,2,0,L|170:254,1,70,8|0,0:0|0:0,0:0:0:0:
247,320,44941,2,0,L|363:298,2,105,10|10|10,0:0|0:0|0:0,0:0:0:0:
302,222,45590,6,0,L|382:209,1,70,6|0,1:2|0:0,0:0:0:0:
287,137,45914,2,0,L|367:124,1,70,0|0,1:0|1:0,0:0:0:0:
400,117,46157,1,0,1:0:0:0:
400,117,46239,2,0,L|387:73,3,35,8|0|0|0,0:0|1:0|1:0|1:0,0:0:0:0:
410,42,46563,2,0,L|423:-2,3,35,8|0|0|0,0:2|1:0|1:0|1:0,0:0:0:0:
374,0,46887,5,2,0:0:0:0:
21,91,50779,6,0,B|189:49|109:193|304:130,1,280,2|0,0:0|0:0,0:0:0:0:
366,101,51590,1,2,0:0:0:0:
366,101,51671,1,2,0:0:0:0:
366,101,51752,2,0,L|346:24,1,70,2|0,0:0|0:0,0:0:0:0:
281,136,52076,6,0,L|261:68,2,70,14|8|8,0:0|0:0|0:0,0:0:0:0:
303,224,52563,2,0,L|237:247,1,70,14|0,0:0|1:0,0:0:0:0:
199,272,52806,1,0,1:0:0:0:
199,272,52887,1,0,1:0:0:0:
268,359,53049,6,0,L|202:382,2,70,14|8|8,0:0|0:0|0:0,0:0:0:0:
353,326,53536,2,0,L|443:288,1,70,14|0,0:0|1:0,0:0:0:0:
457,277,53779,1,0,1:0:0:0:
457,277,53860,1,0,1:0:0:0:
390,214,54022,6,0,L|414:136,1,70,6|0,1:2|0:0,0:0:0:0:
330,103,54347,2,0,L|355:33,1,70,6|0,1:2|0:0,0:0:0:0:
237,78,54671,6,0,B|184:68|184:68|145:82|145:82|85:67,1,154.000004699707,6|10,1:2|0:0,0:0:0:0:
117,162,55157,2,0,L|130:246,1,77.0000023498536,6|0,1:3|1:0,0:0:0:0:
31,263,55482,2,0,L|28:350,1,77.0000023498536,6|8,1:3|0:0,0:0:0:0:
126,322,55806,6,0,P|186:313|209:205,1,154.000004699707,2|4,1:2|0:3,0:0:0:0:
201,134,56293,2,0,L|288:123,1,77.0000023498536,10|4,0:0|1:3,0:0:0:0:
375,103,56617,2,0,L|457:90,1,77.0000023498536,2|4,1:2|1:3,0:0:0:0:
415,184,56941,2,0,L|338:196,1,77.0000023498536,10|4,0:0|0:3,0:0:0:0:
220,233,57266,6,0,P|256:291|230:377,1,154.000004699707,6|10,1:2|0:0,0:0:0:0:
164,308,57752,1,6,1:3:0:0:
164,308,58076,1,6,1:3:0:0:
131,212,58239,1,8,0:0:0:0:
220,233,58401,6,0,P|266:254|363:217,1,154.000004699707,6|4,1:2|1:3,0:0:0:0:
373,122,58887,2,0,L|358:38,1,77.0000023498536,8|6,0:0|1:3,0:0:0:0:
268,54,59212,6,0,L|284:168,2,105,2|2|2,0:0|0:0|0:0,0:0:0:0:
146,31,59860,6,0,L|66:43,1,77.0000023498536,6|4,1:2|0:3,0:0:0:0:
13,125,60184,1,8,0:0:0:0:
13,125,60347,1,6,0:3:0:0:
84,195,60509,2,0,L|160:183,1,77.0000023498536,2|4,1:2|1:3,0:0:0:0:
209,173,60752,1,2,1:2:0:0:
209,173,60833,2,0,P|195:222|199:258,1,77.0000023498536,8|6,0:0|1:3,0:0:0:0:
276,308,61157,6,0,B|330:299|330:299|375:311|375:311|436:297,1,154.000004699707,2|8,1:2|0:0,0:0:0:0:
489,221,61644,2,0,P|495:200|494:175,2,38.5000011749268,6|0|2,1:3|1:0|1:2,0:0:0:0:
390,203,61968,1,4,1:3:0:0:
410,105,62130,2,0,P|391:65|357:41,1,77.0000023498536,8|4,0:0|0:3,0:0:0:0:
315,129,62455,6,0,B|271:115|271:115|235:126|235:126|162:107,1,154.000004699707,2|10,1:2|0:0,0:0:0:0:
55,35,62941,2,0,L|66:132,1,77.0000023498536,6|0,1:3|1:0,0:0:0:0:
127,189,63266,2,0,L|138:286,1,77.0000023498536,6|8,1:3|0:0,0:0:0:0:
108,361,63590,1,2,1:2:0:0:
25,274,63752,6,0,L|14:197,1,77.0000023498536,10|4,0:0|1:3,0:0:0:0:
63,111,64076,2,0,L|52:34,1,77.0000023498536,10|4,0:0|1:3,0:0:0:0:
158,32,64401,2,0,L|168:108,1,77.0000023498536,8|4,0:2|1:3,0:0:0:0:
249,167,64725,2,0,L|259:243,1,77.0000023498536,10|8,0:0|0:2,0:0:0:0:
267,292,64968,1,8,0:0:0:0:
267,292,65049,6,0,P|309:261|413:288,1,154.000004699707,6|10,1:2|0:0,0:0:0:0:
384,179,65536,2,0,L|402:98,1,77.0000023498536,6|0,1:3|1:0,0:0:0:0:
496,75,65860,2,0,L|509:-2,1,77.0000023498536,6|8,1:3|0:0,0:0:0:0:
393,5,66184,6,0,B|340:-1|340:-1|295:25|295:25|214:14,1,154.000004699707,6|4,1:3|1:3,0:0:0:0:
146,26,66671,2,0,P|164:68|164:107,1,77.0000023498536,10|4,0:0|0:3,0:0:0:0:
130,196,66995,1,2,1:2:0:0:
130,196,67157,1,4,1:3:0:0:
236,141,67320,2,0,P|218:183|218:222,1,77.0000023498536,10|4,0:0|0:3,0:0:0:0:
278,320,67644,6,0,B|330:313|330:313|366:328|366:328|444:317,1,154.000004699707,6|10,1:2|0:0,0:0:0:0:
483,235,68130,1,6,1:2:0:0:
483,235,68455,1,6,1:2:0:0:
471,135,68617,1,8,0:0:0:0:
455,12,68779,6,0,P|426:48|319:57,1,154.000004699707,6|0,1:2|1:0,0:0:0:0:
229,26,69266,2,0,L|177:10,2,38.5000011749268,0|0|0,1:0|1:0|1:0,0:0:0:0:
257,112,69590,6,0,L|225:220,2,105,2|2|2,0:0|0:0|0:0,0:0:0:0:
137,78,70239,6,0,L|60:56,1,77.0000023498536,6|4,1:2|0:3,0:0:0:0:
25,141,70563,1,8,0:0:0:0:
25,141,70725,1,6,0:3:0:0:
73,228,70887,2,0,L|150:206,1,77.0000023498536,2|4,1:2|1:3,0:0:0:0:
194,191,71130,1,2,1:2:0:0:
194,191,71212,2,0,P|179:244|186:272,1,77.0000023498536,8|6,0:2|1:3,0:0:0:0:
270,312,71536,6,0,L|364:300,1,77.0000023498536,2|0,1:2|0:0,0:0:0:0:
441,271,71860,1,8,0:0:0:0:
363,208,72022,2,0,L|320:215,2,38.5000011749268,6|2|2,1:3|1:2|1:2,0:0:0:0:
458,176,72347,1,4,1:3:0:0:
378,115,72509,2,0,L|302:125,1,77.0000023498536,8|4,0:0|0:3,0:0:0:0:
359,18,72833,6,0,L|195:40,1,154.000004699707,2|10,1:2|0:0,0:0:0:0:
193,138,73320,2,0,L|202:219,1,77.0000023498536,6|0,1:3|1:0,0:0:0:0:
302,215,73644,2,0,L|293:296,1,77.0000023498536,6|8,1:3|0:0,0:0:0:0:
207,343,73968,1,6,0:3:0:0:
300,377,74130,6,0,L|381:369,1,77.0000023498536,2|4,1:2|0:3,0:0:0:0:
459,290,74455,2,0,L|382:282,1,77.0000023498536,10|4,0:0|0:3,0:0:0:0:
477,208,74779,6,0,P|490:151|459:90,2,105,10|10|10,0:0|0:0|0:0,0:0:0:0:
409,161,75428,2,0,L|359:148,3,31.4999990386963,8|8|8|0,0:3|0:3|0:3|0:0,0:0:0:0:
333,144,75752,6,0,L|245:122,1,70,6|4,1:2|0:3,0:0:0:0:
235,212,76076,2,0,L|147:190,1,70,8|4,0:0|0:3,0:0:0:0:
88,152,76401,1,2,1:2:0:0:
157,91,76563,6,0,P|162:52|152:8,1,70,6|0,1:3|1:0,0:0:0:0:
76,63,76887,2,0,P|41:74|-1:71,1,70,6|8,0:3|0:0,0:0:0:0:
21,163,77212,2,0,P|56:152|98:155,1,70,6|0,1:3|1:0,0:0:0:0:
167,195,77536,1,4,0:3:0:0:
104,260,77698,2,0,L|110:339,1,70,8|4,0:0|0:3,0:0:0:0:
209,356,78022,2,0,L|206:317,2,35,8|8|8,0:3|0:3|0:3,0:0:0:0:
321,348,78347,6,0,P|306:306|442:268,1,210,14|4,1:2|1:3,0:0:0:0:
485,313,78995,1,10,0:0:0:0:
506,224,79157,2,0,L|495:148,1,70,6|2,1:3|1:3,0:0:0:0:
404,146,79482,2,0,L|393:70,1,70,6|8,1:3|0:0,0:0:0:0:
310,113,79806,2,0,P|272:130|220:129,1,70,6|0,1:3|1:0,0:0:0:0:
159,98,80130,2,0,P|123:91|79:99,1,70,6|8,1:3|0:0,0:0:0:0:
19,153,80455,1,6,0:3:0:0:
82,256,80617,6,0,L|98:177,1,70,2|4,1:2|0:3,0:0:0:0:
90,95,80941,2,0,L|74:16,1,70,8|4,0:0|0:3,0:0:0:0:
156,4,81266,2,0,B|201:0|201:0|246:15|246:15|295:5,1,140,2|8,1:2|0:0,0:0:0:0:
379,30,81752,1,4,0:3:0:0:
318,97,81914,6,0,L|337:169,1,70,2|4,1:2|0:3,0:0:0:0:
426,150,82239,2,0,L|407:222,1,70,8|4,0:0|1:3,0:0:0:0:
395,307,82563,2,0,L|319:296,1,70,2|4,1:2|0:3,0:0:0:0:
301,383,82887,2,0,L|225:372,1,70,2|4,1:2|0:3,0:0:0:0:
243,273,83212,6,0,L|254:196,1,77.0000023498536,14|8,0:0|0:0,0:0:0:0:
167,145,83536,1,8,0:0:0:0:
154,244,83698,2,0,L|72:232,2,77.0000023498536,12|8|10,0:0|0:0|0:0,0:0:0:0:
167,145,84184,6,0,L|179:63,1,77.0000023498536,14|8,0:0|0:0,0:0:0:0:
83,33,84509,1,8,0:0:0:0:
75,132,84670,2,0,L|1:114,2,77.0000023498536,12|8|10,0:0|0:0|0:0,0:0:0:0:
178,68,85157,6,0,L|268:87,1,77.0000023498536,14|0,0:0|0:0,0:0:0:0:
237,182,85482,2,0,L|325:164,1,77.0000023498536,14|0,0:0|0:0,0:0:0:0:
388,102,85806,2,0,L|396:65,2,35,8|8|8,0:3|0:3|0:3,0:0:0:0:
387,211,86130,6,0,P|436:197|491:248,1,105,6|0,1:2|0:0,0:0:0:0:
482,281,86455,2,0,L|476:324,3,35,8|8|8|8,0:0|0:0|0:0|0:0,0:0:0:0:
433,304,86779,2,0,L|427:347,3,35,8|8|8|8,0:0|0:0|0:0|0:0,0:0:0:0:
382,335,87103,5,12,1:2:0:0:
