osu file format v14

[General]
AudioFilename: audio.mp3
AudioLeadIn: 0
PreviewTime: 65294
Countdown: 0
SampleSet: Soft
StackLeniency: 0.7
Mode: 0
LetterboxInBreaks: 0
WidescreenStoryboard: 0

[Editor]
DistanceSpacing: 1.4
BeatDivisor: 4
GridSize: 32
TimelineZoom: 1.3

[Metadata]
Title:Kokuhaku Bungee Jump
TitleUnicode:告白バンジージャンプ
Artist:halca
ArtistUnicode:halca
Creator:tricolor
Version:Regret
Source:彼女、お借りします
Tags:rent a girlfriend tomadoi shiinoha kotone full version anime japanese female kowari kalibe kanojo kanojo, okarishimasu kanokari
BeatmapID:2536164
BeatmapSetID:1218969

[Difficulty]
HPDrainRate:7
CircleSize:4
OverallDifficulty:8
ApproachRate:9
SliderMultiplier:1.6
SliderTickRate:1

[Events]
//Background and Video events
0,0,"bungy jump.png",0,0
//Break Periods
2,57702,60105
2,99216,101619
2,190027,198632
//Storyboard Layer 0 (Background)
//Storyboard Layer 1 (Fail)
//Storyboard Layer 2 (Pass)
//Storyboard Layer 3 (Foreground)
//Storyboard Layer 4 (Overlay)
//Storyboard Sound Samples

[TimingPoints]
422,324.324324324324,4,2,1,40,1,0
422,-142.857142857143,4,2,1,40,0,0
4232,-142.857142857143,4,2,1,5,0,0
4313,-142.857142857143,4,2,1,40,0,0
5611,-125,4,2,1,40,0,0
10800,-100,4,2,1,60,0,0
61394,-200,4,2,1,60,0,0
62205,-100,4,2,1,70,0,0
62692,-90.9090909090909,4,2,1,75,0,0
64151,-90.9090909090909,4,2,2,75,0,0
64313,-90.9090909090909,4,2,1,75,0,0
64638,-83.3333333333333,4,2,1,75,0,0
64962,-83.3333333333333,4,2,2,75,0,0
65286,-90.9090909090909,4,2,1,80,0,1
93827,-90.9090909090909,4,2,1,90,0,1
96421,-90.9090909090909,4,2,1,80,0,1
97719,-250,4,2,1,80,0,0
99016,-250,4,2,1,40,0,0
106476,-250,4,2,1,69,0,0
108097,-100,4,2,1,60,0,0
139394,-100,4,2,2,75,0,0
139557,-100,4,2,1,75,0,0
140205,-83.3333333333333,4,2,1,75,0,0
140530,-90.9090909090909,4,2,1,80,0,1
169070,-90.9090909090909,4,2,1,80,0,0
199232,-200,4,2,1,45,0,0
200205,-125,4,2,3,45,0,0
210584,-100,4,2,1,70,0,0
212043,-100,4,2,2,70,0,0
212205,-100,4,2,1,70,0,0
213178,-90.9090909090909,4,2,1,80,0,1
241719,-90.9090909090909,4,2,1,90,0,1
244313,-90.9090909090909,4,2,1,80,0,1
245611,-90.9090909090909,4,2,1,75,0,0

[Colours]
Combo1 : 255,168,211
Combo2 : 108,182,255
Combo3 : 255,167,79
Combo4 : 83,83,255

[HitObjects]
351,7,422,5,2,0:0:0:0:
351,7,746,2,0,P|352:34|361:60,1,55.9999982910157
361,60,1070,2,0,L|341:173,1,111.999996582031,2|0,0:0|0:0,0:0:0:0:
370,336,1557,1,0,0:0:0:0:
308,290,1719,6,0,P|280:301|248:305,1,55.9999982910157,2|0,0:0|0:0,0:0:0:0:
417,267,2043,2,0,P|445:256|477:252,1,55.9999982910157,2|0,0:0|0:0,0:0:0:0:
432,173,2367,1,2,0:0:0:0:
432,173,2530,2,0,P|433:140|440:109,2,55.9999982910157,2|2|0,0:0|0:0|0:0,0:0:0:0:
245,7,3016,6,0,P|193:19|127:31,1,111.999996582031,2|0,0:0|0:0,0:0:0:0:
52,0,3503,1,0,0:0:0:0:
52,0,3665,2,0,L|42:59,1,55.9999982910157,2|0,0:0|0:0,0:0:0:0:
12,128,3989,2,0,L|-2:218,1,83.9999974365235,2|0,0:0|0:0,0:0:0:0:
0,211,4313,6,0,L|119:190,1,111.999996582031,2|0,0:0|0:0,0:0:0:0:
213,236,4800,1,0,0:0:0:0:
259,175,4962,2,0,P|258:145|247:112,1,55.9999982910157,2|0,0:0|0:0,0:0:0:0:
250,120,5286,1,2,0:0:0:0:
250,120,5449,1,0,0:0:0:0:
250,120,5611,6,0,L|384:147,1,128,2|2,0:0|0:0,0:0:0:0:
375,145,6097,1,0,0:0:0:0:
484,280,6259,2,0,P|473:237|393:239,1,128,2|0,0:0|0:0,0:0:0:0:
399,231,6908,6,0,P|388:274|308:272,1,128,2|0,0:0|0:0,0:0:0:0:
314,279,7394,1,0,0:0:0:0:
211,171,7557,2,0,L|197:238,1,64,2|0,0:0|0:0,0:0:0:0:
308,119,7881,2,0,L|294:56,1,64,2|0,0:0|0:0,0:0:0:0:
138,0,8205,5,2,0:0:0:0:
138,0,8530,1,2,0:0:0:0:
138,0,8854,1,2,0:0:0:0:
87,123,9016,1,2,0:0:0:0:
87,123,9097,1,2,0:0:0:0:
87,123,9178,1,2,0:0:0:0:
138,0,9340,1,0,0:0:0:0:
152,194,9503,6,0,P|115:202|13:211,1,128,2|0,0:0|0:0,0:0:0:0:
229,240,9989,2,0,P|261:232|297:229,1,64,0|2,0:0|0:0,0:0:0:0:
482,197,10800,5,4,3:2:0:0:
439,359,10962,1,2,0:0:0:0:
277,316,11124,1,8,0:0:0:0:
374,97,11286,2,0,P|384:168|384:260,1,160,4|8,3:2|0:0,0:0:0:0:
384,256,11773,1,8,0:0:0:0:
30,197,12097,5,4,3:2:0:0:
73,359,12259,1,2,0:0:0:0:
235,316,12421,1,8,0:0:0:0:
138,97,12583,2,0,P|128:168|128:260,1,160,4|8,3:2|0:0,0:0:0:0:
128,256,13070,1,8,0:0:0:0:
445,169,13394,5,4,3:2:0:0:
282,124,13557,1,2,0:0:0:0:
403,6,13719,1,8,0:0:0:0:
380,245,13881,2,0,P|303:251|218:266,1,160,4|8,3:2|0:0,0:0:0:0:
429,318,14367,1,8,0:0:0:0:
472,64,14692,5,4,3:2:0:0:
371,89,14854,1,2,0:0:0:0:
270,114,15016,1,8,0:0:0:0:
41,53,15178,2,0,P|50:115|58:215,1,160,4|8,3:2|0:0,0:0:0:0:
270,114,15665,1,8,0:0:0:0:
149,101,15827,5,0,3:0:0:0:
152,120,15908,1,0,3:0:0:0:
155,139,15989,1,4,3:2:0:0:
315,186,16151,1,2,0:0:0:0:
259,344,16313,1,8,0:0:0:0:
260,92,16476,2,0,P|337:79|424:72,1,160,4|8,3:2|0:0,0:0:0:0:
374,272,16962,1,8,0:0:0:0:
451,351,17286,5,4,3:2:0:0:
481,184,17449,1,2,0:0:0:0:
315,155,17611,1,8,0:0:0:0:
146,356,17773,2,0,P|135:290|132:196,1,160,4|0,3:2|3:0,0:0:0:0:
131,197,18178,1,0,3:0:0:0:
131,197,18259,1,8,3:0:0:0:
131,197,18584,5,4,3:2:0:0:
255,230,18746,1,2,0:0:0:0:
282,105,18908,1,8,0:0:0:0:
60,154,19070,2,0,P|44:219|34:312,1,160,4|8,3:2|0:0,0:0:0:0:
34,311,19557,1,8,0:0:0:0:
179,126,19719,2,0,P|163:191|153:284,1,160,4|8,3:2|0:0,0:0:0:0:
153,283,20205,1,8,0:0:0:0:
372,367,20367,1,0,3:0:0:0:
376,347,20449,1,0,3:0:0:0:
378,327,20530,1,8,3:2:0:0:
267,311,20854,1,8,0:0:0:0:
499,344,21178,5,6,0:0:0:0:
499,344,21827,1,6,0:0:0:0:
499,344,22476,6,0,P|490:303|487:261,1,80,8|0,0:0|0:0,0:0:0:0:
335,114,22800,2,0,P|344:155|347:197,1,80,8|0,0:0|0:0,0:0:0:0:
346,192,23124,2,0,L|267:203,1,80,8|0,0:0|0:0,0:0:0:0:
474,187,23449,1,8,3:0:0:0:
474,187,23530,1,8,0:0:0:0:
474,187,23611,1,8,0:0:0:0:
474,187,23773,6,0,P|482:142|483:106,1,80,4|8,3:2|0:0,0:0:0:0:
318,290,24097,2,0,P|310:335|309:371,1,80,0|8,3:0|0:0,0:0:0:0:
308,369,24421,1,0,0:0:0:0:
351,180,24584,2,0,P|274:168|186:164,1,160,8|8,0:0|0:0,0:0:0:0:
33,249,25070,5,0,3:0:0:0:
17,336,25232,1,8,0:0:0:0:
105,350,25394,1,0,3:0:0:0:
192,163,25557,1,8,0:0:0:0:
104,74,25719,2,0,P|64:75|24:68,1,80,0|8,3:0|0:0,0:0:0:0:
24,68,26043,2,0,L|31:23,2,40,0|0|8,3:0|3:0|0:0,0:0:0:0:
10,157,26367,5,0,3:0:0:0:
10,157,26530,1,8,0:0:0:0:
33,249,26692,1,0,3:0:0:0:
192,163,26854,2,0,P|149:154|115:145,1,80,8|0,0:0|3:0,0:0:0:0:
105,350,27178,2,0,P|148:359|182:368,1,80,8|0,0:0|3:0,0:0:0:0:
182,368,27503,1,8,0:0:0:0:
365,274,27665,5,0,3:0:0:0:
281,207,27827,2,0,P|261:239|264:290,1,80,8|0,0:0|3:0,0:0:0:0:
470,269,28151,2,0,P|490:237|487:186,1,80,8|0,0:0|3:0,0:0:0:0:
490,195,28476,1,8,0:0:0:0:
389,176,28638,1,0,3:0:0:0:
389,176,28719,1,0,3:0:0:0:
389,176,28800,1,8,0:0:0:0:
491,36,28962,6,0,P|452:27|412:23,1,80,0|8,3:0|0:0,0:0:0:0:
412,23,29286,1,0,3:0:0:0:
217,189,29449,2,0,P|256:198|296:202,1,80,8|0,0:0|3:0,0:0:0:0:
295,201,29773,2,0,L|306:116,1,80,8|0,0:0|3:0,0:0:0:0:
126,0,30097,6,0,P|77:29|84:123,1,160,10|8,0:0|0:0,0:0:0:0:
165,152,30584,5,0,3:0:0:0:
36,195,30746,1,8,0:0:0:0:
195,235,30908,5,0,3:0:0:0:
66,278,31070,1,8,0:0:0:0:
257,286,31232,5,0,3:0:0:0:
261,302,31313,1,0,3:0:0:0:
263,318,31394,1,8,0:0:0:0:
264,335,31476,1,0,3:0:0:0:
263,351,31557,5,4,3:2:0:0:
263,351,32205,1,4,3:2:0:0:
263,351,32854,1,4,3:2:0:0:
244,40,33178,1,4,3:2:0:0:
275,257,33503,5,4,3:2:0:0:
251,146,33665,1,0,3:0:0:0:
235,147,33746,1,0,3:0:0:0:
219,149,33827,1,8,0:0:0:0:
203,153,33908,1,0,3:0:0:0:
188,159,33989,1,0,3:0:0:0:
359,164,34151,5,4,3:2:0:0:
275,257,34313,2,0,P|267:296|266:336,1,80,8|0,0:0|3:0,0:0:0:0:
310,91,34638,2,0,P|317:51|318:11,1,80,8|0,0:0|3:0,0:0:0:0:
318,11,34962,2,0,P|240:24|149:30,1,160,8|8,0:0|0:0,0:0:0:0:
9,209,35449,5,0,3:0:0:0:
156,269,35611,1,8,0:0:0:0:
129,111,35773,2,0,P|114:147|100:194,1,80,0|8,3:0|0:0,0:0:0:0:
17,361,36097,2,0,P|32:325|46:278,1,80,0|8,3:0|0:0,0:0:0:0:
7,111,36421,1,0,3:0:0:0:
44,285,36584,1,8,0:0:0:0:
85,41,36746,6,0,P|147:29|247:22,1,160,4|8,3:2|0:0,0:0:0:0:
492,36,37232,2,0,P|429:47|330:55,1,160,4|0,3:2|3:0,0:0:0:0:
333,54,37719,1,8,0:0:0:0:
230,221,37881,2,0,P|221:183|218:141,1,80,4|2,3:2|0:0,0:0:0:0:
417,171,38205,5,0,3:0:0:0:
417,171,38367,1,8,0:0:0:0:
239,215,38530,2,0,P|230:177|227:135,1,80,4|2,3:2|0:0,0:0:0:0:
227,136,38854,1,0,3:0:0:0:
287,301,39016,1,8,0:0:0:0:
118,352,39178,1,2,0:0:0:0:
316,166,39340,6,0,P|331:81|335:3,1,160,4|8,3:2|3:2,0:0:0:0:
148,122,39827,2,0,L|233:136,1,80,4|8,3:2|3:0,0:0:0:0:
426,68,40151,1,0,3:0:0:0:
430,87,40232,1,0,3:0:0:0:
433,106,40313,2,0,P|421:181|415:266,1,160,4|0,3:2|0:0,0:0:0:0:
217,380,40800,5,8,0:0:0:0:
177,225,40962,1,8,0:0:0:0:
293,280,41124,1,8,0:0:0:0:
293,280,41205,1,8,0:0:0:0:
293,280,41286,2,0,L|244:292,1,40,8|0,3:2|0:0,0:0:0:0:
79,340,41449,5,8,0:0:0:0:
79,340,41611,2,0,P|61:257|55:182,1,160,2|4,0:1|3:2,0:0:0:0:
55,182,42097,1,2,0:0:0:0:
230,364,42259,1,8,0:0:0:0:
168,311,42421,6,0,P|150:228|144:153,1,160,4|8,3:2|0:2,0:0:0:0:
144,153,42908,1,8,0:0:0:0:
139,5,43070,6,0,P|104:16|59:23,1,80,8|0,0:0|0:0,0:0:0:0:
252,176,43394,2,0,P|287:165|332:158,1,80,8|0,0:0|0:0,0:0:0:0:
329,158,43719,2,0,L|312:322,1,160,12|8,0:0|0:0,0:0:0:0:
310,71,44205,2,0,L|356:77,2,40,8|0|0,3:0|3:0|3:0,0:0:0:0:
50,121,44530,5,4,3:2:0:0:
150,148,44692,1,2,0:0:0:0:
176,47,44854,1,8,0:0:0:0:
4,59,45016,2,0,P|9:129|13:221,1,160,4|0,3:2|3:0,0:0:0:0:
12,218,45503,1,8,0:0:0:0:
226,111,45665,6,0,P|267:107|310:98,1,80,4|2,3:2|0:0,0:0:0:0:
304,99,45989,1,0,3:0:0:0:
421,154,46151,5,8,0:0:0:0:
399,52,46313,1,0,3:0:0:0:
242,198,46476,5,8,0:0:0:0:
264,300,46638,1,0,3:0:0:0:
334,231,46800,1,8,0:0:0:0:
172,267,46962,1,0,3:0:0:0:
171,286,47043,1,0,3:0:0:0:
171,305,47124,6,0,P|177:339|182:386,1,80,4|2,3:2|0:0,0:0:0:0:
91,360,47449,1,8,0:0:0:0:
61,130,47611,2,0,P|139:117|219:112,1,160,4|0,3:2|3:0,0:0:0:0:
219,112,48016,2,0,L|213:154,1,40,0|8,3:0|3:0,0:0:0:0:
206,16,48259,5,4,3:2:0:0:
264,362,48584,1,4,3:2:0:0:
264,362,48908,2,0,P|336:353|428:349,1,160,4|8,0:0|0:0,0:0:0:0:
329,182,49394,5,8,0:0:0:0:
329,182,49476,1,0,3:0:0:0:
329,182,49557,1,0,3:0:0:0:
329,182,49638,1,0,3:0:0:0:
329,182,49719,1,4,3:2:0:0:
329,182,49881,2,0,L|326:222,2,40,2|0|8,0:0|0:0|0:0,0:0:0:0:
433,125,50205,5,8,0:0:0:0:
451,131,50286,1,8,0:0:0:0:
470,132,50367,1,0,3:0:0:0:
249,106,50530,1,0,3:0:0:0:
249,106,50692,2,0,P|209:100|164:96,1,80,8|8,3:2|0:0,0:0:0:0:
169,96,50935,1,8,0:0:0:0:
169,96,51016,2,0,P|129:92|89:86,1,80,0|8,3:2|0:0,0:0:0:0:
89,86,51259,2,0,P|67:83|41:80,1,40,8|0,0:0|3:0,0:0:0:0:
247,193,51503,1,8,0:0:0:0:
247,193,51584,1,8,0:0:0:0:
247,193,51665,2,0,P|240:231|237:279,1,80,0|0,3:0|3:0,0:0:0:0:
330,252,51989,1,8,3:2:0:0:
330,252,52151,1,0,3:0:0:0:
510,223,52313,5,4,3:2:0:0:
495,324,52476,1,8,0:0:0:0:
394,311,52638,1,0,3:0:0:0:
408,210,52800,1,8,0:0:0:0:
309,369,52962,2,0,P|232:354|151:341,1,160,8|2,0:0|0:0,0:0:0:0:
151,341,53367,1,0,3:0:0:0:
151,341,53449,1,8,3:0:0:0:
151,341,53530,1,2,0:0:0:0:
151,341,53611,5,4,3:2:0:0:
127,215,53773,1,8,0:0:0:0:
250,182,53935,1,0,3:0:0:0:
73,319,54097,1,8,0:0:0:0:
9,275,54259,2,0,P|11:191|21:105,1,160,8|8,0:0|3:0,0:0:0:0:
19,115,54908,6,0,P|25:74|27:33,1,80,12|0,0:0|0:0,0:0:0:0:
194,278,55232,2,0,P|188:319|186:360,1,80,12|0,0:0|0:0,0:0:0:0:
118,197,55557,6,0,P|177:188|236:180,2,120,8|8|8,0:0|0:0|0:0,0:0:0:0:
380,128,56205,6,0,P|389:183|397:294,1,160,4|8,3:2|3:2,0:0:0:0:
396,286,56611,1,0,3:0:0:0:
396,286,56692,1,0,3:0:0:0:
396,286,56773,1,0,3:0:0:0:
396,286,56854,2,0,P|434:277|477:270,1,80,8|0,3:2|3:0,0:0:0:0:
271,105,57178,1,8,3:2:0:0:
271,105,57259,1,0,3:0:0:0:
271,105,57340,2,0,P|233:114|190:121,1,80,0|4,3:0|0:1,0:0:0:0:
48,12,61394,6,0,P|44:93|34:180,1,160,2|0,0:0|0:0,0:0:0:0:
245,150,62205,1,2,3:2:0:0:
240,130,62286,1,2,3:2:0:0:
235,110,62367,2,0,P|197:107|156:101,1,80,2|0,3:2|0:0,0:0:0:0:
14,304,62692,5,4,3:2:0:0:
77,259,62854,2,0,P|119:262|166:273,1,88.000002685547,0|8,3:0|0:0,0:0:0:0:
446,182,63178,5,4,3:2:0:0:
383,227,63340,2,0,P|341:224|294:213,1,88.000002685547,0|8,3:0|0:0,0:0:0:0:
104,21,63665,5,4,3:2:0:0:
240,51,63827,1,0,3:0:0:0:
204,186,63989,1,8,0:0:0:0:
7,94,64151,6,0,P|9:50|21:7,1,88.000002685547,6|0,3:1|3:0,0:0:0:0:
20,7,64476,1,8,0:0:0:0:
126,266,64638,2,0,L|27:285,1,95.9999970703126,4|0,3:2|0:0,0:0:0:0:
240,51,64962,2,0,L|334:32,1,95.9999970703126,4|0,3:2|0:0,0:0:0:0:
500,274,65286,6,0,P|415:261|325:241,1,176.000005371094,4|8,3:2|0:0,0:0:0:0:
233,287,65773,2,0,P|225:326|221:376,1,88.000002685547,2|0,0:0|3:0,0:0:0:0:
313,112,66097,1,0,0:0:0:0:
221,166,66259,2,0,P|177:162|133:154,1,88.000002685547,8|0,0:0|0:0,0:0:0:0:
21,53,66584,6,0,P|9:129|-1:228,1,176.000005371094,2|8,3:2|0:0,0:0:0:0:
115,375,67070,1,0,3:0:0:0:
117,357,67151,1,8,0:0:0:0:
118,339,67232,1,0,3:0:0:0:
16,341,67394,1,0,3:0:0:0:
213,365,67557,2,0,P|257:371|300:376,1,88.000002685547,8|0,0:0|0:0,0:0:0:0:
300,376,67881,6,0,L|290:288,1,88.000002685547,4|0,3:2|0:0,0:0:0:0:
403,77,68205,1,8,0:0:0:0:
403,77,68367,2,0,L|413:164,1,88.000002685547,4|0,3:2|0:0,0:0:0:0:
413,164,68692,1,0,3:2:0:0:
263,116,68854,1,8,0:2:0:0:
502,147,69016,6,0,P|496:226|484:324,1,176.000005371094,4|0,3:2|3:0,0:0:0:0:
323,250,69503,2,0,P|326:207|334:162,1,88.000002685547,8|2,0:0|0:0,0:0:0:0:
72,67,69827,5,2,0:0:0:0:
126,124,70070,5,2,0:0:0:0:
148,48,70313,5,2,0:0:0:0:
94,208,70476,6,0,P|54:216|5:220,1,88.000002685547,4|0,3:2|0:0,0:0:0:0:
224,125,70800,2,0,P|264:117|313:113,1,88.000002685547,8|0,0:2|0:0,0:0:0:0:
310,113,71124,1,0,3:0:0:0:
310,113,71286,1,0,3:0:0:0:
310,113,71367,1,0,3:0:0:0:
310,113,71449,2,0,P|306:63|299:21,1,88.000002685547,8|0,0:0|0:0,0:0:0:0:
422,229,71773,6,0,P|415:270|411:319,1,88.000002685547,2|0,3:2|0:0,0:0:0:0:
502,289,72097,1,8,0:0:0:0:
332,232,72259,1,0,3:0:0:0:
326,248,72340,1,8,0:0:0:0:
325,268,72421,2,0,P|318:309|314:358,1,88.000002685547,0|0,3:2|0:0,0:0:0:0:
314,355,72746,2,0,P|272:348|224:344,1,88.000002685547,8|0,0:2|0:0,0:0:0:0:
40,369,73070,6,0,P|56:264|72:192,1,176.000005371094,2|8,3:2|0:0,0:0:0:0:
230,239,73557,2,0,P|187:254|133:264,1,88.000002685547,2|0,0:0|3:0,0:0:0:0:
128,47,73881,2,0,P|171:32|225:22,1,88.000002685547,2|8,0:0|0:0,0:0:0:0:
212,23,74205,1,0,3:0:0:0:
353,144,74367,5,8,0:0:0:0:
331,49,74530,1,0,3:0:0:0:
208,144,74692,5,8,0:0:0:0:
230,239,74855,1,0,3:0:0:0:
446,191,75016,5,8,0:0:0:0:
446,191,75178,1,0,3:0:0:0:
260,334,75340,5,8,0:0:0:0:
260,334,75502,1,0,3:0:0:0:
256,351,75584,1,0,3:0:0:0:
254,368,75665,6,0,P|209:372|158:382,1,88.000002685547,4|0,3:2|0:0,0:0:0:0:
338,166,75989,1,8,0:0:0:0:
371,239,76151,2,0,P|378:279|383:327,1,88.000002685547,2|0,0:0|3:0,0:0:0:0:
350,87,76476,2,0,P|343:47|338:-1,1,88.000002685547,2|8,0:0|0:0,0:0:0:0:
237,215,76800,6,0,P|149:221|62:234,1,176.000005371094,2|0,3:2|3:0,0:0:0:0:
39,68,77286,2,0,L|49:159,1,88.000002685547,8|0,0:0|3:0,0:0:0:0:
48,155,77530,1,8,0:0:0:0:
48,155,77611,2,0,P|89:146|139:141,1,88.000002685547,0|0,3:0|0:0,0:0:0:0:
122,352,77935,2,0,P|78:356|35:365,1,88.000002685547,8|0,0:0|0:0,0:0:0:0:
140,147,78259,5,8,0:0:0:0:
140,147,78421,1,8,0:0:0:0:
210,353,78584,1,8,0:0:0:0:
122,352,78746,6,0,P|110:311|103:266,1,88.000002685547,4|2,0:0|0:0,0:0:0:0:
103,266,79070,1,0,3:0:0:0:
291,367,79232,1,8,0:0:0:0:
210,353,79394,2,0,P|198:312|191:267,1,88.000002685547,4|0,0:0|0:0,0:0:0:0:
416,334,79719,5,0,3:0:0:0:
422,350,79800,1,0,3:0:0:0:
426,366,79881,1,8,0:0:0:0:
331,296,80043,1,2,0:0:0:0:
500,221,80205,5,2,0:0:0:0:
411,247,80449,5,2,0:0:0:0:
380,159,80692,5,2,0:0:0:0:
469,133,80854,6,0,P|475:92|475:39,1,88.000002685547,4|0,3:2|0:0,0:0:0:0:
475,45,81178,1,8,0:0:0:0:
272,42,81340,1,0,3:0:0:0:
272,42,81421,1,0,3:0:0:0:
272,42,81503,2,0,L|366:57,1,88.000002685547,0|0,3:0|0:0,0:0:0:0:
380,159,81827,2,0,L|293:145,1,88.000002685547,8|0,0:0|0:0,0:0:0:0:
13,153,82151,5,0,3:0:0:0:
154,199,82313,1,2,0:0:0:0:
129,36,82476,2,0,P|112:73|101:122,1,88.000002685547,8|0,0:0|3:0,0:0:0:0:
101,119,82719,1,8,0:0:0:0:
101,119,82800,1,0,3:0:0:0:
119,345,82962,1,0,3:0:0:0:
92,271,83124,2,0,P|48:276|5:286,1,88.000002685547,8|0,0:0|0:0,0:0:0:0:
209,328,83449,6,0,P|289:346|388:359,1,176.000005371094,2|8,3:2|0:0,0:0:0:0:
312,145,83935,2,0,P|302:186|296:232,1,88.000002685547,2|0,0:0|3:0,0:0:0:0:
470,121,84259,2,0,P|480:80|486:34,1,88.000002685547,2|8,0:0|0:0,0:0:0:0:
485,34,84584,1,0,3:0:0:0:
413,212,84746,6,0,P|456:220|506:234,1,88.000002685547,0|0,3:2|0:0,0:0:0:0:
266,60,85070,2,0,P|222:51|173:38,1,88.000002685547,8|0,0:2|3:0,0:0:0:0:
359,53,85394,2,0,P|348:116|334:187,2,132.00000402832,8|8|8,0:0|0:0|0:0,0:0:0:0:
473,126,86043,1,8,3:0:0:0:
473,126,86124,1,0,3:0:0:0:
473,126,86205,1,0,3:0:0:0:
241,154,86367,6,0,P|245:232|258:334,1,176.000005371094,4|0,3:2|3:0,0:0:0:0:
257,329,86854,1,2,0:0:0:0:
77,300,87016,2,0,L|165:284,1,88.000002685547,8|2,0:0|0:0,0:0:0:0:
159,149,87340,1,0,3:0:0:0:
58,214,87503,6,0,P|49:114|39:39,1,176.000005371094,2|0,0:0|3:0,0:0:0:0:
245,241,87989,2,0,P|252:281|257:336,1,88.000002685547,0|0,3:0|0:0,0:0:0:0:
163,284,88313,1,8,0:0:0:0:
337,253,88476,1,0,0:0:0:0:
181,368,88638,6,0,L|138:377,2,44.0000013427735,8|0|0,3:0|3:0|3:0,3:0:0:0:
433,292,88962,6,0,P|448:174|452:114,1,176.000005371094,4|0,3:2|3:0,0:0:0:0:
451,117,89449,1,2,0:0:0:0:
255,194,89611,1,8,0:0:0:0:
255,194,89773,2,0,L|170:215,1,88.000002685547,2|0,0:0|3:0,0:0:0:0:
362,212,90097,6,0,P|371:170|373:125,1,88.000002685547,2|8,0:0|0:0,0:0:0:0:
204,298,90421,2,0,P|195:340|192:384,1,88.000002685547,2|0,0:0|3:0,0:0:0:0:
192,384,90746,1,2,0:0:0:0:
282,353,90908,1,8,0:0:0:0:
101,268,91070,5,0,3:0:0:0:
97,289,91151,1,0,3:0:0:0:
93,310,91232,2,0,P|49:314|3:322,1,88.000002685547,0|0,3:0|0:0,0:0:0:0:
27,95,91557,2,0,P|30:138|38:182,1,88.000002685547,8|0,0:0|0:0,0:0:0:0:
38,182,91881,2,0,L|211:147,1,176.000005371094,0|8,3:0|0:0,0:0:0:0:
210,148,92367,1,0,0:0:0:0:
381,86,92530,6,0,P|378:41|366:-9,1,88.000002685547,2|0,3:2|0:0,0:0:0:0:
284,221,92854,2,0,P|287:266|299:316,1,88.000002685547,8|0,0:2|0:0,0:0:0:0:
296,307,93178,1,0,3:0:0:0:
210,334,93340,1,0,3:0:0:0:
38,182,93503,2,0,P|74:186|132:200,1,88.000002685547,8|0,0:0|0:0,0:0:0:0:
124,197,93827,5,4,3:2:0:0:
204,128,93989,2,0,P|202:80|193:36,1,88.000002685547,0|8,3:0|0:0,0:0:0:0:
376,15,94313,5,4,3:2:0:0:
296,84,94476,2,0,P|298:132|307:176,1,88.000002685547,0|8,3:0|0:0,0:0:0:0:
444,351,94800,5,4,3:2:0:0:
466,247,94962,1,0,3:0:0:0:
367,284,95124,1,8,0:0:0:0:
413,95,95286,6,0,P|451:98|500:109,1,88.000002685547,4|0,3:2|3:0,0:0:0:0:
499,108,95611,1,8,0:0:0:0:
190,117,95773,6,0,L|176:30,1,88.000002685547,12|0,3:2|0:0,0:0:0:0:
252,298,96097,2,0,L|265:384,1,88.000002685547,12|0,3:2|0:0,0:0:0:0:
305,184,96421,6,0,P|214:201|125:216,1,176.000005371094,12|2,3:2|0:0,0:0:0:0:
110,136,97070,2,0,P|200:118|290:104,1,176.000005371094,12|2,3:2|0:0,0:0:0:0:
283,105,97719,6,0,L|255:361,1,256,12|2,3:2|0:0,0:0:0:0:
256,192,102908,12,4,104449,3:2:0:0:
445,13,106476,5,8,3:0:0:0:
445,13,106557,1,8,3:0:0:0:
445,13,106638,1,8,3:0:0:0:
445,13,106719,1,0,3:0:0:0:
445,13,106800,5,8,3:2:0:0:
445,13,107449,1,8,3:2:0:0:
445,13,108097,2,0,P|448:51|457:100,1,80,8|0,3:2|0:0,0:0:0:0:
254,233,108421,2,0,P|251:195|242:146,1,80,8|0,3:2|0:0,0:0:0:0:
504,243,108746,2,0,P|423:256|339:274,1,160,8|8,3:2|0:0,0:0:0:0:
346,272,109151,1,0,3:0:0:0:
346,272,109232,1,0,3:0:0:0:
346,272,109394,6,0,P|349:233|357:192,1,80,6|0,3:2|3:0,0:0:0:0:
145,195,109719,1,0,3:0:0:0:
145,195,109800,1,8,3:0:0:0:
145,195,109881,1,0,3:0:0:0:
145,195,110043,2,0,P|184:198|224:206,1,80,2|0,3:2|3:0,0:0:0:0:
237,21,110367,1,0,3:0:0:0:
237,21,110448,1,8,3:0:0:0:
237,21,110529,1,0,3:0:0:0:
237,21,110692,6,0,P|197:17|157:9,1,80,2|0,3:2|3:0,0:0:0:0:
0,82,111016,1,0,3:0:0:0:
4,97,111097,1,8,3:0:0:0:
7,112,111178,1,0,3:0:0:0:
75,42,111340,2,0,P|85:77|94:127,1,80,2|0,3:2|3:0,0:0:0:0:
93,119,111665,2,0,L|140:105,2,40,0|8|0,3:0|3:0|3:0,0:0:0:0:
64,358,111989,5,2,3:2:0:0:
17,230,112151,1,0,3:2:0:0:
165,308,112313,1,0,3:0:0:0:
150,312,112394,1,8,3:0:0:0:
135,315,112475,1,0,3:2:0:0:
17,230,112638,2,0,P|55:219|94:210,1,80,2|0,3:2|3:0,0:0:0:0:
94,210,112962,1,0,3:0:0:0:
94,210,113043,1,8,3:0:0:0:
94,210,113124,1,0,3:0:0:0:
296,78,113286,6,0,P|257:88|218:97,1,80,2|0,3:2|3:0,0:0:0:0:
219,98,113610,1,0,3:0:0:0:
219,98,113691,1,8,3:0:0:0:
219,98,113772,1,0,3:0:0:0:
363,258,113935,1,2,3:2:0:0:
400,127,114097,1,0,3:0:0:0:
294,167,114259,2,0,P|313:172|333:179,2,40,0|8|0,3:0|3:0|3:0,0:0:0:0:
471,336,114584,6,0,P|463:295|459:254,1,80,2|0,3:2|3:2,0:0:0:0:
344,347,114908,1,0,3:0:0:0:
359,351,114989,1,8,3:0:0:0:
374,354,115070,1,0,3:2:0:0:
264,376,115232,6,0,P|260:336|253:297,1,80,2|0,3:2|3:2,0:0:0:0:
253,297,115557,2,0,P|248:277|247:257,1,40,0|8,3:0|3:0,0:0:0:0:
231,111,115719,5,4,3:2:0:0:
231,111,116043,2,0,P|191:120|152:126,1,80,2|0,0:1|0:0,0:0:0:0:
138,47,116367,1,2,0:1:0:0:
346,156,116530,1,0,3:0:0:0:
351,167,116611,1,0,3:0:0:0:
354,178,116692,1,8,3:0:0:0:
357,189,116773,1,0,3:0:0:0:
358,200,116854,1,8,3:0:0:0:
358,211,116935,1,0,3:0:0:0:
357,222,117016,1,8,3:0:0:0:
310,383,117178,5,12,3:2:0:0:
237,16,117827,1,12,3:2:0:0:
222,342,118476,5,12,3:2:0:0:
306,82,118800,1,12,3:2:0:0:
308,281,119124,5,12,3:2:0:0:
259,194,119286,1,0,3:0:0:0:
247,197,119367,1,0,3:0:0:0:
235,200,119449,1,8,3:2:0:0:
223,201,119530,1,0,3:0:0:0:
211,201,119611,1,0,3:0:0:0:
390,237,119773,6,0,P|427:242|472:254,1,80,4|8,3:2|0:0,0:0:0:0:
506,50,120097,1,0,3:0:0:0:
422,29,120259,2,0,P|414:62|408:109,1,80,8|0,0:0|3:0,0:0:0:0:
292,342,120584,2,0,P|300:309|306:262,1,80,8|0,0:0|3:0,0:0:0:0:
305,263,120908,1,8,0:0:0:0:
236,212,121070,5,0,3:0:0:0:
208,365,121232,2,0,P|172:354|130:348,1,80,8|0,0:0|3:0,0:0:0:0:
400,321,121557,2,0,P|436:332|478:338,1,80,8|0,0:0|3:0,0:0:0:0:
477,337,121881,1,8,0:0:0:0:
460,254,122043,1,0,3:0:0:0:
460,254,122205,1,8,0:0:0:0:
512,58,122367,6,0,P|434:63|354:79,1,160,4|8,3:2|0:0,0:0:0:0:
165,188,122854,2,0,P|243:203|323:209,1,160,4|8,3:2|0:0,0:0:0:0:
353,79,123340,1,8,0:0:0:0:
85,174,123503,6,0,P|79:210|75:265,1,80,4|0,3:2|0:0,0:0:0:0:
251,353,123827,1,0,3:0:0:0:
251,353,123989,1,8,0:0:0:0:
329,374,124151,6,0,P|335:338|339:283,1,80,4|0,3:2|0:0,0:0:0:0:
338,294,124476,1,0,3:0:0:0:
504,372,124638,2,0,L|424:360,1,80,8|2,0:0|0:0,0:0:0:0:
308,173,124962,6,0,P|344:125|446:120,1,160,4|8,3:2|0:0,0:0:0:0:
438,116,125449,2,0,P|429:197|418:275,1,160,4|8,3:2|0:0,0:0:0:0:
286,347,125935,2,0,P|210:359|128:377,1,160,4|0,3:2|0:0,0:0:0:0:
11,232,126421,5,0,3:0:0:0:
43,124,126584,1,0,3:0:0:0:
150,153,126746,1,8,0:0:0:0:
150,153,126827,1,8,0:0:0:0:
150,153,126908,2,0,L|138:204,1,40,0|0,3:0|3:0,0:0:0:0:
126,263,127070,1,0,3:2:0:0:
113,48,127232,6,0,P|188:67|276:82,1,160,2|4,0:1|3:2,0:0:0:0:
269,81,127719,1,8,0:0:0:0:
307,211,127881,1,8,0:0:0:0:
427,32,128043,6,0,P|388:37|345:48,1,80,4|0,3:2|0:0,0:0:0:0:
411,228,128367,1,8,0:0:0:0:
411,228,128530,1,8,0:0:0:0:
429,127,128692,6,0,P|467:139|509:150,1,80,4|0,3:2|0:0,0:0:0:0:
332,316,129016,2,0,P|294:304|252:293,1,80,4|0,3:2|0:0,0:0:0:0:
411,228,129340,2,0,P|427:295|445:390,1,160,4|0,3:2|3:0,0:0:0:0:
319,213,129827,1,8,0:0:0:0:
321,197,129908,1,0,3:0:0:0:
326,182,129989,1,0,3:0:0:0:
255,293,130151,6,0,P|216:303|178:315,1,80,4|2,3:2|0:0,0:0:0:0:
198,212,130476,1,8,0:0:0:0:
0,339,130638,6,0,P|69:366|160:385,1,160,4|0,3:2|3:0,0:0:0:0:
332,316,131124,1,8,0:0:0:0:
222,117,131286,6,0,P|143:133|69:162,1,160,4|0,3:2|3:0,0:0:0:0:
0,95,131773,6,0,P|14:56|21:11,1,80,8|0,0:0|3:0,0:0:0:0:
198,212,132097,2,0,P|184:250|177:296,1,80,8|0,0:0|3:0,0:0:0:0:
108,233,132421,1,8,0:0:0:0:
350,328,132584,5,0,3:0:0:0:
346,312,132665,1,8,0:0:0:0:
342,296,132746,2,0,L|260:277,1,80,4|0,3:2|3:0,0:0:0:0:
250,135,133070,1,8,0:0:0:0:
435,281,133232,2,0,P|453:192|459:116,1,160,4|0,3:2|3:0,0:0:0:0:
458,123,133638,1,0,3:0:0:0:
458,123,133719,1,8,3:0:0:0:
426,362,133881,6,0,P|461:369|504:383,1,80,4|0,3:2|0:0,0:0:0:0:
327,155,134205,2,0,P|287:146|249:134,1,80,4|0,3:2|0:0,0:0:0:0:
118,302,134530,2,0,P|173:315|238:232,1,160,4|0,3:2|3:0,0:0:0:0:
237,246,134935,2,0,P|231:225|225:197,1,40,0|8,3:0|0:0,0:0:0:0:
123,38,135178,5,0,3:0:0:0:
120,53,135259,1,0,3:0:0:0:
118,68,135340,2,0,P|124:105|131:151,1,80,4|8,3:2|0:0,0:0:0:0:
337,204,135665,1,0,3:0:0:0:
302,64,135827,5,8,0:0:0:0:
299,79,135908,1,0,3:0:0:0:
296,94,135989,2,0,P|258:100|213:107,1,80,0|8,3:2|0:0,0:0:0:0:
422,175,136313,2,0,P|459:168|505:162,1,80,0|8,3:2|0:0,0:0:0:0:
496,363,136638,5,0,3:0:0:0:
463,264,136800,1,8,0:0:0:0:
364,297,136962,1,0,3:0:0:0:
167,384,137124,5,8,0:0:0:0:
155,380,137205,1,0,3:0:0:0:
143,376,137286,2,0,P|136:336|133:297,1,80,0|8,3:0|0:0,0:0:0:0:
253,334,137611,1,8,3:2:0:0:
253,334,137773,1,0,3:0:0:0:
226,133,137935,5,4,3:2:0:0:
203,242,138097,1,8,0:0:0:0:
92,221,138259,1,0,3:0:0:0:
115,112,138421,1,8,0:0:0:0:
336,43,138584,2,0,P|348:112|352:214,1,160,8|8,0:0|3:0,0:0:0:0:
352,201,139232,5,0,3:0:0:0:
507,55,139394,2,0,P|470:49|427:40,1,80,10|0,2:1|0:0,0:0:0:0:
380,315,139719,1,8,0:0:0:0:
380,315,139881,2,0,P|417:321|460:330,1,80,8|0,0:0|0:0,0:0:0:0:
458,329,140205,6,0,P|448:231|441:137,1,191.999994140625,4|4,0:2|3:2,0:0:0:0:
441,137,140854,1,8,0:0:0:0:
317,254,141016,2,0,P|273:260|230:271,1,88.000002685547,2|0,0:0|3:0,0:0:0:0:
293,104,141340,2,0,P|336:97|379:86,1,88.000002685547,2|8,0:0|0:0,0:0:0:0:
379,86,141665,5,0,3:0:0:0:
379,86,141746,1,0,3:0:0:0:
379,86,141827,2,0,L|363:0,1,88.000002685547,0|0,3:0|0:0,0:0:0:0:
215,184,142151,2,0,L|230:270,1,88.000002685547,8|0,0:0|3:0,0:0:0:0:
230,270,142394,1,8,0:0:0:0:
230,270,142476,1,0,3:0:0:0:
311,211,142638,1,2,0:0:0:0:
136,246,142800,2,0,P|95:250|42:261,1,88.000002685547,8|0,0:0|0:0,0:0:0:0:
59,20,143124,6,0,P|109:35|122:164,1,176.000005371094,4|8,3:2|0:0,0:0:0:0:
136,144,143611,2,0,P|96:141|46:128,1,88.000002685547,4|0,3:2|0:0,0:0:0:0:
274,21,143935,2,0,P|314:24|364:37,1,88.000002685547,4|8,3:2|0:0,0:0:0:0:
443,10,144259,2,0,B|420:97|453:85|427:184,1,176.000005371094,6|0,3:2|3:0,0:0:0:0:
427,184,144665,1,0,3:0:0:0:
427,184,144746,1,8,0:0:0:0:
506,266,144908,1,2,0:0:0:0:
296,381,145070,5,2,0:0:0:0:
317,291,145313,5,2,0:0:0:0:
385,354,145557,5,2,0:0:0:0:
187,270,145719,6,0,P|179:227|181:180,1,88.000002685547,4|0,3:2|0:0,0:0:0:0:
125,107,146043,1,8,0:0:0:0:
335,35,146205,1,2,0:0:0:0:
346,185,146367,2,0,P|303:173|263:156,1,88.000002685547,0|0,3:0|3:0,0:0:0:0:
263,156,146611,1,0,3:0:0:0:
263,156,146692,2,0,L|251:62,1,88.000002685547,8|0,0:0|0:0,0:0:0:0:
475,178,147016,6,0,P|466:264|449:357,1,176.000005371094,2|8,3:2|0:0,0:0:0:0:
289,317,147503,1,0,3:0:0:0:
289,317,147584,1,8,0:0:0:0:
289,317,147665,2,0,L|379:307,1,88.000002685547,0|0,3:0|0:0,0:0:0:0:
376,307,147989,1,8,0:0:0:0:
396,222,148151,1,2,0:0:0:0:
212,249,148313,6,0,P|199:210|193:158,1,88.000002685547,0|0,3:2|0:0,0:0:0:0:
284,160,148638,1,8,0:0:0:0:
135,24,148800,2,0,P|109:86|83:200,1,176.000005371094,2|2,0:0|0:0,0:0:0:0:
162,336,149286,1,8,0:0:0:0:
6,354,149449,1,0,3:0:0:0:
11,337,149530,1,0,3:0:0:0:
16,320,149611,6,0,P|11:273|1:234,1,88.000002685547,8|0,0:2|3:0,0:0:0:0:
280,255,149935,2,0,P|285:302|295:341,1,88.000002685547,8|0,0:2|3:0,0:0:0:0:
295,341,150259,1,8,0:0:0:0:
147,254,150421,1,0,3:0:0:0:
335,120,150584,2,0,P|377:131|421:148,1,88.000002685547,8|0,0:0|3:0,0:0:0:0:
418,146,150827,6,0,L|463:140,1,44.0000013427735,8|4,0:0|3:2,0:0:0:0:
429,52,151232,1,8,0:0:0:0:
452,240,151394,2,0,P|444:282|440:329,1,88.000002685547,2|0,0:0|3:0,0:0:0:0:
440,327,151719,2,0,L|349:310,1,88.000002685547,2|8,0:0|0:0,0:0:0:0:
164,384,152043,5,0,3:0:0:0:
168,366,152124,1,0,3:0:0:0:
173,349,152205,2,0,L|264:331,1,88.000002685547,0|0,3:0|0:0,0:0:0:0:
78,258,152530,1,8,0:0:0:0:
19,318,152692,2,0,P|16:339|14:364,2,44.0000013427735,0|8|0,3:0|0:0|3:0,0:0:0:0:
19,318,153016,1,2,0:0:0:0:
37,156,153178,2,0,P|78:142|122:134,1,88.000002685547,8|0,0:0|0:0,0:0:0:0:
338,130,153503,5,4,3:2:0:0:
304,257,153665,1,8,0:0:0:0:
177,223,153827,1,8,0:0:0:0:
422,170,153989,2,0,P|432:209|436:261,1,88.000002685547,4|0,0:0|0:0,0:0:0:0:
250,177,154313,2,0,P|253:133|264:90,1,88.000002685547,4|8,0:0|0:0,0:0:0:0:
350,349,154638,6,0,P|270:365|169:376,1,176.000005371094,4|0,3:2|3:0,0:0:0:0:
176,375,155043,1,0,3:0:0:0:
176,375,155124,1,8,0:0:0:0:
292,275,155286,1,2,0:0:0:0:
127,252,155449,5,2,0:0:0:0:
104,355,155692,5,2,0:0:0:0:
0,335,155935,5,2,0:0:0:0:
23,232,156097,6,0,P|22:185|18:144,1,88.000002685547,4|0,3:2|0:0,0:0:0:0:
151,13,156421,1,8,0:0:0:0:
121,132,156584,1,0,3:0:0:0:
137,138,156665,1,0,3:0:0:0:
153,144,156746,2,0,P|196:134|240:131,1,88.000002685547,0|2,3:0|0:0,0:0:0:0:
424,11,157070,2,0,P|381:20|337:24,1,88.000002685547,8|0,0:0|0:0,0:0:0:0:
314,179,157394,6,0,P|326:269|346:355,1,176.000005371094,2|8,3:2|0:0,0:0:0:0:
413,236,157881,2,0,L|464:224,2,44.0000013427735,0|8|0,3:0|0:0|3:0,0:0:0:0:
236,351,158205,1,2,0:0:0:0:
184,255,158367,2,0,P|143:242|99:236,1,88.000002685547,8|0,0:0|0:0,0:0:0:0:
27,194,158692,6,0,B|34:288|3:268|14:368,1,176.000005371094,2|8,3:2|0:0,0:0:0:0:
105,361,159178,1,2,0:0:0:0:
116,133,159340,2,0,P|80:116|29:103,1,88.000002685547,0|2,3:0|0:0,0:0:0:0:
33,103,159665,1,8,0:0:0:0:
228,36,159827,5,0,3:0:0:0:
228,36,159908,1,0,3:0:0:0:
228,36,159989,2,0,P|239:70|247:123,1,88.000002685547,0|0,3:0|0:0,0:0:0:0:
209,351,160313,2,0,P|198:317|190:264,1,88.000002685547,8|0,0:0|3:0,0:0:0:0:
359,170,160638,2,0,P|430:179|489:192,2,132.00000402832,8|8|8,0:0|0:0|0:0,0:0:0:0:
446,52,161286,5,8,3:0:0:0:
447,69,161367,1,0,3:0:0:0:
445,86,161449,1,0,3:0:0:0:
298,265,161611,6,0,P|251:260|211:151,1,176.000005371094,4|0,3:2|3:0,0:0:0:0:
210,152,162097,1,0,0:0:0:0:
403,284,162259,2,0,P|395:328|381:369,1,88.000002685547,8|2,0:0|0:0,0:0:0:0:
359,170,162584,6,0,L|451:189,1,88.000002685547,0|2,3:0|0:0,0:0:0:0:
198,238,162908,2,0,P|154:244|112:254,1,88.000002685547,8|2,0:0|0:0,0:0:0:0:
111,254,163151,1,8,0:0:0:0:
111,254,163232,2,0,L|128:341,1,88.000002685547,0|0,3:0|0:0,0:0:0:0:
89,144,163557,1,8,0:0:0:0:
89,144,163719,1,0,3:0:0:0:
65,42,163881,6,0,L|21:36,2,44.0000013427735,8|0|0,3:0|3:0|3:0,0:0:0:0:
285,163,164205,6,0,P|299:225|316:342,1,176.000005371094,4|0,3:2|3:0,0:0:0:0:
427,259,164692,1,0,0:0:0:0:
357,100,164854,2,0,P|394:89|446:82,1,88.000002685547,8|2,0:0|0:0,0:0:0:0:
224,8,165178,6,0,P|212:43|205:97,1,88.000002685547,0|2,3:0|0:0,0:0:0:0:
134,203,165503,2,0,P|128:159|115:117,1,88.000002685547,8|2,0:0|0:0,0:0:0:0:
115,117,165827,1,0,3:0:0:0:
246,218,165989,1,2,0:0:0:0:
93,297,166151,2,0,P|48:290|7:273,1,88.000002685547,8|0,0:0|3:0,0:0:0:0:
8,274,166394,5,8,0:0:0:0:
8,274,166476,1,4,3:2:0:0:
246,218,166800,1,8,0:0:0:0:
36,179,166962,2,0,P|22:79|21:-3,1,176.000005371094,4|0,3:2|3:0,0:0:0:0:
181,317,167449,2,0,P|141:333|94:346,1,88.000002685547,8|0,0:0|3:0,0:0:0:0:
279,358,167773,5,0,3:2:0:0:
188,107,167935,2,0,P|260:123|360:160,1,176.000005371094,4|0,3:2|3:0,0:0:0:0:
496,43,168421,6,0,P|491:20|487:-7,2,44.0000013427735,8|2|0,0:0|0:0|3:0,0:0:0:0:
409,12,168746,2,0,P|412:34|418:55,1,44.0000013427735,0|0,3:0|3:0,0:0:0:0:
439,141,168908,1,8,0:0:0:0:
501,338,169070,6,0,P|415:359|328:370,1,176.000005371094,4|8,3:2|0:0,0:0:0:0:
170,212,169557,2,0,P|184:170|210:129,1,88.000002685547,0|0,0:0|3:0,0:0:0:0:
206,350,169881,1,2,0:0:0:0:
110,373,170043,2,0,P|67:368|21:355,1,88.000002685547,8|0,0:0|0:0,0:0:0:0:
230,260,170367,6,0,P|272:248|316:243,1,88.000002685547,0|0,3:0|0:0,0:0:0:0:
316,243,170692,1,8,0:0:0:0:
442,101,170854,1,0,3:0:0:0:
439,118,170935,1,8,0:0:0:0:
436,135,171016,2,0,P|445:177|450:225,1,88.000002685547,0|0,3:0|0:0,0:0:0:0:
266,144,171340,1,8,0:0:0:0:
266,144,171503,1,0,3:0:0:0:
460,25,171665,6,0,P|384:11|282:4,1,176.000005371094,4|8,3:2|0:0,0:0:0:0:
57,113,172151,2,0,P|72:168|178:188,1,176.000005371094,4|0,3:2|3:0,0:0:0:0:
180,63,172638,1,8,0:0:0:0:
262,244,172800,6,0,P|261:288|250:331,1,88.000002685547,4|0,3:2|0:0,0:0:0:0:
489,252,173124,1,0,3:0:0:0:
425,163,173286,2,0,L|336:179,1,88.000002685547,8|0,0:0|3:0,0:0:0:0:
338,178,173530,1,8,0:0:0:0:
338,178,173611,1,0,3:0:0:0:
101,321,173773,1,0,3:0:0:0:
30,244,173935,2,0,P|38:199|56:159,1,88.000002685547,8|0,0:0|0:0,0:0:0:0:
292,48,174259,5,4,3:2:0:0:
235,184,174421,1,0,0:0:0:0:
217,62,174584,2,0,P|175:50|127:45,1,88.000002685547,8|2,0:0|0:0,0:0:0:0:
131,45,175070,1,0,3:0:0:0:
364,124,175232,2,0,P|380:82|393:37,1,88.000002685547,8|0,0:0|0:0,0:0:0:0:
441,266,175557,5,0,3:0:0:0:
292,241,175719,2,0,P|299:283|314:325,1,88.000002685547,2|8,0:0|0:0,0:0:0:0:
384,142,176043,2,0,L|432:131,2,44.0000013427735,0|8|0,3:0|0:0|3:0,0:0:0:0:
423,240,176367,1,0,3:0:0:0:
278,163,176530,2,0,P|238:171|194:189,1,88.000002685547,8|0,0:0|0:0,0:0:0:0:
29,339,176854,5,0,3:0:0:0:
29,339,177016,1,2,0:0:0:0:
68,237,177178,1,8,0:0:0:0:
178,359,177340,2,0,P|221:375|274:381,2,88.000002685547,2|0|2,0:0|3:0|0:0,0:0:0:0:
213,270,177827,1,8,0:0:0:0:
371,355,177989,1,2,0:0:0:0:
467,281,178151,6,0,P|459:242|438:196,1,88.000002685547,8|0,3:2|0:0,0:0:0:0:
466,100,178476,2,0,L|380:124,1,88.000002685547,8|0,0:0|0:0,0:0:0:0:
126,181,178800,5,8,0:0:0:0:
185,65,178962,1,0,3:0:0:0:
247,216,179124,5,8,0:0:0:0:
82,274,179286,1,0,3:0:0:0:
66,266,179367,1,8,0:0:0:0:
50,255,179449,2,0,P|39:213|33:168,1,88.000002685547,4|0,3:2|0:0,0:0:0:0:
140,141,179773,1,8,0:0:0:0:
90,354,179935,2,0,P|162:363|270:386,1,176.000005371094,2|2,0:0|0:0,0:0:0:0:
408,243,180421,2,0,P|399:194|390:154,1,88.000002685547,8|0,0:0|0:0,0:0:0:0:
282,238,180746,5,0,3:0:0:0:
282,238,180827,2,2,L|232:255,1,44.0000013427735
353,335,181070,2,0,P|392:352|441:365,1,88.000002685547,8|0,0:0|0:0,0:0:0:0:
510,169,181394,1,0,3:0:0:0:
447,55,181557,1,0,3:0:0:0:
363,124,181719,2,0,P|370:165|385:211,1,88.000002685547,8|0,0:0|0:0,0:0:0:0:
297,44,182043,6,0,P|221:22|123:9,1,176.000005371094,4|8,3:2|0:0,0:0:0:0:
13,176,182530,2,0,P|16:213|28:264,1,88.000002685547,12|0,0:0|0:0,0:0:0:0:
27,262,182854,1,0,3:0:0:0:
116,148,183016,1,8,0:0:0:0:
192,287,183178,6,0,P|174:331|57:364,1,176.000005371094,4|0,3:2|3:0,0:0:0:0:
18,292,183665,1,8,0:0:0:0:
202,187,183827,2,0,P|244:196|284:215,1,88.000002685547,2|0,0:0|3:0,0:0:0:0:
425,360,184151,1,2,0:0:0:0:
339,378,184313,2,0,P|348:331|366:291,1,88.000002685547,8|0,0:0|0:0,0:0:0:0:
229,88,184638,6,0,P|220:42|203:2,2,88.000002685547,0|2|8,3:0|0:0|0:0,0:0:0:0:
442,55,185124,2,0,P|401:47|356:28,1,88.000002685547,2|0,0:0|3:0,0:0:0:0:
190,172,185449,1,2,0:0:0:0:
262,239,185611,2,0,P|303:231|348:212,1,88.000002685547,8|0,0:0|0:0,0:0:0:0:
345,213,185935,5,0,3:0:0:0:
308,112,186097,1,2,0:0:0:0:
241,275,186259,2,0,P|237:313|225:364,1,88.000002685547,8|0,0:0|3:0,0:0:0:0:
225,361,186503,2,0,L|177:351,1,44.0000013427735,8|0,0:0|3:0,0:0:0:0:
335,322,186746,1,2,0:0:0:0:
143,190,186908,2,0,P|102:196|56:214,1,88.000002685547,8|0,0:0|0:0,0:0:0:0:
58,212,187232,6,0,P|30:93|23:33,1,176.000005371094,2|8,3:2|0:0,0:0:0:0:
265,238,187719,1,2,0:0:0:0:
198,319,187881,1,0,3:0:0:0:
198,319,188043,1,2,0:0:0:0:
346,376,188205,2,0,P|387:367|430:350,1,88.000002685547,8|0,0:0|0:0,0:0:0:0:
504,165,188530,6,0,P|484:115|370:116,1,176.000005371094,2|8,3:2|0:0,0:0:0:0:
265,238,189016,5,0,3:0:0:0:
257,254,189097,1,0,3:0:0:0:
251,270,189178,1,8,3:2:0:0:
247,287,189259,1,0,3:0:0:0:
244,304,189340,1,0,3:0:0:0:
244,321,189421,1,0,3:0:0:0:
245,338,189503,2,0,P|266:346|295:352,4,44.0000013427735,8|0|0|0|4,3:2|3:0|3:0|3:0|3:2,0:0:0:0:
107,210,199232,6,0,L|55:219,2,40,0|0|2,0:0|0:0|0:0,0:0:0:0:
210,116,200205,6,0,P|151:102|82:75,1,128,2|2,3:2|3:2,0:0:0:0:
184,232,200854,1,8,0:0:0:0:
184,232,201178,2,0,P|195:278|202:373,1,128,2|2,0:0|3:2,0:0:0:0:
202,358,201827,1,2,3:2:0:0:
321,273,202151,1,8,0:0:0:0:
321,273,202476,2,0,L|387:260,1,64,2|0,0:0|0:0,0:0:0:0:
468,265,202800,6,0,P|483:193|489:137,1,128,2|2,3:2|3:2,0:0:0:0:
360,24,203449,2,0,P|304:24|260:79,1,128,8|2,0:0|0:0,0:0:0:0:
337,138,204097,5,2,3:2:0:0:
245,202,204421,1,2,3:2:0:0:
396,217,204746,2,0,P|405:258|409:351,1,128,8|2,0:0|0:0,0:0:0:0:
206,300,205394,6,0,P|254:291|308:279,2,96,2|2|2,3:2|0:0|0:0,0:0:0:0:
105,326,206043,2,0,P|90:295|146:226,1,128,8|2,0:0|0:0,0:0:0:0:
276,63,206692,5,2,3:2:0:0:
276,63,206854,1,0,0:0:0:0:
276,63,207016,2,0,P|288:121|292:195,1,128,2|8,3:2|0:0,0:0:0:0:
446,108,207665,2,0,P|417:114|381:117,1,64,2|0,0:0|0:0,0:0:0:0:
206,167,207989,6,0,P|192:224|186:299,1,128,2|2,3:2|3:2,0:0:0:0:
66,151,208638,2,0,P|80:94|85:38,2,96,8|2|2,0:2|0:2|0:0,0:0:0:0:
292,206,209286,5,0,3:0:0:0:
292,206,209611,2,0,L|357:217,2,64,0|0|10,3:0|0:0|0:0,0:0:0:0:
199,335,210584,5,4,3:2:0:0:
122,277,210746,2,0,P|85:281|42:295,1,80,0|8,3:0|0:0,0:0:0:0:
210,133,211070,5,4,3:2:0:0:
280,67,211232,2,0,P|296:69|319:77,2,40,0|0|8,3:0|3:0|0:0,0:0:0:0:
98,181,211557,5,4,3:2:0:0:
10,76,211719,1,0,3:0:0:0:
145,52,211881,1,8,0:0:0:0:
274,286,212043,5,6,3:1:0:0:
362,181,212205,1,0,3:0:0:0:
227,157,212367,1,8,0:0:0:0:
439,271,212530,5,4,3:2:0:0:
446,257,212611,1,0,3:0:0:0:
452,242,212692,1,0,3:0:0:0:
457,226,212773,1,0,3:0:0:0:
460,210,212854,1,10,3:2:0:0:
461,194,212935,1,2,3:2:0:0:
461,178,213016,1,2,3:2:0:0:
459,162,213097,1,2,3:2:0:0:
456,149,213178,6,0,P|480:242|512:323,1,176.000005371094,4|8,3:2|0:0,0:0:0:0:
347,83,213665,2,0,P|383:63|427:47,1,88.000002685547,2|0,0:0|3:0,0:0:0:0:
297,262,213989,1,2,0:0:0:0:
195,185,214151,2,0,P|201:141|214:99,1,88.000002685547,8|0,0:0|0:0,0:0:0:0:
188,326,214476,6,0,P|146:334|102:345,1,88.000002685547,2|0,3:2|0:0,0:0:0:0:
344,356,214800,2,0,P|386:348|430:337,1,88.000002685547,8|0,0:2|3:0,0:0:0:0:
429,337,215043,1,8,0:0:0:0:
429,337,215124,2,0,L|413:248,1,88.000002685547,0|0,3:0|0:0,0:0:0:0:
371,53,215449,1,8,0:0:0:0:
371,53,215611,1,0,3:0:0:0:
501,208,215773,6,0,P|450:216|328:254,1,176.000005371094,4|8,3:2|0:0,0:0:0:0:
146,50,216259,2,0,P|185:101|297:128,1,176.000005371094,4|0,3:2|3:0,0:0:0:0:
354,34,216746,1,8,0:0:0:0:
186,195,216908,6,0,B|165:294|200:271|179:373,1,176.000005371094,4|0,3:2|0:0,0:0:0:0:
179,369,217394,1,8,0:0:0:0:
84,326,217557,1,2,0:0:0:0:
339,290,217719,5,2,0:0:0:0:
405,354,217962,5,2,0:0:0:0:
316,379,218205,5,2,0:0:0:0:
69,210,218367,6,0,P|86:101|106:33,1,176.000005371094,4|8,3:2|0:0,0:0:0:0:
338,22,218854,1,0,3:0:0:0:
336,39,218935,1,0,3:0:0:0:
334,56,219016,2,0,P|290:68|247:86,1,88.000002685547,0|0,3:0|0:0,0:0:0:0:
251,84,219340,1,8,0:0:0:0:
406,152,219503,1,0,3:0:0:0:
195,171,219665,6,0,P|200:238|222:344,1,176.000005371094,2|8,3:2|0:0,0:0:0:0:
33,351,220151,1,0,3:0:0:0:
33,351,220232,1,8,0:0:0:0:
33,351,220313,2,0,L|123:326,1,88.000002685547,0|0,3:0|0:0,0:0:0:0:
61,107,220638,2,0,P|48:149|30:194,1,88.000002685547,8|0,0:0|0:0,0:0:0:0:
208,157,220962,6,0,P|241:107|369:102,1,176.000005371094,0|8,3:2|0:0,0:0:0:0:
478,228,221449,2,0,P|451:267|434:305,1,88.000002685547,2|0,0:0|3:0,0:0:0:0:
413,39,221773,2,0,L|509:16,1,88.000002685547,2|8,0:0|0:0,0:0:0:0:
444,136,222097,1,2,0:0:0:0:
234,130,222259,5,8,0:0:0:0:
328,35,222421,1,0,3:0:0:0:
338,180,222584,5,8,0:0:0:0:
168,237,222746,2,0,P|124:230|80:213,1,88.000002685547,0|8,3:0|0:0,0:0:0:0:
246,155,223070,1,0,3:0:0:0:
152,324,223232,1,8,0:0:0:0:
34,335,223394,5,0,3:0:0:0:
51,330,223476,1,0,3:0:0:0:
67,325,223557,2,0,P|146:340|251:364,1,176.000005371094,4|8,3:2|0:0,0:0:0:0:
404,280,224043,2,0,P|397:233|381:189,1,88.000002685547,2|0,0:0|3:0,0:0:0:0:
218,82,224367,1,2,0:0:0:0:
294,20,224530,2,0,P|323:25|379:47,1,88.000002685547,8|0,0:0|0:0,0:0:0:0:
203,176,224854,6,0,B|105:175|126:150|25:150,1,176.000005371094,2|8,3:2|0:0,0:0:0:0:
111,47,225340,1,0,3:0:0:0:
111,47,225421,1,0,3:0:0:0:
111,47,225503,2,0,P|113:88|124:133,1,88.000002685547,0|0,3:0|0:0,0:0:0:0:
95,281,225827,2,0,L|5:261,1,88.000002685547,8|0,0:0|0:0,0:0:0:0:
254,376,226151,6,0,P|283:273|296:198,1,176.000005371094,4|8,3:2|0:0,0:0:0:0:
427,138,226638,2,0,P|465:158|508:175,1,88.000002685547,12|0,0:0|0:0,0:0:0:0:
297,41,226962,1,8,0:0:0:0:
313,181,227124,1,0,3:0:0:0:
117,229,227286,6,0,P|152:286|263:282,1,176.000005371094,4|0,3:2|3:0,0:0:0:0:
253,289,227692,2,0,L|242:242,1,44.0000013427735,0|10,3:0|0:0,0:0:0:0:
46,22,228097,5,2,0:0:0:0:
20,124,228340,5,2,0:0:0:0:
122,149,228584,5,2,0:0:0:0:
148,47,228746,6,0,P|189:37|237:32,1,88.000002685547,4|0,3:2|0:0,0:0:0:0:
130,249,229070,2,0,P|88:258|41:264,1,88.000002685547,8|0,0:2|0:0,0:0:0:0:
43,263,229394,1,0,3:0:0:0:
180,319,229557,1,0,3:0:0:0:
185,335,229638,1,0,3:0:0:0:
190,351,229719,2,0,P|233:366|276:378,1,88.000002685547,8|0,0:0|0:0,0:0:0:0:
408,384,230043,6,0,P|386:262|374:210,1,176.000005371094,2|8,3:2|0:0,0:0:0:0:
450,145,230530,2,0,L|494:159,2,44.0000013427735,0|8|0,3:0|0:0|3:0,0:0:0:0:
262,99,230854,1,0,3:0:0:0:
340,26,231016,2,0,P|377:7|432:0,1,88.000002685547,8|0,0:0|0:0,0:0:0:0:
185,148,231340,6,0,P|176:220|153:329,1,176.000005371094,2|8,3:2|0:0,0:0:0:0:
155,321,231827,2,0,P|118:299|72:282,1,88.000002685547,2|0,0:0|3:0,0:0:0:0:
278,201,232151,2,0,P|316:222|357:238,1,88.000002685547,2|8,0:0|0:0,0:0:0:0:
357,238,232476,1,0,0:0:0:0:
262,26,232638,6,0,P|249:68|241:113,1,88.000002685547,2|0,3:2|0:0,0:0:0:0:
336,88,232962,1,8,0:0:0:0:
148,188,233124,1,0,3:0:0:0:
264,227,233286,2,0,P|274:294|281:359,2,132.00000402832,8|8|8,0:0|0:0|0:0,0:0:0:0:
86,132,233935,5,8,3:0:0:0:
68,134,234016,1,0,3:0:0:0:
53,143,234097,1,0,3:0:0:0:
243,100,234259,6,0,P|322:125|421:148,1,176.000005371094,4|0,3:2|3:0,0:0:0:0:
412,146,234746,1,0,0:0:0:0:
495,305,234908,2,0,P|457:316|412:335,1,88.000002685547,8|0,0:0|0:0,0:0:0:0:
366,239,235232,1,0,3:0:0:0:
271,382,235394,2,0,P|256:289|256:206,1,176.000005371094,2|2,0:0|0:0,0:0:0:0:
113,98,235881,2,0,P|69:106|26:122,1,88.000002685547,0|0,3:0|0:0,0:0:0:0:
64,208,236205,2,0,P|74:247|78:295,1,88.000002685547,8|0,0:0|0:0,0:0:0:0:
269,82,236530,5,8,3:0:0:0:
275,66,236611,1,0,3:0:0:0:
278,47,236692,1,0,3:0:0:0:
170,221,236854,6,0,P|195:268|320:265,1,176.000005371094,4|0,3:2|3:0,0:0:0:0:
349,201,237340,1,2,0:0:0:0:
349,201,237503,1,8,0:0:0:0:
481,289,237665,6,0,P|471:331|450:373,1,88.000002685547,2|0,0:0|3:0,0:0:0:0:
427,146,237989,2,0,P|470:134|513:127,1,88.000002685547,2|8,0:0|0:0,0:0:0:0:
304,22,238313,2,0,P|291:59|284:110,1,88.000002685547,2|0,0:0|3:0,0:0:0:0:
284,107,238638,1,0,0:0:0:0:
329,286,238800,2,0,P|342:249|349:198,1,88.000002685547,8|0,0:0|0:0,0:0:0:0:
187,70,239124,6,0,P|140:65|55:152,1,176.000005371094,2|8,3:2|0:0,0:0:0:0:
141,206,239611,1,0,0:0:0:0:
11,268,239773,2,0,P|0:309|-4:354,1,88.000002685547,0|0,3:0|0:0,0:0:0:0:
38,151,240097,2,0,P|49:110|53:65,1,88.000002685547,8|0,0:0|0:0,0:0:0:0:
142,308,240421,6,0,P|210:330|320:345,1,176.000005371094,2|8,3:2|0:0,0:0:0:0:
460,319,240908,2,0,L|466:364,2,44.0000013427735,0|8|0,3:0|0:0|3:0,0:0:0:0:
339,215,241232,1,0,3:0:0:0:
398,143,241394,2,0,P|440:151|480:170,1,88.000002685547,8|0,0:0|0:0,0:0:0:0:
310,21,241719,5,4,3:2:0:0:
211,76,241881,2,0,P|196:114|188:161,1,88.000002685547,0|8,3:0|0:0,0:0:0:0:
210,361,242205,5,4,3:2:0:0:
111,306,242367,2,0,P|96:268|88:221,1,88.000002685547,0|8,3:0|0:0,0:0:0:0:
325,311,242692,6,0,L|415:331,2,88.000002685547,4|0|8,3:2|3:0|0:0,0:0:0:0:
69,202,243178,5,4,3:2:0:0:
53,79,243340,1,0,3:0:0:0:
167,126,243503,1,8,0:0:0:0:
442,124,243665,6,0,P|452:80|454:30,1,88.000002685547,4|0,3:2|0:0,0:0:0:0:
221,246,243989,2,0,P|211:290|209:340,1,88.000002685547,4|0,3:2|0:0,0:0:0:0:
337,182,244313,5,8,3:0:0:0:
337,182,244394,1,0,3:0:0:0:
337,182,244476,1,0,3:0:0:0:
337,182,244638,2,0,P|259:165|161:153,1,176.000005371094,4|8,3:2|0:0,0:0:0:0:
163,153,245043,1,8,0:0:0:0:
163,153,245124,1,8,0:0:0:0:
163,153,245205,1,8,0:0:0:0:
163,153,245286,2,0,L|169:207,2,44.0000013427735,0|0|0,3:0|3:0|3:0,0:0:0:0:
3,184,245611,5,4,3:2:0:0:
