osu file format v14

[General]
AudioFilename: audio.mp3
AudioLeadIn: 0
PreviewTime: 140475
Countdown: 0
SampleSet: Soft
StackLeniency: 0.7
Mode: 0
LetterboxInBreaks: 0
WidescreenStoryboard: 0

[Editor]
DistanceSpacing: 1.2
BeatDivisor: 8
GridSize: 32
TimelineZoom: 2.799999

[Metadata]
Title:Kokuhaku Bungee Jump
TitleUnicode:告白バンジージャンプ
Artist:halca
ArtistUnicode:halca
Creator:Yogurtt
Version:Sentimental Crisis
Source:彼女、お借りします
Tags:rent-a-girlfriend i'd like to borrow a girlfriend kanokari kanojo okarishimasu ed ending 2 full anime japanese pop jpop j-pop uniform devinL flowziee
BeatmapID:2719875
BeatmapSetID:1312335

[Difficulty]
HPDrainRate:6
CircleSize:4.2
OverallDifficulty:9
ApproachRate:9.3
SliderMultiplier:2
SliderTickRate:1

[Events]
//Background and Video events
0,0,"1086722.jpg",0,0
//Break Periods
2,57689,61637
2,190013,199637
//Storyboard Layer 0 (Background)
//Storyboard Layer 1 (Fail)
//Storyboard Layer 2 (Pass)
//Storyboard Layer 3 (Foreground)
//Storyboard Layer 4 (Overlay)
//Storyboard Sound Samples

[TimingPoints]
408,324.324324324324,4,2,1,40,1,0
408,-125,4,2,1,40,0,0
3894,-125,4,2,1,5,0,0
3975,-125,4,2,1,40,0,0
6569,-125,4,2,1,5,0,0
6894,-125,4,2,1,40,0,0
7786,-125,4,2,1,5,0,0
7867,-125,4,2,1,40,0,0
10137,-166.666666666667,4,2,1,40,0,0
10623,-166.666666666667,4,2,1,5,0,0
10786,-100,4,2,1,70,0,0
15326,-100,4,2,1,5,0,0
15489,-100,4,2,1,70,0,0
19218,-100,4,2,1,5,0,0
19380,-100,4,2,1,70,0,0
19867,-100,4,2,1,5,0,0
20029,-100,4,2,1,70,0,0
20516,-83.3333333333333,4,2,1,70,0,0
20759,-83.3333333333333,4,2,1,5,0,0
20840,-71.4285714285714,4,2,1,70,0,0
21083,-71.4285714285714,4,2,1,5,0,0
21164,-100,4,2,1,70,0,0
30326,-100,4,2,1,5,0,0
30407,-74.0740740740741,4,2,1,70,0,0
30894,-86.9565217391304,4,2,1,70,0,0
33651,-100,4,2,1,70,0,0
39569,-100,4,2,1,5,0,0
39651,-100,4,2,1,70,0,0
41840,-100,4,2,1,5,0,0
41921,-100,4,2,2,70,0,0
42083,-100,4,2,1,70,0,0
42407,-100,4,2,2,70,0,0
42650,-100,4,2,2,5,0,0
42732,-100,4,2,2,70,0,0
43705,-100,4,2,2,70,0,0
44191,-100,4,2,1,70,0,0
47110,-100,4,2,2,70,0,0
47272,-100,4,2,1,70,0,0
47597,-100,4,2,3,70,0,0
47840,-100,4,2,3,5,0,0
47921,-100,4,2,1,70,0,0
48245,-100,4,2,2,70,0,0
49705,-100,4,2,1,70,0,0
53110,-100,4,2,1,5,0,0
53272,-100,4,2,1,70,0,0
54407,-100,4,2,1,5,0,0
54570,-100,4,2,1,70,0,0
54813,-100,4,2,1,5,0,0
54894,-100,4,2,1,70,0,0
55380,-100,4,2,1,5,0,0
55543,-100,4,2,1,70,0,0
55705,-100,4,2,1,5,0,0
55786,-100,4,2,1,70,0,0
55948,-100,4,2,1,5,0,0
56029,-100,4,2,1,70,0,0
56110,-100,4,2,1,5,0,0
56191,-100,4,2,1,70,0,0
56434,-100,4,2,1,5,0,0
56516,-100,4,2,1,70,0,0
62191,-100,4,2,1,70,0,0
62596,-100,4,2,1,5,0,0
62678,-100,4,2,1,70,0,0
64948,-66.6666666666667,4,2,1,70,0,0
65191,-66.6666666666667,4,2,1,5,0,0
65272,-100,4,2,2,70,0,1
65515,-100,4,2,2,5,0,1
65597,-100,4,2,1,70,0,1
68110,-100,4,2,1,5,0,1
68191,-100,4,2,1,70,0,1
69813,-200,4,2,1,70,0,0
70462,-100,4,2,1,70,0,1
71272,-100,4,2,1,5,0,1
71353,-100,4,2,1,70,0,1
71515,-100,4,2,1,5,0,1
71597,-100,4,2,1,70,0,1
71678,-100,4,2,1,5,0,1
71759,-100,4,2,1,70,0,1
74353,-100,4,2,2,70,0,1
74840,-100,4,2,1,70,0,1
75002,-100,4,2,3,70,0,1
75164,-100,4,2,1,70,0,1
75326,-100,4,2,2,70,0,1
75894,-100,4,2,2,5,0,1
75975,-100,4,2,1,70,0,1
80191,-100,4,2,1,70,0,0
80840,-100,4,2,1,70,0,1
81651,-100,4,2,1,5,0,1
81732,-100,4,2,1,70,0,1
81894,-100,4,2,1,5,0,1
81975,-100,4,2,1,70,0,1
82056,-100,4,2,1,5,0,1
82137,-100,4,2,1,70,0,1
85542,-100,4,2,1,5,0,1
85624,-100,4,2,1,70,0,1
85786,-100,4,2,1,5,0,1
85867,-100,4,2,1,70,0,1
86029,-100,4,2,1,70,0,0
86353,-100,4,2,2,70,0,1
87002,-100,4,2,1,70,0,1
88624,-100,4,2,1,70,0,0
88948,-100,4,2,2,70,0,1
89597,-100,4,2,1,70,0,1
92678,-100,4,2,1,5,0,1
92840,-100,4,2,1,70,0,1
96002,-100,4,2,1,5,0,1
96083,-100,4,2,1,70,0,1
96326,-100,4,2,1,5,0,1
96407,-142.857142857143,4,2,1,70,0,0
96974,-142.857142857143,4,2,1,5,0,0
97056,-142.857142857143,4,2,1,60,0,0
97623,-142.857142857143,4,2,1,5,0,0
97705,-200,4,2,1,60,0,0
98029,-142.857142857143,4,2,1,50,0,0
98353,-142.857142857143,4,2,1,40,0,0
98678,-142.857142857143,4,2,1,30,0,0
98840,-142.857142857143,4,2,1,5,0,0
99002,-200,4,2,1,30,0,0
99164,-200,4,2,1,5,0,0
99326,-200,4,2,1,30,0,0
99488,-200,4,2,1,5,0,0
99651,-200,4,2,1,30,0,0
100948,-200,4,2,1,30,0,0
101597,-200,4,2,1,30,0,0
104029,-200,4,2,1,5,0,0
104353,-200,4,2,1,30,0,0
106137,-200,4,2,1,10,0,0
106462,-100,4,2,1,70,0,0
124299,-100,4,2,1,5,0,0
124462,-100,4,2,1,70,0,0
125191,-100,4,2,1,5,0,0
125272,-100,4,2,1,70,0,0
126245,-100,4,2,1,5,0,0
126407,-100,4,2,1,70,0,0
127543,-100,4,2,2,70,0,0
127705,-100,4,2,1,70,0,0
128029,-100,4,2,2,70,0,0
128272,-100,4,2,2,5,0,0
128353,-100,4,2,2,70,0,0
128840,-100,4,2,2,5,0,0
129002,-100,4,2,2,70,0,0
129813,-100,4,2,1,70,0,0
130786,-100,4,2,1,5,0,0
130948,-100,4,2,1,70,0,0
132732,-100,4,2,2,70,0,0
132894,-100,4,2,1,70,0,0
133218,-100,4,2,3,70,0,0
133461,-100,4,2,3,5,0,0
133543,-100,4,2,1,70,0,0
133867,-100,4,2,2,70,0,0
135326,-100,4,2,1,70,0,0
138732,-100,4,2,1,5,0,0
138894,-100,4,2,1,70,0,0
139137,-100,4,2,1,5,0,0
139218,-100,4,2,1,70,0,0
139299,-100,4,2,1,5,0,0
139380,-83.3333333333333,4,2,1,70,0,0
139623,-83.3333333333333,4,2,1,5,0,0
139705,-83.3333333333333,4,2,1,70,0,0
140110,-83.3333333333333,4,2,1,5,0,0
140191,-66.6666666666667,4,2,1,70,0,0
140434,-66.6666666666667,4,2,1,5,0,0
140516,-90.9090909090909,4,2,2,70,0,1
140759,-90.9090909090909,4,2,2,5,0,1
140840,-90.9090909090909,4,2,1,70,0,1
143353,-90.9090909090909,4,2,1,5,0,1
143435,-90.9090909090909,4,2,1,70,0,1
143759,-90.9090909090909,4,2,1,5,0,1
143921,-90.9090909090909,4,2,1,70,0,1
145056,-100,4,2,1,70,0,0
145705,-90.9090909090909,4,2,1,70,0,1
146515,-90.9090909090909,4,2,1,5,0,1
146597,-90.9090909090909,4,2,1,70,0,1
146759,-90.9090909090909,4,2,1,5,0,1
146840,-90.9090909090909,4,2,1,70,0,1
146921,-90.9090909090909,4,2,1,5,0,1
147002,-90.9090909090909,4,2,1,70,0,1
147813,-90.9090909090909,4,2,1,5,0,1
147975,-90.9090909090909,4,2,1,70,0,1
148137,-90.9090909090909,4,2,1,5,0,1
148299,-90.9090909090909,4,2,1,70,0,1
149597,-90.9090909090909,4,2,2,70,0,1
150083,-90.9090909090909,4,2,1,70,0,1
150245,-90.9090909090909,4,2,3,70,0,1
150407,-90.9090909090909,4,2,1,70,0,1
150570,-90.9090909090909,4,2,2,70,0,1
151137,-90.9090909090909,4,2,2,5,0,1
151218,-90.9090909090909,4,2,1,70,0,1
155435,-100,4,2,1,70,0,0
156083,-90.9090909090909,4,2,1,70,0,1
156894,-90.9090909090909,4,2,1,5,0,1
156975,-90.9090909090909,4,2,1,70,0,1
157137,-90.9090909090909,4,2,1,5,0,1
157218,-90.9090909090909,4,2,1,70,0,1
157299,-90.9090909090909,4,2,1,5,0,1
157380,-90.9090909090909,4,2,1,70,0,1
158191,-90.9090909090909,4,2,1,5,0,1
158353,-90.9090909090909,4,2,1,70,0,1
158515,-90.9090909090909,4,2,1,5,0,1
158678,-90.9090909090909,4,2,1,70,0,1
160786,-90.9090909090909,4,2,1,5,0,1
160867,-90.9090909090909,4,2,1,70,0,1
161029,-90.9090909090909,4,2,1,5,0,1
161110,-90.9090909090909,4,2,1,70,0,1
161272,-100,4,2,1,70,0,0
161597,-90.9090909090909,4,2,2,70,0,1
162245,-90.9090909090909,4,2,1,70,0,1
163867,-100,4,2,1,70,0,0
164191,-90.9090909090909,4,2,2,70,0,1
164840,-90.9090909090909,4,2,1,70,0,1
166624,-90.9090909090909,4,2,1,5,0,1
166786,-90.9090909090909,4,2,1,70,0,1
169056,-100,4,2,2,70,0,0
169218,-100,4,2,1,70,0,0
172380,-100,4,2,1,5,0,0
172462,-100,4,2,1,70,0,0
173029,-100,4,2,1,5,0,0
173110,-100,4,2,1,70,0,0
178137,-100,4,2,2,70,0,0
178299,-100,4,2,1,70,0,0
178462,-100,4,2,2,70,0,0
178624,-100,4,2,1,70,0,0
178786,-100,4,2,2,70,0,0
178948,-100,4,2,1,70,0,0
179110,-100,4,2,2,70,0,0
179272,-100,4,2,1,70,0,0
179435,-100,4,2,2,70,0,0
179759,-100,4,2,1,70,0,0
180732,-100,4,2,1,70,0,0
181948,-100,4,2,1,5,0,0
182029,-100,4,2,1,70,0,0
182759,-100,4,2,1,5,0,0
182840,-100,4,2,1,70,0,0
182921,-100,4,2,1,5,0,0
183002,-100,4,2,1,70,0,0
183083,-100,4,2,1,5,0,0
183164,-100,4,2,1,70,0,0
189813,-100,4,2,2,70,0,0
200191,-166.666666666667,4,2,1,40,0,0
202056,-166.666666666667,4,2,1,5,0,0
202137,-166.666666666667,4,2,1,40,0,0
202705,-166.666666666667,4,2,1,5,0,0
202786,-166.666666666667,4,2,1,40,0,0
203678,-166.666666666667,4,2,1,5,0,0
203759,-166.666666666667,4,2,1,40,0,0
204894,-166.666666666667,4,2,1,5,0,0
204975,-166.666666666667,4,2,1,40,0,0
205137,-166.666666666667,4,2,1,5,0,0
205218,-166.666666666667,4,2,1,40,0,0
205299,-166.666666666667,4,2,1,5,0,0
205380,-125,4,2,1,50,0,0
206191,-125,4,2,1,5,0,0
206353,-125,4,2,1,50,0,0
206515,-125,4,2,1,5,0,0
206678,-125,4,2,1,60,0,0
207245,-125,4,2,1,5,0,0
207326,-125,4,2,1,60,0,0
207488,-125,4,2,1,5,0,0
207651,-125,4,2,1,60,0,0
207813,-125,4,2,1,5,0,0
207975,-125,4,2,1,60,0,0
210570,-83.3333333333333,4,2,1,70,0,0
210813,-83.3333333333333,4,2,1,5,0,0
210894,-83.3333333333333,4,2,1,70,0,0
211786,-83.3333333333333,4,2,1,5,0,0
211867,-83.3333333333333,4,2,1,70,0,0
213164,-83.3333333333333,4,2,2,70,0,1
213407,-83.3333333333333,4,2,2,5,0,1
213489,-83.3333333333333,4,2,1,70,0,1
216002,-83.3333333333333,4,2,1,5,0,1
216083,-83.3333333333333,4,2,1,70,0,1
217705,-100,4,2,1,70,0,0
218353,-83.3333333333333,4,2,1,70,0,1
219164,-83.3333333333333,4,2,1,5,0,1
219245,-83.3333333333333,4,2,1,70,0,1
219407,-83.3333333333333,4,2,1,5,0,1
219489,-83.3333333333333,4,2,1,70,0,1
219570,-83.3333333333333,4,2,1,5,0,1
219651,-83.3333333333333,4,2,1,70,0,1
222245,-83.3333333333333,4,2,2,70,0,1
222732,-83.3333333333333,4,2,1,70,0,1
222894,-83.3333333333333,4,2,3,70,0,1
223056,-83.3333333333333,4,2,1,70,0,1
223218,-83.3333333333333,4,2,2,70,0,1
223786,-83.3333333333333,4,2,2,5,0,1
223867,-83.3333333333333,4,2,1,70,0,1
228083,-100,4,2,1,70,0,0
228732,-83.3333333333333,4,2,1,70,0,1
229543,-83.3333333333333,4,2,1,5,0,1
229624,-83.3333333333333,4,2,1,70,0,1
229786,-83.3333333333333,4,2,1,5,0,1
229867,-83.3333333333333,4,2,1,70,0,1
229948,-83.3333333333333,4,2,1,5,0,1
230029,-83.3333333333333,4,2,1,70,0,1
233921,-100,4,2,1,70,0,0
234245,-83.3333333333333,4,2,2,70,0,1
234894,-83.3333333333333,4,2,1,70,0,1
236516,-100,4,2,1,70,0,0
236840,-83.3333333333333,4,2,2,70,0,1
237489,-83.3333333333333,4,2,1,70,0,1
243894,-83.3333333333333,4,2,1,5,0,1
243975,-83.3333333333333,4,2,1,70,0,1
244218,-83.3333333333333,4,2,1,5,0,1
244299,-83.3333333333333,4,2,1,70,0,1
245597,-100,4,2,1,70,0,0

[Colours]
Combo1 : 242,198,199
Combo2 : 220,126,142
Combo3 : 236,51,55

[HitObjects]
437,306,408,6,0,P|386:271|284:278,1,160,2|0,0:2|0:0,0:0:0:0:
188,382,894,1,2,0:2:0:0:
251,192,1056,2,0,P|266:275|275:378,1,160,2|2,0:2|0:2,0:0:0:0:
114,336,1543,1,2,0:2:0:0:
233,276,1705,5,2,0:2:0:0:
107,227,1867,1,2,0:2:0:0:
0,326,2029,2,0,P|5:260|5:231,1,80,2|0,0:2|0:0,0:0:0:0:
82,129,2353,1,2,0:2:0:0:
119,212,2516,1,2,0:2:0:0:
221,252,2678,1,2,0:2:0:0:
244,163,2841,1,2,0:2:0:0:
296,310,3002,6,0,P|279:237|268:145,1,160,2|0,0:2|0:0,0:0:0:0:
380,220,3489,1,2,0:2:0:0:
213,79,3651,2,0,P|279:61|345:109,1,120,2|0,0:2|0:0,0:0:0:0:
244,163,3975,2,0,P|189:173|145:172,1,80,2|0,0:2|0:0,0:0:0:0:
52,123,4299,6,0,P|49:162|41:201,1,80,2|0,0:2|0:0,0:0:0:0:
89,312,4624,1,2,0:2:0:0:
186,257,4786,1,2,0:2:0:0:
149,377,4948,2,0,L|246:366,1,80,2|0,0:2|0:0,0:0:0:0:
342,281,5272,1,0,0:0:0:0:
346,274,5435,1,0,0:0:0:0:
350,267,5597,6,0,P|344:225|330:168,1,80,2|0,0:2|0:0,0:0:0:0:
445,284,5921,1,2,0:2:0:0:
445,284,6083,1,2,0:2:0:0:
255,160,6245,2,0,P|296:114|403:137,1,160,2|0,0:2|0:0,0:0:0:0:
227,58,6894,6,0,P|180:70|138:78,1,80,2|0,0:2|0:0,0:0:0:0:
42,31,7218,1,2,0:2:0:0:
134,155,7380,1,2,0:2:0:0:
31,117,7543,2,0,P|47:179|56:268,1,120,2|0,0:2|0:0,0:0:0:0:
91,313,7867,2,0,P|133:259|136:217,1,80,2|0,0:2|0:0,0:0:0:0:
222,146,8191,6,0,P|244:212|251:246,1,80,2|0,0:2|0:0,0:0:0:0:
358,297,8516,2,0,P|368:258|382:220,1,80,2|0,0:2|0:0,0:0:0:0:
507,186,8840,1,2,0:2:0:0:
371,102,9002,1,2,0:2:0:0:
371,102,9083,1,2,0:2:0:0:
371,102,9164,1,2,0:2:0:0:
402,238,9326,1,2,0:2:0:0:
450,47,9489,1,2,0:2:0:0:
440,37,9975,5,0,0:0:0:0:
440,37,10137,2,0,B|343:29|371:89|264:67,1,179.999994506836,2|0,0:2|0:0,0:0:0:0:
32,170,10786,5,6,1:2:0:0:
186,116,10948,1,0,0:0:0:0:
317,289,11110,1,0,0:0:0:0:
111,242,11272,1,6,1:2:0:0:
287,56,11597,5,8,0:2:0:0:
297,143,11759,1,8,0:2:0:0:
150,347,12083,5,6,1:2:0:0:
220,108,12245,1,0,0:0:0:0:
393,253,12407,1,0,0:0:0:0:
254,11,12570,1,6,1:2:0:0:
297,143,12894,5,8,0:3:0:0:
287,230,13056,1,8,0:3:0:0:
145,81,13380,5,6,1:2:0:0:
428,155,13543,1,0,0:0:0:0:
285,12,13705,1,0,0:0:0:0:
84,241,13867,1,6,1:2:0:0:
287,230,14191,5,8,0:2:0:0:
297,317,14353,1,8,0:2:0:0:
368,145,14678,5,6,1:2:0:0:
190,241,14840,1,0,0:0:0:0:
298,30,15002,1,0,0:0:0:0:
489,181,15164,2,0,P|448:171|373:158,1,100,6|0,1:2|0:0,0:0:0:0:
159,133,15489,1,0,1:0:0:0:
159,133,15651,2,0,P|208:124|256:112,1,100,0|8,1:0|1:2,0:0:0:0:
256,112,15894,1,8,1:2:0:0:
256,112,15975,5,6,1:2:0:0:
117,227,16137,1,0,0:0:0:0:
384,348,16299,1,0,0:0:0:0:
60,307,16462,1,6,1:2:0:0:
288,374,16786,5,8,0:2:0:0:
255,289,16948,1,8,0:2:0:0:
365,144,17272,5,6,1:2:0:0:
168,300,17435,1,0,0:0:0:0:
211,57,17597,1,0,0:0:0:0:
449,106,17759,1,6,1:2:0:0:
255,289,18083,5,8,0:3:0:0:
271,246,18164,1,8,0:3:0:0:
288,204,18245,1,8,0:3:0:0:
90,140,18570,5,6,1:2:0:0:
217,82,18732,1,8,0:2:0:0:
312,190,18894,1,8,0:2:0:0:
486,77,19056,2,0,P|439:70|379:56,1,100,6|0,1:2|0:0,0:0:0:0:
194,197,19380,1,8,0:2:0:0:
398,148,19543,1,8,0:2:0:0:
306,302,19705,2,0,P|298:252|287:203,1,100,6|0,1:2|0:0,0:0:0:0:
179,57,20029,6,0,P|193:87|202:127,1,50,0|0,1:0|0:0,0:0:0:0:
51,225,20191,2,0,P|37:195|28:155,1,50,0|0,1:0|0:0,0:0:0:0:
95,90,20353,1,0,1:2:0:0:
95,90,20435,1,0,1:2:0:0:
95,90,20516,6,0,P|124:161|139:296,1,179.999994506836,2|0,1:2|0:0,0:0:0:0:
64,352,20840,6,0,P|150:277|264:314,1,209.999993591309,0|0,1:2|0:0,0:0:0:0:
300,375,21164,5,12,1:2:0:0:
237,163,21813,1,12,1:2:0:0:
383,72,22462,5,12,1:2:0:0:
308,220,22786,1,12,1:2:0:0:
140,174,23110,1,12,1:2:0:0:
303,17,23435,1,2,1:2:0:0:
303,17,23516,1,0,1:2:0:0:
303,17,23597,2,0,P|312:57|319:92,1,50,10|0,1:2|0:0,0:0:0:0:
161,253,23759,6,0,P|171:204|182:155,1,100,6|8,1:2|0:2,0:0:0:0:
102,18,24083,1,2,1:2:0:0:
278,165,24245,1,8,0:2:0:0:
97,181,24407,2,0,P|47:182|-1:202,1,100,2|8,1:2|0:2,0:0:0:0:
25,360,24732,2,0,P|75:359|123:339,1,100,2|8,1:2|0:2,0:0:0:0:
230,192,25056,5,2,1:2:0:0:
353,274,25218,1,8,0:2:0:0:
272,64,25380,1,2,1:2:0:0:
81,206,25543,1,8,0:2:0:0:
246,177,25705,6,0,P|237:232|229:304,1,100,2|8,1:2|0:2,0:0:0:0:
389,357,26029,2,0,P|380:302|372:230,1,100,2|8,1:2|0:2,0:0:0:0:
423,109,26353,5,2,1:2:0:0:
294,47,26516,1,10,0:2:0:0:
275,200,26678,1,2,1:2:0:0:
164,111,26840,2,0,P|119:99|48:97,1,100,10|0,0:2|1:0,0:0:0:0:
138,286,27164,1,10,0:2:0:0:
264,184,27326,1,2,1:2:0:0:
243,376,27489,6,0,P|233:325|229:255,1,100,10|0,0:2|1:0,0:0:0:0:
229,277,27732,1,0,1:0:0:0:
229,277,27813,1,10,1:2:0:0:
356,152,27975,1,0,1:0:0:0:
453,232,28137,1,10,0:2:0:0:
311,250,28299,1,0,1:0:0:0:
392,137,28462,1,8,0:2:0:0:
253,77,28624,1,0,1:0:0:0:
141,189,28786,1,8,0:2:0:0:
52,96,28948,6,0,P|107:107|170:112,1,100,2|8,1:2|0:2,0:0:0:0:
43,234,29272,1,2,1:2:0:0:
166,322,29435,1,10,0:2:0:0:
141,189,29597,1,0,1:0:0:0:
257,189,29759,2,0,P|207:194|158:204,1,100,10|0,0:2|1:0,0:0:0:0:
304,328,30083,2,0,P|374:332|419:264,1,150,10|0,0:2|0:0,0:0:0:0:
416,194,30407,6,0,P|422:157|432:127,1,67.5000002574921,10|0,0:2|0:0,0:0:0:0:
340,19,30570,2,0,P|333:55|322:88,1,67.5000002574921,8|0,1:2|0:0,0:0:0:0:
243,208,30732,2,0,P|231:172|226:135,1,67.5000002574921,10|0,0:2|0:0,0:0:0:0:
166,40,30894,6,0,P|125:37|89:46,1,57.5000010967255,8|0,1:2|0:0,0:0:0:0:
32,234,31056,2,0,P|55:199|64:164,1,57.5000010967255,10|0,1:2|0:0,0:0:0:0:
1,70,31218,5,8,1:2:0:0:
1,70,31299,1,8,0:2:0:0:
1,70,31380,1,8,1:2:0:0:
1,70,31462,1,8,0:2:0:0:
1,70,31543,1,6,1:2:0:0:
29,337,32191,1,6,1:2:0:0:
236,116,32840,5,12,1:2:0:0:
342,233,33164,1,12,1:2:0:0:
404,51,33489,1,12,1:2:0:0:
252,161,33651,6,8,P|222:167|178:186,1,50,8|8,0:2|0:2,0:2:0:0:
38,150,33813,2,8,P|32:120|13:76,1,50,10|8,0:2|0:2,0:2:0:0:
161,19,33975,2,0,P|156:43|148:67,1,50,10|0,0:2|1:2,0:2:0:0:
187,293,34137,6,0,P|192:269|220:194,1,100,6|8,1:2|0:2,0:0:0:0:
414,224,34462,1,2,1:2:0:0:
312,95,34624,1,8,0:2:0:0:
389,302,34786,2,0,P|439:301|481:275,1,100,2|8,1:2|0:2,0:0:0:0:
249,357,35110,2,0,P|201:343|168:306,1,100,2|8,1:2|0:2,0:0:0:0:
422,207,35435,5,2,1:2:0:0:
216,113,35597,1,8,0:2:0:0:
329,1,35759,1,2,1:2:0:0:
310,249,35921,1,8,0:2:0:0:
196,97,36083,5,2,1:2:0:0:
73,265,36245,1,8,0:2:0:0:
176,81,36407,1,2,1:2:0:0:
260,323,36570,1,8,0:2:0:0:
94,181,36732,6,0,P|158:192|215:206,1,100,6|0,1:2|0:0,0:0:0:0:
310,249,37056,1,10,0:2:0:0:
196,97,37218,2,0,P|324:75|438:47,1,200,2|10,1:2|1:2,0:0:0:0:
508,180,37705,1,10,0:2:0:0:
359,147,37867,6,0,B|341:218|341:218|357:265|357:265|340:357,1,200,6|10,1:2|1:2,0:0:0:0:
186,206,38353,1,10,0:2:0:0:
330,321,38516,2,0,P|282:312|213:302,1,100,6|0,1:2|0:0,0:0:0:0:
36,340,38840,1,0,1:0:0:0:
84,171,39002,2,0,P|93:219|103:288,1,100,10|10,0:2|0:2,0:0:0:0:
175,86,39326,6,0,P|223:65|326:131,1,150,6|0,1:2|0:0,0:0:0:0:
350,108,39651,2,0,P|378:101|424:97,1,50,10|0,0:2|0:0,0:0:0:0:
372,250,39813,1,10,1:2:0:0:
232,164,39975,1,8,0:2:0:0:
228,329,40137,1,10,0:2:0:0:
277,247,40299,6,0,P|355:264|483:263,1,200,6|0,1:2|0:0,0:0:0:0:
398,98,40786,2,0,P|384:138|377:174,1,50,10|0,1:2|0:0,0:0:0:0:
232,164,40948,2,0,P|192:178|156:185,1,50,8|0,0:2|0:0,0:0:0:0:
0,80,41110,5,10,1:2:0:0:
0,80,41191,1,8,1:2:0:0:
0,80,41272,2,0,P|-6:106|23:158,1,50,8|8,1:2|0:2,0:0:0:0:
157,189,41435,2,0,P|164:164|134:111,1,50,8|0,0:2|0:0,0:0:0:0:
92,41,41597,6,0,P|83:87|72:202,1,150,0|0,1:0|0:0,0:0:0:0:
72,271,41921,1,6,1:2:0:0:
268,370,42083,1,10,1:2:0:0:
361,188,42245,1,10,0:2:0:0:
187,261,42407,2,0,P|289:236|361:231,1,150,2|0,1:2|0:0,0:0:0:0:
432,250,42732,5,8,0:2:0:0:
259,139,42894,1,8,0:2:0:0:
490,88,43056,2,0,B|453:98|453:98|429:92|429:92|368:110,1,100,6|0,1:2|0:0,0:0:0:0:
154,280,43380,2,0,B|189:290|189:290|213:284|213:284|250:294,1,100,2|0,1:2|0:0,0:0:0:0:
234,45,43705,2,0,P|174:82|180:202,1,200,10|8,0:2|1:2,0:0:0:0:
387,199,44191,2,0,L|316:181,1,50,10|8,0:2|0:2,0:0:0:0:
226,212,44353,2,0,L|155:194,1,50,10|0,1:2|0:0,0:0:0:0:
45,244,44516,5,6,1:2:0:0:
128,94,44678,1,0,0:0:0:0:
256,200,44840,1,10,0:2:0:0:
103,343,45002,2,0,P|156:315|225:306,1,100,6|0,1:2|0:0,0:0:0:0:
338,186,45326,2,0,P|349:234|374:277,1,100,10|8,1:2|0:2,0:0:0:0:
431,127,45651,6,0,B|315:116|360:189|227:167,1,200,6|2,1:2|1:2,0:0:0:0:
173,107,46137,1,10,0:2:0:0:
16,212,46299,1,2,1:2:0:0:
66,41,46462,1,8,0:2:0:0:
127,256,46624,1,2,1:2:0:0:
330,279,46786,1,8,0:2:0:0:
218,186,46948,5,0,1:2:0:0:
218,186,47029,1,0,1:2:0:0:
218,186,47110,1,6,1:2:0:0:
160,380,47272,1,10,0:2:0:0:
424,314,47435,1,10,0:2:0:0:
315,143,47597,2,0,P|294:219|290:300,1,150,6|0,1:2|0:0,0:0:0:0:
280,318,47921,2,0,P|272:353|263:380,1,50,2|0,1:2|1:2,0:0:0:0:
202,168,48083,1,10,1:2:0:0:
95,333,48245,6,0,P|45:324|0:305,1,100,6|0,1:2|0:0,0:0:0:0:
235,201,48570,2,0,P|278:176|314:142,1,100,6|0,1:2|0:0,0:0:0:0:
57,29,48894,2,0,P|20:116|45:235,1,200,6|8,1:2|0:2,0:0:0:0:
45,230,49299,1,8,1:2:0:0:
56,242,49380,1,8,1:2:0:0:
248,78,49543,5,8,1:2:0:0:
248,78,49624,1,8,1:2:0:0:
248,78,49705,1,6,1:2:0:0:
404,233,49867,1,2,1:2:0:0:
398,216,49948,1,0,1:0:0:0:
392,199,50029,1,10,1:2:0:0:
196,150,50191,1,0,1:2:0:0:
190,167,50272,1,0,1:2:0:0:
184,183,50353,2,0,P|196:255|203:310,1,100,10|2,0:2|1:2,0:0:0:0:
349,294,50678,6,0,P|323:279|288:270,1,50,10|0,1:2|0:0,0:0:0:0:
217,367,50840,1,0,1:2:0:0:
217,367,50921,1,0,1:2:0:0:
217,367,51002,2,0,P|240:358|261:345,1,50,6|0,1:2|0:0,0:0:0:0:
317,126,51164,1,2,1:2:0:0:
296,118,51245,1,0,1:2:0:0:
275,110,51326,1,10,1:2:0:0:
96,198,51489,5,0,1:2:0:0:
96,198,51570,1,0,1:2:0:0:
96,198,51651,2,0,L|81:278,1,50,2|0,1:2|0:0,0:0:0:0:
109,270,51813,2,0,L|94:350,1,50,2|0,1:2|0:0,0:0:0:0:
199,150,51975,2,0,L|184:230,1,50,10|0,1:2|0:0,0:0:0:0:
271,296,52137,2,0,L|256:376,1,50,0|0,1:0|0:0,0:0:0:0:
400,214,52299,5,14,1:2:0:0:
506,287,52462,1,8,1:2:0:0:
366,55,52624,5,8,1:2:0:0:
257,276,52786,1,8,1:2:0:0:
491,196,52948,6,0,P|442:185|375:178,1,100,8|0,1:2|0:0,0:0:0:0:
236,253,53272,1,10,0:2:0:0:
217,207,53353,1,8,0:2:0:0:
178,175,53434,1,8,1:2:0:0:
130,166,53515,1,8,0:2:0:0:
83,181,53596,5,6,1:2:0:0:
270,96,53759,1,8,1:2:0:0:
147,7,53921,5,8,1:2:0:0:
133,267,54083,1,8,1:2:0:0:
377,197,54245,6,0,P|309:208|256:222,1,100,8|0,1:2|0:0,0:0:0:0:
324,377,54570,2,0,P|229:344|150:344,1,150,2|0,1:2|0:0,0:0:0:0:
61,377,54894,6,0,P|47:310|44:261,1,100,14|2,1:2|0:2,0:0:0:0:
279,91,55218,2,0,P|290:139|295:189,1,100,10|0,1:2|0:0,0:0:0:0:
0,129,55543,2,0,P|87:149|115:153,1,100,10|0,1:2|0:0,0:0:0:0:
124,223,55786,2,0,P|172:210|221:201,1,100,10|0,1:2|0:0,0:0:0:0:
295,189,56029,2,0,L|317:239,1,50,10|0,1:2|0:0,0:0:0:0:
437,110,56191,6,0,P|388:72|276:77,1,150,14|0,1:2|0:0,0:0:0:0:
279,91,56516,2,0,P|247:98|218:100,1,50,8|8,1:2|0:2,0:0:0:0:
83,212,56678,1,8,0:2:0:0:
96,215,56759,1,8,0:2:0:0:
110,219,56840,1,8,1:2:0:0:
124,223,56921,1,8,0:2:0:0:
159,261,57002,1,8,0:3:0:0:
173,257,57083,1,8,0:3:0:0:
187,253,57164,1,8,1:3:0:0:
200,250,57245,1,8,0:3:0:0:
233,217,57326,2,0,P|254:224|289:233,1,50,8|8,0:3|0:3,0:3:0:0:
301,267,57489,5,2,0:3:0:0:
417,85,62191,5,2,0:2:0:0:
417,85,62272,1,2,0:2:0:0:
417,85,62353,2,0,B|322:65|322:65|274:89,1,150,2|0,0:2|0:0,0:0:0:0:
206,143,62678,1,14,1:2:0:0:
318,207,62840,1,8,0:2:0:0:
92,337,63002,1,8,0:2:0:0:
374,306,63164,5,14,1:2:0:0:
222,232,63326,1,8,0:2:0:0:
222,232,63407,1,8,0:2:0:0:
222,232,63489,1,8,0:2:0:0:
434,116,63651,5,14,1:2:0:0:
390,332,63813,1,8,0:2:0:0:
416,86,63975,1,8,0:2:0:0:
283,293,64137,5,14,1:2:0:0:
57,210,64299,1,8,0:2:0:0:
60,202,64380,1,8,0:2:0:0:
63,194,64462,1,8,0:2:0:0:
66,186,64543,1,8,0:0:0:0:
68,178,64624,2,0,L|88:242,1,50,14|0,1:2|0:0,0:0:0:0:
188,325,64786,2,0,L|168:389,1,50,8|0,0:2|0:0,0:0:0:0:
324,144,64948,6,0,P|263:95|179:200,1,225.000008583069,14|0,1:2|0:0,0:0:0:0:
270,213,65272,6,0,P|338:188|455:179,1,150,6|0,1:2|0:0,0:0:0:0:
497,186,65597,1,10,0:2:0:0:
368,309,65759,2,0,P|306:298|237:295,1,100,2|0,0:2|1:0,0:0:0:0:
125,112,66083,2,0,P|89:165|101:228,1,100,2|8,0:2|1:2,0:0:0:0:
257,193,66407,6,0,P|243:118|236:72,1,100,2|0,0:2|1:0,0:0:0:0:
89,199,66732,1,0,0:0:0:0:
230,28,66894,2,0,P|221:77|212:126,1,100,10|8,0:2|0:2,0:0:0:0:
206,153,67137,1,8,0:2:0:0:
200,180,67218,1,2,1:2:0:0:
346,64,67380,1,0,0:0:0:0:
496,267,67543,1,10,0:2:0:0:
330,158,67705,1,0,0:2:0:0:
224,338,67867,6,0,P|136:319|65:316,1,150,6|0,1:2|0:0,0:0:0:0:
56,330,68191,2,0,P|38:302|14:267,1,50,10|0,0:2|0:0,0:0:0:0:
83,99,68353,2,0,P|82:148|88:198,1,100,6|0,1:2|0:0,0:0:0:0:
184,109,68678,5,6,1:2:0:0:
311,58,68840,1,10,0:2:0:0:
197,248,69002,2,0,B|239:215|291:238|291:238|328:300|419:281,1,200,6|10,1:2|0:2,0:0:0:0:
373,285,69407,1,0,1:0:0:0:
373,285,69489,1,0,1:0:0:0:
482,117,69651,1,2,0:2:0:0:
510,205,69813,5,2,0:2:0:0:
418,182,70056,5,2,0:2:0:0:
326,159,70299,5,2,0:2:0:0:
267,274,70462,6,0,P|288:195|306:74,1,200,6|8,1:2|0:2,0:0:0:0:
299,65,70867,1,0,1:0:0:0:
293,52,70948,1,2,1:2:0:0:
155,20,71110,2,0,P|138:72|121:149,1,100,2|0,1:2|0:0,0:0:0:0:
53,144,71353,2,0,P|70:196|87:273,1,100,2|0,0:2|0:0,0:0:0:0:
159,258,71597,2,0,P|152:282|147:327,1,50,2|0,0:2|0:0,0:0:0:0:
245,250,71759,6,0,B|362:248|331:298|439:294,1,200,2|8,1:2|0:2,0:0:0:0:
307,144,72245,1,2,1:2:0:0:
307,144,72326,1,0,1:2:0:0:
307,144,72407,2,0,P|259:153|182:164,1,100,2|0,1:2|0:0,0:0:0:0:
81,64,72732,2,0,P|73:113|64:162,1,100,8|0,0:2|0:0,0:0:0:0:
198,243,73056,5,2,1:2:0:0:
30,355,73218,1,0,0:0:0:0:
182,135,73380,1,10,0:2:0:0:
353,320,73543,5,2,0:2:0:0:
98,236,73705,1,0,1:0:0:0:
307,144,73867,1,2,1:2:0:0:
307,144,73948,1,0,1:0:0:0:
307,144,74029,2,0,P|296:191|280:276,1,100,8|2,0:2|0:2,0:0:0:0:
470,357,74353,5,14,1:2:0:0:
255,80,74516,1,0,1:0:0:0:
65,248,74678,5,10,1:2:0:0:
255,60,74840,1,2,1:2:0:0:
363,293,75002,5,14,1:2:0:0:
255,40,75164,1,2,1:2:0:0:
192,213,75326,5,10,1:2:0:0:
398,72,75489,1,0,1:2:0:0:
398,72,75570,1,0,1:2:0:0:
398,72,75651,2,0,P|376:148|365:224,1,150,6|0,1:2|0:0,0:0:0:0:
378,311,75975,1,10,0:2:0:0:
198,136,76137,2,0,P|219:180|216:229,1,100,2|0,0:2|1:0,0:0:0:0:
110,352,76462,2,0,P|75:316|63:268,1,100,2|8,0:2|1:2,0:0:0:0:
186,110,76786,6,0,P|240:98|309:89,1,100,2|2,0:2|1:2,0:0:0:0:
400,200,77110,1,0,0:0:0:0:
431,26,77272,2,0,P|381:18|332:7,1,100,10|8,0:2|0:2,0:0:0:0:
315,10,77516,1,8,0:2:0:0:
298,13,77597,1,2,1:2:0:0:
421,184,77759,1,0,0:0:0:0:
187,274,77921,1,10,0:2:0:0:
308,105,78083,1,0,0:0:0:0:
402,360,78245,5,6,1:2:0:0:
256,213,78407,1,10,0:2:0:0:
76,315,78570,1,10,0:2:0:0:
163,91,78732,2,0,P|174:146|184:216,1,100,6|0,1:2|0:0,0:0:0:0:
177,64,79056,1,6,1:2:0:0:
55,196,79218,1,10,0:2:0:0:
276,163,79380,6,0,P|270:235|159:288,1,200,6|8,1:2|0:2,0:0:0:0:
165,289,79786,1,8,0:2:0:0:
165,289,79867,1,0,1:0:0:0:
43,174,80029,1,0,0:0:0:0:
8,282,80191,5,2,0:2:0:0:
92,245,80435,5,2,0:2:0:0:
177,208,80678,5,2,0:2:0:0:
262,317,80840,6,0,B|317:266|317:266|282:131,1,200,6|8,1:2|0:2,0:0:0:0:
285,145,81245,1,0,1:0:0:0:
285,145,81326,1,2,1:2:0:0:
119,35,81489,2,0,L|224:72,1,100,2|0,1:2|0:0,0:0:0:0:
264,163,81732,2,0,L|369:126,1,100,2|0,0:2|0:0,0:0:0:0:
457,85,81975,2,0,L|443:139,1,50,2|0,0:2|0:0,0:0:0:0:
502,275,82137,6,0,B|430:256|430:256|386:286|386:286|283:257,1,200,2|8,1:2|0:2,0:0:0:0:
147,381,82624,1,2,1:2:0:0:
147,381,82705,1,0,1:2:0:0:
147,381,82786,2,0,P|163:327|178:273,1,100,2|0,1:2|0:0,0:0:0:0:
146,127,83110,2,0,P|87:151|51:215,1,100,8|0,0:2|0:0,0:0:0:0:
61,322,83435,5,2,1:2:0:0:
201,197,83597,1,2,0:2:0:0:
366,280,83759,1,8,0:2:0:0:
251,84,83921,5,2,0:2:0:0:
42,298,84083,1,0,1:0:0:0:
170,30,84245,1,2,1:2:0:0:
170,30,84326,1,0,1:0:0:0:
170,30,84407,2,0,P|160:76|139:147,1,100,8|2,0:2|0:2,0:0:0:0:
350,68,84732,5,2,1:2:0:0:
133,106,84894,1,0,1:0:0:0:
402,213,85056,5,10,1:2:0:0:
116,232,85218,1,0,1:0:0:0:
295,339,85380,6,0,P|309:271|302:217,1,100,10|0,0:2|0:0,0:0:0:0:
201,178,85624,2,0,P|135:199|91:232,1,100,10|0,0:2|0:0,0:0:0:0:
162,346,85867,1,10,0:2:0:0:
216,110,86029,5,0,1:2:0:0:
216,110,86110,1,0,1:2:0:0:
216,110,86191,2,0,L|230:191,1,50,0|0,1:2|1:0,0:0:0:0:
330,265,86353,6,0,P|342:165|358:67,1,200,6|0,1:2|1:0,0:0:0:0:
430,321,86840,2,0,P|448:274|468:228,1,100,0|10,0:0|0:2,0:0:0:0:
212,249,87164,5,2,1:2:0:0:
212,249,87245,1,0,1:0:0:0:
212,249,87326,2,0,P|257:269|304:287,1,100,0|2,1:0|0:2,0:0:0:0:
72,229,87651,1,8,0:2:0:0:
197,161,87813,1,2,0:2:0:0:
46,209,87975,1,0,1:0:0:0:
162,344,88137,1,2,0:2:0:0:
120,111,88299,1,8,1:2:0:0:
0,284,88462,1,2,0:2:0:0:
27,61,88624,5,0,1:2:0:0:
27,61,88705,1,0,1:2:0:0:
27,61,88786,2,0,L|41:120,1,50,0|0,1:2|1:0,0:0:0:0:
72,229,88948,6,0,P|104:163|225:154,1,200,6|0,1:2|1:0,0:0:0:0:
365,65,89435,2,0,P|345:113|322:188,1,100,0|10,0:0|0:2,0:0:0:0:
512,229,89759,2,0,P|496:181|476:135,1,100,2|0,0:2|1:0,0:0:0:0:
300,259,90083,5,2,0:2:0:0:
405,193,90245,1,8,0:2:0:0:
414,363,90407,1,2,0:2:0:0:
181,284,90570,1,0,1:0:0:0:
316,127,90732,1,2,0:2:0:0:
280,275,90894,1,8,1:2:0:0:
274,299,90975,1,0,1:2:0:0:
268,323,91056,1,2,1:2:0:0:
186,155,91218,6,0,P|181:107|173:30,1,100,2|0,1:2|0:0,0:0:0:0:
342,14,91543,2,0,P|336:63|331:113,1,100,8|0,0:2|0:0,0:0:0:0:
509,189,91867,1,2,1:2:0:0:
352,99,92029,1,0,0:0:0:0:
263,249,92191,1,8,0:2:0:0:
408,172,92353,1,2,0:2:0:0:
386,332,92516,6,0,B|343:354|343:354|275:344,1,100,2|0,1:2|0:0,0:0:0:0:
174,280,92840,1,10,0:2:0:0:
284,164,93002,2,0,P|292:215|303:285,1,100,2|0,0:2|1:0,0:0:0:0:
302,140,93326,1,0,0:0:0:0:
291,346,93489,1,8,0:2:0:0:
149,261,93651,1,0,0:0:0:0:
15,360,93813,5,6,1:2:0:0:
124,242,93975,1,8,0:2:0:0:
117,81,94137,1,10,0:2:0:0:
12,258,94299,5,6,1:2:0:0:
200,170,94462,1,8,0:2:0:0:
276,363,94624,1,10,0:2:0:0:
99,223,94786,5,6,1:2:0:0:
317,153,94948,1,8,0:2:0:0:
74,204,95110,1,10,0:2:0:0:
257,98,95272,5,6,1:2:0:0:
39,28,95434,1,8,0:2:0:0:
282,79,95596,1,10,0:2:0:0:
79,125,95759,6,0,P|12:161|15:261,1,150,14|0,1:2|0:0,0:0:0:0:
85,353,96083,2,0,P|75:277|75:179,1,150,14|0,1:2|0:0,0:0:0:0:
147,173,96407,6,0,B|285:150|237:246|387:219,1,244.999992523194,6|0,1:2|0:0,0:0:0:0:
463,164,97056,2,0,B|379:133|379:133|418:286,1,244.999992523194,2|0,1:2|0:0,0:0:0:0:
335,345,97705,6,0,B|238:394|182:363|150:331|135:289|170:250|224:219|264:303|257:344,1,350,2|0,1:2|0:0,0:0:0:0:
163,204,99002,6,0,P|188:196|229:199,1,50,2|0,0:2|0:0,0:0:0:0:
321,251,99326,2,0,P|296:259|255:256,1,50,2|0,0:2|0:0,0:0:0:0:
282,126,99651,1,2,0:2:0:0:
381,78,99975,1,2,0:2:0:0:
366,160,100299,6,0,P|317:149|244:140,1,100,2|2,0:2|0:0,0:0:0:0:
141,72,100948,2,0,P|190:61|263:52,1,100,2|2,0:2|0:0,0:0:0:0:
160,178,101597,5,2,0:2:0:0:
41,136,101921,1,2,0:2:0:0:
56,251,102245,5,2,0:2:0:0:
97,235,102570,1,2,0:0:0:0:
98,321,102894,6,0,B|262:269|175:381|410:369|396:256|327:257|291:278|260:309,1,350,2|0,0:2|0:0,0:0:0:0:
256,191,104353,5,2,0:2:0:0:
256,192,104435,12,0,106137,0:2:0:0:
160,36,106462,5,8,0:3:0:0:
168,86,106543,1,8,0:3:0:0:
176,135,106624,1,4,0:3:0:0:
184,185,106705,1,4,0:3:0:0:
192,234,106786,1,12,1:2:0:0:
428,344,107435,1,12,1:2:0:0:
274,110,108083,5,12,1:2:0:0:
170,260,108407,1,12,1:2:0:0:
389,211,108732,1,12,1:2:0:0:
176,135,109056,1,10,0:2:0:0:
176,135,109137,1,8,0:2:0:0:
176,135,109218,2,0,L|90:157,1,50,10|0,1:2|0:0,0:0:0:0:
62,330,109380,6,0,L|172:351,1,100,6|8,1:2|0:2,0:0:0:0:
293,284,109705,1,2,1:2:0:0:
286,298,109786,1,0,1:2:0:0:
279,312,109867,1,8,1:2:0:0:
235,193,110029,1,2,1:2:0:0:
393,301,110191,1,8,0:2:0:0:
312,121,110353,1,2,1:2:0:0:
319,135,110434,1,0,1:2:0:0:
326,149,110516,1,8,1:2:0:0:
103,244,110678,6,0,P|115:191|129:140,1,100,2|8,1:2|0:2,0:0:0:0:
251,47,111002,1,2,1:2:0:0:
251,47,111083,1,0,1:2:0:0:
251,47,111164,1,8,0:2:0:0:
150,7,111326,1,2,1:2:0:0:
0,159,111489,1,8,0:2:0:0:
161,126,111651,1,2,1:2:0:0:
161,126,111732,1,0,1:2:0:0:
161,126,111813,1,8,0:2:0:0:
103,244,111975,6,0,P|92:277|80:306,1,50,2|0,1:2|0:0,0:0:0:0:
248,261,112137,2,0,P|224:234|205:210,1,50,10|0,0:2|0:0,0:0:0:0:
160,378,112299,1,2,1:2:0:0:
160,378,112380,1,0,1:2:0:0:
160,378,112462,2,0,P|194:371|225:366,1,50,10|0,0:2|0:0,0:0:0:0:
365,196,112624,1,0,1:0:0:0:
290,334,112786,1,10,0:2:0:0:
421,303,112948,1,2,1:2:0:0:
421,303,113029,1,0,1:2:0:0:
421,303,113110,1,10,0:2:0:0:
323,129,113272,6,0,P|337:184|348:252,1,100,0|10,1:0|0:2,0:0:0:0:
188,189,113597,1,0,1:2:0:0:
178,209,113678,1,0,1:2:0:0:
168,229,113759,1,10,0:2:0:0:
119,94,113921,1,0,1:0:0:0:
93,288,114083,1,8,0:2:0:0:
30,147,114245,1,0,1:2:0:0:
50,157,114326,1,0,1:2:0:0:
70,167,114407,1,8,0:2:0:0:
212,92,114570,5,2,1:2:0:0:
212,92,114651,1,0,1:0:0:0:
212,92,114732,2,0,P|222:55|226:26,1,50,8|0,1:2|1:0,1:0:0:0:
349,151,114894,1,2,1:2:0:0:
349,151,114975,1,0,1:2:0:0:
349,151,115056,2,0,P|324:155|300:162,1,50,10|0,1:2|1:0,1:0:0:0:
369,49,115218,1,0,1:0:0:0:
435,214,115380,1,10,1:2:0:0:
500,105,115543,1,0,1:0:0:0:
500,105,115624,1,0,1:0:0:0:
500,105,115705,1,14,1:2:0:0:
313,315,116029,5,2,0:2:0:0:
300,231,116191,1,2,0:2:0:0:
287,147,116353,1,2,0:2:0:0:
506,115,116516,5,10,1:2:0:0:
503,110,116597,1,8,0:2:0:0:
500,105,116678,1,10,1:2:0:0:
452,114,116759,1,8,0:0:0:0:
403,106,116840,1,8,1:2:0:0:
362,78,116921,1,8,0:2:0:0:
318,55,117002,1,8,1:2:0:0:
268,53,117083,1,8,0:2:0:0:
219,62,117164,1,6,1:2:0:0:
58,301,117813,1,6,1:2:0:0:
16,57,118462,5,12,1:2:0:0:
135,185,118786,1,12,1:2:0:0:
317,137,119110,1,12,1:2:0:0:
349,278,119272,6,0,P|362:231|370:199,1,50,8|8,0:2|0:2,0:0:0:0:
497,199,119435,2,0,P|486:161|478:129,1,50,10|8,0:2|0:2,0:0:0:0:
391,65,119597,2,0,P|366:58|342:51,1,50,2|0,1:2|1:0,0:0:0:0:
203,118,119759,6,0,P|216:179|226:237,1,100,6|8,1:2|0:2,0:0:0:0:
256,35,120083,1,2,1:2:0:0:
103,141,120245,1,8,0:2:0:0:
298,168,120407,2,0,B|329:182|329:182|431:156,1,100,2|8,1:2|0:2,0:0:0:0:
211,299,120732,2,0,B|180:313|180:313|78:287,1,100,2|8,1:2|0:2,0:0:0:0:
186,86,121056,5,2,1:2:0:0:
314,197,121218,1,8,0:2:0:0:
96,284,121380,1,2,1:2:0:0:
220,161,121542,1,8,0:2:0:0:
326,366,121705,5,2,1:2:0:0:
116,296,121867,1,8,0:2:0:0:
186,86,122029,1,2,1:2:0:0:
396,156,122191,1,8,0:2:0:0:
127,206,122353,6,0,P|107:165|90:98,1,100,6|0,1:2|0:0,0:0:0:0:
303,40,122678,1,10,0:2:0:0:
231,303,122840,2,0,P|275:238|398:182,1,200,6|10,1:2|1:2,0:0:0:0:
505,315,123326,1,10,0:2:0:0:
331,329,123489,6,0,B|229:296|237:373|111:342,1,200,6|10,1:2|1:2,0:0:0:0:
28,200,123975,1,10,0:2:0:0:
240,194,124137,2,0,P|197:248|136:262,1,100,6|0,1:2|0:0,0:0:0:0:
105,92,124462,1,0,1:0:0:0:
15,181,124624,2,0,P|7:261|9:317,1,100,10|10,0:2|0:2,0:0:0:0:
257,308,124948,6,0,P|265:228|261:143,1,150,6|0,1:2|0:0,0:0:0:0:
283,134,125272,2,0,P|291:102|300:67,1,50,10|0,0:2|0:0,0:0:0:0:
496,187,125435,1,10,1:2:0:0:
385,62,125597,1,8,0:2:0:0:
298,230,125759,1,10,0:2:0:0:
409,84,125921,6,0,P|401:164|404:296,1,200,6|0,1:2|0:0,0:0:0:0:
231,288,126407,2,0,L|183:274,1,50,10|0,1:2|0:0,0:0:0:0:
48,176,126570,2,0,L|0:190,1,50,8|0,0:2|0:0,0:0:0:0:
87,360,126732,5,10,1:2:0:0:
87,360,126813,1,8,1:2:0:0:
87,360,126894,2,0,P|107:325|107:292,1,50,8|8,1:2|0:2,0:0:0:0:
214,144,127056,2,0,P|224:182|247:206,1,50,8|0,0:2|0:0,0:0:0:0:
381,265,127218,1,0,1:0:0:0:
381,265,127299,1,0,1:0:0:0:
381,265,127380,2,0,P|353:267|317:271,1,50,0|0,1:0|0:0,0:0:0:0:
182,366,127543,5,6,1:2:0:0:
256,192,127705,1,10,1:2:0:0:
77,100,127867,1,10,0:2:0:0:
7,322,128029,2,0,P|98:282|176:275,1,150,2|0,1:2|0:0,0:0:0:0:
256,271,128353,5,8,0:2:0:0:
187,62,128516,1,8,0:2:0:0:
360,21,128678,2,0,P|334:89|323:147,1,100,6|0,1:2|0:0,0:0:0:0:
123,186,129002,2,0,P|171:173|217:153,1,100,2|0,1:2|0:0,0:0:0:0:
473,184,129326,2,0,P|384:218|334:311,1,200,10|8,0:2|1:2,0:0:0:0:
162,373,129813,2,0,L|179:306,1,50,10|8,0:2|0:2,0:0:0:0:
250,218,129975,2,0,L|237:169,1,50,10|8,1:2|0:0,0:0:0:0:
43,97,130137,5,6,1:2:0:0:
31,308,130299,1,0,0:0:0:0:
165,209,130462,1,10,0:2:0:0:
61,231,130624,2,0,P|48:293|50:357,1,100,6|0,1:2|0:0,0:0:0:0:
267,240,130948,2,0,P|219:197|163:167,1,100,10|8,1:2|0:2,0:0:0:0:
162,352,131272,6,0,B|232:359|311:313|311:313|294:337|293:357,1,200,6|2,1:2|1:2,0:0:0:0:
410,295,131759,1,10,0:2:0:0:
298,224,131921,1,2,1:2:0:0:
467,146,132083,1,8,0:2:0:0:
275,54,132245,1,2,1:2:0:0:
176,242,132407,1,8,0:2:0:0:
351,150,132570,5,8,1:2:0:0:
351,150,132651,1,8,1:2:0:0:
351,150,132732,1,6,1:2:0:0:
278,319,132894,1,10,0:2:0:0:
94,339,133056,1,10,0:2:0:0:
62,155,133218,2,0,P|145:164|193:234,1,150,6|0,1:2|0:0,0:0:0:0:
176,242,133543,2,0,P|206:233|248:225,1,50,10|8,0:2|0:2,0:0:0:0:
376,165,133705,1,10,1:2:0:0:
275,54,133867,6,0,P|215:66|170:121,1,100,6|0,1:2|0:0,0:0:0:0:
464,158,134191,2,0,P|502:205|501:276,1,100,6|0,1:2|0:0,0:0:0:0:
296,261,134516,2,0,B|181:248|231:318|78:305,1,200,6|8,1:2|0:2,0:0:0:0:
96,295,134921,1,8,1:2:0:0:
86,284,135002,1,8,1:2:0:0:
173,111,135164,5,8,1:2:0:0:
173,111,135245,1,8,1:2:0:0:
173,111,135326,1,6,1:2:0:0:
379,267,135489,1,2,1:2:0:0:
375,249,135570,1,0,1:0:0:0:
372,232,135651,1,10,1:2:0:0:
493,101,135813,1,0,1:2:0:0:
489,118,135894,1,0,1:2:0:0:
486,136,135975,2,0,P|436:123|368:117,1,100,2|2,1:2|1:2,0:0:0:0:
274,190,136299,6,0,P|263:230|260:265,1,50,10|0,1:2|0:0,0:0:0:0:
162,273,136462,1,0,1:2:0:0:
162,273,136543,1,0,1:2:0:0:
162,273,136624,2,0,P|168:313|181:346,1,50,6|0,1:2|0:0,0:0:0:0:
0,297,136786,1,2,1:2:0:0:
6,273,136867,1,0,1:2:0:0:
8,249,136948,1,10,1:2:0:0:
95,81,137110,5,0,1:2:0:0:
95,81,137191,1,0,1:2:0:0:
95,81,137272,2,0,L|173:58,1,50,2|0,1:2|0:0,0:0:0:0:
210,80,137435,2,0,L|162:94,1,50,2|0,1:2|0:0,0:0:0:0:
186,252,137597,2,0,P|195:224|204:179,1,50,10|0,1:2|0:0,0:0:0:0:
332,119,137759,2,0,P|324:142|318:167,1,50,0|0,1:0|0:0,0:0:0:0:
427,323,137921,5,14,1:2:0:0:
274,242,138083,1,8,1:2:0:0:
146,381,138245,5,8,1:2:0:0:
335,322,138407,1,8,1:2:0:0:
180,182,138570,6,0,P|112:198|55:203,1,100,8|0,1:2|0:0,0:0:0:0:
261,54,138894,2,0,B|315:27|315:27|423:54,1,150,10|0,0:2|0:2,0:0:0:0:
443,30,139218,2,0,P|450:68|458:92,1,50,6|0,1:2|0:0,0:0:0:0:
486,202,139380,6,0,P|424:170|327:256,1,179.999994506836,8|0,1:2|0:0,0:0:0:0:
314,307,139705,1,8,1:2:0:0:
203,160,139867,2,0,P|217:251|227:355,1,179.999994506836,8|0,1:2|0:0,0:0:0:0:
26,335,140191,6,0,P|68:266|214:273,1,225.000008583069,14|0,1:2|0:0,0:0:0:0:
314,307,140516,6,0,B|397:298|377:353|488:340,1,165.000005035401,6|0,1:2|0:0,0:0:0:0:
511,260,140840,1,10,0:2:0:0:
408,108,141002,2,0,P|360:136|320:173,1,110.000003356934,2|0,0:2|1:0,0:0:0:0:
93,210,141326,2,0,P|140:239|181:276,1,110.000003356934,2|8,0:2|1:2,0:0:0:0:
222,141,141651,6,0,P|211:87|200:34,1,110.000003356934,2|0,0:2|1:0,0:0:0:0:
113,195,141975,1,0,0:0:0:0:
178,370,142137,2,0,P|188:316|200:262,1,110.000003356934,10|8,0:2|0:2,0:0:0:0:
211,245,142380,1,8,1:2:0:0:
222,228,142462,1,2,1:2:0:0:
437,260,142624,1,0,0:0:0:0:
260,123,142786,1,10,0:2:0:0:
388,0,142948,1,8,0:2:0:0:
347,185,143110,6,0,P|273:159|165:148,1,165.000005035401,6|0,1:2|0:0,0:0:0:0:
151,165,143435,2,0,P|104:176|57:184,1,55.0000016784668,10|0,0:2|0:0,0:0:0:0:
0,25,143597,2,0,P|18:89|28:153,1,110.000003356934,6|0,1:2|0:0,0:0:0:0:
161,272,143921,1,6,1:2:0:0:
6,338,144083,1,10,0:2:0:0:
141,249,144245,6,0,B|201:276|282:266|282:266|244:290|223:343,1,220.000006713867,6|10,1:2|0:2,0:0:0:0:
232,322,144651,1,0,1:0:0:0:
232,322,144732,1,0,1:0:0:0:
414,375,144894,1,2,0:2:0:0:
338,145,145056,5,2,0:2:0:0:
350,228,145299,5,2,0:2:0:0:
362,311,145542,5,2,0:2:0:0:
508,120,145705,6,0,B|439:88|439:88|290:134,1,220.000006713867,6|8,1:2|0:2,0:0:0:0:
283,126,146110,1,0,1:0:0:0:
265,122,146191,1,2,1:2:0:0:
278,240,146353,2,0,P|216:262|156:277,1,110.000003356934,2|0,1:2|0:0,0:0:0:0:
123,338,146597,2,0,P|61:316|2:303,1,110.000003356934,2|0,0:2|0:0,0:0:0:0:
2,231,146840,2,8,P|0:204|-1:167,1,55.0000016784668,2|8,0:2|0:0,0:0:0:0:
144,29,147002,6,0,P|118:104|100:245,1,220.000006713867,2|8,1:2|0:2,0:0:0:0:
244,323,147489,1,2,1:2:0:0:
244,323,147571,1,0,1:2:0:0:
244,323,147651,2,0,P|298:343|373:358,1,110.000003356934,2|0,1:2|0:0,0:0:0:0:
507,328,147975,2,0,P|489:281|477:222,1,110.000003356934,8|0,0:2|0:0,0:0:0:0:
492,54,148299,5,2,1:2:0:0:
326,190,148462,1,0,0:0:0:0:
148,107,148624,1,10,0:2:0:0:
374,52,148786,5,2,0:2:0:0:
220,257,148948,1,0,1:0:0:0:
414,167,149110,1,2,1:2:0:0:
414,167,149191,1,0,1:2:0:0:
414,167,149272,2,0,P|400:233|392:305,1,110.000003356934,8|2,0:2|0:2,0:0:0:0:
93,333,149597,5,14,1:2:0:0:
326,190,149759,1,0,1:0:0:0:
81,48,149921,5,10,1:2:0:0:
304,188,150083,1,2,1:2:0:0:
5,284,150245,5,14,1:2:0:0:
282,186,150407,1,2,1:2:0:0:
0,85,150570,5,10,1:2:0:0:
210,42,150732,1,0,1:2:0:0:
210,42,150813,1,0,1:2:0:0:
210,42,150894,2,0,P|182:121|163:222,1,165.000005035401,6|0,1:2|0:0,0:0:0:0:
173,289,151218,1,10,0:2:0:0:
282,186,151380,2,0,P|316:257|352:300,1,110.000003356934,2|0,0:2|1:0,0:0:0:0:
463,350,151705,2,0,P|489:307|513:252,1,110.000003356934,2|8,0:2|1:2,0:0:0:0:
488,85,152029,6,0,P|442:71|373:73,1,110.000003356934,2|2,0:2|1:2,0:0:0:0:
267,203,152353,1,0,0:0:0:0:
389,237,152516,2,0,P|438:236|500:218,1,110.000003356934,10|8,0:2|0:2,0:0:0:0:
496,219,152759,1,8,1:2:0:0:
496,219,152840,1,2,1:2:0:0:
384,147,153002,1,0,0:0:0:0:
255,220,153164,1,10,0:2:0:0:
284,27,153326,1,0,0:0:0:0:
129,231,153489,5,6,1:2:0:0:
384,323,153651,1,2,0:2:0:0:
80,353,153813,1,10,0:2:0:0:
271,312,153975,2,0,P|266:257|267:187,1,110.000003356934,6|0,1:2|0:0,0:0:0:0:
129,231,154299,1,6,1:2:0:0:
292,332,154462,1,10,0:2:0:0:
398,146,154624,6,0,B|275:133|305:193|173:164,1,220.000006713867,6|8,1:2|0:2,0:0:0:0:
182,165,155029,1,8,1:2:0:0:
182,165,155110,1,0,1:0:0:0:
17,84,155272,1,0,0:0:0:0:
108,214,155435,5,2,0:2:0:0:
100,125,155678,5,2,0:2:0:0:
92,36,155921,5,2,0:2:0:0:
217,206,156083,6,0,P|196:280|62:313,1,220.000006713867,6|8,1:2|0:2,0:0:0:0:
69,316,156489,1,0,1:0:0:0:
69,316,156570,1,2,1:2:0:0:
286,296,156732,2,0,P|334:281|414:276,1,110.000003356934,2|0,1:2|0:0,0:0:0:0:
484,315,156975,2,0,P|489:260|504:207,1,110.000003356934,2|0,0:2|0:0,0:0:0:0:
462,131,157218,2,0,P|454:90|453:58,1,55.0000016784668,2|0,0:2|0:0,0:0:0:0:
327,38,157380,6,0,B|254:0|167:27|167:27|118:96,1,220.000006713867,2|8,1:2|0:2,0:0:0:0:
164,236,157867,1,2,1:2:0:0:
164,236,157948,1,0,1:2:0:0:
164,236,158029,2,0,P|218:203|241:148,1,110.000003356934,2|0,1:2|0:0,0:0:0:0:
24,114,158353,2,0,P|4:194|-1:244,1,110.000003356934,8|0,0:2|0:0,0:0:0:0:
122,331,158678,5,2,1:2:0:0:
258,178,158840,1,2,0:2:0:0:
370,370,159002,1,8,0:2:0:0:
155,150,159164,5,2,0:2:0:0:
286,294,159326,1,0,1:0:0:0:
443,137,159489,1,2,1:2:0:0:
443,137,159570,1,0,1:0:0:0:
443,137,159651,2,0,P|386:122|325:114,1,110.000003356934,8|2,0:2|0:2,0:0:0:0:
168,232,159975,5,2,1:2:0:0:
229,21,160137,1,0,1:0:0:0:
278,213,160299,5,10,1:2:0:0:
148,51,160462,1,0,1:0:0:0:
316,108,160624,6,0,P|263:99|190:115,1,110.000003356934,10|0,0:2|0:0,0:0:0:0:
71,126,160867,2,0,P|103:81|148:50,1,110.000003356934,10|0,0:2|0:0,0:0:0:0:
181,210,161110,1,10,0:2:0:0:
336,27,161272,5,0,1:2:0:0:
336,27,161353,1,0,1:2:0:0:
336,27,161435,2,0,P|344:70|351:102,1,50,0|0,1:2|1:0,0:0:0:0:
489,214,161597,6,0,P|430:181|294:226,1,220.000006713867,6|0,1:2|1:0,0:0:0:0:
141,338,162083,2,0,P|158:284|169:218,1,110.000003356934,0|10,0:0|0:2,0:0:0:0:
48,130,162407,5,2,1:2:0:0:
48,130,162489,1,0,1:0:0:0:
48,130,162570,2,0,P|100:113|154:103,1,110.000003356934,0|2,1:0|0:2,0:0:0:0:
320,209,162894,1,8,0:2:0:0:
242,72,163056,1,2,0:2:0:0:
86,244,163218,1,0,1:0:0:0:
340,337,163380,1,2,0:2:0:0:
47,362,163543,1,8,1:2:0:0:
293,226,163705,1,2,0:2:0:0:
124,182,163867,5,0,1:2:0:0:
124,182,163948,1,0,1:2:0:0:
124,182,164029,2,0,P|114:214|105:246,1,50,0|0,1:2|1:0,0:0:0:0:
217,311,164191,6,0,B|297:338|297:338|441:277,1,220.000006713867,6|0,1:2|1:0,0:0:0:0:
325,127,164678,2,0,P|266:138|216:151,1,110.000003356934,0|10,0:0|0:2,0:0:0:0:
21,248,165002,2,0,P|30:193|44:140,1,110.000003356934,2|0,0:2|1:0,0:0:0:0:
245,62,165326,5,2,0:2:0:0:
87,17,165489,1,8,0:2:0:0:
195,171,165651,1,2,0:2:0:0:
390,68,165813,1,0,1:0:0:0:
285,294,165975,1,2,0:2:0:0:
382,158,166137,1,8,1:2:0:0:
385,184,166218,1,8,1:2:0:0:
388,210,166299,2,0,P|391:247|393:270,1,55.0000016784668,8|8,0:0|1:2,0:0:0:0:
132,352,166462,6,0,P|137:298|145:242,1,110.000003356934,6|0,1:2|0:0,0:0:0:0:
248,97,166786,1,10,0:2:0:0:
296,270,166948,2,0,P|264:260|226:252,1,55.0000016784668,6|0,1:2|0:0,0:0:0:0:
98,171,167110,1,0,1:2:0:0:
108,146,167191,1,0,1:2:0:0:
118,122,167272,1,2,1:2:0:0:
0,100,167435,2,0,P|4:139|8:170,1,55.0000016784668,6|0,0:2|0:0,0:0:0:0:
124,255,167597,5,8,0:2:0:0:
0,315,167759,1,2,0:2:0:0:
118,122,167921,2,0,P|155:115|196:108,1,55.0000016784668,6|0,1:2|0:0,0:0:0:0:
361,253,168083,1,8,1:3:0:0:
356,265,168164,1,8,1:3:0:0:
353,278,168245,1,8,1:3:0:0:
349,290,168326,1,8,1:3:0:0:
348,304,168408,5,10,1:2:0:0:
390,271,168489,1,8,1:2:0:0:
411,221,168570,1,8,1:2:0:0:
405,167,168650,1,8,1:2:0:0:
373,123,168732,2,0,P|331:112|290:104,1,55.0000016784668,8|8,1:2|0:2,0:0:0:0:
203,235,168894,2,0,P|213:193|221:152,1,55.0000016784668,8|8,0:2|0:2,0:0:0:0:
40,89,169056,6,0,P|49:134|64:197,1,100,6|2,1:2|0:2,0:0:0:0:
8,306,169380,1,10,1:2:0:0:
203,349,169543,2,0,P|191:300|181:251,1,100,2|0,0:2|1:0,0:0:0:0:
181,251,169786,1,0,1:0:0:0:
181,251,169867,1,2,1:2:0:0:
319,109,170029,1,10,0:2:0:0:
405,167,170191,6,0,P|332:150|181:132,1,200,2|2,0:2|0:2,0:0:0:0:
16,236,170678,1,8,0:2:0:0:
130,50,170840,1,10,1:2:0:0:
130,50,170921,1,8,1:2:0:0:
130,50,171002,2,0,P|110:108|97:159,1,100,0|2,1:0|0:2,0:0:0:0:
262,323,171326,1,8,1:2:0:0:
193,166,171489,1,2,0:2:0:0:
57,327,171651,5,4,1:2:0:0:
103,308,171732,1,0,1:0:0:0:
152,299,171813,1,2,1:2:0:0:
318,133,171975,1,10,0:2:0:0:
282,341,172137,2,0,P|369:335|439:275,1,150,6|0,1:2|0:0,0:0:0:0:
449,227,172462,2,0,P|439:200|435:151,1,50,10|0,1:2|0:0,0:0:0:0:
356,67,172624,2,0,P|342:87|331:110,1,50,8|0,0:2|0:0,0:0:0:0:
241,185,172786,6,0,B|191:203|138:185|138:185|121:207|95:223,1,150,6|0,1:2|0:0,0:0:0:0:
29,243,173110,2,0,P|24:217|19:176,1,50,10|0,1:2|0:0,0:0:0:0:
157,63,173272,2,0,P|162:89|167:130,1,50,10|0,0:2|0:0,0:0:0:0:
165,284,173435,1,2,0:2:0:0:
84,125,173597,1,0,1:2:0:0:
51,335,173759,1,2,0:2:0:0:
105,215,173921,1,8,0:2:0:0:
254,288,174083,5,2,1:2:0:0:
254,288,174164,1,0,1:0:0:0:
254,288,174245,1,6,1:2:0:0:
410,234,174407,1,2,0:2:0:0:
234,177,174570,1,10,0:2:0:0:
321,365,174732,1,2,1:2:0:0:
149,250,174894,6,0,P|140:223|138:182,1,50,0|0,1:2|0:0,0:0:0:0:
270,46,175056,2,0,P|258:68|251:92,1,50,2|0,0:2|0:0,0:0:0:0:
281,263,175218,1,10,1:2:0:0:
165,112,175380,5,2,1:2:0:0:
165,112,175462,1,0,1:0:0:0:
165,112,175543,1,2,1:2:0:0:
31,214,175705,1,2,0:2:0:0:
254,288,175867,1,10,0:2:0:0:
137,201,176029,5,2,1:2:0:0:
137,201,176110,1,0,1:2:0:0:
137,201,176191,2,0,P|121:245|114:275,1,50,0|0,1:2|0:0,0:0:0:0:
252,363,176353,2,0,P|268:319|275:289,1,50,2|0,0:2|0:0,0:0:0:0:
309,186,176516,1,8,1:2:0:0:
139,351,176678,5,2,1:2:0:0:
139,351,176759,1,0,1:0:0:0:
139,351,176840,1,2,1:2:0:0:
226,174,177002,1,2,0:2:0:0:
366,277,177164,1,10,1:2:0:0:
268,50,177326,1,2,0:2:0:0:
78,155,177489,6,0,P|112:148|149:137,1,50,0|0,1:2|0:0,0:0:0:0:
251,192,177651,2,0,P|285:199|322:210,1,50,2|0,0:2|0:0,0:0:0:0:
436,177,177813,2,0,P|442:152|446:128,1,50,8|0,1:2|0:0,0:0:0:0:
288,39,177975,2,0,P|281:63|277:87,1,50,2|0,0:2|0:0,0:0:0:0:
290,362,178137,5,10,1:2:0:0:
180,73,178299,1,2,0:2:0:0:
299,339,178462,5,10,1:2:0:0:
97,187,178624,1,2,0:2:0:0:
308,316,178786,5,10,1:2:0:0:
108,332,178948,1,2,0:2:0:0:
276,181,179110,5,10,1:2:0:0:
404,340,179272,1,2,1:2:0:0:
404,340,179353,1,0,1:2:0:0:
404,340,179435,2,0,P|349:329|286:305,1,100,6|0,1:2|0:0,0:0:0:0:
292,163,179759,1,10,1:2:0:0:
104,246,179921,2,0,P|151:230|200:220,1,100,2|0,0:2|1:0,0:0:0:0:
200,220,180164,1,0,1:0:0:0:
200,220,180245,1,2,1:2:0:0:
401,101,180407,2,0,P|391:150|375:197,1,100,10|2,1:2|0:0,0:0:0:0:
194,97,180732,5,2,1:2:0:0:
182,84,180813,1,0,1:0:0:0:
170,70,180894,2,0,L|107:54,1,50,2|0,1:2|1:0,0:0:0:0:
21,248,181056,1,10,1:2:0:0:
37,253,181137,1,0,1:0:0:0:
55,259,181218,2,0,L|117:241,1,50,8|8,1:2|1:2,0:0:0:0:
291,183,181380,1,2,1:2:0:0:
296,199,181462,1,0,1:0:0:0:
301,215,181543,1,0,1:0:0:0:
306,231,181624,1,0,1:0:0:0:
310,248,181705,2,0,P|333:192|387:102,1,150,10|0,1:2|0:0,0:0:0:0:
442,172,182029,6,0,P|456:230|485:297,1,100,6|2,1:2|0:2,0:0:0:0:
346,367,182353,1,10,0:2:0:0:
291,183,182516,2,0,P|243:156|138:197,1,150,6|0,1:2|0:0,0:0:0:0:
134,174,182840,2,0,P|145:214|156:251,1,50,10|0,1:2|0:0,0:0:0:0:
35,343,183002,2,0,P|24:303|13:266,1,50,10|0,0:2|0:0,0:0:0:0:
59,109,183164,6,0,B|124:73|124:73|272:118,1,200,6|2,1:2|1:2,0:0:0:0:
244,109,183570,1,0,1:0:0:0:
244,109,183651,1,10,1:2:0:0:
414,35,183813,2,0,P|396:95|389:152,1,100,2|0,0:2|1:0,0:0:0:0:
366,330,184137,2,0,P|325:301|280:278,1,100,0|8,0:0|1:2,0:0:0:0:
71,295,184462,5,2,1:2:0:0:
71,295,184543,1,0,1:0:0:0:
71,295,184624,1,6,1:2:0:0:
173,206,184786,1,2,0:2:0:0:
225,361,184948,1,10,1:2:0:0:
143,241,185110,2,0,P|135:180|117:117,1,100,2|0,0:2|1:0,0:0:0:0:
292,29,185435,1,2,0:2:0:0:
104,56,185597,2,0,P|152:67|202:73,1,100,10|0,1:2|0:0,0:0:0:0:
390,41,185921,5,2,1:2:0:0:
376,251,186083,2,0,P|327:239|277:233,1,100,2|8,0:2|1:2,0:0:0:0:
471,116,186407,1,8,1:2:0:0:
471,116,186489,1,8,1:2:0:0:
471,116,186570,1,2,1:2:0:0:
491,231,186732,1,0,0:0:0:0:
366,123,186894,1,10,1:2:0:0:
474,217,187056,1,2,0:2:0:0:
390,41,187218,5,0,1:0:0:0:
282,146,187380,1,2,0:2:0:0:
131,143,187543,1,10,1:2:0:0:
265,39,187705,1,2,0:2:0:0:
425,272,187867,5,2,1:2:0:0:
243,146,188029,1,2,0:2:0:0:
112,348,188191,5,10,1:2:0:0:
300,227,188353,1,2,0:2:0:0:
99,133,188516,6,0,P|111:194|129:257,1,100,2|0,1:2|0:0,0:0:0:0:
120,230,188759,1,0,1:0:0:0:
120,230,188840,1,8,1:2:0:0:
413,161,189002,1,8,0:2:0:0:
378,125,189083,1,8,0:2:0:0:
332,109,189164,1,8,0:2:0:0:
283,116,189245,1,8,0:2:0:0:
243,146,189326,1,8,0:2:0:0:
221,190,189407,1,8,0:2:0:0:
223,240,189489,5,8,1:3:0:0:
232,233,189570,1,8,0:3:0:0:
242,228,189651,1,8,0:3:0:0:
253,223,189732,1,8,0:3:0:0:
264,219,189813,1,6,1:2:0:0:
432,320,200191,6,0,P|383:296|298:283,1,119.999996337891,2|0,1:2|1:0,0:0:0:0:
246,325,200678,1,2,0:2:0:0:
257,221,200840,2,0,P|208:245|123:258,1,119.999996337891,10|2,0:2|0:2,0:0:0:0:
71,216,201327,1,2,0:2:0:0:
132,104,201489,5,2,1:2:0:0:
200,152,201651,1,2,0:2:0:0:
162,63,201813,2,0,P|148:126|141:174,1,89.9999972534181,2|0,1:2|0:0,0:0:0:0:
143,151,202137,1,10,0:2:0:0:
297,110,202462,6,0,P|348:84|390:92,1,89.9999972534181,2|0,0:2|0:0,0:0:0:0:
440,42,202786,2,0,P|422:95|412:178,1,119.999996337891,2|2,1:2|1:2,0:0:0:0:
471,233,203272,1,2,0:2:0:0:
338,200,203435,2,0,P|293:207|234:219,1,89.9999972534181,10|0,0:2|0:0,0:0:0:0:
249,293,203759,2,0,P|284:287|332:277,1,59.9999981689454,2|0,0:2|0:0,0:0:0:0:
169,251,204083,5,2,1:2:0:0:
169,251,204407,2,0,P|174:221|179:191,1,59.9999981689454,2|0,1:2|0:0,0:0:0:0:
89,111,204732,2,0,P|83:140|78:170,1,59.9999981689454,10|0,0:2|0:0,0:0:0:0:
65,204,204975,2,0,P|69:233|75:263,1,59.9999981689454
92,287,205218,2,0,P|84:307|78:328,1,29.9999990844727,2|0,0:2|0:0,0:0:0:0:
234,257,205380,6,0,P|290:235|335:239,1,80,2|0,1:2|0:2,0:0:0:0:
309,234,205624,1,0,1:0:0:0:
309,234,205705,1,0,1:2:0:0:
428,315,205867,1,0,0:2:0:0:
400,157,206029,2,0,P|389:221|386:261,1,80,10|0,1:2|0:0,0:0:0:0:
370,99,206353,2,0,P|381:163|384:203,1,80,10|0,1:2|0:0,0:0:0:0:
240,96,206678,5,2,1:2:0:0:
234,90,206840,1,0,0:2:0:0:
228,84,207002,2,0,P|178:99|98:110,1,120,2|0,1:2|0:0,0:0:0:0:
26,120,207326,2,0,P|85:128|121:144,1,80,10|0,1:2|0:0,0:0:0:0:
0,98,207651,2,0,P|35:145|50:182,1,80,10|0,1:2|0:0,0:0:0:0:
12,286,207975,6,0,P|58:267|101:257,1,80,10|0,1:2|0:0,0:0:0:0:
177,194,208299,2,0,P|223:213|266:223,1,80,10|0,1:2|0:0,0:0:0:0:
350,346,208624,2,0,P|338:303|329:255,1,80,10|0,1:2|0:0,0:0:0:0:
331,268,208867,1,2,1:2:0:0:
331,268,208948,1,8,1:2:0:0:
255,301,209110,1,2,0:2:0:0:
404,203,209272,6,0,P|384:280|376:360,1,160,10|8,1:2|1:2,0:0:0:0:
322,171,209759,1,0,1:0:0:0:
479,122,209921,1,10,1:2:0:0:
479,122,210570,6,0,B|389:113|385:187|278:149,1,179.999994506836,14|0,1:2|0:0,0:0:0:0:
243,102,210894,1,8,0:2:0:0:
104,324,211056,2,0,P|165:278|239:264,1,119.999996337891,14|8,1:2|0:2,0:0:0:0:
206,265,211299,1,0,1:2:0:0:
206,265,211380,1,0,1:2:0:0:
377,384,211543,2,0,P|322:338|301:226,1,179.999994506836,14|0,1:2|0:0,0:0:0:0:
306,157,211867,5,8,0:2:0:0:
104,324,212029,2,0,P|85:284|87:253,1,59.9999981689454,14|0,1:2|0:0,0:0:0:0:
203,185,212191,2,0,P|222:225|220:256,1,59.9999981689454,8|8,0:2|0:2,0:0:0:0:
104,111,212353,1,8,1:2:0:0:
104,111,212435,1,0,1:0:0:0:
104,111,212516,1,14,1:2:0:0:
135,79,212597,1,8,1:2:0:0:
175,61,212678,1,8,1:2:0:0:
219,58,212759,1,8,1:2:0:0:
262,71,212840,5,14,0:2:0:0:
316,109,212921,1,8,0:2:0:0:
382,116,213002,1,8,0:2:0:0:
443,89,213083,1,8,0:2:0:0:
384,39,213164,6,0,P|366:116|360:227,1,179.999994506836,6|0,1:2|0:0,0:0:0:0:
377,297,213489,1,10,0:2:0:0:
217,143,213651,2,0,P|162:117|91:111,1,119.999996337891,2|0,0:2|1:0,0:0:0:0:
32,321,213975,2,0,P|6:267|0:207,1,119.999996337891,2|8,0:2|1:2,0:0:0:0:
193,147,214299,6,0,P|177:223|170:293,1,119.999996337891,2|0,0:2|1:0,0:0:0:0:
309,374,214624,1,0,0:0:0:0:
378,196,214786,2,0,P|342:148|310:98,1,119.999996337891,10|8,0:2|0:2,0:0:0:0:
304,79,215029,1,8,0:2:0:0:
298,60,215110,1,2,1:2:0:0:
195,287,215272,1,0,0:0:0:0:
14,192,215435,1,10,0:2:0:0:
209,117,215597,1,0,0:2:0:0:
86,311,215759,6,0,B|112:258|112:258|100:126,1,179.999994506836,6|0,1:2|0:0,0:0:0:0:
63,73,216083,2,0,L|74:11,1,59.9999981689454,10|0,0:2|0:0,0:0:0:0:
307,180,216245,2,0,P|250:157|187:146,1,119.999996337891,6|0,1:2|0:0,0:0:0:0:
450,328,216570,1,6,1:2:0:0:
330,167,216732,1,10,0:2:0:0:
354,326,216894,6,0,B|377:241|377:241|352:184|352:184|385:86,1,239.999992675781,6|10,1:2|0:2,0:0:0:0:
380,99,217299,1,0,1:0:0:0:
380,99,217380,1,0,1:0:0:0:
494,246,217543,1,2,0:2:0:0:
246,289,217705,5,2,0:2:0:0:
333,214,217948,5,2,0:2:0:0:
354,326,218191,5,2,0:2:0:0:
248,175,218353,6,0,B|197:148|131:174|131:174|76:251|-1:223,1,239.999992675781,6|8,1:2|0:2,0:0:0:0:
16,223,218759,1,0,1:0:0:0:
0,216,218840,1,2,1:2:0:0:
213,51,219002,2,0,P|279:29|354:35,1,119.999996337891,2|0,1:2|0:0,0:0:0:0:
506,66,219245,2,0,P|452:92|410:134,1,119.999996337891,2|0,0:2|0:0,0:0:0:0:
311,253,219489,2,0,P|318:225|327:162,1,59.9999981689454,2|0,0:2|0:0,0:0:0:0:
177,261,219651,6,0,P|186:326|347:339,1,239.999992675781,2|8,1:2|0:2,0:0:0:0:
511,198,220137,1,2,1:2:0:0:
511,198,220218,1,0,1:2:0:0:
511,198,220299,2,0,P|440:149|400:129,1,119.999996337891,2|0,1:2|0:0,0:0:0:0:
328,29,220624,2,0,P|299:81|263:129,1,119.999996337891,8|0,0:2|0:0,0:0:0:0:
19,208,220948,5,2,1:2:0:0:
162,88,221110,1,0,0:0:0:0:
298,289,221272,1,10,0:2:0:0:
124,182,221435,5,2,0:2:0:0:
51,376,221597,1,0,1:0:0:0:
374,240,221759,1,2,1:2:0:0:
374,240,221840,1,0,1:0:0:0:
374,240,221921,2,0,P|290:265|244:273,1,119.999996337891,8|2,0:2|0:2,0:0:0:0:
37,34,222245,5,14,1:2:0:0:
254,289,222407,1,0,1:0:0:0:
446,61,222570,5,10,1:2:0:0:
250,308,222732,1,2,1:2:0:0:
161,93,222894,5,14,1:2:0:0:
246,327,223056,1,2,1:2:0:0:
359,158,223218,5,10,1:2:0:0:
143,362,223380,1,0,1:2:0:0:
143,362,223462,1,0,1:2:0:0:
143,362,223543,2,0,P|131:304|97:185,1,179.999994506836,6|0,1:2|0:0,0:0:0:0:
58,107,223867,1,10,0:2:0:0:
220,29,224029,2,0,P|182:88|184:145,1,119.999996337891,2|0,0:2|1:0,0:0:0:0:
362,288,224353,2,0,P|400:229|398:172,1,119.999996337891,2|8,0:2|1:2,0:0:0:0:
277,195,224678,6,0,P|257:269|245:330,1,119.999996337891,2|2,0:2|1:2,0:0:0:0:
339,110,225002,1,0,0:0:0:0:
145,371,225164,2,0,P|132:312|116:254,1,119.999996337891,10|8,0:2|0:2,0:0:0:0:
107,241,225407,1,8,1:2:0:0:
98,228,225489,1,2,1:2:0:0:
269,323,225651,1,0,0:0:0:0:
191,102,225813,1,10,0:2:0:0:
0,224,225975,1,0,0:0:0:0:
262,215,226137,5,6,1:2:0:0:
41,95,226299,1,2,0:2:0:0:
295,13,226462,1,10,0:2:0:0:
149,239,226624,2,0,P|160:170|169:111,1,119.999996337891,6|0,1:2|0:0,0:0:0:0:
23,245,226948,1,6,1:2:0:0:
185,355,227110,1,10,0:2:0:0:
282,198,227272,6,0,B|367:159|455:197|455:197|430:226|429:273,1,239.999992675781,6|8,1:2|0:2,0:0:0:0:
430,252,227678,1,8,1:2:0:0:
430,252,227759,1,0,1:0:0:0:
203,335,227921,1,0,0:0:0:0:
123,123,228083,5,2,0:2:0:0:
36,203,228326,5,2,0:2:0:0:
149,239,228570,5,2,0:2:0:0:
352,104,228732,6,0,B|267:72|267:72|310:245,1,239.999992675781,6|8,1:2|0:2,0:0:0:0:
302,216,229137,1,0,1:0:0:0:
302,216,229218,1,2,1:2:0:0:
164,370,229380,2,0,P|132:298|127:242,1,119.999996337891,2|0,1:2|0:0,0:0:0:0:
36,203,229624,2,0,P|54:146|89:97,1,119.999996337891,2|0,0:2|0:0,0:0:0:0:
184,26,229867,2,0,P|188:55|194:85,1,59.9999981689454,2|8,1:2|0:0,0:0:0:0:
275,192,230029,6,0,B|342:167|386:195|386:195|432:269|516:241,1,239.999992675781,2|8,1:2|0:2,0:0:0:0:
378,68,230516,1,2,1:2:0:0:
378,68,230597,1,0,1:2:0:0:
378,68,230678,2,0,P|316:48|246:47,1,119.999996337891,2|0,1:2|0:0,0:0:0:0:
126,257,231002,2,0,P|185:253|242:234,1,119.999996337891,8|0,0:2|0:0,0:0:0:0:
107,112,231326,5,2,1:2:0:0:
15,256,231489,1,2,0:2:0:0:
231,343,231651,1,8,0:2:0:0:
43,169,231813,5,2,0:2:0:0:
261,45,231975,1,0,1:0:0:0:
245,358,232137,1,2,1:2:0:0:
245,358,232218,1,0,1:0:0:0:
245,358,232299,2,0,P|301:338|361:335,1,119.999996337891,8|2,0:2|0:2,0:0:0:0:
322,111,232624,5,2,1:2:0:0:
492,246,232786,1,0,1:0:0:0:
416,53,232948,5,10,1:2:0:0:
270,236,233110,1,0,1:0:0:0:
166,43,233272,6,0,P|190:117|199:188,1,119.999996337891,10|0,0:2|0:0,0:0:0:0:
12,284,233516,2,0,P|31:227|42:168,1,119.999996337891,10|0,0:2|0:0,0:0:0:0:
58,45,233759,1,10,0:2:0:0:
210,273,233921,5,0,1:2:0:0:
210,273,234002,1,0,1:2:0:0:
210,273,234083,2,0,P|250:257|286:247,1,50,0|0,1:2|0:0,0:0:0:0:
435,278,234245,6,0,P|347:252|254:362,1,239.999992675781,6|0,1:2|1:0,0:0:0:0:
123,373,234732,2,0,P|115:295|106:218,1,119.999996337891,0|10,0:0|0:2,0:0:0:0:
353,101,235056,5,2,1:2:0:0:
353,101,235137,1,0,1:0:0:0:
353,101,235218,2,0,P|346:160|340:220,1,119.999996337891,0|2,1:0|0:2,0:0:0:0:
227,153,235543,1,8,0:2:0:0:
110,253,235705,1,2,0:2:0:0:
17,72,235867,1,0,1:0:0:0:
148,178,236029,1,2,0:2:0:0:
126,3,236191,1,8,1:2:0:0:
15,246,236353,1,2,0:2:0:0:
251,178,236516,5,0,1:2:0:0:
251,178,236597,1,0,1:2:0:0:
251,178,236678,2,0,P|236:215|222:252,1,50,0|0,1:2|0:0,0:0:0:0:
457,155,236840,6,0,B|378:146|378:146|313:175|313:175|207:148,1,239.999992675781,6|0,1:2|1:0,0:0:0:0:
13,104,237326,2,0,P|30:179|42:256,1,119.999996337891,0|10,0:0|0:2,0:0:0:0:
231,364,237651,2,0,P|214:289|202:212,1,119.999996337891,2|0,0:2|1:0,0:0:0:0:
327,30,237975,1,2,0:2:0:0:
439,190,238137,1,8,0:2:0:0:
196,272,238299,1,2,0:2:0:0:
334,120,238462,1,0,1:0:0:0:
450,350,238624,1,2,0:2:0:0:
262,174,238786,1,8,1:2:0:0:
244,163,238867,1,0,1:0:0:0:
226,152,238948,1,2,1:2:0:0:
82,309,239110,6,0,P|148:282|213:269,1,119.999996337891,2|0,1:2|0:0,0:0:0:0:
440,173,239435,2,0,P|374:145|319:108,1,119.999996337891,8|0,0:2|0:0,0:0:0:0:
256,7,239759,1,2,1:2:0:0:
146,178,239921,1,0,0:0:0:0:
333,119,240083,1,8,0:2:0:0:
298,320,240245,1,2,0:2:0:0:
115,148,240407,6,0,P|135:227|144:303,1,119.999996337891,2|0,1:2|0:0,0:0:0:0:
241,28,240732,1,10,0:2:0:0:
376,241,240894,2,0,P|304:211|247:197,1,119.999996337891,2|0,0:2|1:0,0:0:0:0:
25,341,241218,1,0,0:0:0:0:
225,273,241380,1,8,0:2:0:0:
90,168,241543,1,0,0:0:0:0:
320,36,241705,5,6,1:2:0:0:
203,145,241867,1,8,0:2:0:0:
60,89,242029,1,10,0:2:0:0:
219,47,242191,5,6,1:2:0:0:
305,319,242353,1,8,0:2:0:0:
197,159,242516,1,10,0:2:0:0:
84,340,242678,5,6,1:2:0:0:
385,225,242840,1,8,0:2:0:0:
191,173,243002,1,10,0:2:0:0:
319,345,243164,5,6,1:2:0:0:
274,59,243326,1,8,0:2:0:0:
49,241,243489,1,10,0:2:0:0:
401,243,243651,6,0,P|332:223|253:286,1,179.999994506836,14|0,1:2|0:0,0:0:0:0:
93,309,243975,2,0,P|162:329|241:266,1,179.999994506836,10|0,1:2|0:0,0:0:0:0:
163,113,244299,5,8,1:3:0:0:
163,113,244380,1,8,1:3:0:0:
163,113,244462,1,4,1:3:0:0:
163,113,244543,1,4,1:3:0:0:
163,113,244624,2,0,P|156:176|153:245,1,119.999996337891,14|0,1:2|0:0,0:0:0:0:
468,102,244948,5,8,0:2:0:0:
418,69,245029,1,8,0:2:0:0:
359,63,245110,1,8,0:2:0:0:
304,85,245191,1,8,0:2:0:0:
265,130,245272,2,0,P|258:168|252:218,1,59.9999981689454,8|8,0:2|0:2,0:0:0:0:
442,331,245435,2,0,P|447:301|452:271,1,59.9999981689454,8|8,0:2|0:2,0:0:0:0:
371,170,245597,5,6,1:2:0:0:
