osu file format v14

[General]
AudioFilename: KBJ.mp3
AudioLeadIn: 0
PreviewTime: 52543
Countdown: 0
SampleSet: Soft
StackLeniency: 0.7
Mode: 3
LetterboxInBreaks: 0
SpecialStyle: 0
WidescreenStoryboard: 0

[Editor]
DistanceSpacing: 1
BeatDivisor: 4
GridSize: 32
TimelineZoom: 1.4

[Metadata]
Title:Kokuhaku Bungee Jump (TV Size)
TitleUnicode:告白バンジージャンプ (TV Size)
Artist:halca
ArtistUnicode:halca
Creator:Syadow-
Version:Normal
Source:彼女、お借りします
Tags:6th single シングル Kanojo Okarishimasu Rent-A-Girlfriend Kanokari TMS Entertainment anime japanese pop jpop j-pop ed ending 前山田健一 Kenichi Maeyamada 板垣祐介 Yuusuke Itagaki Rei Miyajima Kodansha 宮島礼吏・講談社
BeatmapID:2514154
BeatmapSetID:1207300

[Difficulty]
HPDrainRate:7.5
CircleSize:4
OverallDifficulty:7.5
ApproachRate:5
SliderMultiplier:1.4
SliderTickRate:1

[Events]
//Background and Video events
0,0,"kanojo.jpg",0,0
//Break Periods
//Storyboard Layer 0 (Background)
//Storyboard Layer 1 (Fail)
//Storyboard Layer 2 (Pass)
//Storyboard Layer 3 (Foreground)
//Storyboard Layer 4 (Overlay)
//Storyboard Sound Samples

[TimingPoints]
652,324.324324324324,4,2,1,40,1,0
55138,-100,4,2,1,50,0,1
59679,-100,4,2,1,40,0,0
60327,-100,4,2,1,50,0,1
64219,-100,4,2,1,40,0,0
65516,-100,4,2,1,50,0,1
70057,-100,4,2,1,40,0,0
70706,-100,4,2,1,50,0,1
75733,-100,4,2,1,40,0,0
83679,-100,4,2,1,50,0,1
85949,-100,4,2,1,40,0,0

[HitObjects]
64,192,652,5,4,0:0:0:0:
448,192,652,1,2,0:0:0:0:
320,192,814,1,0,0:0:0:0:
192,192,976,1,0,0:0:0:0:
448,192,1138,1,4,0:0:0:0:
320,192,1138,1,2,0:0:0:0:
64,192,1462,1,8,0:0:0:0:
192,192,1624,1,8,0:0:0:0:
320,192,1624,1,0,0:0:0:0:
448,192,1949,1,4,0:0:0:0:
64,192,1949,1,2,0:0:0:0:
192,192,2111,1,0,0:0:0:0:
320,192,2273,1,0,0:0:0:0:
64,192,2435,1,4,0:0:0:0:
192,192,2435,1,2,0:0:0:0:
448,192,2760,1,0,0:0:0:50:Tom1.wav
192,192,2922,1,0,0:0:0:50:Tom2.wav
64,192,3246,1,4,0:0:0:0:
448,192,3246,1,2,0:0:0:0:
320,192,3408,1,0,0:0:0:0:
192,192,3570,1,0,0:0:0:0:
448,192,3733,1,4,0:0:0:0:
320,192,3733,1,2,0:0:0:0:
64,192,4057,1,8,0:0:0:0:
192,192,4219,1,8,0:0:0:0:
448,192,4219,1,0,0:0:0:0:
448,192,4543,1,4,0:0:0:0:
320,192,4543,1,2,0:0:0:0:
192,192,4706,1,8,0:0:0:0:
320,192,4868,1,0,0:0:0:0:
192,192,5030,1,4,0:0:0:0:
64,192,5030,1,8,0:0:0:0:
320,192,5354,1,0,0:0:0:50:Tom1.wav
64,192,5516,1,0,0:0:0:50:Tom2.wav
192,192,5516,1,0,0:0:0:0:
320,192,5679,1,8,0:0:0:0:
64,192,5841,1,2,0:0:0:0:
448,192,5841,1,4,0:0:0:0:
192,192,6003,1,0,0:0:0:0:
320,192,6165,1,0,0:0:0:0:
448,192,6327,1,4,0:0:0:0:
192,192,6327,1,2,0:0:0:0:
64,192,6651,1,8,0:0:0:0:
192,192,6814,1,8,0:0:0:0:
448,192,6814,1,0,0:0:0:0:
448,192,7138,1,2,0:0:0:0:
64,192,7138,1,4,0:0:0:0:
320,192,7300,1,0,0:0:0:0:
192,192,7462,1,0,0:0:0:0:
64,192,7624,1,2,0:0:0:0:
448,192,7624,1,4,0:0:0:0:
320,192,7949,1,0,0:0:0:50:Tom1.wav
192,192,8111,1,0,0:0:0:50:Tom3.wav
64,192,8435,128,4,8760:0:0:0:0:
320,192,8435,1,2,0:0:0:0:
448,192,8760,1,8,0:0:0:0:
320,192,8922,1,4,0:0:0:0:
192,192,8922,128,2,9246:0:0:0:0:
448,192,9246,1,8,0:0:0:0:
320,192,9408,1,8,0:0:0:0:
64,192,9570,128,2,9895:0:0:0:0:
192,192,9570,1,4,0:0:0:0:
448,192,9895,1,8,0:0:0:0:
320,192,9895,1,2,0:0:0:0:
192,192,10057,1,2,0:0:0:0:
64,192,10057,1,8,0:0:0:0:
320,192,10219,1,8,0:0:0:0:
448,192,10381,1,2,0:0:0:0:
192,192,10381,1,4,0:0:0:0:
448,192,10706,1,2,0:0:0:0:
192,192,10706,1,0,0:0:0:0:
64,192,11030,1,4,0:0:0:0:
192,192,11030,1,8,0:0:0:0:
448,192,11679,1,2,0:0:0:0:
320,192,11679,1,4,0:0:0:0:
64,192,12327,1,4,0:0:0:0:
192,192,12327,1,8,0:0:0:0:
320,192,12651,1,2,0:0:0:0:
448,192,12651,1,4,0:0:0:0:
192,192,12976,1,4,0:0:0:0:
64,192,12976,1,8,0:0:0:0:
320,192,13300,1,8,0:0:0:0:
192,192,13462,1,0,0:0:0:50:Tom3.wav
320,192,13624,1,2,0:0:0:0:
448,192,13624,1,4,0:0:0:0:
192,192,13787,1,8,0:0:0:0:
64,192,13787,1,0,0:0:0:0:
448,192,13949,1,2,0:0:0:0:
320,192,14111,1,8,0:0:0:0:
64,192,14111,1,0,0:0:0:0:
192,192,14273,1,2,0:0:0:0:
448,192,14435,1,8,0:0:0:0:
320,192,14435,1,0,0:0:0:0:
64,192,14597,1,2,0:0:0:0:
192,192,14760,1,8,0:0:0:0:
448,192,14760,1,0,0:0:0:0:
320,192,14922,1,2,0:0:0:0:
192,192,15084,1,8,0:0:0:0:
64,192,15084,1,0,0:0:0:0:
448,192,15246,1,2,0:0:0:0:
320,192,15408,1,8,0:0:0:0:
64,192,15408,1,0,0:0:0:0:
192,192,15570,1,2,0:0:0:0:
448,192,15733,1,8,0:0:0:0:
320,192,15733,1,0,0:0:0:0:
192,192,15895,1,2,0:0:0:0:
64,192,16057,1,8,0:0:0:0:
448,192,16057,1,0,0:0:0:0:
320,192,16219,1,2,0:0:0:0:
64,192,16381,1,8,0:0:0:0:
192,192,16381,1,0,0:0:0:0:
320,192,16543,1,2,0:0:0:0:
448,192,16706,1,8,0:0:0:0:
64,192,16706,1,0,0:0:0:0:
192,192,16868,1,2,0:0:0:0:
320,192,17030,1,8,0:0:0:0:
448,192,17030,1,0,0:0:0:0:
192,192,17192,1,2,0:0:0:0:
64,192,17354,1,8,0:0:0:0:
320,192,17354,1,0,0:0:0:0:
448,192,17516,1,2,0:0:0:0:
192,192,17679,1,8,0:0:0:0:
64,192,17679,1,0,0:0:0:0:
320,192,17841,1,2,0:0:0:0:
192,192,18003,1,8,0:0:0:0:
448,192,18003,1,0,0:0:0:0:
64,192,18165,1,2,0:0:0:0:
448,192,18327,1,8,0:0:0:0:
320,192,18327,1,0,0:0:0:0:
192,192,18489,1,2,0:0:0:0:
64,192,18651,1,8,0:0:0:0:
320,192,18651,1,0,0:0:0:0:
448,192,18814,1,2,0:0:0:0:
192,192,18976,1,8,0:0:0:0:
64,192,18976,1,0,0:0:0:0:
320,192,19138,1,2,0:0:0:0:
448,192,19300,1,8,0:0:0:0:
192,192,19300,1,0,0:0:0:0:
64,192,19462,1,2,0:0:0:0:
448,192,19624,1,8,0:0:0:0:
320,192,19624,1,0,0:0:0:0:
192,192,19787,1,2,0:0:0:0:
64,192,19949,128,8,20273:0:0:0:0:
320,192,19949,1,4,0:0:0:0:
320,192,20273,1,8,0:0:0:0:
448,192,20273,1,2,0:0:0:0:
192,192,20435,1,10,0:0:0:0:
448,192,20597,1,8,0:0:0:0:
64,192,20597,1,2,0:0:0:0:
320,192,20760,1,10,0:0:0:0:
192,192,20922,1,8,0:0:0:0:
64,192,20922,1,2,0:0:0:0:
320,192,21084,128,10,21246:0:0:0:0:
192,192,21246,128,10,21408:0:0:0:0:
64,192,21408,1,4,0:0:0:0:
448,192,21408,1,10,0:0:0:0:
192,192,22057,1,2,0:0:0:0:
320,192,22057,1,4,0:0:0:0:
448,192,22706,1,4,0:0:0:0:
320,192,22706,1,8,0:0:0:0:
192,192,23030,1,2,0:0:0:0:
64,192,23030,1,4,0:0:0:0:
320,192,23354,1,8,0:0:0:0:
448,192,23354,1,4,0:0:0:0:
64,192,23516,128,8,23679:0:0:0:0:
192,192,23679,128,8,23841:0:0:0:0:
320,192,23841,1,0,0:0:0:50:Tom3.wav
448,192,24003,1,2,0:0:0:0:
64,192,24003,1,4,0:0:0:0:
192,192,24165,1,8,0:0:0:0:
320,192,24165,1,0,0:0:0:0:
448,192,24327,1,2,0:0:0:0:
320,192,24489,1,8,0:0:0:0:
64,192,24489,1,0,0:0:0:0:
192,192,24651,1,2,0:0:0:0:
448,192,24814,1,8,0:0:0:0:
64,192,24814,1,0,0:0:0:0:
320,192,24976,1,2,0:0:0:0:
64,192,25138,1,8,0:0:0:0:
192,192,25138,1,0,0:0:0:0:
320,192,25300,1,2,0:0:0:0:
448,192,25462,1,8,0:0:0:0:
192,192,25462,1,0,0:0:0:0:
64,192,25624,1,2,0:0:0:0:
448,192,25787,1,8,0:0:0:0:
320,192,25787,1,0,0:0:0:0:
192,192,25949,1,2,0:0:0:0:
64,192,26111,1,8,0:0:0:0:
320,192,26111,1,0,0:0:0:0:
448,192,26273,1,2,0:0:0:0:
192,192,26435,1,8,0:0:0:0:
64,192,26435,1,0,0:0:0:0:
448,192,26597,1,2,0:0:0:0:
320,192,26597,1,4,0:0:0:0:
64,192,26922,1,8,0:0:0:0:
192,192,27084,1,2,0:0:0:0:
448,192,27084,1,4,0:0:0:0:
320,192,27408,1,2,0:0:0:0:
192,192,27570,1,8,0:0:0:0:
448,192,27733,1,2,0:0:0:0:
64,192,27733,1,4,0:0:0:0:
192,192,28057,1,2,0:0:0:0:
320,192,28219,1,8,0:0:0:0:
192,192,28381,1,2,0:0:0:0:
64,192,28381,1,4,0:0:0:0:
448,192,28706,1,2,0:0:0:0:
64,192,28868,1,8,0:0:0:0:
320,192,29192,1,2,0:0:0:0:
448,192,29192,1,4,0:0:0:0:
64,192,29516,1,8,0:0:0:0:
192,192,29679,1,4,0:0:0:0:
448,192,29679,1,2,0:0:0:0:
320,192,29841,1,0,0:0:0:50:Tom2.wav
192,192,30003,1,0,0:0:0:50:Tom3.wav
64,192,30165,1,4,0:0:0:0:
448,192,30165,1,2,0:0:0:0:
320,192,30651,1,8,0:0:0:0:
192,192,30814,1,8,0:0:0:0:
448,192,30976,1,8,0:0:0:0:
64,192,31138,128,8,31300:0:0:0:0:
192,192,31300,128,8,31462:0:0:0:0:
448,192,31462,128,0,31787:0:0:0:50:Tom3.wav
64,192,31787,1,4,0:0:0:0:
192,192,31787,1,2,0:0:0:0:
320,192,31949,1,8,0:0:0:0:
192,192,32111,1,8,0:0:0:0:
320,192,32273,1,4,0:0:0:0:
448,192,32273,1,2,0:0:0:0:
192,192,32597,1,8,0:0:0:0:
320,192,32760,1,8,0:0:0:0:
64,192,32922,1,2,0:0:0:0:
448,192,32922,1,0,0:0:0:0:
192,192,33246,1,8,0:0:0:0:
320,192,33570,1,4,0:0:0:0:
448,192,33570,1,2,0:0:0:0:
64,192,33895,1,8,0:0:0:0:
320,192,34057,1,0,0:0:0:50:Tom1.wav
192,192,34219,1,0,0:0:0:50:Tom3.wav
64,192,34381,1,4,0:0:0:0:
448,192,34381,1,2,0:0:0:0:
320,192,34706,1,8,0:0:0:0:
192,192,34868,1,4,0:0:0:0:
64,192,34868,1,2,0:0:0:0:
320,192,35192,1,2,0:0:0:0:
192,192,35354,1,8,0:0:0:0:
320,192,35516,1,2,0:0:0:0:
448,192,35516,1,4,0:0:0:0:
64,192,35841,1,2,0:0:0:0:
448,192,36003,1,8,0:0:0:0:
64,192,36165,1,2,0:0:0:0:
448,192,36327,1,8,0:0:0:0:
64,192,36489,1,2,0:0:0:0:
320,192,36651,1,8,0:0:0:0:
192,192,36814,1,8,0:0:0:0:
320,192,36976,1,2,0:0:0:0:
448,192,36976,1,4,0:0:0:0:
64,192,37138,1,8,0:0:0:0:
448,192,37300,1,8,0:0:0:0:
320,192,37462,1,4,0:0:0:0:
64,192,37462,1,2,0:0:0:0:
192,192,37787,1,0,0:0:0:50:Tom1.wav
320,192,37949,1,0,0:0:0:50:Tom3.wav
448,192,38111,1,2,0:0:0:0:
64,192,38111,1,0,0:0:0:0:
192,192,38435,1,8,0:0:0:0:
448,192,38435,1,2,0:0:0:0:
64,192,38760,1,8,0:0:0:0:
320,192,38760,1,6,0:0:0:0:
192,192,39084,128,8,39246:0:0:0:0:
448,192,39246,1,8,0:0:0:0:
64,192,39408,128,8,39570:0:0:0:0:
448,192,39570,1,2,0:0:0:0:
320,192,39570,1,4,0:0:0:0:
64,192,39733,1,8,0:0:0:0:
320,192,39895,1,2,0:0:0:0:
64,192,40057,1,8,0:0:0:0:
320,192,40219,1,8,0:0:0:0:
192,192,40381,1,10,0:0:0:0:
448,192,40543,1,10,0:0:0:0:
192,192,40706,1,10,0:0:0:0:
448,192,40868,1,2,0:0:0:0:
320,192,40868,1,0,0:0:0:0:
64,192,41030,1,8,0:0:0:0:
320,192,41192,1,2,0:0:0:0:
64,192,41354,1,8,0:0:0:0:
448,192,41516,1,2,0:0:0:0:
192,192,41679,1,10,0:0:0:0:
448,192,41841,1,10,0:0:0:0:
192,192,42003,1,10,0:0:0:0:
320,192,42165,1,2,0:0:0:0:
448,192,42165,1,8,0:0:0:0:
320,192,42327,1,10,0:0:0:0:
192,192,42489,1,8,0:0:0:0:
64,192,42489,1,2,0:0:0:0:
64,192,42651,1,10,0:0:0:0:
448,192,42814,1,8,0:0:0:0:
320,192,42814,1,2,0:0:0:0:
448,192,43138,1,0,0:0:0:50:Tom1.wav
192,192,43462,1,2,0:0:0:0:
64,192,43462,1,8,0:0:0:0:
192,192,43624,1,10,0:0:0:0:
320,192,43787,1,2,0:0:0:0:
448,192,43787,1,8,0:0:0:0:
448,192,43949,1,10,0:0:0:0:
64,192,44111,1,2,0:0:0:0:
192,192,44111,1,8,0:0:0:0:
320,192,44435,1,0,0:0:0:50:Tom3.wav
192,192,44760,1,2,0:0:0:0:
448,192,44760,1,12,0:0:0:0:
192,192,45084,1,8,0:0:0:0:
448,192,45084,1,2,0:0:0:0:
64,192,45408,1,2,0:0:0:0:
320,192,45408,1,8,0:0:0:0:
192,192,45651,1,10,0:0:0:0:
320,192,45895,1,10,0:0:0:0:
64,192,46057,1,8,0:0:0:0:
192,192,46057,128,6,46381:0:0:0:0:
448,192,46381,1,8,0:0:0:0:
320,192,46381,1,2,0:0:0:0:
192,192,46543,1,0,0:0:0:50:Tom1.wav
64,192,46706,1,8,0:0:0:0:
448,192,46706,1,2,0:0:0:0:
320,192,46868,1,0,0:0:0:50:Tom2.wav
64,192,47030,1,8,0:0:0:0:
192,192,47030,1,2,0:0:0:0:
320,192,47192,1,0,0:0:0:50:Tom3.wav
448,192,47354,1,0,0:0:0:0:
320,192,47841,1,0,0:0:0:0:
64,192,48165,1,0,0:0:0:0:
192,192,48327,1,0,0:0:0:0:
320,192,48489,1,0,0:0:0:0:
64,192,48814,1,0,0:0:0:0:
448,192,48976,1,0,0:0:0:0:
320,192,49138,1,0,0:0:0:0:
192,192,49300,1,0,0:0:0:0:
320,192,49624,1,0,0:0:0:0:
64,192,49949,128,0,50922:0:0:0:0:
448,192,51246,1,0,0:0:0:0:
192,192,52057,1,0,0:0:0:0:
320,192,52219,128,0,52543:0:0:0:0:
64,192,52543,1,4,0:0:0:0:
448,192,52543,1,2,0:0:0:0:
192,192,52706,1,8,0:0:0:0:
320,192,52868,1,8,0:0:0:0:
192,192,53030,1,2,0:0:0:0:
64,192,53030,1,4,0:0:0:0:
448,192,53192,1,0,0:0:0:50:Tom1.wav
320,192,53354,1,0,0:0:0:50:Tom3.wav
64,192,53516,1,4,0:0:0:0:
192,192,53516,1,2,0:0:0:0:
448,192,53679,1,8,0:0:0:0:
192,192,53841,1,8,0:0:0:0:
448,192,54003,128,2,54814:0:0:0:0:
320,192,54003,1,4,0:0:0:0:
64,192,54165,1,0,0:0:0:50:Tom1.wav
192,192,54327,1,0,0:0:0:50:Tom3.wav
320,192,54489,128,6,54814:0:0:0:0:
64,192,54814,1,12,0:0:0:0:
192,192,54814,1,0,0:0:0:50:Tom1.wav
448,192,55138,1,2,0:0:0:0:
64,192,55138,1,4,0:0:0:0:
192,192,55462,1,8,0:0:0:0:
320,192,55462,1,0,0:0:0:0:
448,192,55624,1,0,0:0:0:0:
64,192,55787,1,2,0:0:0:0:
192,192,55949,1,0,0:0:0:0:
448,192,56111,1,8,0:0:0:0:
320,192,56111,1,0,0:0:0:0:
64,192,56273,1,0,0:0:0:0:
320,192,56435,1,2,0:0:0:0:
448,192,56760,1,8,0:0:0:0:
192,192,56760,1,0,0:0:0:0:
64,192,57084,1,2,0:0:0:0:
192,192,57246,1,0,0:0:0:0:
320,192,57408,1,8,0:0:0:0:
448,192,57408,1,0,0:0:0:0:
64,192,57733,1,2,0:0:0:0:
448,192,57733,1,4,0:0:0:0:
320,192,58057,1,8,0:0:0:0:
192,192,58219,1,2,0:0:0:0:
64,192,58219,1,4,0:0:0:0:
320,192,58543,1,2,0:0:0:0:
192,192,58706,1,8,0:0:0:0:
448,192,58868,1,2,0:0:0:0:
320,192,58868,1,4,0:0:0:0:
64,192,59192,1,2,0:0:0:0:
448,192,59354,1,8,0:0:0:0:
192,192,59679,1,0,0:0:0:0:
320,192,59922,1,0,0:0:0:0:
448,192,60165,1,0,0:0:0:0:
192,192,60327,1,2,0:0:0:0:
64,192,60327,1,4,0:0:0:0:
320,192,60651,1,8,0:0:0:0:
448,192,60651,1,0,0:0:0:0:
64,192,60814,1,0,0:0:0:0:
320,192,60976,1,2,0:0:0:0:
192,192,61138,1,0,0:0:0:0:
64,192,61300,1,8,0:0:0:0:
448,192,61300,1,0,0:0:0:0:
320,192,61462,1,0,0:0:0:0:
192,192,61624,1,2,0:0:0:0:
64,192,61949,1,8,0:0:0:0:
320,192,61949,1,0,0:0:0:0:
448,192,62273,1,2,0:0:0:0:
320,192,62435,1,0,0:0:0:0:
192,192,62597,1,8,0:0:0:0:
64,192,62597,1,0,0:0:0:0:
448,192,62922,1,2,0:0:0:0:
320,192,63246,1,8,0:0:0:0:
192,192,63246,1,0,0:0:0:0:
64,192,63570,1,2,0:0:0:0:
192,192,63733,1,0,0:0:0:0:
320,192,63895,1,8,0:0:0:0:
448,192,63895,1,0,0:0:0:0:
64,192,64219,1,8,0:0:0:0:
192,192,64219,1,0,0:0:0:0:
192,192,64381,1,2,0:0:0:0:
320,192,64543,1,8,0:0:0:0:
448,192,64543,1,0,0:0:0:0:
320,192,64706,1,2,0:0:0:0:
64,192,64868,1,8,0:0:0:0:
192,192,64868,1,0,0:0:0:0:
64,192,65030,1,2,0:0:0:0:
320,192,65192,1,8,0:0:0:0:
448,192,65192,128,0,65516:0:0:0:0:
192,192,65354,1,8,0:0:0:0:
64,192,65516,1,4,0:0:0:0:
192,192,65516,1,2,0:0:0:0:
320,192,65841,1,8,0:0:0:0:
448,192,65841,1,0,0:0:0:0:
64,192,66003,1,0,0:0:0:0:
448,192,66165,1,2,0:0:0:0:
320,192,66327,1,0,0:0:0:0:
64,192,66489,1,8,0:0:0:0:
192,192,66489,1,0,0:0:0:0:
448,192,66651,1,0,0:0:0:0:
192,192,66814,1,2,0:0:0:0:
64,192,67138,1,8,0:0:0:0:
320,192,67138,1,0,0:0:0:0:
448,192,67462,1,2,0:0:0:0:
320,192,67624,1,0,0:0:0:0:
192,192,67787,1,8,0:0:0:0:
64,192,67787,1,0,0:0:0:0:
448,192,68111,1,4,0:0:0:0:
64,192,68111,1,2,0:0:0:0:
320,192,68273,1,8,0:0:0:0:
192,192,68435,1,8,0:0:0:0:
448,192,68597,1,4,0:0:0:0:
320,192,68597,1,2,0:0:0:0:
192,192,68922,1,2,0:0:0:0:
320,192,69084,1,8,0:0:0:0:
64,192,69246,1,4,0:0:0:0:
192,192,69246,1,2,0:0:0:0:
448,192,69570,1,8,0:0:0:0:
64,192,69733,1,2,0:0:0:0:
320,192,70057,1,0,0:0:0:0:
192,192,70300,1,0,0:0:0:0:
64,192,70543,1,0,0:0:0:0:
320,192,70706,1,2,0:0:0:0:
448,192,70706,1,4,0:0:0:0:
192,192,71030,1,8,0:0:0:0:
64,192,71030,1,0,0:0:0:0:
448,192,71192,1,0,0:0:0:0:
192,192,71354,1,2,0:0:0:0:
320,192,71516,1,0,0:0:0:0:
448,192,71679,1,8,0:0:0:0:
64,192,71679,1,0,0:0:0:0:
192,192,71841,1,0,0:0:0:0:
320,192,72003,1,2,0:0:0:0:
448,192,72327,1,8,0:0:0:0:
192,192,72327,1,0,0:0:0:0:
64,192,72651,1,2,0:0:0:0:
192,192,72814,1,0,0:0:0:0:
320,192,72976,1,8,0:0:0:0:
448,192,72976,1,0,0:0:0:0:
64,192,73300,1,2,0:0:0:0:
192,192,73624,1,8,0:0:0:0:
320,192,73624,1,0,0:0:0:0:
448,192,73949,1,2,0:0:0:0:
320,192,74111,1,0,0:0:0:0:
192,192,74273,1,8,0:0:0:0:
64,192,74273,1,0,0:0:0:0:
320,192,74597,1,2,0:0:0:0:
192,192,74760,1,0,0:0:0:0:
64,192,74922,1,8,0:0:0:0:
448,192,74922,1,0,0:0:0:0:
320,192,75084,1,2,0:0:0:0:
192,192,75246,1,10,0:0:0:0:
192,192,75489,1,10,0:0:0:0:
320,192,75733,1,10,0:0:0:0:
192,192,75895,1,0,0:0:0:50:Tom1.wav
448,192,76219,1,2,0:0:0:0:
64,192,76219,1,4,0:0:0:0:
192,192,76543,1,2,0:0:0:0:
320,192,76706,1,0,0:0:0:0:
448,192,76868,1,8,0:0:0:0:
64,192,76868,1,0,0:0:0:0:
192,192,77030,1,0,0:0:0:0:
320,192,77192,1,2,0:0:0:0:
192,192,77354,1,0,0:0:0:0:
448,192,77516,1,8,0:0:0:0:
320,192,77516,1,0,0:0:0:0:
64,192,77679,1,0,0:0:0:0:
448,192,77841,1,2,0:0:0:0:
320,192,78003,1,0,0:0:0:0:
192,192,78165,1,8,0:0:0:0:
64,192,78165,1,0,0:0:0:0:
320,192,78327,1,0,0:0:0:0:
192,192,78489,1,0,0:0:0:50:Tom1.wav
64,192,78814,1,4,0:0:0:0:
448,192,78814,1,2,0:0:0:0:
192,192,79138,1,2,0:0:0:0:
320,192,79300,1,0,0:0:0:0:
64,192,79462,1,8,0:0:0:0:
192,192,79462,1,0,0:0:0:0:
448,192,79624,1,0,0:0:0:0:
64,192,79787,1,2,0:0:0:0:
192,192,79949,1,0,0:0:0:0:
448,192,80111,1,8,0:0:0:0:
320,192,80111,1,0,0:0:0:0:
192,192,80273,1,0,0:0:0:0:
320,192,80435,1,2,0:0:0:0:
64,192,80597,1,0,0:0:0:0:
192,192,80760,1,8,0:0:0:0:
448,192,80760,1,0,0:0:0:0:
320,192,80922,1,0,0:0:0:0:
64,192,81084,1,2,0:0:0:0:
192,192,81408,1,8,0:0:0:0:
320,192,81408,1,0,0:0:0:0:
448,192,81733,1,2,0:0:0:0:
192,192,81895,1,0,0:0:0:0:
320,192,82057,1,8,0:0:0:0:
448,192,82057,1,0,0:0:0:0:
64,192,82381,1,2,0:0:0:0:
192,192,82706,1,8,0:0:0:0:
448,192,82706,1,0,0:0:0:0:
64,192,82868,1,0,0:0:0:0:
320,192,83030,1,2,0:0:0:0:
192,192,83192,1,0,0:0:0:0:
64,192,83354,1,8,0:0:0:0:
448,192,83354,1,0,0:0:0:0:
192,192,83679,1,2,0:0:0:0:
64,192,83679,1,4,0:0:0:0:
448,192,83841,1,8,0:0:0:0:
448,192,84003,1,8,0:0:0:0:
320,192,84165,1,4,0:0:0:0:
64,192,84165,1,2,0:0:0:0:
192,192,84327,1,8,0:0:0:0:
192,192,84489,1,8,0:0:0:0:
320,192,84651,1,2,0:0:0:0:
448,192,84651,1,4,0:0:0:0:
64,192,84814,1,8,0:0:0:0:
64,192,84976,1,8,0:0:0:0:
192,192,85138,1,4,0:0:0:0:
448,192,85138,1,2,0:0:0:0:
320,192,85300,1,8,0:0:0:0:
320,192,85462,1,8,0:0:0:0:
192,192,85624,1,2,0:0:0:0:
64,192,85624,1,4,0:0:0:0:
320,192,85949,1,8,0:0:0:0:
448,192,85949,1,0,0:0:0:0:
192,192,86273,1,0,0:0:0:50:Tom1.wav
320,192,86435,1,0,0:0:0:50:Tom3.wav
448,192,86597,1,2,0:0:0:0:
64,192,86597,1,4,0:0:0:0:
192,192,86922,128,8,87084:0:0:0:0:
320,192,87084,128,8,87246:0:0:0:0:
448,192,87246,128,8,87408:0:0:0:0:
64,192,87408,1,0,0:0:0:50:Tom2.wav
192,192,87570,1,2,0:0:0:0:
448,192,87570,1,12,0:0:0:0:
