osu file format v14

[General]
AudioFilename: KBJ.mp3
AudioLeadIn: 0
PreviewTime: 52543
Countdown: 0
SampleSet: Soft
StackLeniency: 0.7
Mode: 3
LetterboxInBreaks: 0
SpecialStyle: 0
WidescreenStoryboard: 0

[Editor]
DistanceSpacing: 1
BeatDivisor: 4
GridSize: 32
TimelineZoom: 0.9999996

[Metadata]
Title:Kokuhaku Bungee Jump (TV Size)
TitleUnicode:告白バンジージャンプ (TV Size)
Artist:halca
ArtistUnicode:halca
Creator:Syadow-
Version:Easy
Source:彼女、お借りします
Tags:6th single シングル Kanojo Okarishimasu Rent-A-Girlfriend Kanokari TMS Entertainment anime japanese pop jpop j-pop ed ending 前山田健一 Kenichi Maeyamada 板垣祐介 Yuusuke Itagaki Rei Miyajima Kodansha 宮島礼吏・講談社
BeatmapID:2514151
BeatmapSetID:1207300

[Difficulty]
HPDrainRate:7
CircleSize:4
OverallDifficulty:7
ApproachRate:5
SliderMultiplier:1.4
SliderTickRate:1

[Events]
//Background and Video events
0,0,"kanojo.jpg",0,0
//Break Periods
//Storyboard Layer 0 (Background)
//Storyboard Layer 1 (Fail)
//Storyboard Layer 2 (Pass)
//Storyboard Layer 3 (Foreground)
//Storyboard Layer 4 (Overlay)
//Storyboard Sound Samples
Sample,54814,0,"Tom1.wav",50

[TimingPoints]
652,324.324324324324,4,2,1,40,1,0
55138,-100,4,2,1,50,0,1
59679,-100,4,2,1,40,0,0
60327,-100,4,2,1,50,0,1
64219,-100,4,2,1,40,0,0
65516,-100,4,2,1,50,0,1
70057,-100,4,2,1,40,0,0
70706,-100,4,2,1,50,0,1
75733,-100,4,2,1,40,0,0
83679,-100,4,2,1,50,0,1
85949,-100,4,2,1,40,0,0

[HitObjects]
448,192,652,128,4,1138:0:0:0:0:
320,192,652,1,2,0:0:0:0:
64,192,1138,1,6,0:0:0:0:
192,192,1462,1,8,0:0:0:0:
448,192,1624,1,8,0:0:0:0:
64,192,1949,128,4,2435:0:0:0:0:
192,192,1949,1,2,0:0:0:0:
448,192,2435,1,6,0:0:0:0:
320,192,2760,1,0,0:0:0:50:Tom1.wav
192,192,2922,1,0,0:0:0:50:Tom2.wav
448,192,3246,128,4,3733:0:0:0:0:
320,192,3246,1,2,0:0:0:0:
64,192,3733,1,6,0:0:0:0:
192,192,4057,1,8,0:0:0:0:
448,192,4219,1,8,0:0:0:0:
64,192,4543,128,4,5030:0:0:0:0:
192,192,4543,1,2,0:0:0:0:
320,192,5030,1,12,0:0:0:0:
448,192,5354,1,0,0:0:0:50:Tom1.wav
64,192,5516,1,0,0:0:0:50:Tom2.wav
192,192,5679,1,8,0:0:0:0:
448,192,5841,128,2,6327:0:0:0:0:
320,192,5841,1,4,0:0:0:0:
64,192,6327,1,6,0:0:0:0:
192,192,6651,1,8,0:0:0:0:
448,192,6814,1,8,0:0:0:0:
64,192,7138,128,2,7624:0:0:0:0:
192,192,7138,1,4,0:0:0:0:
448,192,7624,1,6,0:0:0:0:
320,192,7949,1,0,0:0:0:50:Tom1.wav
192,192,8111,1,0,0:0:0:50:Tom3.wav
448,192,8435,1,4,0:0:0:0:
320,192,8435,128,2,8760:0:0:0:0:
64,192,8760,1,8,0:0:0:0:
448,192,8922,128,6,9408:0:0:0:0:
320,192,9408,1,8,0:0:0:0:
64,192,9570,128,6,9895:0:0:0:0:
448,192,9895,1,10,0:0:0:0:
192,192,10057,1,10,0:0:0:0:
320,192,10219,1,8,0:0:0:0:
64,192,10381,1,6,0:0:0:0:
64,192,10706,1,2,0:0:0:0:
448,192,11030,1,12,0:0:0:0:
320,192,11679,1,6,0:0:0:0:
64,192,12327,1,12,0:0:0:0:
448,192,12651,1,6,0:0:0:0:
64,192,12976,1,12,0:0:0:0:
448,192,13300,1,8,0:0:0:0:
192,192,13624,1,2,0:0:0:0:
64,192,13624,1,4,0:0:0:0:
320,192,13787,1,8,0:0:0:0:
192,192,14111,1,8,0:0:0:0:
448,192,14435,1,8,0:0:0:0:
320,192,14760,1,8,0:0:0:0:
192,192,15084,1,8,0:0:0:0:
64,192,15408,1,8,0:0:0:0:
320,192,15733,1,8,0:0:0:0:
192,192,16057,1,8,0:0:0:0:
448,192,16381,1,8,0:0:0:0:
64,192,16706,1,8,0:0:0:0:
192,192,17030,1,8,0:0:0:0:
320,192,17354,1,8,0:0:0:0:
448,192,17679,1,8,0:0:0:0:
64,192,18003,1,8,0:0:0:0:
320,192,18327,1,8,0:0:0:0:
192,192,18651,1,8,0:0:0:0:
448,192,18976,1,8,0:0:0:0:
320,192,19300,1,8,0:0:0:0:
192,192,19624,1,8,0:0:0:0:
64,192,19949,1,8,0:0:0:0:
448,192,19949,1,4,0:0:0:0:
64,192,20273,1,10,0:0:0:0:
320,192,20435,128,10,20760:0:0:0:0:
192,192,20760,128,10,21084:0:0:0:0:
448,192,21084,128,10,21408:0:0:0:0:
64,192,21408,1,14,0:0:0:0:
448,192,22057,1,6,0:0:0:0:
192,192,22706,1,12,0:0:0:0:
320,192,23030,1,6,0:0:0:0:
192,192,23354,1,12,0:0:0:0:
448,192,23516,128,8,24003:0:0:0:0:
192,192,24003,1,2,0:0:0:0:
64,192,24003,1,4,0:0:0:0:
320,192,24165,1,8,0:0:0:0:
192,192,24489,1,8,0:0:0:0:
448,192,24814,1,8,0:0:0:0:
64,192,25138,1,8,0:0:0:0:
192,192,25462,1,8,0:0:0:0:
320,192,25787,1,8,0:0:0:0:
448,192,26111,1,8,0:0:0:0:
64,192,26435,1,8,0:0:0:0:
192,192,26597,1,2,0:0:0:0:
448,192,26597,1,4,0:0:0:0:
64,192,27084,1,2,0:0:0:0:
320,192,27084,1,4,0:0:0:0:
64,192,27733,1,4,0:0:0:0:
192,192,27733,1,2,0:0:0:0:
448,192,28381,1,2,0:0:0:0:
192,192,28381,1,4,0:0:0:0:
64,192,28868,1,8,0:0:0:0:
448,192,29192,1,2,0:0:0:0:
320,192,29192,1,4,0:0:0:0:
320,192,29679,1,4,0:0:0:0:
64,192,29679,1,2,0:0:0:0:
64,192,30165,1,4,0:0:0:0:
448,192,30165,1,2,0:0:0:0:
320,192,30651,1,8,0:0:0:0:
192,192,30814,1,8,0:0:0:0:
448,192,30976,1,8,0:0:0:0:
64,192,31138,128,8,31462:0:0:0:0:
320,192,31462,128,0,31787:0:0:0:50:Tom3.wav
64,192,31787,1,4,0:0:0:0:
192,192,31787,1,2,0:0:0:0:
448,192,32111,1,8,0:0:0:0:
192,192,32273,1,6,0:0:0:0:
320,192,32597,1,8,0:0:0:0:
192,192,32760,1,8,0:0:0:0:
448,192,32922,1,2,0:0:0:0:
64,192,33246,1,8,0:0:0:0:
320,192,33570,1,6,0:0:0:0:
448,192,33895,1,8,0:0:0:0:
192,192,34057,1,0,0:0:0:50:Tom1.wav
320,192,34381,1,4,0:0:0:0:
448,192,34381,1,2,0:0:0:0:
64,192,34706,1,8,0:0:0:0:
192,192,34868,1,6,0:0:0:0:
320,192,35192,1,2,0:0:0:0:
192,192,35354,1,8,0:0:0:0:
448,192,35516,1,6,0:0:0:0:
320,192,35841,1,2,0:0:0:0:
64,192,36003,128,8,36327:0:0:0:0:
320,192,36327,128,8,36651:0:0:0:0:
448,192,36651,128,8,36976:0:0:0:0:
192,192,36976,1,2,0:0:0:0:
64,192,36976,1,4,0:0:0:0:
320,192,37300,1,8,0:0:0:0:
192,192,37462,1,6,0:0:0:0:
448,192,37787,1,0,0:0:0:50:Tom1.wav
64,192,37949,1,0,0:0:0:50:Tom3.wav
320,192,38111,1,2,0:0:0:0:
192,192,38435,1,10,0:0:0:0:
320,192,38760,1,14,0:0:0:0:
448,192,39084,1,8,0:0:0:0:
64,192,39246,128,8,39570:0:0:0:0:
320,192,39570,1,2,0:0:0:0:
448,192,39570,1,4,0:0:0:0:
320,192,39895,1,2,0:0:0:0:
192,192,40219,1,8,0:0:0:0:
192,192,40543,1,10,0:0:0:0:
64,192,40868,1,2,0:0:0:0:
64,192,41192,5,2,0:0:0:0:
448,192,41516,1,2,0:0:0:0:
448,192,41841,1,10,0:0:0:0:
64,192,42165,5,10,0:0:0:0:
320,192,42327,1,10,0:0:0:0:
64,192,42489,1,10,0:0:0:0:
320,192,42651,1,10,0:0:0:0:
192,192,42814,1,10,0:0:0:0:
448,192,43462,1,10,0:0:0:0:
192,192,43624,1,10,0:0:0:0:
448,192,43787,1,10,0:0:0:0:
192,192,43949,1,10,0:0:0:0:
320,192,44111,1,10,0:0:0:0:
64,192,44760,1,14,0:0:0:0:
64,192,45084,1,10,0:0:0:0:
448,192,45408,1,10,0:0:0:0:
192,192,45651,1,10,0:0:0:0:
448,192,45895,1,10,0:0:0:0:
64,192,46057,128,14,46381:0:0:0:0:
192,192,46381,128,10,46706:0:0:0:0:
320,192,46706,128,10,47030:0:0:0:0:
64,192,47030,128,10,47354:0:0:0:0:
448,192,47354,1,0,0:0:0:0:
192,192,47841,1,0,0:0:0:0:
320,192,48165,1,0,0:0:0:0:
448,192,48489,1,0,0:0:0:0:
64,192,48976,1,0,0:0:0:0:
192,192,49300,1,0,0:0:0:0:
448,192,49624,1,0,0:0:0:0:
320,192,49949,1,0,0:0:0:0:
64,192,51246,1,0,0:0:0:0:
448,192,52057,128,0,52543:0:0:0:0:
192,192,52543,1,4,0:0:0:0:
64,192,52543,1,2,0:0:0:0:
320,192,53030,1,2,0:0:0:0:
448,192,53030,1,4,0:0:0:0:
192,192,53516,1,4,0:0:0:0:
64,192,53516,1,2,0:0:0:0:
64,192,54003,128,2,54814:0:0:0:0:
448,192,54003,1,4,0:0:0:0:
192,192,54489,128,6,54814:0:0:0:0:
448,192,54814,1,12,0:0:0:0:
64,192,55138,1,2,0:0:0:0:
192,192,55138,1,4,0:0:0:0:
448,192,55462,1,8,0:0:0:0:
64,192,55787,1,2,0:0:0:0:
320,192,56111,1,8,0:0:0:0:
192,192,56435,1,2,0:0:0:0:
448,192,56760,1,8,0:0:0:0:
320,192,57084,1,2,0:0:0:0:
192,192,57408,1,8,0:0:0:0:
64,192,57733,1,2,0:0:0:0:
448,192,57733,1,4,0:0:0:0:
320,192,58219,1,2,0:0:0:0:
192,192,58219,1,4,0:0:0:0:
448,192,58543,1,2,0:0:0:0:
320,192,58706,1,8,0:0:0:0:
192,192,58868,1,2,0:0:0:0:
64,192,58868,1,4,0:0:0:0:
448,192,59192,1,2,0:0:0:0:
192,192,59354,1,8,0:0:0:0:
320,192,59679,128,0,60327:0:0:0:0:
64,192,60327,1,2,0:0:0:0:
448,192,60327,1,4,0:0:0:0:
192,192,60651,1,8,0:0:0:0:
320,192,60976,1,2,0:0:0:0:
192,192,61300,1,8,0:0:0:0:
448,192,61624,1,2,0:0:0:0:
320,192,61949,1,8,0:0:0:0:
64,192,62273,1,2,0:0:0:0:
192,192,62597,1,8,0:0:0:0:
448,192,62922,1,2,0:0:0:0:
64,192,63246,1,8,0:0:0:0:
320,192,63570,1,2,0:0:0:0:
192,192,63895,1,8,0:0:0:0:
448,192,64219,1,8,0:0:0:0:
448,192,64543,1,8,0:0:0:0:
64,192,64868,1,8,0:0:0:0:
64,192,65192,128,8,65516:0:0:0:0:
320,192,65516,1,4,0:0:0:0:
448,192,65516,1,2,0:0:0:0:
192,192,65841,1,8,0:0:0:0:
320,192,66165,1,2,0:0:0:0:
64,192,66489,1,8,0:0:0:0:
448,192,66814,1,2,0:0:0:0:
320,192,67138,1,8,0:0:0:0:
64,192,67462,1,2,0:0:0:0:
192,192,67787,1,8,0:0:0:0:
448,192,68111,1,4,0:0:0:0:
320,192,68111,1,2,0:0:0:0:
192,192,68597,1,4,0:0:0:0:
64,192,68597,1,2,0:0:0:0:
320,192,68922,1,2,0:0:0:0:
192,192,69084,1,8,0:0:0:0:
64,192,69246,1,4,0:0:0:0:
448,192,69246,1,2,0:0:0:0:
320,192,69570,1,8,0:0:0:0:
192,192,69733,1,2,0:0:0:0:
448,192,70057,128,0,70706:0:0:0:0:
64,192,70706,1,2,0:0:0:0:
192,192,70706,1,4,0:0:0:0:
320,192,71030,1,8,0:0:0:0:
64,192,71354,1,2,0:0:0:0:
448,192,71679,1,8,0:0:0:0:
320,192,72003,1,2,0:0:0:0:
192,192,72327,1,8,0:0:0:0:
448,192,72651,1,2,0:0:0:0:
64,192,72976,1,8,0:0:0:0:
192,192,73300,1,2,0:0:0:0:
320,192,73624,1,8,0:0:0:0:
64,192,73949,1,2,0:0:0:0:
448,192,74273,1,8,0:0:0:0:
192,192,74597,128,2,74922:0:0:0:0:
320,192,74922,128,8,75246:0:0:0:0:
64,192,75246,1,10,0:0:0:0:
448,192,75489,1,10,0:0:0:0:
64,192,75733,1,10,0:0:0:0:
320,192,75895,1,0,0:0:0:50:Tom1.wav
192,192,76219,1,2,0:0:0:0:
64,192,76219,1,4,0:0:0:0:
448,192,76543,1,2,0:0:0:0:
192,192,76868,1,8,0:0:0:0:
448,192,77192,1,2,0:0:0:0:
320,192,77516,1,8,0:0:0:0:
64,192,77841,1,2,0:0:0:0:
192,192,78165,1,8,0:0:0:0:
320,192,78489,1,0,0:0:0:50:Tom1.wav
192,192,78814,1,4,0:0:0:0:
64,192,78814,1,2,0:0:0:0:
448,192,79138,1,2,0:0:0:0:
64,192,79462,1,8,0:0:0:0:
320,192,79787,1,2,0:0:0:0:
192,192,80111,1,8,0:0:0:0:
448,192,80435,1,2,0:0:0:0:
320,192,80760,1,8,0:0:0:0:
192,192,81084,1,2,0:0:0:0:
64,192,81408,1,8,0:0:0:0:
320,192,81733,128,2,82057:0:0:0:0:
192,192,82057,1,8,0:0:0:0:
448,192,82381,1,2,0:0:0:0:
64,192,82706,128,8,83030:0:0:0:0:
192,192,83030,128,2,83354:0:0:0:0:
320,192,83354,1,8,0:0:0:0:
448,192,83679,1,2,0:0:0:0:
64,192,83679,1,4,0:0:0:0:
192,192,84165,1,4,0:0:0:0:
320,192,84165,1,2,0:0:0:0:
448,192,84651,1,2,0:0:0:0:
64,192,84651,1,4,0:0:0:0:
192,192,85138,1,4,0:0:0:0:
320,192,85138,1,2,0:0:0:0:
64,192,85624,1,2,0:0:0:0:
192,192,85624,1,4,0:0:0:0:
320,192,85949,1,8,0:0:0:0:
448,192,85949,1,0,0:0:0:0:
192,192,86273,1,0,0:0:0:50:Tom1.wav
320,192,86435,1,0,0:0:0:50:Tom3.wav
448,192,86597,1,2,0:0:0:0:
64,192,86597,1,4,0:0:0:0:
192,192,86922,1,8,0:0:0:0:
320,192,87084,1,8,0:0:0:0:
64,192,87246,1,8,0:0:0:0:
192,192,87408,1,0,0:0:0:50:Tom2.wav
448,192,87570,1,2,0:0:0:0:
320,192,87570,1,12,0:0:0:0:
