osu file format v14

[General]
AudioFilename: audio.mp3
AudioLeadIn: 0
PreviewTime: 66007
Countdown: 0
SampleSet: Soft
StackLeniency: 0.7
Mode: 0
LetterboxInBreaks: 0
WidescreenStoryboard: 1

[Editor]
Bookmarks: 66229
DistanceSpacing: 1
BeatDivisor: 4
GridSize: 16
TimelineZoom: 1

[Metadata]
Title:Kimi no Tonari (TV Size)
TitleUnicode:キミの隣 (TV Size)
Artist:halca
ArtistUnicode:halca
Creator:Agatsu
Version:Collab Normal
Source:ヲタクに恋は難しい
Tags:Wotakoi Wotaku ni Koi wa Muzukashii ending ed agent_james matha
BeatmapID:1748498
BeatmapSetID:834738

[Difficulty]
HPDrainRate:4
CircleSize:3.5
OverallDifficulty:4
ApproachRate:5
SliderMultiplier:1.2
SliderTickRate:1

[Events]
//Background and Video events
0,0,"bg.jpg",0,0
Video,16452,"wotakoi.avi"
//Break Periods
//Storyboard Layer 0 (Background)
//Storyboard Layer 1 (Fail)
//Storyboard Layer 2 (Pass)
//Storyboard Layer 3 (Foreground)
//Storyboard Sound Samples

[TimingPoints]
2230,444.444444444444,4,2,1,50,1,0
16452,-100,4,2,1,55,0,0
23563,-100,4,2,1,40,0,0
37785,-100,4,2,1,50,0,0
52007,-100,4,2,1,55,0,0
66007,-100,4,2,1,30,0,0
66229,-100,4,2,1,70,0,1
80229,-100,4,2,1,70,0,0
80452,-100,4,2,1,70,0,1
94674,-100,4,2,1,55,0,0
101785,-100,4,2,1,50,0,0
102229,-100,4,2,1,45,0,0
102674,-100,4,2,1,40,0,0
103118,-100,4,2,1,35,0,0
103563,-100,4,2,1,30,0,0
104007,-100,4,2,1,25,0,0
104452,-100,4,2,1,20,0,0
104896,-100,4,2,1,15,0,0
105118,-100,4,2,1,10,0,0
105341,-100,4,2,1,5,0,0

[Colours]
Combo1 : 87,99,148
Combo2 : 255,128,128
Combo3 : 255,128,64
Combo4 : 128,128,255

[HitObjects]
102,323,2230,6,0,B|142:343|187:319|187:319|224:296|283:320,2,180,2|2|0,0:0|0:0|0:0,0:0:0:0:
15,239,4007,1,0,0:0:0:0:
102,156,4452,2,0,L|109:30,2,120,2|0|2,0:0|0:0|0:0,0:0:0:0:
188,240,5785,6,0,P|243:235|329:314,1,180,2|2,0:0|0:0,0:0:0:0:
449,317,6896,2,0,L|467:220,2,60,2|2|2,0:0|0:0|0:0,0:0:0:0:
426,372,7563,1,2,0:0:0:0:
306,363,8007,1,2,0:0:0:0:
186,354,8452,1,2,0:0:0:0:
66,345,8896,1,2,0:0:0:0:
58,225,9341,6,0,L|-11:216,2,60,4|0|0,1:0|1:0|1:0,0:0:0:0:
113,201,10007,1,0,1:0:0:0:
113,201,10229,2,0,L|235:219,1,120,8|0,0:0|1:0,0:0:0:0:
287,196,10896,1,0,1:0:0:0:
237,86,11341,2,0,L|168:93,2,60,0|0|0,1:0|1:0|1:0,0:0:0:0:
277,42,12007,2,0,B|321:33|321:33|355:46|355:46|413:36,1,120,8|0,0:0|1:0,0:0:0:0:
480,121,12896,6,0,L|487:34,2,60,4|0|0,1:0|1:0|1:0,0:0:0:0:
446,171,13563,1,0,1:0:0:0:
446,171,13785,2,0,L|435:298,1,120,8|0,0:0|1:0,0:0:0:0:
406,343,14452,1,4,0:0:0:0:
289,308,14896,2,0,L|208:290,2,60,8|8|8,0:0|0:0|0:0,0:0:0:0:
339,274,15563,1,8,0:0:0:0:
275,170,16007,1,8,0:0:0:0:
373,101,16452,6,0,P|355:38|294:11,1,120,4|8,1:0|0:0,0:0:0:0:
190,18,17341,2,0,P|140:49|127:106,1,120,0|8,1:0|0:0,0:0:0:0:
89,152,18007,2,0,L|102:280,1,120,0|0,0:0|0:0,0:0:0:0:
110,330,18674,1,10,0:0:0:0:
208,262,19118,2,0,L|273:284,1,60,0|8,1:0|0:0,0:0:0:0:
320,304,19563,1,10,0:0:0:0:
410,225,20007,6,0,B|428:168|428:168|409:109,1,120,0|8,1:0|0:0,0:0:0:0:
317,34,20896,2,0,L|171:37,1,120,0|8,1:0|0:0,0:0:0:0:
151,75,21563,2,0,P|97:80|55:132,1,120
44,186,22229,2,0,P|40:209|45:269,1,60,8|8,0:0|0:0,0:0:0:0:
85,285,22674,1,0,1:0:0:0:
201,258,23118,2,0,L|250:299,1,60,8|8,0:0|0:0,0:0:0:0:
255,356,23563,6,0,P|207:351|132:387,1,120,4|2,1:0|0:0,0:0:0:0:
23,359,24452,2,0,L|36:228,1,120,10|2,0:0|1:0,0:0:0:0:
86,208,25118,2,0,L|93:137,1,60,2|0,0:2|0:0,0:0:0:0:
51,103,25563,1,2,1:0:0:0:
141,25,26007,1,2,0:0:0:0:
141,25,26230,2,0,B|196:9|196:9|277:40,1,120,10|2,0:0|0:0,0:0:0:0:
286,147,27118,6,0,L|413:104,1,120,0|2,1:0|0:0,0:0:0:0:
459,104,27785,1,2,1:0:0:0:
459,104,28007,1,10,0:0:0:0:
423,218,28452,1,2,1:0:0:0:
423,218,28674,2,0,P|403:284|432:346,1,120,2|2,0:0|1:0,0:0:0:0:
453,379,29341,1,0,1:0:0:0:
333,372,29785,1,8,0:0:0:0:
265,272,30230,2,0,L|197:283,1,60,2|2,0:0|0:0,0:0:0:0:
172,331,30674,6,0,L|45:306,1,120,0|2,1:0|0:0,0:0:0:0:
4,198,31563,2,0,P|5:132|32:88,1,120,10|2,0:0|1:0,0:0:0:0:
86,60,32230,2,0,L|242:76,2,120,2|2|2,0:0|1:0|0:0,0:0:0:0:
48,12,33341,1,8,0:0:0:0:
7,124,33785,1,0,0:0:0:0:
73,224,34230,6,0,B|127:249|127:249|209:216,1,120,2|0,1:2|0:0,0:0:0:0:
222,113,35118,2,0,B|276:88|276:88|358:121,1,120,8|2,0:0|1:0,0:0:0:0:
378,148,35785,1,2,1:0:0:0:
485,312,37785,6,0,P|435:297|351:315,1,120,4|10,1:0|0:0,0:0:0:0:
267,370,38674,2,0,P|208:379|150:364,1,120,2|10,1:0|0:0,0:0:0:0:
104,324,39341,2,0,L|118:178,1,120,2|2,0:0|0:0,0:0:0:0:
160,165,40007,1,10,0:0:0:0:
268,217,40452,2,0,P|297:229|341:224,1,60,10|10,0:0|0:0,0:0:0:0:
380,205,40896,2,0,L|383:138,1,60,10|2,0:0|1:0,0:0:0:0:
421,98,41341,6,0,P|389:30|304:39,1,120,0|10,1:0|0:0,0:0:0:0:
230,19,42230,2,0,P|176:41|159:97,1,120,2|10,1:0|0:0,0:0:0:0:
120,138,42896,2,0,L|127:271,1,120,2|2,0:0|0:0,0:0:0:0:
179,285,43563,1,8,0:0:0:0:
293,251,44007,1,2,1:0:0:0:
372,341,44452,2,0,L|432:330,1,60,10|10,0:0|0:0,0:0:0:0:
486,308,44896,6,0,B|505:248|505:248|467:162,1,120,4|8,1:0|0:0,0:0:0:0:
423,179,45563,2,0,B|404:119|404:119|442:33,1,120,2|0,0:0|0:0,0:0:0:0:
405,10,46230,1,10,0:0:0:0:
282,9,46674,1,2,1:0:0:0:
207,102,47118,1,10,0:0:0:0:
124,14,47563,2,0,L|65:39,1,60,2|0,1:0|0:0,0:0:0:0:
19,71,48007,1,10,0:0:0:0:
108,151,48452,6,0,L|104:283,1,120,2|8,1:0|0:0,0:0:0:0:
178,365,49341,1,0,1:0:0:0:
270,288,49785,1,10,0:0:0:0:
270,288,50007,2,0,L|362:294,1,60,6|0,1:2|0:0,0:0:0:0:
380,259,50452,2,0,L|455:262,2,60,0|8|0,1:0|0:0|1:0,0:0:0:0:
345,210,51118,1,8,0:0:0:0:
429,125,51563,1,8,0:0:0:0:
335,49,52007,6,0,L|193:57,1,120,6|0,1:0|1:0,0:0:0:0:
123,133,52896,2,0,P|110:196|130:249,1,120,0|2,1:0|1:0,0:0:0:0:
169,291,53563,1,2,0:0:0:0:
169,291,53785,1,2,1:0:0:0:
274,233,54230,2,0,L|326:267,1,60,2|2,1:0|0:0,0:0:0:0:
375,297,54674,2,0,L|505:258,1,120,2|10,1:0|0:0,0:0:0:0:
499,142,55563,6,0,P|449:95|367:91,1,120,2|0,1:0|1:0,0:0:0:0:
299,149,56452,2,0,P|241:134|200:91,1,120,0|2,1:0|1:0,0:0:0:0:
183,34,57118,2,0,L|51:50,1,120,2|2,0:0|0:0,0:0:0:0:
39,103,57785,1,2,1:0:0:0:
103,204,58230,2,0,P|105:239|91:280,1,60,2|8,1:0|0:0,0:0:0:0:
42,281,58674,2,0,P|37:318|46:345,1,60,10|8,0:0|0:0,0:0:0:0:
90,376,59118,6,0,L|231:368,1,120,6|0,1:0|1:0,0:0:0:0:
298,287,60007,1,0,1:0:0:0:
404,342,60452,2,0,L|455:303,1,60,2|2,1:0|0:0,0:0:0:0:
485,255,60896,2,0,B|502:196|502:196|466:120,1,120,2|2,1:0|1:0,0:0:0:0:
443,99,61563,1,2,0:0:0:0:
443,99,61785,1,2,1:0:0:0:
380,203,62230,2,0,L|303:206,1,60,10|0,1:2|0:0,0:0:0:0:
287,255,62674,6,0,L|165:251,1,120,12|8,0:0|0:0,0:0:0:0:
76,172,63563,1,8,0:0:0:0:
76,172,63785,2,0,L|74:73,1,60,2|2,1:0|1:0,0:0:0:0:
73,51,64230,1,14,0:0:0:0:
192,63,64674,1,10,0:0:0:0:
192,63,64896,1,10,0:0:0:0:
311,78,65341,1,10,0:0:0:0:
311,78,65563,1,8,0:0:0:0:
429,94,66007,1,2,0:0:0:0:
429,94,66230,6,0,L|434:27,2,60,6|2|10,1:0|0:0|0:0,0:0:0:0:
430,153,66896,2,0,P|458:195|445:268,1,120,2|2,0:0|0:0,0:0:0:0:
420,314,67563,1,10,0:0:0:0:
420,314,67785,1,2,0:0:0:0:
311,258,68230,2,0,L|238:254,1,60,2|10,0:0|0:0,0:0:0:0:
226,309,68674,2,0,L|92:300,1,120,2|0,0:0|0:0,0:0:0:0:
8,231,69563,1,2,0:0:0:0:
8,231,69785,6,0,L|3:290,2,60,2|2|10,1:0|0:0|0:0,0:0:0:0:
127,215,70674,2,0,L|122:156,1,60,2|2,1:0|0:0,0:0:0:0:
64,138,71118,1,10,0:0:0:0:
64,138,71341,2,0,P|47:84|68:22,1,120,2|2,0:0|0:0,0:0:0:0:
124,12,72007,1,10,0:0:0:0:
124,12,72230,2,0,L|248:18,1,120,2|0,0:0|0:0,0:0:0:0:
363,30,73118,1,2,0:0:0:0:
363,30,73341,6,0,L|357:160,1,120,4|10,1:0|0:0,0:0:0:0:
303,176,74007,1,0,0:0:0:0:
303,176,74230,2,0,P|275:219|287:297,1,120,2|10,1:0|0:0,0:0:0:0:
372,362,75118,2,0,L|505:356,1,120,2|10,1:0|0:0,0:0:0:0:
498,299,75785,1,0,0:0:0:0:
498,299,76007,2,0,L|496:234,1,60,2|0,1:0|0:0,0:0:0:0:
492,178,76452,1,10,0:0:0:0:
480,58,76896,6,0,P|422:42|363:62,1,120,6|8,1:0|0:0,0:0:0:0:
325,103,77563,1,0,0:0:0:0:
325,103,77785,2,0,L|193:96,1,120,0|10,1:0|0:0,0:0:0:0:
144,94,78452,1,2,0:0:0:0:
40,34,78896,1,12,0:0:0:0:
40,34,79118,1,10,0:0:0:0:
59,152,79563,2,0,L|56:215,1,60,10|10,0:0|0:0,0:0:0:0:
16,257,80007,2,0,L|13:320,1,60,10|10,0:0|0:0,0:0:0:0:
57,357,80452,6,0,L|131:360,1,60,6|2,1:0|0:0,0:0:0:0:
176,363,80896,1,10,0:0:0:0:
295,372,81341,2,0,L|297:312,1,60,2|2,1:0|0:0,0:0:0:0:
258,266,81785,1,10,0:0:0:0:
258,266,82007,2,0,L|265:147,1,120,2|2,0:0|0:0,0:0:0:0:
259,86,82674,1,10,0:0:0:0:
259,86,82896,2,0,P|320:73|382:98,1,120,2|0,0:0|0:0,0:0:0:0:
468,164,83785,1,2,0:0:0:0:
468,164,84007,6,0,L|465:245,1,60,2|2,1:0|0:0,0:0:0:0:
466,284,84452,1,10,0:0:0:0:
366,351,84896,2,0,L|218:342,1,120,2|10,1:0|0:0,0:0:0:0:
186,339,85563,1,2,0:0:0:0:
66,333,86007,2,0,L|69:273,1,60,2|10,0:0|0:0,0:0:0:0:
72,212,86452,2,0,P|50:152|71:95,1,120,2|0,0:0|0:0,0:0:0:0:
173,45,87341,1,2,0:0:0:0:
173,45,87563,6,0,L|301:51,1,120,6|10,1:0|0:0,0:0:0:0:
348,27,88230,1,0,0:0:0:0:
348,27,88452,2,0,P|391:58|407:124,1,120,2|10,1:0|0:0,0:0:0:0:
305,184,89341,2,0,L|296:313,1,120,6|8,1:0|0:0,0:0:0:0:
290,363,90007,1,2,0:0:0:0:
290,363,90230,2,0,L|168:354,1,120,2|10,1:0|0:0,0:0:0:0:
110,351,90896,1,2,0:0:0:0:
110,351,91118,6,0,P|91:287|112:232,1,120,6|8,1:0|0:0,0:0:0:0:
163,132,92007,2,0,L|237:129,1,60,0|0,1:0|0:0,0:0:0:0:
265,86,92452,1,8,0:0:0:0:
265,86,92674,2,0,L|409:81,1,120,4|0,0:0|1:0,0:0:0:0:
473,163,93563,2,0,L|468:230,1,60,6|0,1:3|1:0,0:0:0:0:
420,258,94007,2,0,L|415:325,1,60,2|8,1:0|0:0,0:0:0:0:
378,365,94452,1,2,0:0:0:0:
378,365,94674,6,0,L|248:355,1,120,6|12,1:0|0:0,0:0:0:0:
227,239,95563,2,0,B|253:183|253:183|229:115,1,120,0|8,1:0|0:0,0:0:0:0:
186,89,96230,2,0,L|62:82,1,120,0|8,0:0|0:0,0:0:0:0:
6,77,96896,1,10,0:0:0:0:
9,197,97341,2,0,L|12:275,1,60,0|8,1:0|0:0,0:0:0:0:
15,316,97785,1,10,0:0:0:0:
128,354,98230,6,0,L|262:342,1,120,0|8,1:0|0:0,0:0:0:0:
366,325,99118,2,0,B|392:269|392:269|368:201,1,120,0|8,1:0|0:0,0:0:0:0:
373,153,99785,1,0,1:0:0:0:
253,141,100230,1,10,0:0:0:0:
253,141,100452,1,8,0:0:0:0:
133,129,100896,1,10,0:0:0:0:
133,129,101118,1,8,0:0:0:0:
12,116,101563,1,12,0:0:0:0:
256,192,101785,12,0,105340,0:0:0:0:
